osu file format v14

[General]
AudioFilename: 07. Otsukimi PARTY HARD.mp3
AudioLeadIn: 0
PreviewTime: 118739
Countdown: 0
SampleSet: Soft
StackLeniency: 0.7
Mode: 3
LetterboxInBreaks: 0
SpecialStyle: 0
WidescreenStoryboard: 0

[Editor]
DistanceSpacing: 0.8
BeatDivisor: 4
GridSize: 16
TimelineZoom: 1.300001

[Metadata]
Title:Otsukimi PARTY HARD
TitleUnicode:お月見 PARTY HARD
Artist:t+pazolite feat. nanahira
ArtistUnicode:t+pazolite feat. ななひら
Creator:deadbill
Version:PARTY HARD
Source:
Tags:Hardcore denpa t+pazolite nanahira KAKATTEKOYEAH Reyzra
BeatmapID:676719
BeatmapSetID:301849

[Difficulty]
HPDrainRate:8
CircleSize:7
OverallDifficulty:8
ApproachRate:5
SliderMultiplier:1.4
SliderTickRate:1

[Events]
//Background and Video events
0,0,"BG.png",0,0
//Break Periods
//Storyboard Layer 0 (Background)
//Storyboard Layer 1 (Fail)
//Storyboard Layer 2 (Pass)
//Storyboard Layer 3 (Foreground)
//Storyboard Sound Samples

[TimingPoints]
394,333.333333333333,4,2,0,30,1,0
6743,-133.333333333333,4,2,0,30,0,0
6910,-113.636363636364,4,2,0,30,0,0
7077,-100,4,2,0,30,0,0
12073,-83.3333333333333,4,2,0,30,0,0
12406,-100,4,2,0,30,0,0
17406,-133.333333333333,4,2,0,30,0,0
17739,-100,4,2,0,30,0,0
21573,-117.647058823529,4,2,0,30,0,0
22739,-83.3333333333333,4,2,0,30,0,0
22823,-84.7457627118644,4,2,0,30,0,0
22906,-86.9565217391304,4,2,0,30,0,0
22989,-88.4955752212389,4,2,0,30,0,0
23073,-100,4,2,0,30,0,0
43406,-108.695652173913,4,2,0,30,0,0
43739,-119.047619047619,4,2,0,30,0,0
44073,-131.578947368421,4,2,0,30,0,0
44406,-147.058823529412,4,2,0,30,0,0
64739,-156.25,4,2,0,30,0,0
65073,-166.666666666667,4,2,0,30,0,0
65406,-178.571428571429,4,2,0,30,0,0
65573,-50,4,2,0,30,0,0
65614,-57.1428571428571,4,2,0,30,0,0
65656,-66.6666666666667,4,2,0,30,0,0
65698,-80,4,2,0,30,0,0
65739,-100,4,2,0,30,0,0
65823,-133.333333333333,4,2,0,30,0,0
76073,-131.578947368421,4,2,0,30,0,0
76156,-129.87012987013,4,2,0,30,0,0
76239,-128.205128205128,4,2,0,30,0,0
76323,-126.582278481013,4,2,0,30,0,0
76406,-125,4,2,0,30,0,0
86906,-83.3333333333333,4,2,0,30,0,0
86989,-100,4,2,0,30,0,0
87073,-125,4,2,0,30,0,0
92239,-121.951219512195,4,2,0,30,0,0
92406,-119.047619047619,4,2,0,30,0,0
92573,-113.636363636364,4,2,0,30,0,0
92739,-108.695652173913,4,2,0,30,0,0
92906,-104.166666666667,4,2,0,30,0,0
93073,-100,4,2,0,30,0,0
93406,-96.1538461538461,4,2,0,30,0,0
93739,-92.5925925925926,4,2,0,30,0,0
94073,-89.2857142857143,4,2,0,30,0,0
94406,-86.2068965517241,4,2,0,30,0,0
94739,-83.3333333333333,4,2,0,30,0,0
95073,-80.6451612903226,4,2,0,30,0,0
96406,-89.2857142857143,4,2,0,30,0,0
96573,-100,4,2,0,30,0,0
96739,-113.636363636364,4,2,0,30,0,0
97406,-50,4,2,0,30,0,0
97489,-57.1428571428571,4,2,0,30,0,0
97573,-66.6666666666667,4,2,0,30,0,0
97656,-80,4,2,0,30,0,0
97739,-100,4,2,0,30,0,0
107739,-111.111111111111,4,2,0,30,0,0
107906,-113.636363636364,4,2,0,30,0,0
108073,-111.111111111111,4,2,0,30,0,0
108239,-100,4,2,0,30,0,0
152906,-178.571428571429,4,2,0,30,0,0
152989,-113.636363636364,4,2,0,30,0,0
153073,-100,4,2,0,30,0,0
154573,-178.571428571429,4,2,0,30,0,0
154656,-113.636363636364,4,2,0,30,0,0
154739,-100,4,2,0,30,0,0
155739,-133.333333333333,4,2,0,30,0,0
155906,-125,4,2,0,30,0,0
156073,-117.647058823529,4,2,0,30,0,0
156239,-111.111111111111,4,2,0,30,0,0
156406,-105.263157894737,4,2,0,30,0,0
156573,-100,4,2,0,30,0,0
158739,-90.9090909090909,4,2,0,30,0,0
158823,-83.3333333333333,4,2,0,30,0,0
158906,-76.9230769230769,4,2,0,30,0,0
158989,-71.4285714285714,4,2,0,30,0,0
159073,-100,4,2,0,30,0,0
160239,-111.111111111111,4,2,0,30,0,0
160406,-113.636363636364,4,2,0,30,0,0
161406,-83.3333333333333,4,2,0,30,0,0
161489,-85.1063829787234,4,2,0,30,0,0
161573,-86.9565217391304,4,2,0,30,0,0
161656,-88.4955752212389,4,2,0,30,0,0
161739,-100,4,2,0,30,0,0
161907,-102.564102564103,4,2,0,30,0,0
162073,-105.263157894737,4,2,0,30,0,0
162239,-108.108108108108,4,2,0,30,0,0
162406,-111.111111111111,4,2,0,30,0,0
162573,-114.285714285714,4,2,0,30,0,0
162739,-117.647058823529,4,2,0,30,0,0
162906,-121.212121212121,4,2,0,30,0,0
172073,-128.205128205128,4,2,0,30,0,0
172156,-158.730158730159,4,2,0,30,0,0
172239,-178.571428571429,4,2,0,30,0,0
172323,-80,4,2,0,30,0,0
172406,-125,4,2,0,30,0,0
177573,-121.951219512195,4,2,0,30,0,0
177739,-119.047619047619,4,2,0,30,0,0
177906,-116.279069767442,4,2,0,30,0,0
178073,-113.636363636364,4,2,0,30,0,0
178239,-111.111111111111,4,2,0,30,0,0
178406,-108.695652173913,4,2,0,30,0,0
178573,-106.382978723404,4,2,0,30,0,0
178739,-104.166666666667,4,2,0,30,0,0
178906,-102.040816326531,4,2,0,30,0,0
179073,-100,4,2,0,30,0,0
179239,-98.0392156862745,4,2,0,30,0,0
179406,-92.5925925925926,4,2,0,30,0,0
179739,-87.719298245614,4,2,0,30,0,0
180073,-83.3333333333333,4,2,0,30,0,0
180406,-80.6451612903226,4,2,0,30,0,0
181573,-106.382978723404,4,2,0,30,0,0
181656,-108.695652173913,4,2,0,30,0,0
181739,-111.111111111111,4,2,0,30,0,0
181823,-113.636363636364,4,2,0,30,0,0
182739,-50,4,2,0,30,0,0
182906,-66.6666666666667,4,2,0,30,0,0
182989,-80,4,2,0,30,0,0
183060,-80,4,2,0,30,0,1
183073,-100,4,2,0,30,0,1
193073,-111.111111111111,4,2,0,30,0,1
193239,-113.636363636364,4,2,0,30,0,1
193406,-111.111111111111,4,2,0,30,0,1
193573,-100,4,2,0,30,0,1
224393,-100,4,2,0,30,0,0
224406,-100,4,2,0,30,0,0
245739,-111.111111111111,4,2,0,30,0,0
246573,-125,4,2,0,30,0,0
246739,-142.857142857143,4,2,0,30,0,0
246906,-166.666666666667,4,2,0,30,0,0
247406,-200,4,2,0,30,0,0
247906,-250,4,2,0,30,0,0

[HitObjects]
36,192,1727,5,0,0:0:0:70:kick_s.wav
475,192,1727,1,0,0:0:0:0:
256,192,1727,1,0,0:0:0:0:
182,192,2060,1,0,0:0:0:70:kick_s.wav
36,192,2393,1,0,0:0:0:70:kick_s.wav
182,192,2727,1,0,0:0:0:70:kick_s.wav
402,192,2727,1,0,0:0:0:0:
256,192,2727,1,0,0:0:0:0:
36,192,3060,1,0,0:0:0:70:kick_s.wav
475,192,3060,1,0,0:0:0:0:
329,192,3060,1,0,0:0:0:0:
182,192,3393,1,0,0:0:0:70:kick_s.wav
36,192,3727,1,0,0:0:0:70:kick_s.wav
329,192,4060,1,0,0:0:0:70:kick_s.wav
402,192,4227,1,0,0:0:0:70:kick_s.wav
475,192,4393,1,0,0:0:0:70:kick_s.wav
109,192,4393,1,0,0:0:0:0:
256,192,4393,1,0,0:0:0:0:
329,192,4727,1,0,0:0:0:70:kick_s.wav
475,192,5060,1,0,0:0:0:70:kick_s.wav
36,192,5393,1,0,0:0:0:0:
329,192,5393,1,0,0:0:0:70:kick_s.wav
182,192,5393,1,0,0:0:0:0:
475,192,5727,1,0,0:0:0:70:kick_s.wav
109,192,5727,1,0,0:0:0:0:
256,192,5727,1,0,0:0:0:0:
329,192,6060,1,0,0:0:0:70:kick_s.wav
475,192,6393,1,0,0:0:0:70:kick_s.wav
256,192,6727,128,0,7060:0:0:0:70:kick.wav
329,192,6727,1,0,0:0:0:70:kick_s.wav
36,192,7060,1,0,0:0:0:70:kick_s.wav
475,192,7060,1,0,0:0:0:0:
402,192,7060,1,0,0:0:0:0:
182,192,7393,1,0,0:0:0:70:kick_s.wav
36,192,7727,1,0,0:0:0:70:kick_s.wav
182,192,8060,1,0,0:0:0:70:kick_s.wav
329,192,8060,1,0,0:0:0:0:
402,192,8060,1,0,0:0:0:0:
475,192,8393,1,0,0:0:0:0:
36,192,8393,1,0,0:0:0:70:kick_s.wav
402,192,8393,1,0,0:0:0:0:
182,192,8727,1,0,0:0:0:70:kick_s.wav
36,192,9060,1,0,0:0:0:70:kick_s.wav
475,192,9393,1,0,0:0:0:70:kick_s.wav
402,192,9560,1,0,0:0:0:70:kick_s.wav
329,192,9727,1,0,0:0:0:70:kick_s.wav
36,192,9727,1,0,0:0:0:0:
182,192,9727,1,0,0:0:0:0:
475,192,10060,1,0,0:0:0:70:kick_s.wav
329,192,10393,1,0,0:0:0:70:kick_s.wav
475,192,10727,1,0,0:0:0:70:kick_s.wav
36,192,10727,1,0,0:0:0:0:
182,192,10727,1,0,0:0:0:0:
402,192,11060,1,0,0:0:0:0:
109,192,11060,128,0,11393:0:0:0:70:kick.wav
402,192,11393,128,0,11727:0:0:0:70:kick.wav
36,192,11393,1,0,0:0:0:0:
109,192,11727,128,0,12060:0:0:0:70:kick.wav
36,192,11727,1,0,0:0:0:0:
475,192,12060,128,0,12393:0:0:0:70:kick.wav
402,192,12060,1,0,0:0:0:0:
36,192,12393,1,0,0:0:0:70:kick_s.wav
182,192,12393,1,0,0:0:0:70:cym_a.wav
256,192,12393,128,0,21727:0:0:0:0:
402,192,12560,1,0,0:0:0:70:cym_b.wav
36,192,12727,1,0,0:0:0:70:cym_a.wav
182,192,12727,1,0,0:0:0:70:kick_s.wav
402,192,12893,1,0,0:0:0:70:cym_b.wav
475,192,13060,1,0,0:0:0:70:kick_s.wav
329,192,13060,1,0,0:0:0:70:cym_a.wav
109,192,13227,1,0,0:0:0:70:cym_b.wav
475,192,13393,1,0,0:0:0:70:cym_a.wav
329,192,13393,1,0,0:0:0:70:kick_s.wav
109,192,13560,1,0,0:0:0:70:cym_b.wav
36,192,13727,1,0,0:0:0:70:cym_a.wav
182,192,13727,1,0,0:0:0:70:kick_s.wav
475,192,13727,128,0,15393:0:0:0:0:
402,192,13893,1,0,0:0:0:70:cym_b.wav
182,192,14060,1,0,0:0:0:70:cym_a.wav
36,192,14060,1,0,0:0:0:70:kick_s.wav
402,192,14227,1,0,0:0:0:70:cym_b.wav
36,192,14393,1,0,0:0:0:70:cym_a.wav
182,192,14393,1,0,0:0:0:0:
402,192,14560,1,0,0:0:0:70:cym_b.wav
36,192,14727,1,0,0:0:0:70:kick_s.wav
182,192,14727,1,0,0:0:0:70:kick_s.wav
36,192,14893,1,0,0:0:0:70:kick_s.wav
182,192,14893,1,0,0:0:0:70:kick_s.wav
182,192,15060,1,0,0:0:0:70:kick_s.wav
36,192,15060,1,0,0:0:0:70:kick_s.wav
329,192,15227,1,0,0:0:0:70:cym_b.wav
109,192,15393,128,0,16060:0:0:0:0:
36,192,15393,1,0,0:0:0:70:cym_a.wav
182,192,15393,1,0,0:0:0:70:kick_s.wav
329,192,15560,1,0,0:0:0:70:cym_b.wav
475,192,15727,1,0,0:0:0:70:kick_s.wav
402,192,15727,1,0,0:0:0:70:cym_a.wav
182,192,15893,1,0,0:0:0:70:cym_b.wav
402,192,16060,128,0,16393:0:0:0:0:
36,192,16060,1,0,0:0:0:70:cym_a.wav
329,192,16060,1,0,0:0:0:70:kick_s.wav
182,192,16227,1,0,0:0:0:70:cym_b.wav
329,192,16393,128,0,21727:0:0:0:0:
36,192,16393,1,0,0:0:0:70:cym_a.wav
109,192,16393,1,0,0:0:0:70:kick_s.wav
182,192,16560,1,0,0:0:0:70:cym_b.wav
475,192,16727,1,0,0:0:0:70:kick_s.wav
402,192,16727,1,0,0:0:0:70:cym_a.wav
109,192,16893,1,0,0:0:0:70:cym_b.wav
402,192,17060,1,0,0:0:0:70:cym_a.wav
475,192,17060,1,0,0:0:0:70:kick_s.wav
36,192,17227,1,0,0:0:0:70:cym_b.wav
475,192,17393,128,0,17727:0:0:0:70:kick.wav
402,192,17393,128,0,17727:0:0:0:70:kick.wav
36,192,17727,1,0,0:0:0:100:bb_i.wav
182,192,17893,1,0,0:0:0:70:bb_j.wav
36,192,18060,1,0,0:0:0:100:bb_i.wav
182,192,18227,1,0,0:0:0:70:bb_j.wav
475,192,18393,1,0,0:0:0:100:bb_i.wav
109,192,18560,1,0,0:0:0:70:bb_j.wav
402,192,18727,1,0,0:0:0:100:bb_i.wav
36,192,18893,1,0,0:0:0:70:bb_j.wav
475,192,19060,1,0,0:0:0:100:bb_i.wav
109,192,19227,1,0,0:0:0:70:bb_j.wav
475,192,19393,1,0,0:0:0:70:bb_i.wav
182,192,19560,1,0,0:0:0:70:bb_j.wav
475,192,19727,1,0,0:0:0:70:bb_i.wav
36,192,19893,1,0,0:0:0:70:bb_j.wav
402,192,20060,1,0,0:0:0:70:bb_i.wav
182,192,20060,1,0,0:0:0:70:bb_i.wav
182,192,20227,1,0,0:0:0:70:bb_i.wav
402,192,20227,1,0,0:0:0:70:bb_i.wav
36,192,20393,1,0,0:0:0:70:bb_j.wav
475,192,20477,1,0,0:0:0:70:bb_i.wav
109,192,20560,1,0,0:0:0:70:bb_j.wav
402,192,20643,1,0,0:0:0:70:bb_i.wav
182,192,20727,1,0,0:0:0:70:bb_j.wav
475,192,20810,1,0,0:0:0:70:bb_i.wav
109,192,20893,1,0,0:0:0:70:bb_j.wav
402,192,20977,1,0,0:0:0:70:bb_i.wav
36,192,21060,1,0,0:0:0:70:bb_j.wav
475,192,21143,1,0,0:0:0:70:bb_i.wav
109,192,21227,1,0,0:0:0:70:bb_j.wav
402,192,21310,1,0,0:0:0:70:bb_i.wav
182,192,21393,1,0,0:0:0:70:bb_j.wav
475,192,21477,1,0,0:0:0:70:bb_i.wav
109,192,21560,1,0,0:0:0:70:bb_j.wav
402,192,21643,1,0,0:0:0:0:
36,192,21727,1,0,0:0:0:100:bb_i.wav
475,192,21727,1,0,0:0:0:0:
36,192,21893,1,0,0:0:0:100:bb_i.wav
402,192,21893,1,0,0:0:0:0:
109,192,22060,1,0,0:0:0:100:bb_j.wav
36,192,22060,1,0,0:0:0:100:bb_i.wav
329,192,22060,1,0,0:0:0:0:
182,192,22227,1,0,0:0:0:0:
109,192,22310,1,0,0:0:0:100:bb_i.wav
475,192,22393,1,0,0:0:0:0:
36,192,22393,1,0,0:0:0:100:bb_i.wav
182,192,22477,1,0,0:0:0:100:bb_i.wav
402,192,22560,1,0,0:0:0:0:
109,192,22560,1,0,0:0:0:100:bb_i.wav
36,192,22643,1,0,0:0:0:100:bb_i.wav
182,192,22727,1,0,0:0:0:100:bb_j.wav
329,192,22727,1,0,0:0:0:0:
256,192,22727,1,0,0:0:0:0:bb_j.wav
475,192,23060,1,0,0:0:0:0:
36,192,23060,1,0,0:0:0:100:kick_s.wav
182,192,23060,1,0,0:0:0:0:
329,192,23227,1,0,0:0:0:0:
402,192,23393,1,0,0:0:0:0:
36,192,23393,1,0,0:0:0:100:kick_s.wav
256,192,23560,1,0,0:0:0:0:
182,192,23560,1,0,0:0:0:0:
475,192,23727,1,0,0:0:0:0:
36,192,23727,1,0,0:0:0:100:kick_s.wav
402,192,23893,1,0,0:0:0:0:
36,192,24060,1,0,0:0:0:100:kick_s.wav
329,192,24060,1,0,0:0:0:0:
36,192,24393,1,0,0:0:0:100:kick_s.wav
475,192,24393,1,0,0:0:0:0:
329,192,24560,1,0,0:0:0:0:
402,192,24727,1,0,0:0:0:0:
36,192,24727,1,0,0:0:0:100:kick_s.wav
256,192,24893,1,0,0:0:0:0:
475,192,25060,1,0,0:0:0:0:
36,192,25060,1,0,0:0:0:100:kick_s.wav
109,192,25227,1,0,0:0:0:0:
402,192,25227,1,0,0:0:0:0:
182,192,25393,1,0,0:0:0:0:
36,192,25393,1,0,0:0:0:100:kick_s.wav
329,192,25393,1,0,0:0:0:0:
402,192,25560,1,0,0:0:0:0:
36,192,25560,1,0,0:0:0:100:kick_s.wav
36,192,25727,1,0,0:0:0:100:kick_s.wav
475,192,25727,1,0,0:0:0:0:
182,192,25727,1,0,0:0:0:0:
329,192,25893,1,0,0:0:0:0:
402,192,26060,1,0,0:0:0:0:
36,192,26060,1,0,0:0:0:100:kick_s.wav
256,192,26227,1,0,0:0:0:0:
182,192,26227,1,0,0:0:0:0:
475,192,26393,1,0,0:0:0:0:
36,192,26393,1,0,0:0:0:100:kick_s.wav
402,192,26560,1,0,0:0:0:0:
329,192,26727,1,0,0:0:0:0:
36,192,26727,1,0,0:0:0:100:kick_s.wav
36,192,27060,1,0,0:0:0:100:kick_s.wav
475,192,27060,1,0,0:0:0:0:
329,192,27227,1,0,0:0:0:0:
402,192,27393,1,0,0:0:0:0:
36,192,27393,1,0,0:0:0:100:kick_s.wav
256,192,27560,1,0,0:0:0:0:
36,192,27727,1,0,0:0:0:100:kick_s.wav
475,192,27727,1,0,0:0:0:0:
402,192,27893,1,0,0:0:0:0:
256,192,27893,1,0,0:0:0:0:
36,192,27893,1,0,0:0:0:100:kick_s.wav
109,192,27977,1,0,0:0:0:100:kick_s.wav
182,192,28060,1,0,0:0:0:100:kick_s.wav
475,192,28060,1,0,0:0:0:0:
256,192,28227,1,0,0:0:0:0:
36,192,28393,1,0,0:0:0:100:kick_s.wav
182,192,28393,1,0,0:0:0:0:
475,192,28393,1,0,0:0:0:0:
329,192,28560,1,0,0:0:0:0:
402,192,28727,1,0,0:0:0:0:
36,192,28727,1,0,0:0:0:100:kick_s.wav
182,192,28893,1,0,0:0:0:0:
256,192,28893,1,0,0:0:0:0:
36,192,29060,1,0,0:0:0:100:kick_s.wav
475,192,29060,1,0,0:0:0:0:
402,192,29227,1,0,0:0:0:0:
329,192,29393,1,0,0:0:0:0:
36,192,29393,1,0,0:0:0:100:kick_s.wav
36,192,29727,1,0,0:0:0:100:kick_s.wav
475,192,29727,1,0,0:0:0:0:
329,192,29893,1,0,0:0:0:0:
402,192,30060,1,0,0:0:0:0:
36,192,30060,1,0,0:0:0:100:kick_s.wav
256,192,30227,1,0,0:0:0:0:
475,192,30393,1,0,0:0:0:0:
36,192,30393,1,0,0:0:0:100:kick_s.wav
402,192,30560,1,0,0:0:0:0:
109,192,30560,1,0,0:0:0:0:
329,192,30727,1,0,0:0:0:0:
36,192,30727,1,0,0:0:0:100:kick_s.wav
182,192,30727,1,0,0:0:0:0:
402,192,30893,1,0,0:0:0:0:
36,192,30893,1,0,0:0:0:100:kick_s.wav
36,192,31060,1,0,0:0:0:100:kick_s.wav
182,192,31060,1,0,0:0:0:0:
475,192,31060,1,0,0:0:0:0:
329,192,31227,1,0,0:0:0:0:
402,192,31393,1,0,0:0:0:0:
36,192,31393,1,0,0:0:0:100:kick_s.wav
109,192,31393,1,0,0:0:0:70:bb_j.wav
182,192,31560,1,0,0:0:0:0:
256,192,31560,1,0,0:0:0:0:
475,192,31727,1,0,0:0:0:0:
36,192,31727,1,0,0:0:0:100:kick_s.wav
329,192,31810,1,0,0:0:0:0:
475,192,31977,1,0,0:0:0:0:
36,192,32060,1,0,0:0:0:100:kick_s.wav
109,192,32060,1,0,0:0:0:70:bb_j.wav
329,192,32143,1,0,0:0:0:0:
475,192,32227,1,0,0:0:0:0:
329,192,32310,1,0,0:0:0:0:
475,192,32393,1,0,0:0:0:0:
36,192,32393,1,0,0:0:0:100:kick_s.wav
256,192,32560,1,0,0:0:0:0:
402,192,32727,1,0,0:0:0:0:
36,192,32727,1,0,0:0:0:100:kick_s.wav
109,192,32727,1,0,0:0:0:70:bb_j.wav
36,192,33060,1,0,0:0:0:70:kick_s.wav
475,192,33060,1,0,0:0:0:0:
329,192,33227,1,0,0:0:0:0:
36,192,33227,1,0,0:0:0:70:kick_s.wav
182,192,33393,1,0,0:0:0:0:
36,192,33393,1,0,0:0:0:70:kick_s.wav
475,192,33727,1,0,0:0:0:70:kick_s.wav
329,192,33727,1,0,0:0:0:0:
182,192,33727,1,0,0:0:0:0:
36,192,33893,1,0,0:0:0:0:
475,192,34060,1,0,0:0:0:70:kick_s.wav
109,192,34060,1,0,0:0:0:0:
36,192,34227,1,0,0:0:0:0:
329,192,34227,1,0,0:0:0:0:
475,192,34393,1,0,0:0:0:70:kick_s.wav
182,192,34393,1,0,0:0:0:0:
109,192,34560,1,0,0:0:0:0:
36,192,34727,1,0,0:0:0:0:
475,192,34727,1,0,0:0:0:70:kick_s.wav
475,192,35060,1,0,0:0:0:70:kick_s.wav
182,192,35060,1,0,0:0:0:0:
36,192,35227,1,0,0:0:0:0:
475,192,35393,1,0,0:0:0:70:kick_s.wav
109,192,35393,1,0,0:0:0:0:
36,192,35560,1,0,0:0:0:0:
182,192,35727,1,0,0:0:0:0:
475,192,35727,1,0,0:0:0:70:kick_s.wav
109,192,35893,1,0,0:0:0:0:
256,192,35893,1,0,0:0:0:0:
36,192,36060,1,0,0:0:0:0:
329,192,36060,1,0,0:0:0:0:
475,192,36060,1,0,0:0:0:70:bb_j.wav
182,192,36060,1,0,0:0:0:0:
402,192,36227,1,0,0:0:0:0:
475,192,36393,1,0,0:0:0:70:kick_s.wav
329,192,36393,1,0,0:0:0:0:
182,192,36393,1,0,0:0:0:0:
36,192,36560,1,0,0:0:0:0:
475,192,36727,1,0,0:0:0:70:kick_s.wav
109,192,36727,1,0,0:0:0:0:
329,192,36893,1,0,0:0:0:0:
36,192,36893,1,0,0:0:0:0:
475,192,37060,1,0,0:0:0:70:kick_s.wav
182,192,37060,1,0,0:0:0:0:
109,192,37227,1,0,0:0:0:0:
475,192,37227,1,0,0:0:0:70:kick_s.wav
36,192,37393,1,0,0:0:0:0:
475,192,37393,1,0,0:0:0:70:kick_s.wav
475,192,37727,1,0,0:0:0:70:kick_s.wav
182,192,37727,1,0,0:0:0:0:
36,192,37893,1,0,0:0:0:0:
475,192,38060,1,0,0:0:0:70:kick_s.wav
109,192,38060,1,0,0:0:0:0:
36,192,38227,1,0,0:0:0:0:
182,192,38393,1,0,0:0:0:0:
475,192,38393,1,0,0:0:0:70:bb_j.wav
329,192,38393,1,0,0:0:0:0:
109,192,38560,1,0,0:0:0:0:
256,192,38560,1,0,0:0:0:0:
36,192,38727,1,0,0:0:0:0:
329,192,38727,1,0,0:0:0:0:
475,192,38727,1,0,0:0:0:70:bb_j.wav
182,192,38727,1,0,0:0:0:0:
402,192,38893,1,0,0:0:0:0:
182,192,39060,1,0,0:0:0:0:
475,192,39060,1,0,0:0:0:70:kick_s.wav
36,192,39227,1,0,0:0:0:0:
329,192,39227,1,0,0:0:0:70:bb_j.wav
109,192,39393,1,0,0:0:0:0:
475,192,39393,1,0,0:0:0:70:kick_s.wav
36,192,39560,1,0,0:0:0:0:
329,192,39560,1,0,0:0:0:70:bb_j.wav
182,192,39727,1,0,0:0:0:0:
475,192,39727,1,0,0:0:0:70:kick_s.wav
109,192,39893,1,0,0:0:0:0:
329,192,39893,1,0,0:0:0:70:bb_j.wav
36,192,40060,1,0,0:0:0:0:
475,192,40060,1,0,0:0:0:70:kick_s.wav
329,192,40227,1,0,0:0:0:70:bb_j.wav
36,192,40393,1,0,0:0:0:70:kick_s.wav
475,192,40393,1,0,0:0:0:70:kick_s.wav
182,192,40560,1,0,0:0:0:70:bb_j.wav
329,192,40560,1,0,0:0:0:0:
36,192,40727,1,0,0:0:0:70:kick_s.wav
402,192,40727,1,0,0:0:0:0:
329,192,40893,1,0,0:0:0:0:
182,192,40893,1,0,0:0:0:70:bb_j.wav
475,192,41060,1,0,0:0:0:0:
36,192,41060,1,0,0:0:0:70:kick_s.wav
402,192,41227,1,0,0:0:0:0:
182,192,41227,1,0,0:0:0:70:bb_j.wav
329,192,41393,1,0,0:0:0:0:
36,192,41393,1,0,0:0:0:70:kick_s.wav
182,192,41560,1,0,0:0:0:70:bb_j.wav
36,192,41727,1,0,0:0:0:70:kick_s.wav
475,192,41727,1,0,0:0:0:100:bb_i.wav
402,192,41810,1,0,0:0:0:100:bb_i.wav
182,192,41893,1,0,0:0:0:70:bb_j.wav
329,192,41893,1,0,0:0:0:100:bb_i.wav
36,192,42060,1,0,0:0:0:70:kick_s.wav
402,192,42060,128,0,42227:0:0:0:70:kick.wav
182,192,42227,1,0,0:0:0:70:bb_j.wav
109,192,42227,128,0,42393:0:0:0:70:kick.wav
475,192,42393,1,0,0:0:0:0:
256,192,42393,1,0,0:0:0:100:bb_i.wav
182,192,42477,1,0,0:0:0:100:bb_i.wav
329,192,42560,1,0,0:0:0:0:
109,192,42560,1,0,0:0:0:100:bb_i.wav
36,192,42643,1,0,0:0:0:100:bb_i.wav
475,192,42727,1,0,0:0:0:0:
182,192,42727,1,0,0:0:0:100:bb_j.wav
329,192,42893,1,0,0:0:0:0:
182,192,42893,1,0,0:0:0:100:bb_j.wav
256,192,43060,128,0,44393:0:0:0:100:kick.wav
36,192,43060,1,0,0:0:0:100:cym_a.wav
109,192,43060,1,0,0:0:0:0:
475,192,43227,1,0,0:0:0:100:cym_b.wav
36,192,43393,1,0,0:0:0:100:cym_a.wav
402,192,43560,1,0,0:0:0:100:cym_b.wav
109,192,43727,1,0,0:0:0:100:cym_a.wav
329,192,43893,1,0,0:0:0:100:cym_b.wav
182,192,44060,1,0,0:0:0:100:cym_a.wav
36,192,44060,128,0,44393:0:0:0:0:
329,192,44227,1,0,0:0:0:100:cym_b.wav
475,192,44393,1,0,0:0:0:100:deep_k.wav
109,192,44393,1,0,0:0:0:100:cym_a.wav
402,192,44393,1,0,0:0:0:0:
329,192,44727,1,0,0:0:0:0:
256,192,45060,1,0,0:0:0:0:
402,192,45227,1,0,0:0:0:0:
256,192,45560,1,0,0:0:0:0:
109,192,45893,1,0,0:0:0:0:
182,192,46227,1,0,0:0:0:0:
36,192,46393,1,0,0:0:0:0:
182,192,46560,1,0,0:0:0:0:
475,192,47227,1,0,0:0:0:0:
36,192,47560,1,0,0:0:0:0:
182,192,47727,1,0,0:0:0:0:
329,192,47893,1,0,0:0:0:0:
475,192,48060,1,0,0:0:0:0:
329,192,48227,1,0,0:0:0:0:
182,192,48393,1,0,0:0:0:0:
36,192,48393,1,0,0:0:0:0:
109,192,48727,1,0,0:0:0:0:
402,192,48727,1,0,0:0:0:0:
182,192,49060,1,0,0:0:0:0:
329,192,49060,1,0,0:0:0:0:
256,192,49393,1,0,0:0:0:0:
475,192,49393,1,0,0:0:0:0:
329,192,49727,1,0,0:0:0:0:
329,192,50060,1,0,0:0:0:0:
109,192,50227,1,0,0:0:0:0:
329,192,50393,1,0,0:0:0:0:
256,192,50727,1,0,0:0:0:0:
475,192,50893,1,0,0:0:0:0:
402,192,51227,1,0,0:0:0:0:
402,192,51560,1,0,0:0:0:0:
109,192,51727,1,0,0:0:0:0:
402,192,51893,1,0,0:0:0:0:
256,192,52560,1,0,0:0:0:0:
256,192,52893,1,0,0:0:0:0:
475,192,53060,1,0,0:0:0:0:
329,192,53227,1,0,0:0:0:0:
182,192,53393,1,0,0:0:0:0:
329,192,53560,1,0,0:0:0:0:
36,192,53727,1,0,0:0:0:0:
256,192,53727,1,0,0:0:0:0:
182,192,54060,1,0,0:0:0:0:
402,192,54060,1,0,0:0:0:0:
475,192,54393,1,0,0:0:0:0:
36,192,54393,1,0,0:0:0:0:
109,192,54727,1,0,0:0:0:0:
329,192,54727,1,0,0:0:0:0:
475,192,55060,1,0,0:0:0:0:
329,192,55393,1,0,0:0:0:0:
256,192,55727,1,0,0:0:0:0:
402,192,55893,1,0,0:0:0:0:
256,192,56227,1,0,0:0:0:0:
109,192,56560,1,0,0:0:0:0:
182,192,56893,1,0,0:0:0:0:
36,192,57060,1,0,0:0:0:0:
182,192,57227,1,0,0:0:0:0:
475,192,57893,1,0,0:0:0:0:
36,192,58227,1,0,0:0:0:0:
182,192,58393,1,0,0:0:0:0:
329,192,58560,1,0,0:0:0:0:
475,192,58727,1,0,0:0:0:0:
329,192,58893,1,0,0:0:0:0:
36,192,59060,1,0,0:0:0:0:
182,192,59060,1,0,0:0:0:0:
109,192,59393,1,0,0:0:0:0:
402,192,59393,1,0,0:0:0:0:
329,192,59727,1,0,0:0:0:0:
182,192,59727,1,0,0:0:0:0:
256,192,60060,1,0,0:0:0:0:
475,192,60060,1,0,0:0:0:0:
329,192,60393,1,0,0:0:0:0:
329,192,60727,1,0,0:0:0:0:
109,192,60893,1,0,0:0:0:0:
329,192,61060,1,0,0:0:0:0:
256,192,61393,1,0,0:0:0:0:
475,192,61560,1,0,0:0:0:0:
36,192,61893,1,0,0:0:0:0:
182,192,62060,1,0,0:0:0:0:
329,192,62227,1,0,0:0:0:0:
475,192,62393,1,0,0:0:0:0:
329,192,62560,1,0,0:0:0:0:
256,192,63227,1,0,0:0:0:0:
256,192,63560,1,0,0:0:0:0:
475,192,63727,1,0,0:0:0:0:
329,192,63893,1,0,0:0:0:0:
182,192,64060,1,0,0:0:0:0:
329,192,64227,1,0,0:0:0:0:
36,192,64727,1,0,0:0:0:0:
109,192,65060,1,0,0:0:0:0:
182,192,65393,1,0,0:0:0:0:
256,192,65727,1,0,0:0:0:0:
109,192,65727,1,0,0:0:0:70:kick.wav
475,192,65727,1,0,0:0:0:0:
329,192,65893,1,0,0:0:0:0:
36,192,66060,1,0,0:0:0:0:
182,192,66143,1,0,0:0:0:0:
475,192,66310,1,0,0:0:0:0:
329,192,66560,1,0,0:0:0:0:
36,192,66727,1,0,0:0:0:0:
182,192,66810,1,0,0:0:0:0:
475,192,66977,1,0,0:0:0:0:
256,192,67227,1,0,0:0:0:0:
402,192,67393,1,0,0:0:0:0:
256,192,67477,1,0,0:0:0:0:
109,192,67643,1,0,0:0:0:0:
329,192,67893,1,0,0:0:0:0:
182,192,68060,1,0,0:0:0:0:
36,192,68227,1,0,0:0:0:0:
182,192,68393,1,0,0:0:0:0:
109,192,68560,1,0,0:0:0:0:
256,192,68727,1,0,0:0:0:0:
402,192,68810,1,0,0:0:0:0:
182,192,68977,1,0,0:0:0:0:
109,192,69227,1,0,0:0:0:0:
36,192,69393,1,0,0:0:0:0:
182,192,69560,1,0,0:0:0:0:
329,192,69727,1,0,0:0:0:0:
256,192,69893,1,0,0:0:0:0:
36,192,70060,1,0,0:0:0:0:
182,192,70143,1,0,0:0:0:0:
402,192,70310,1,0,0:0:0:0:
36,192,70560,1,0,0:0:0:0:
182,192,70727,1,0,0:0:0:0:
329,192,70893,1,0,0:0:0:0:
475,192,71060,1,0,0:0:0:0:
329,192,71227,1,0,0:0:0:0:
109,192,71393,1,0,0:0:0:0:
256,192,71477,1,0,0:0:0:0:
475,192,71643,1,0,0:0:0:0:
329,192,71893,1,0,0:0:0:0:
109,192,72060,1,0,0:0:0:0:
256,192,72143,1,0,0:0:0:0:
475,192,72310,1,0,0:0:0:0:
256,192,72560,1,0,0:0:0:0:
475,192,72727,1,0,0:0:0:0:
329,192,72810,1,0,0:0:0:0:
182,192,72977,1,0,0:0:0:0:
36,192,73227,1,0,0:0:0:0:
182,192,73393,1,0,0:0:0:0:
329,192,73560,1,0,0:0:0:0:
256,192,73727,1,0,0:0:0:0:
109,192,73893,1,0,0:0:0:0:
182,192,74060,1,0,0:0:0:0:
329,192,74143,1,0,0:0:0:0:
475,192,74310,1,0,0:0:0:0:
475,192,74560,1,0,0:0:0:0:
109,192,74727,1,0,0:0:0:0:
256,192,74810,1,0,0:0:0:0:
329,192,74977,1,0,0:0:0:0:
475,192,75227,1,0,0:0:0:0:
329,192,75393,1,0,0:0:0:0:
475,192,75560,1,0,0:0:0:0:
329,192,75727,1,0,0:0:0:0:
109,192,76060,1,0,0:0:0:0:
256,192,76227,1,0,0:0:0:0:
475,192,76393,1,0,0:0:0:0:
36,192,76393,1,0,0:0:0:70:cym_b.wav
329,192,76560,1,0,0:0:0:0:
109,192,76727,1,0,0:0:0:0:
36,192,76727,1,0,0:0:0:70:cym_b.wav
256,192,76810,1,0,0:0:0:0:
475,192,76977,1,0,0:0:0:0:
36,192,77060,1,0,0:0:0:70:cym_b.wav
329,192,77227,1,0,0:0:0:0:
109,192,77393,1,0,0:0:0:0:
36,192,77393,1,0,0:0:0:70:cym_b.wav
256,192,77477,1,0,0:0:0:0:
475,192,77643,1,0,0:0:0:0:
36,192,77727,1,0,0:0:0:70:cym_b.wav
182,192,77893,1,0,0:0:0:0:
475,192,78060,1,0,0:0:0:0:
36,192,78060,1,0,0:0:0:70:cym_b.wav
329,192,78143,1,0,0:0:0:0:
109,192,78310,1,0,0:0:0:0:
36,192,78393,1,0,0:0:0:70:cym_b.wav
475,192,78560,1,0,0:0:0:0:
329,192,78727,1,0,0:0:0:0:
36,192,78727,1,0,0:0:0:70:cym_b.wav
182,192,78893,1,0,0:0:0:0:
329,192,79060,1,0,0:0:0:0:
36,192,79060,1,0,0:0:0:70:cym_b.wav
182,192,79227,1,0,0:0:0:0:
329,192,79393,1,0,0:0:0:0:
36,192,79393,1,0,0:0:0:70:cym_b.wav
475,192,79477,1,0,0:0:0:0:
182,192,79643,1,0,0:0:0:0:
36,192,79727,1,0,0:0:0:70:cym_b.wav
256,192,79893,1,0,0:0:0:0:
109,192,80060,1,0,0:0:0:0:
36,192,80060,1,0,0:0:0:70:cym_b.wav
256,192,80227,1,0,0:0:0:0:
475,192,80393,1,0,0:0:0:0:
36,192,80393,1,0,0:0:0:70:cym_b.wav
329,192,80560,1,0,0:0:0:0:
109,192,80727,1,0,0:0:0:0:
36,192,80727,1,0,0:0:0:70:cym_b.wav
256,192,80810,1,0,0:0:0:0:
402,192,80977,1,0,0:0:0:0:
36,192,81060,1,0,0:0:0:70:cym_b.wav
182,192,81227,1,0,0:0:0:0:
256,192,81393,1,0,0:0:0:0:
36,192,81393,1,0,0:0:0:70:cym_b.wav
329,192,81560,1,0,0:0:0:0:
36,192,81727,1,0,0:0:0:70:cym_b.wav
475,192,81727,1,0,0:0:0:0:
329,192,81893,1,0,0:0:0:0:
109,192,82060,1,0,0:0:0:0:
36,192,82060,1,0,0:0:0:70:cym_b.wav
256,192,82143,1,0,0:0:0:0:
475,192,82310,1,0,0:0:0:0:
36,192,82393,1,0,0:0:0:70:cym_b.wav
329,192,82560,1,0,0:0:0:0:
109,192,82727,1,0,0:0:0:0:
36,192,82727,1,0,0:0:0:70:cym_b.wav
256,192,82810,1,0,0:0:0:0:
475,192,82977,1,0,0:0:0:0:
36,192,83060,1,0,0:0:0:70:cym_b.wav
182,192,83227,1,0,0:0:0:0:
329,192,83393,1,0,0:0:0:0:
36,192,83393,1,0,0:0:0:70:cym_b.wav
475,192,83477,1,0,0:0:0:0:
182,192,83643,1,0,0:0:0:0:
36,192,83727,1,0,0:0:0:70:cym_b.wav
256,192,83893,1,0,0:0:0:0:
329,192,84060,1,0,0:0:0:0:
36,192,84060,1,0,0:0:0:70:cym_b.wav
402,192,84227,1,0,0:0:0:0:
475,192,84393,1,0,0:0:0:0:
36,192,84393,1,0,0:0:0:70:cym_b.wav
256,192,84560,1,0,0:0:0:0:
182,192,84727,1,0,0:0:0:0:
36,192,84727,1,0,0:0:0:70:cym_b.wav
329,192,84810,1,0,0:0:0:0:
475,192,84977,1,0,0:0:0:0:
36,192,85060,1,0,0:0:0:70:cym_b.wav
109,192,85227,1,0,0:0:0:0:
182,192,85393,1,0,0:0:0:0:
36,192,85393,1,0,0:0:0:70:cym_b.wav
329,192,85477,1,0,0:0:0:0:
402,192,85643,1,0,0:0:0:0:
36,192,85727,1,0,0:0:0:70:cym_b.wav
256,192,85893,1,0,0:0:0:0:
402,192,86060,1,0,1:0:0:0:
36,192,86060,1,0,0:0:0:70:cym_b.wav
109,192,86227,1,0,0:0:0:0:
182,192,86393,1,0,0:0:0:0:
36,192,86393,1,0,0:0:0:70:cym_b.wav
328,192,86643,1,0,0:0:0:0:
36,192,86727,1,0,0:0:0:70:cym_b.wav
475,192,86893,1,0,0:0:0:0:
36,192,87060,1,0,0:0:0:70:normal-hitclap9.wav
182,192,87060,1,0,0:0:0:0:
256,192,87060,1,0,0:0:0:0:
402,192,87060,1,0,0:0:0:0:
329,192,87227,1,0,0:0:0:0:
36,192,87393,1,0,0:0:0:70:bb_j.wav
402,192,87393,1,0,0:0:0:0:
256,192,87560,1,0,0:0:0:0:
182,192,87560,1,0,0:0:0:0:
475,192,87727,1,0,0:0:0:0:
36,192,87727,1,0,0:0:0:70:bb_j.wav
402,192,87893,1,0,0:0:0:0:
36,192,88060,1,0,0:0:0:70:bb_j.wav
329,192,88060,1,0,0:0:0:0:
402,192,88393,1,0,0:0:0:0:
36,192,88393,1,0,0:0:0:70:bb_j.wav
182,192,88393,1,0,0:0:0:0:
329,192,88560,1,0,0:0:0:0:
402,192,88727,1,0,0:0:0:0:
36,192,88727,1,0,0:0:0:70:bb_j.wav
256,192,88893,1,0,0:0:0:0:
182,192,88893,1,0,0:0:0:0:
36,192,89060,1,0,0:0:0:70:bb_j.wav
475,192,89060,1,0,0:0:0:0:
402,192,89227,1,0,0:0:0:0:
329,192,89393,1,0,0:0:0:0:
36,192,89393,1,0,0:0:0:70:bb_j.wav
475,192,89727,1,0,0:0:0:70:bb_j.wav
182,192,89727,1,0,0:0:0:0:
329,192,89727,1,0,0:0:0:0:
36,192,89893,1,0,0:0:0:0:
475,192,90060,1,0,0:0:0:70:bb_j.wav
109,192,90060,1,0,0:0:0:0:
36,192,90227,1,0,0:0:0:0:
329,192,90227,1,0,0:0:0:0:
182,192,90393,1,0,0:0:0:0:
475,192,90393,1,0,0:0:0:70:bb_j.wav
109,192,90560,1,0,0:0:0:0:
36,192,90727,1,0,0:0:0:0:
475,192,90727,1,0,0:0:0:70:bb_j.wav
475,192,91060,1,0,0:0:0:70:bb_j.wav
182,192,91060,1,0,0:0:0:0:
329,192,91060,1,0,0:0:0:0:
36,192,91227,1,0,0:0:0:0:
109,192,91393,1,0,0:0:0:0:
475,192,91393,1,0,0:0:0:70:bb_j.wav
36,192,91560,1,0,0:0:0:0:
329,192,91560,1,0,0:0:0:0:
182,192,91727,1,0,0:0:0:0:
475,192,91727,1,0,0:0:0:70:bb_j.wav
109,192,91893,1,0,0:0:0:0:
475,192,92060,1,0,0:0:0:70:bb_j.wav
182,192,92060,1,0,0:0:0:0:
256,192,92393,1,0,0:0:0:0:
475,192,92393,1,0,0:0:0:70:bb_j.wav
109,192,92560,1,0,0:0:0:0:
402,192,92560,1,0,0:0:0:70:bb_j.wav
182,192,92727,1,0,0:0:0:0:
475,192,92727,1,0,0:0:0:70:bb_j.wav
36,192,92893,1,0,0:0:0:0:
402,192,92893,1,0,0:0:0:70:bb_j.wav
329,192,93060,1,0,0:0:0:0:
475,192,93060,1,0,0:0:0:70:bb_j.wav
182,192,93227,1,0,0:0:0:0:
402,192,93227,1,0,0:0:0:70:bb_j.wav
256,192,93393,1,0,0:0:0:0:
475,192,93393,1,0,0:0:0:70:bb_j.wav
109,192,93560,1,0,0:0:0:0:
329,192,93560,1,0,0:0:0:70:bb_j.wav
402,192,93727,1,0,0:0:0:0:
182,192,93727,1,0,0:0:0:70:bb_j.wav
256,192,93893,1,0,0:0:0:0:
36,192,93893,1,0,0:0:0:70:bb_j.wav
329,192,94060,1,0,0:0:0:0:
109,192,94060,1,0,0:0:0:70:bb_j.wav
182,192,94227,1,0,0:0:0:0:
36,192,94227,1,0,0:0:0:70:bb_j.wav
475,192,94393,1,0,0:0:0:0:
109,192,94393,1,0,0:0:0:70:bb_j.wav
329,192,94560,1,0,0:0:0:0:
36,192,94560,1,0,0:0:0:70:bb_j.wav
402,192,94727,1,0,0:0:0:0:
109,192,94727,1,0,0:0:0:70:bb_j.wav
256,192,94893,1,0,0:0:0:0:
36,192,94893,1,0,0:0:0:70:bb_j.wav
475,192,95060,1,0,0:0:0:0:
36,192,95060,1,0,0:0:0:70:bb_i.wav
109,192,95143,1,0,0:0:0:70:bb_i.wav
182,192,95227,1,0,0:0:0:70:bb_i.wav
475,192,95227,1,0,0:0:0:0:
36,192,95310,1,0,0:0:0:70:bb_i.wav
475,192,95393,1,0,0:0:0:0:
109,192,95393,1,0,0:0:0:100:bb_i.wav
182,192,95477,1,0,0:0:0:100:bb_i.wav
36,192,95560,1,0,0:0:0:100:bb_i.wav
475,192,95560,1,0,0:0:0:0:
109,192,95643,1,0,0:0:0:100:bb_i.wav
402,192,95643,1,0,0:0:0:0:
182,192,95727,1,0,0:0:0:100:bb_i.wav
329,192,95727,1,0,0:0:0:0:
36,192,95810,1,0,0:0:0:100:bb_i.wav
475,192,95810,1,0,0:0:0:0:
109,192,95893,1,0,0:0:0:100:bb_i.wav
402,192,95893,1,0,0:0:0:0:
329,192,95977,1,0,0:0:0:0:
182,192,95977,1,0,0:0:0:100:bb_i.wav
475,192,96060,1,0,0:0:0:0:
36,192,96060,1,0,0:0:0:100:bb_i.wav
109,192,96143,1,0,0:0:0:100:bb_i.wav
402,192,96143,1,0,0:0:0:0:
182,192,96227,1,0,0:0:0:100:bb_i.wav
329,192,96227,1,0,0:0:0:0:
109,192,96310,1,0,0:0:0:100:bb_i.wav
402,192,96310,1,0,0:0:0:0:
36,192,96393,1,0,0:0:0:70:bb_i.wav
256,192,96393,1,0,0:0:0:70:bb_j.wav
475,192,96393,1,0,0:0:0:0:
36,192,96560,1,0,0:0:0:70:bb_i.wav
329,192,96560,1,0,0:0:0:0:
36,192,96727,1,0,0:0:0:70:bb_i.wav
475,192,96727,1,0,0:0:0:0:
109,192,96727,1,0,0:0:0:70:bb_j.wav
329,192,96893,1,0,0:0:0:0:
182,192,96893,1,0,0:0:0:70:bb_i.wav
109,192,96977,1,0,0:0:0:70:bb_i.wav
475,192,97060,1,0,0:0:0:0:
36,192,97060,1,0,0:0:0:70:bb_i.wav
182,192,97143,1,0,0:0:0:70:bb_i.wav
402,192,97227,1,0,0:0:0:0:
109,192,97227,1,0,0:0:0:70:bb_i.wav
36,192,97310,1,0,0:0:0:70:bb_i.wav
256,192,97393,1,0,0:0:0:0:
329,192,97393,1,0,0:0:0:0:
182,192,97393,1,0,0:0:0:70:bb_j.wav
475,192,97727,1,0,0:0:0:0:
36,192,97727,1,0,0:0:0:100:kick_s.wav
329,192,97893,1,0,0:0:0:0:
109,192,98060,1,0,0:0:0:0:
36,192,98060,1,0,0:0:0:100:kick_s.wav
256,192,98143,1,0,0:0:0:0:
475,192,98310,1,0,0:0:0:0:
36,192,98393,1,0,0:0:0:100:kick_s.wav
329,192,98560,1,0,0:0:0:0:
36,192,98727,1,0,0:0:0:100:kick_s.wav
109,192,98727,1,0,0:0:0:0:
256,192,98810,1,0,0:0:0:0:
475,192,98977,1,0,0:0:0:0:
36,192,99060,1,0,0:0:0:100:kick_s.wav
329,192,99227,1,0,0:0:0:0:
36,192,99393,1,0,0:0:0:100:kick_s.wav
109,192,99393,1,0,0:0:0:0:
256,192,99477,1,0,0:0:0:0:
475,192,99643,1,0,0:0:0:0:
36,192,99727,1,0,0:0:0:100:kick_s.wav
329,192,99893,1,0,0:0:0:0:
36,192,100060,1,0,0:0:0:100:kick_s.wav
402,192,100060,1,0,0:0:0:0:
256,192,100143,1,0,0:0:0:0:
36,192,100227,1,0,0:0:0:100:kick_s.wav
475,192,100227,1,0,0:0:0:0:
36,192,100393,1,0,0:0:0:100:kick_s.wav
475,192,100393,1,0,0:0:0:0:
329,192,100560,1,0,0:0:0:0:
36,192,100727,1,0,0:0:0:100:kick_s.wav
109,192,100727,1,0,0:0:0:0:
256,192,100810,1,0,0:0:0:0:
475,192,100977,1,0,0:0:0:0:
36,192,101060,1,0,0:0:0:100:kick_s.wav
109,192,101227,1,0,0:0:0:0:
36,192,101393,1,0,0:0:0:100:kick_s.wav
182,192,101393,1,0,0:0:0:0:
329,192,101477,1,0,0:0:0:0:
256,192,101643,1,0,0:0:0:0:
36,192,101727,1,0,0:0:0:100:kick_s.wav
109,192,101893,1,0,0:0:0:0:
36,192,102060,1,0,0:0:0:100:kick_s.wav
256,192,102060,1,0,0:0:0:0:
402,192,102143,1,0,0:0:0:0:
475,192,102310,1,0,0:0:0:0:
36,192,102393,1,0,0:0:0:100:kick_s.wav
256,192,102560,1,0,0:0:0:0:
36,192,102560,1,0,0:0:0:100:kick_s.wav
109,192,102643,1,0,0:0:0:100:kick_s.wav
182,192,102727,1,0,0:0:0:100:kick_s.wav
329,192,102727,1,0,0:0:0:0:
402,192,102893,1,0,0:0:0:0:
36,192,102893,1,0,0:0:0:100:kick_s.wav
36,192,103060,1,0,0:0:0:100:kick_s.wav
475,192,103060,1,0,0:0:0:0:
329,192,103227,1,0,0:0:0:0:
109,192,103393,1,0,0:0:0:0:
36,192,103393,1,0,0:0:0:100:kick_s.wav
256,192,103477,1,0,0:0:0:0:
475,192,103643,1,0,0:0:0:0:
36,192,103727,1,0,0:0:0:100:kick_s.wav
329,192,103893,1,0,0:0:0:0:
109,192,104060,1,0,0:0:0:0:
36,192,104060,1,0,0:0:0:100:kick_s.wav
256,192,104143,1,0,0:0:0:0:
475,192,104310,1,0,0:0:0:0:
36,192,104393,1,0,0:0:0:100:kick_s.wav
329,192,104560,1,0,0:0:0:0:
36,192,104727,1,0,0:0:0:100:kick_s.wav
109,192,104727,1,0,0:0:0:0:
256,192,104810,1,0,0:0:0:0:
475,192,104977,1,0,0:0:0:0:
36,192,105060,1,0,0:0:0:100:kick_s.wav
329,192,105227,1,0,0:0:0:0:
36,192,105393,1,0,0:0:0:100:kick_s.wav
402,192,105393,1,0,0:0:0:0:
256,192,105477,1,0,0:0:0:0:
475,192,105560,1,0,0:0:0:0:
36,192,105560,1,0,0:0:0:100:kick_s.wav
36,192,105727,1,0,0:0:0:100:kick_s.wav
475,192,105727,1,0,0:0:0:0:
329,192,105893,1,0,0:0:0:0:
36,192,106060,1,0,0:0:0:100:kick_s.wav
109,192,106060,1,0,0:0:0:0:
256,192,106143,1,0,0:0:0:0:
475,192,106310,1,0,0:0:0:0:
36,192,106393,1,0,0:0:0:100:kick_s.wav
329,192,106560,1,0,0:0:0:0:
36,192,106727,1,0,0:0:0:100:kick_s.wav
109,192,106727,1,0,0:0:0:0:
256,192,106810,1,0,0:0:0:0:
182,192,106977,1,0,0:0:0:0:
36,192,107060,1,0,0:0:0:100:kick_s.wav
36,192,107227,1,0,0:0:0:100:kick_s.wav
329,192,107227,1,0,0:0:0:0:
109,192,107310,1,0,0:0:0:100:kick_s.wav
182,192,107393,1,0,0:0:0:100:kick_s.wav
475,192,107393,1,0,0:0:0:0:
329,192,107477,1,0,0:0:0:0:
36,192,107560,1,0,0:0:0:100:kick_s.wav
402,192,107643,1,0,0:0:0:0:
36,192,107727,1,0,0:0:0:100:kick_s.wav
109,192,107727,1,0,0:0:0:100:normal-hitclap9.wav
475,192,107893,1,0,0:0:0:0:
36,192,108060,1,0,0:0:0:100:kick_s.wav
329,192,108060,1,0,0:0:0:0:
109,192,108060,1,0,0:0:0:100:kick.wav
182,192,108227,1,0,0:0:0:0:
329,192,108393,1,0,0:0:0:0:
475,192,108393,1,0,0:0:0:100:kick_s.wav
256,192,108560,1,0,0:0:0:0:
36,192,108727,1,0,0:0:0:0:
475,192,108727,1,0,0:0:0:100:kick_s.wav
182,192,108810,1,0,0:0:0:0:
329,192,108977,1,0,0:0:0:0:
475,192,109060,1,0,0:0:0:100:kick_s.wav
256,192,109227,1,0,0:0:0:0:
36,192,109393,1,0,0:0:0:0:
475,192,109393,1,0,0:0:0:100:kick_s.wav
182,192,109477,1,0,0:0:0:0:
329,192,109643,1,0,0:0:0:0:
475,192,109727,1,0,0:0:0:100:kick_s.wav
256,192,109893,1,0,0:0:0:0:
36,192,110060,1,0,0:0:0:0:
475,192,110060,1,0,0:0:0:100:kick_s.wav
182,192,110143,1,0,0:0:0:0:
329,192,110310,1,0,0:0:0:0:
475,192,110393,1,0,0:0:0:100:kick_s.wav
182,192,110560,1,0,0:0:0:0:
256,192,110727,1,0,0:0:0:0:
475,192,110727,1,0,0:0:0:100:kick_s.wav
109,192,110810,1,0,0:0:0:0:
329,192,110893,1,0,0:0:0:0:
475,192,110893,1,0,0:0:0:100:kick_s.wav
329,192,111060,1,0,0:0:0:0:
475,192,111060,1,0,0:0:0:100:kick_s.wav
256,192,111227,1,0,0:0:0:0:
36,192,111393,1,0,0:0:0:0:
475,192,111393,1,0,0:0:0:100:kick_s.wav
182,192,111477,1,0,0:0:0:0:
329,192,111643,1,0,0:0:0:0:
475,192,111727,1,0,0:0:0:100:kick_s.wav
36,192,111893,1,0,0:0:0:0:
109,192,112060,1,0,0:0:0:0:
475,192,112060,1,0,0:0:0:100:kick_s.wav
256,192,112143,1,0,0:0:0:0:
182,192,112310,1,0,0:0:0:0:
475,192,112393,1,0,0:0:0:100:kick_s.wav
36,192,112560,1,0,0:0:0:0:
109,192,112727,1,0,0:0:0:0:
475,192,112727,1,0,0:0:0:100:kick_s.wav
256,192,112810,1,0,0:0:0:0:
329,192,112977,1,0,0:0:0:0:
475,192,113060,1,0,0:0:0:100:kick_s.wav
109,192,113227,1,0,0:0:0:0:
475,192,113227,1,0,0:0:0:100:kick_s.wav
402,192,113310,1,0,0:0:0:100:kick_s.wav
182,192,113393,1,0,0:0:0:0:
329,192,113393,1,0,0:0:0:100:kick_s.wav
256,192,113560,1,0,0:0:0:0:
475,192,113560,1,0,0:0:0:100:kick_s.wav
329,192,113727,1,0,0:0:0:0:
475,192,113727,1,0,0:0:0:100:kick_s.wav
256,192,113893,1,0,0:0:0:0:
36,192,114060,1,0,0:0:0:0:
475,192,114060,1,0,0:0:0:100:kick_s.wav
182,192,114143,1,0,0:0:0:0:
329,192,114310,1,0,0:0:0:0:
475,192,114393,1,0,0:0:0:100:kick_s.wav
256,192,114560,1,0,0:0:0:0:
36,192,114727,1,0,0:0:0:0:
475,192,114727,1,0,0:0:0:100:kick_s.wav
182,192,114810,1,0,0:0:0:0:
329,192,114977,1,0,0:0:0:0:
475,192,115060,1,0,0:0:0:100:kick_s.wav
256,192,115227,1,0,0:0:0:0:
36,192,115393,1,0,0:0:0:0:
475,192,115393,1,0,0:0:0:100:kick_s.wav
182,192,115477,1,0,0:0:0:0:
329,192,115643,1,0,0:0:0:0:
475,192,115727,1,0,0:0:0:100:kick_s.wav
182,192,115893,1,0,0:0:0:0:
256,192,116060,1,0,0:0:0:0:
475,192,116060,1,0,0:0:0:100:kick_s.wav
109,192,116143,1,0,0:0:0:0:
329,192,116227,1,0,0:0:0:0:
475,192,116227,1,0,0:0:0:100:kick_s.wav
329,192,116393,1,0,0:0:0:0:
475,192,116393,1,0,0:0:0:100:kick_s.wav
256,192,116560,1,0,0:0:0:0:
36,192,116727,1,0,0:0:0:0:
475,192,116727,1,0,0:0:0:100:kick_s.wav
182,192,116810,1,0,0:0:0:0:
329,192,116977,1,0,0:0:0:0:
475,192,117060,1,0,0:0:0:100:kick_s.wav
256,192,117227,1,0,0:0:0:0:
36,192,117393,1,0,0:0:0:0:
475,192,117393,1,0,0:0:0:100:kick_s.wav
182,192,117477,1,0,0:0:0:0:
109,192,117643,1,0,0:0:0:0:
475,192,117727,128,0,118393:0:0:0:100:normal-hitclap9.wav
329,192,117893,1,0,0:0:0:0:
256,192,118060,1,0,0:0:0:0:
109,192,118143,1,0,0:0:0:0:
182,192,118310,1,0,0:0:0:0:
402,192,118393,1,0,0:0:0:100:bb_j.wav
36,192,118477,1,0,0:0:0:0:
182,192,118560,1,0,0:0:0:0:
109,192,118643,1,0,0:0:0:0:
475,192,118727,1,0,0:0:0:0:
402,192,118727,1,0,0:0:0:100:bb_j.wav
36,192,118727,128,0,119060:0:0:0:0:
256,192,118727,1,0,0:0:0:0:
475,192,119060,1,0,0:0:0:100:kick_s.wav
329,192,119060,128,0,119393:0:0:0:0:
475,192,119393,1,0,0:0:0:100:kick_s.wav
182,192,119393,128,0,119727:0:0:0:0:
109,192,119727,1,0,0:0:0:0:
475,192,119727,1,0,0:0:0:100:kick_s.wav
256,192,119893,1,0,0:0:0:0:
475,192,120060,1,0,0:0:0:100:kick_s.wav
329,192,120227,128,0,120560:0:0:0:0:
475,192,120393,1,0,0:0:0:100:kick_s.wav
109,192,120560,128,0,120893:0:0:0:0:
475,192,120727,1,0,0:0:0:100:kick_s.wav
182,192,120893,1,0,0:0:0:0:
36,192,121060,1,0,0:0:0:0:
475,192,121060,1,0,0:0:0:100:kick_s.wav
182,192,121227,128,0,121727:0:0:0:0:
475,192,121393,1,0,0:0:0:100:kick_s.wav
475,192,121560,1,0,0:0:0:100:kick_s.wav
475,192,121727,1,0,0:0:0:100:kick_s.wav
256,192,121893,128,0,122227:0:0:0:0:
475,192,122060,1,0,0:0:0:100:kick_s.wav
36,192,122227,1,0,0:0:0:0:
182,192,122393,1,0,0:0:0:0:
475,192,122393,1,0,0:0:0:100:kick_s.wav
329,192,122560,1,0,0:0:0:0:
182,192,122727,1,0,0:0:0:0:
475,192,122727,1,0,0:0:0:100:kick_s.wav
329,192,122893,128,0,123727:0:0:0:0:
475,192,123060,1,0,0:0:0:100:kick_s.wav
475,192,123393,1,0,0:0:0:100:kick_s.wav
475,192,123727,1,0,0:0:0:100:kick_s.wav
182,192,123893,1,0,0:0:0:100:kick_s.wav
109,192,123977,1,0,0:0:0:100:kick_s.wav
36,192,124060,1,0,0:0:0:100:kick_s.wav
36,192,124227,1,0,0:0:0:100:kick_s.wav
36,192,124393,1,0,0:0:0:100:kick_s.wav
402,192,124393,128,0,124727:0:0:0:0:
182,192,124727,1,0,0:0:0:0:
36,192,124727,1,0,0:0:0:100:kick_s.wav
402,192,124893,1,0,0:0:0:0:
36,192,125060,1,0,0:0:0:100:kick_s.wav
182,192,125060,128,0,125393:0:0:0:0:
256,192,125393,1,0,0:0:0:0:
36,192,125393,1,0,0:0:0:100:kick_s.wav
475,192,125560,128,0,125893:0:0:0:0:
36,192,125727,1,0,0:0:0:100:kick_s.wav
256,192,125893,128,0,126227:0:0:0:0:
36,192,126060,1,0,0:0:0:100:kick_s.wav
402,192,126227,1,0,0:0:0:0:
182,192,126393,1,0,0:0:0:0:
36,192,126393,1,0,0:0:0:100:kick_s.wav
402,192,126560,128,0,127060:0:0:0:0:
36,192,126727,1,0,0:0:0:100:kick_s.wav
36,192,126893,1,0,0:0:0:100:kick_s.wav
36,192,127060,1,0,0:0:0:100:kick_s.wav
256,192,127227,1,0,0:0:0:0:
36,192,127393,1,0,0:0:0:100:kick_s.wav
402,192,127393,1,0,0:0:0:0:
256,192,127560,1,0,0:0:0:0:
475,192,127727,1,0,0:0:0:0:
36,192,127727,1,0,0:0:0:100:kick_s.wav
329,192,127893,1,0,0:0:0:0:
182,192,128060,1,0,0:0:0:0:
36,192,128060,1,0,0:0:0:100:kick_s.wav
402,192,128227,128,0,129393:0:0:0:0:
36,192,128393,1,0,0:0:0:100:kick_s.wav
182,192,128560,1,0,0:0:0:100:kick_s.wav
109,192,128643,1,0,0:0:0:100:kick_s.wav
36,192,128727,1,0,0:0:0:100:kick_s.wav
36,192,128893,1,0,0:0:0:100:kick_s.wav
36,192,129060,1,0,0:0:0:100:kick_s.wav
182,192,129060,1,0,0:0:0:100:bb_j.wav
256,192,129060,1,0,0:0:0:0:
182,192,129393,1,0,0:0:0:100:bb_j.wav
256,192,129393,1,0,0:0:0:0:
36,192,129393,128,0,129727:0:0:0:0:
475,192,129727,1,0,0:0:0:100:kick_s.wav
329,192,129727,128,0,130060:0:0:0:0:
475,192,130060,1,0,0:0:0:100:kick_s.wav
182,192,130060,128,0,130393:0:0:0:0:
475,192,130393,1,0,0:0:0:100:kick_s.wav
109,192,130393,1,0,0:0:0:0:
256,192,130560,1,0,0:0:0:0:
475,192,130727,1,0,0:0:0:100:kick_s.wav
329,192,130893,128,0,131227:0:0:0:0:
475,192,131060,1,0,0:0:0:100:kick_s.wav
109,192,131227,128,0,131560:0:0:0:0:
475,192,131393,1,0,0:0:0:100:kick_s.wav
182,192,131560,1,0,0:0:0:0:
475,192,131727,1,0,0:0:0:100:kick_s.wav
36,192,131727,1,0,0:0:0:0:
182,192,131893,128,0,132393:0:0:0:0:
475,192,132060,1,0,0:0:0:100:kick_s.wav
475,192,132227,1,0,0:0:0:100:kick_s.wav
475,192,132393,1,0,0:0:0:100:kick_s.wav
256,192,132560,128,0,132893:0:0:0:0:
475,192,132727,1,0,0:0:0:100:kick_s.wav
36,192,132893,1,0,0:0:0:0:
182,192,133060,1,0,0:0:0:0:
475,192,133060,1,0,0:0:0:100:kick_s.wav
329,192,133227,1,0,0:0:0:0:
475,192,133393,1,0,0:0:0:100:kick_s.wav
182,192,133393,1,0,0:0:0:0:
329,192,133560,128,0,134393:0:0:0:0:
475,192,133727,1,0,0:0:0:100:kick_s.wav
475,192,134060,1,0,0:0:0:100:kick_s.wav
475,192,134393,1,0,0:0:0:100:kick_s.wav
182,192,134560,1,0,0:0:0:100:kick_s.wav
109,192,134643,1,0,0:0:0:100:kick_s.wav
36,192,134727,1,0,0:0:0:100:kick_s.wav
36,192,134893,1,0,0:0:0:100:kick_s.wav
36,192,135060,1,0,0:0:0:100:kick_s.wav
402,192,135060,128,0,135393:0:0:0:0:
36,192,135393,1,0,0:0:0:100:kick_s.wav
182,192,135393,1,0,0:0:0:0:
402,192,135560,1,0,0:0:0:0:
36,192,135727,1,0,0:0:0:100:kick_s.wav
182,192,135727,128,0,136060:0:0:0:0:
36,192,136060,1,0,0:0:0:100:kick_s.wav
329,192,136060,1,0,0:0:0:0:
475,192,136227,128,0,136560:0:0:0:0:
36,192,136393,1,0,0:0:0:100:kick_s.wav
182,192,136560,1,0,0:0:0:0:
36,192,136727,1,0,0:0:0:100:kick_s.wav
329,192,136727,1,0,0:0:0:0:
475,192,136893,1,0,0:0:0:0:
36,192,137060,1,0,0:0:0:100:kick_s.wav
402,192,137060,1,0,0:0:0:0:
329,192,137227,128,0,137727:0:0:0:0:
36,192,137393,1,0,0:0:0:100:kick_s.wav
109,192,137560,1,0,0:0:0:100:kick_s.wav
36,192,137727,1,0,0:0:0:100:kick_s.wav
256,192,137727,1,0,0:0:0:0:
109,192,137893,1,0,0:0:0:100:kick_s.wav
402,192,137893,128,0,138060:0:0:0:0:
256,192,138060,1,0,0:0:0:0:
36,192,138060,1,0,0:0:0:100:kick_s.wav
109,192,138227,1,0,0:0:0:100:kick_s.wav
402,192,138227,128,0,138393:0:0:0:0:
36,192,138393,1,0,0:0:0:100:kick_s.wav
256,192,138393,1,0,0:0:0:0:
109,192,138477,1,0,0:0:0:100:kick_s.wav
182,192,138560,1,0,0:0:0:100:kick_s.wav
329,192,138560,1,0,0:0:0:0:
109,192,138643,1,0,0:0:0:100:kick_s.wav
402,192,138727,1,0,0:0:0:0:
36,192,138727,128,0,139060:0:0:0:100:normal-hitclap9.wav
475,192,138893,1,0,0:0:0:0:
182,192,139060,1,0,0:0:0:100:normal-hitclap9.wav
329,192,139060,1,0,0:0:0:100:kick.wav
109,192,139393,1,0,0:0:0:70:kick.wav
256,192,139727,1,0,0:0:0:70:kick.wav
402,192,140060,1,0,0:0:0:70:kick.wav
36,192,140060,1,0,0:0:0:100:kick_s.wav
36,192,140227,1,0,0:0:0:100:kick_s.wav
36,192,140393,1,0,0:0:0:100:kick_s.wav
182,192,140393,1,0,0:0:0:0:
475,192,140393,1,0,0:0:0:0:
329,192,140560,1,0,0:0:0:0:
402,192,140727,1,0,0:0:0:0:
36,192,140727,1,0,0:0:0:100:kick_s.wav
256,192,140893,1,0,0:0:0:0:
182,192,140893,1,0,0:0:0:0:
475,192,141060,1,0,0:0:0:0:
36,192,141060,1,0,0:0:0:100:kick_s.wav
402,192,141227,1,0,0:0:0:0:
329,192,141393,1,0,0:0:0:0:
36,192,141393,1,0,0:0:0:100:kick_s.wav
36,192,141727,1,0,0:0:0:100:kick_s.wav
475,192,141727,1,0,0:0:0:0:
329,192,141893,1,0,0:0:0:0:
402,192,142060,1,0,0:0:0:0:
36,192,142060,1,0,0:0:0:100:kick_s.wav
256,192,142227,1,0,0:0:0:0:
36,192,142393,1,0,0:0:0:100:kick_s.wav
475,192,142393,1,0,0:0:0:0:
402,192,142560,1,0,0:0:0:0:
109,192,142560,1,0,0:0:0:0:
36,192,142727,1,0,0:0:0:100:kick_s.wav
182,192,142727,1,0,0:0:0:0:
329,192,142727,1,0,0:0:0:0:
256,192,142893,1,0,0:0:0:100:kick_s.wav
109,192,142893,1,0,0:0:0:0:kick_s.wav
329,192,143060,1,0,0:0:0:0:
182,192,143060,1,0,0:0:0:0:kick_s.wav
475,192,143060,1,0,0:0:0:100:kick_s.wav
109,192,143227,1,0,0:0:0:0:
475,192,143393,1,0,0:0:0:100:kick_s.wav
182,192,143393,1,0,0:0:0:0:
109,192,143560,1,0,0:0:0:0:
329,192,143560,1,0,0:0:0:0:
475,192,143727,1,0,0:0:0:100:kick_s.wav
109,192,143727,1,0,0:0:0:0:
36,192,143893,1,0,0:0:0:0:
182,192,144060,1,0,0:0:0:0:
475,192,144060,1,0,0:0:0:100:kick_s.wav
475,192,144393,1,0,0:0:0:100:kick_s.wav
109,192,144393,1,0,0:0:0:0:
256,192,144477,1,0,0:0:0:0:
256,192,144643,1,0,0:0:0:0:
475,192,144727,1,0,0:0:0:100:kick_s.wav
36,192,144810,1,0,0:0:0:0:
182,192,144893,1,0,0:0:0:0:
36,192,144977,1,0,0:0:0:0:
475,192,145060,1,0,0:0:0:100:kick_s.wav
182,192,145060,1,0,0:0:0:0:
36,192,145227,1,0,0:0:0:0:
329,192,145227,1,0,0:0:0:100:kick_s.wav
402,192,145310,1,0,0:0:0:100:kick_s.wav
182,192,145393,1,0,0:0:0:0:
475,192,145393,128,0,145727:0:0:0:100:normal-hitclap9.wav
36,192,145560,1,0,0:0:0:0:
182,192,145727,1,0,0:0:0:100:kick_s.wav
329,192,145727,1,0,0:0:0:0:
256,192,145893,1,0,0:0:0:0:
402,192,146060,1,0,0:0:0:0:
36,192,146060,1,0,0:0:0:100:kick_s.wav
182,192,146227,1,0,0:0:0:0:
36,192,146393,1,0,0:0:0:100:kick_s.wav
475,192,146393,1,0,0:0:0:0:
329,192,146560,1,0,0:0:0:0:
402,192,146727,1,0,0:0:0:0:
36,192,146727,1,0,0:0:0:100:kick_s.wav
256,192,146893,1,0,0:0:0:0:
36,192,147060,1,0,0:0:0:100:kick_s.wav
475,192,147060,1,0,0:0:0:0:
329,192,147227,1,0,0:0:0:0:
36,192,147393,1,0,0:0:0:100:kick_s.wav
402,192,147393,1,0,0:0:0:0:
256,192,147560,1,0,0:0:0:0:
36,192,147727,1,0,0:0:0:100:kick_s.wav
475,192,147727,1,0,0:0:0:0:
402,192,147893,1,0,0:0:0:0:
329,192,148060,1,0,0:0:0:0:
36,192,148060,1,0,0:0:0:100:kick_s.wav
36,192,148227,1,0,0:0:0:100:kick_s.wav
36,192,148393,1,0,0:0:0:100:kick_s.wav
256,192,148393,1,0,0:0:0:0:
329,192,148393,1,0,0:0:0:0:
109,192,148560,1,0,0:0:0:100:kick_s.wav
475,192,148727,1,0,0:0:0:100:kick_s.wav
402,192,148727,1,0,0:0:0:100:bb_j.wav
256,192,148727,1,0,0:0:0:0:
109,192,148893,1,0,0:0:0:0:
329,192,148893,1,0,0:0:0:0:
36,192,149060,1,0,0:0:0:0:
475,192,149060,1,0,0:0:0:100:kick_s.wav
36,192,149227,1,0,0:0:0:0:
182,192,149393,1,0,0:0:0:0:
402,192,149393,1,0,0:0:0:100:normal-hitclap9.wav
475,192,149393,1,0,0:0:0:100:kick_s.wav
109,192,149560,1,0,0:0:0:0:
256,192,149727,1,0,0:0:0:0:
475,192,149727,1,0,0:0:0:100:kick_s.wav
109,192,149893,1,0,0:0:0:0:
182,192,149977,1,0,0:0:0:0:
256,192,150060,1,0,0:0:0:0:
402,192,150060,1,0,0:0:0:100:kick.wav
475,192,150060,1,0,0:0:0:100:kick_s.wav
109,192,150227,1,0,0:0:0:0:
475,192,150393,1,0,0:0:0:100:kick_s.wav
182,192,150393,1,0,0:0:0:0:
475,192,150560,1,0,0:0:0:100:kick_s.wav
36,192,150560,1,0,0:0:0:0:
475,192,150727,1,0,0:0:0:100:kick_s.wav
182,192,150727,1,0,0:0:0:0:
475,192,150893,1,0,0:0:0:100:kick_s.wav
36,192,150893,1,0,0:0:0:0:
475,192,151060,1,0,0:0:0:100:kick_s.wav
109,192,151060,1,0,0:0:0:100:cym_a.wav
256,192,151060,1,0,0:0:0:100:cym_b.wav
329,192,151227,1,0,0:0:0:0:
402,192,151393,1,0,0:0:0:0:
36,192,151393,1,0,0:0:0:100:kick_s.wav
256,192,151560,1,0,0:0:0:0:
109,192,151560,1,0,0:0:0:0:
36,192,151727,1,0,0:0:0:100:kick_s.wav
475,192,151727,1,0,0:0:0:0:
402,192,151893,1,0,0:0:0:0:
329,192,152060,1,0,0:0:0:0:
36,192,152060,1,0,0:0:0:100:kick_s.wav
36,192,152393,1,0,0:0:0:100:kick_s.wav
402,192,152393,1,0,0:0:0:0:
256,192,152560,1,0,0:0:0:0:
36,192,152727,1,0,0:0:0:100:kick_s.wav
402,192,152727,1,0,0:0:0:0:
256,192,152893,128,0,153060:0:0:0:0:
36,192,153060,1,0,0:0:0:100:kick_s.wav
475,192,153060,1,0,0:0:0:0:
402,192,153227,1,0,0:0:0:0:
109,192,153227,1,0,0:0:0:0:
329,192,153393,1,0,0:0:0:100:kick.wav
36,192,153393,1,0,0:0:0:100:kick_s.wav
182,192,153393,1,0,0:0:0:100:normal-hitclap9.wav
475,192,153393,1,0,0:0:0:0:
256,192,153560,1,0,0:0:0:0:
475,192,153727,1,0,0:0:0:100:kick_s.wav
182,192,153727,1,0,0:0:0:0:
329,192,153727,1,0,0:0:0:0:
109,192,153893,1,0,0:0:0:0:
182,192,154060,1,0,0:0:0:0:
475,192,154060,1,0,0:0:0:100:kick_s.wav
36,192,154227,1,0,0:0:0:0:
329,192,154227,1,0,0:0:0:0:
36,192,154393,1,0,0:0:0:0:
475,192,154393,1,0,0:0:0:100:kick_s.wav
402,192,154560,128,0,154727:0:0:0:0:
109,192,154727,1,0,0:0:0:0:
475,192,154727,1,0,0:0:0:100:kick_s.wav
475,192,155060,1,0,0:0:0:100:kick_s.wav
36,192,155060,1,0,0:0:0:0:
109,192,155143,1,0,0:0:0:0:
182,192,155227,1,0,0:0:0:0:
182,192,155393,1,0,0:0:0:0:
475,192,155393,1,0,0:0:0:100:kick_s.wav
256,192,155477,1,0,0:0:0:0:
109,192,155560,1,0,0:0:0:0:
256,192,155643,1,0,0:0:0:0:
475,192,155727,1,0,0:0:0:100:kick_s.wav
109,192,155727,1,0,0:0:0:0:
402,192,155727,1,0,0:0:0:100:bb_j.wav
329,192,155727,128,0,155893:0:0:0:0:
182,192,155893,128,0,156060:0:0:0:0:
256,192,156060,128,0,156227:0:0:0:0:
402,192,156060,1,0,0:0:0:100:bb_j.wav
475,192,156060,1,0,0:0:0:100:kick_s.wav
109,192,156227,128,0,156393:0:0:0:0:
36,192,156393,1,0,0:0:0:100:kick_s.wav
475,192,156393,1,0,0:0:0:0:
329,192,156560,1,0,0:0:0:0:
182,192,156560,1,0,0:0:0:0:
182,192,156643,1,0,0:0:0:0:
36,192,156727,1,0,0:0:0:100:kick_s.wav
402,192,156727,1,0,0:0:0:0:
256,192,156893,1,0,0:0:0:0:
475,192,157060,1,0,0:0:0:0:
36,192,157060,1,0,0:0:0:100:kick_s.wav
329,192,157227,1,0,0:0:0:0:
402,192,157393,1,0,0:0:0:0:
36,192,157393,1,0,0:0:0:100:kick_s.wav
256,192,157560,1,0,0:0:0:0:
36,192,157727,1,0,0:0:0:100:kick_s.wav
475,192,157727,1,0,0:0:0:0:
182,192,157727,1,0,0:0:0:0:
182,192,157810,1,0,0:0:0:0:
329,192,157893,1,0,0:0:0:0:
182,192,157977,1,0,0:0:0:0:
402,192,158060,1,0,0:0:0:0:
36,192,158060,1,0,0:0:0:100:kick_s.wav
256,192,158227,1,0,0:0:0:0:
36,192,158393,1,0,0:0:0:100:kick_s.wav
475,192,158393,1,0,0:0:0:0:
402,192,158560,1,0,0:0:0:0:
329,192,158727,128,0,159060:0:0:0:0:
36,192,158727,1,0,0:0:0:100:kick_s.wav
182,192,159060,1,0,0:0:0:0:
475,192,159060,1,0,0:0:0:100:bb_i.wav
402,192,159143,1,0,0:0:0:100:bb_i.wav
36,192,159227,1,0,0:0:0:0:
329,192,159227,1,0,0:0:0:100:bb_i.wav
402,192,159393,128,0,159560:0:0:0:100:normal-hitclap9.wav
182,192,159393,1,0,0:0:0:0:
36,192,159560,1,0,0:0:0:0:
109,192,159560,128,0,159727:0:0:0:100:kick.wav
256,192,159727,1,0,0:0:0:100:bb_i.wav
475,192,159727,1,0,0:0:0:0:
182,192,159810,1,0,0:0:0:100:bb_i.wav
109,192,159893,1,0,0:0:0:100:bb_i.wav
329,192,159893,1,0,0:0:0:0:
36,192,159977,1,0,0:0:0:100:bb_i.wav
475,192,160060,1,0,0:0:0:0:
182,192,160060,1,0,0:0:0:100:bb_j.wav
182,192,160227,1,0,0:0:0:100:bb_j.wav
329,192,160227,1,0,0:0:0:0:
109,192,160310,1,0,0:0:0:100:bb_i.wav
182,192,160393,1,0,0:0:0:0:
36,192,160393,1,0,0:0:0:100:bb_i.wav
329,192,160560,1,0,0:0:0:0:
36,192,160560,1,0,0:0:0:100:bb_i.wav
109,192,160727,1,0,0:0:0:100:bb_j.wav
475,192,160727,1,0,0:0:0:0:
36,192,160727,1,0,0:0:0:100:bb_i.wav
182,192,160893,1,0,0:0:0:100:bb_i.wav
109,192,160977,1,0,0:0:0:100:bb_i.wav
36,192,161060,1,0,0:0:0:100:bb_i.wav
475,192,161060,1,0,0:0:0:0:
182,192,161143,1,0,0:0:0:100:bb_i.wav
109,192,161227,1,0,0:0:0:100:bb_i.wav
402,192,161227,1,0,0:0:0:0:
36,192,161310,1,0,0:0:0:100:bb_i.wav
182,192,161393,1,0,0:0:0:100:bb_j.wav
329,192,161393,1,0,0:0:0:0:
256,192,161393,1,0,0:0:0:0:
109,192,161727,1,0,0:0:0:0:
475,192,161727,1,0,0:0:0:0:
402,192,161727,128,0,163060:0:0:0:0:
329,192,161893,1,0,0:0:0:0:
36,192,162060,1,0,0:0:0:0:
182,192,162143,1,0,0:0:0:0:
475,192,162310,1,0,0:0:0:0:
329,192,162560,1,0,0:0:0:0:
36,192,162727,1,0,0:0:0:0:
182,192,162810,1,0,0:0:0:0:
475,192,162977,1,0,0:0:0:0:
329,192,163060,128,0,164393:0:0:0:0:
182,192,163227,1,0,0:0:0:0:
256,192,163393,1,0,0:0:0:0:
109,192,163477,1,0,0:0:0:0:
36,192,163643,1,0,0:0:0:0:
475,192,163893,1,0,0:0:0:0:
182,192,164060,1,0,0:0:0:0:
36,192,164227,1,0,0:0:0:0:
182,192,164393,1,0,0:0:0:0:
256,192,164393,128,0,165727:0:0:0:0:
36,192,164560,1,0,0:0:0:0:
329,192,164727,1,0,0:0:0:0:
475,192,164810,1,0,0:0:0:0:
109,192,164977,1,0,0:0:0:0:
329,192,165227,1,0,0:0:0:0:
182,192,165393,1,0,0:0:0:0:
329,192,165560,1,0,0:0:0:0:
402,192,165727,1,0,0:0:0:0:
182,192,165727,128,0,167060:0:0:0:0:
109,192,165893,1,0,0:0:0:0:
36,192,166060,1,0,0:0:0:0:
329,192,166143,1,0,0:0:0:0:
475,192,166310,1,0,0:0:0:0:
109,192,166560,1,0,0:0:0:0:
256,192,166727,1,0,0:0:0:0:
402,192,166893,1,0,0:0:0:0:
475,192,167060,1,0,0:0:0:0:
36,192,167060,128,0,168393:0:0:0:0:
329,192,167227,1,0,0:0:0:0:
109,192,167393,1,0,0:0:0:0:
256,192,167477,1,0,0:0:0:0:
475,192,167643,1,0,0:0:0:0:
329,192,167893,1,0,0:0:0:0:
109,192,168060,1,0,0:0:0:0:
256,192,168143,1,0,0:0:0:0:
475,192,168310,1,0,0:0:0:0:
109,192,168393,128,0,169727:0:0:0:0:
256,192,168560,1,0,0:0:0:0:
475,192,168727,1,0,0:0:0:0:
329,192,168810,1,0,0:0:0:0:
182,192,168977,1,0,0:0:0:0:
36,192,169227,1,0,0:0:0:0:
182,192,169393,1,0,0:0:0:0:
329,192,169560,1,0,0:0:0:0:
256,192,169727,1,0,0:0:0:0:
402,192,169727,128,0,171060:0:0:0:0:
182,192,169893,1,0,0:0:0:0:
36,192,170060,1,0,0:0:0:0:
182,192,170143,1,0,0:0:0:0:
329,192,170310,1,0,0:0:0:0:
182,192,170560,1,0,0:0:0:0:
109,192,170727,1,0,0:0:0:0:
256,192,170810,1,0,0:0:0:0:
329,192,170977,1,0,0:0:0:0:
36,192,171060,128,0,172393:0:0:0:0:
475,192,171227,1,0,0:0:0:0:
256,192,171393,1,0,0:0:0:0:
475,192,171560,1,0,0:0:0:0:
256,192,171727,1,0,0:0:0:0:
182,192,172060,1,0,0:0:0:0:
329,192,172227,1,0,0:0:0:0:
256,192,172393,1,0,0:0:0:0:
475,192,172393,1,0,0:0:0:0:
329,192,172560,1,0,0:0:0:0:
109,192,172727,1,0,0:0:0:0:
36,192,172727,1,0,0:0:0:100:bb_i.wav
256,192,172810,1,0,0:0:0:0:
475,192,172977,1,0,0:0:0:0:
36,192,173060,1,0,0:0:0:100:bb_i.wav
329,192,173227,1,0,0:0:0:0:
36,192,173393,1,0,0:0:0:100:bb_i.wav
109,192,173393,1,0,0:0:0:0:
256,192,173477,1,0,0:0:0:0:
475,192,173643,1,0,0:0:0:0:
36,192,173727,1,0,0:0:0:100:bb_i.wav
182,192,173893,1,0,0:0:0:0:
36,192,174060,1,0,0:0:0:100:bb_i.wav
475,192,174060,1,0,0:0:0:0:
329,192,174143,1,0,0:0:0:0:
109,192,174310,1,0,0:0:0:0:
36,192,174393,1,0,0:0:0:100:bb_i.wav
475,192,174560,1,0,0:0:0:0:
329,192,174727,1,0,0:0:0:0:
36,192,174727,1,0,0:0:0:100:bb_i.wav
182,192,174893,1,0,0:0:0:0:
329,192,175060,1,0,0:0:0:0:
36,192,175060,1,0,0:0:0:100:bb_i.wav
182,192,175227,1,0,0:0:0:0:
36,192,175393,1,0,0:0:0:100:bb_i.wav
329,192,175393,1,0,0:0:0:0:
475,192,175477,1,0,0:0:0:0:
182,192,175643,1,0,0:0:0:0:
36,192,175727,1,0,0:0:0:100:bb_i.wav
256,192,175893,1,0,0:0:0:0:
109,192,176060,1,0,0:0:0:0:
36,192,176060,1,0,0:0:0:100:bb_i.wav
256,192,176227,1,0,0:0:0:0:
475,192,176393,1,0,0:0:0:0:
36,192,176393,1,0,0:0:0:100:bb_i.wav
329,192,176560,1,0,0:0:0:0:
109,192,176727,1,0,0:0:0:0:
36,192,176727,1,0,0:0:0:100:bb_i.wav
256,192,176810,1,0,0:0:0:0:
402,192,176977,1,0,0:0:0:0:
36,192,177060,1,0,0:0:0:100:bb_i.wav
182,192,177227,1,0,0:0:0:0:
256,192,177393,1,0,0:0:0:0:
36,192,177393,1,0,0:0:0:100:bb_i.wav
329,192,177560,1,0,0:0:0:0:
36,192,177727,1,0,0:0:0:100:bb_i.wav
475,192,177727,1,0,0:0:0:0:
329,192,177893,1,0,0:0:0:0:
182,192,177893,1,0,0:0:0:100:bb_i.wav
36,192,178060,1,0,0:0:0:100:bb_i.wav
256,192,178060,1,0,0:0:0:0:
402,192,178143,1,0,0:0:0:0:
182,192,178227,1,0,0:0:0:100:bb_i.wav
475,192,178310,1,0,0:0:0:0:
36,192,178393,1,0,0:0:0:100:bb_i.wav
329,192,178560,1,0,0:0:0:0:
182,192,178560,1,0,0:0:0:100:bb_i.wav
36,192,178727,1,0,0:0:0:100:bb_i.wav
256,192,178727,1,0,0:0:0:0:
402,192,178810,1,0,0:0:0:0:
182,192,178893,1,0,0:0:0:100:bb_i.wav
475,192,178977,1,0,0:0:0:0:
36,192,179060,1,0,0:0:0:100:bb_i.wav
182,192,179227,1,0,0:0:0:100:bb_i.wav
256,192,179227,1,0,0:0:0:0:
36,192,179393,1,0,0:0:0:100:bb_i.wav
329,192,179393,1,0,0:0:0:0:
475,192,179477,1,0,0:0:0:0:
182,192,179560,1,0,0:0:0:100:bb_i.wav
402,192,179643,1,0,0:0:0:0:
36,192,179727,1,0,0:0:0:100:bb_i.wav
256,192,179893,1,0,0:0:0:0:
182,192,179893,1,0,0:0:0:100:bb_i.wav
36,192,180060,1,0,0:0:0:100:bb_i.wav
329,192,180060,1,0,0:0:0:0:
402,192,180227,1,0,0:0:0:0:
182,192,180227,1,0,0:0:0:100:bb_i.wav
475,192,180393,1,0,0:0:0:0:
36,192,180393,1,0,0:0:0:100:bb_i.wav
109,192,180477,1,0,0:0:0:100:bb_i.wav
182,192,180560,1,0,0:0:0:100:bb_i.wav
329,192,180560,1,0,0:0:0:0:
256,192,180643,1,0,0:0:0:100:bb_i.wav
182,192,180727,1,0,0:0:0:100:bb_i.wav
329,192,180727,1,0,0:0:0:0:
109,192,180810,1,0,0:0:0:100:bb_i.wav
475,192,180810,1,0,0:0:0:0:
36,192,180893,1,0,0:0:0:100:bb_i.wav
402,192,180977,1,0,0:0:0:0:
109,192,180977,1,0,0:0:0:100:bb_i.wav
182,192,181060,1,0,0:0:0:100:bb_i.wav
256,192,181143,1,0,0:0:0:100:bb_i.wav
329,192,181227,1,0,0:0:0:100:bb_i.wav
36,192,181227,1,0,0:0:0:0:
402,192,181310,1,0,0:0:0:100:bb_i.wav
475,192,181393,1,0,0:0:0:100:bb_i.wav
109,192,181393,1,0,0:0:0:0:
256,192,181477,1,0,0:0:0:0:
402,192,181477,1,0,0:0:0:100:bb_i.wav
329,192,181560,1,0,0:0:0:100:bb_i.wav
256,192,181643,1,0,0:0:0:100:bb_i.wav
109,192,181643,1,0,0:0:0:0:
36,192,181727,1,0,0:0:0:100:bb_i.wav
182,192,181727,1,0,0:0:0:100:bb_i.wav
36,192,181893,1,0,0:0:0:100:bb_i.wav
329,192,181893,1,0,0:0:0:0:
36,192,182060,1,0,0:0:0:100:bb_i.wav
475,192,182060,1,0,0:0:0:0:
109,192,182060,1,0,0:0:0:100:bb_j.wav
182,192,182227,1,0,0:0:0:100:bb_i.wav
109,192,182310,1,0,0:0:0:100:bb_i.wav
475,192,182393,1,0,0:0:0:0:
36,192,182393,1,0,0:0:0:100:bb_i.wav
182,192,182477,1,0,0:0:0:100:bb_i.wav
402,192,182560,1,0,0:0:0:0:
109,192,182560,1,0,0:0:0:100:bb_i.wav
36,192,182643,1,0,0:0:0:100:bb_i.wav
256,192,182727,1,0,0:0:0:0:
329,192,182727,1,0,0:0:0:0:
182,192,182727,1,0,0:0:0:100:bb_j.wav
36,192,183060,1,0,0:0:0:100:kick_s.wav
475,192,183060,1,0,0:0:0:0:
329,192,183227,1,0,0:0:0:0:
109,192,183393,1,0,0:0:0:0:
36,192,183393,1,0,0:0:0:100:kick_s.wav
256,192,183477,1,0,0:0:0:0:
475,192,183643,1,0,0:0:0:0:
36,192,183727,1,0,0:0:0:100:kick_s.wav
329,192,183893,1,0,0:0:0:0:
109,192,184060,1,0,0:0:0:0:
36,192,184060,1,0,0:0:0:100:kick_s.wav
256,192,184143,1,0,0:0:0:0:
475,192,184310,1,0,0:0:0:0:
36,192,184393,1,0,0:0:0:100:kick_s.wav
329,192,184560,1,0,0:0:0:0:
36,192,184727,1,0,0:0:0:100:kick_s.wav
109,192,184727,1,0,0:0:0:0:
256,192,184810,1,0,0:0:0:0:
475,192,184977,1,0,0:0:0:0:
36,192,185060,1,0,0:0:0:100:kick_s.wav
329,192,185227,1,0,0:0:0:0:
402,192,185393,1,0,0:0:0:0:
36,192,185393,1,0,0:0:0:100:kick_s.wav
256,192,185477,1,0,0:0:0:0:
475,192,185560,1,0,0:0:0:0:
36,192,185560,1,0,0:0:0:100:kick_s.wav
36,192,185727,1,0,0:0:0:100:kick_s.wav
475,192,185727,1,0,0:0:0:0:
329,192,185893,1,0,0:0:0:0:
36,192,186060,1,0,0:0:0:100:kick_s.wav
109,192,186060,1,0,0:0:0:0:
256,192,186143,1,0,0:0:0:0:
475,192,186310,1,0,0:0:0:0:
36,192,186393,1,0,0:0:0:100:kick_s.wav
109,192,186560,1,0,0:0:0:0:
182,192,186727,1,0,0:0:0:0:
36,192,186727,1,0,0:0:0:100:kick_s.wav
329,192,186810,1,0,0:0:0:0:
256,192,186977,1,0,0:0:0:0:
36,192,187060,1,0,0:0:0:100:kick_s.wav
109,192,187227,1,0,0:0:0:0:
256,192,187393,1,0,0:0:0:0:
36,192,187393,1,0,0:0:0:100:kick_s.wav
402,192,187477,1,0,0:0:0:0:
475,192,187643,1,0,0:0:0:0:
36,192,187727,1,0,0:0:0:100:kick_s.wav
256,192,187893,1,0,0:0:0:0:
36,192,187893,1,0,0:0:0:100:kick_s.wav
109,192,187977,1,0,0:0:0:100:kick_s.wav
329,192,188060,1,0,0:0:0:0:
182,192,188060,1,0,0:0:0:100:kick_s.wav
36,192,188227,1,0,0:0:0:100:kick_s.wav
402,192,188227,1,0,0:0:0:0:
475,192,188393,1,0,0:0:0:0:
36,192,188393,1,0,0:0:0:100:kick_s.wav
329,192,188560,1,0,0:0:0:0:
109,192,188727,1,0,0:0:0:0:
36,192,188727,1,0,0:0:0:100:kick_s.wav
256,192,188810,1,0,0:0:0:0:
475,192,188977,1,0,0:0:0:0:
36,192,189060,1,0,0:0:0:100:kick_s.wav
329,192,189227,1,0,0:0:0:0:
36,192,189393,1,0,0:0:0:100:kick_s.wav
109,192,189393,1,0,0:0:0:0:
256,192,189477,1,0,0:0:0:0:
475,192,189643,1,0,0:0:0:0:
36,192,189727,1,0,0:0:0:100:kick_s.wav
329,192,189893,1,0,0:0:0:0:
36,192,190060,1,0,0:0:0:100:kick_s.wav
109,192,190060,1,0,0:0:0:0:
256,192,190143,1,0,0:0:0:0:
475,192,190310,1,0,0:0:0:0:
36,192,190393,1,0,0:0:0:100:kick_s.wav
329,192,190560,1,0,0:0:0:0:
402,192,190727,1,0,0:0:0:0:
36,192,190727,1,0,0:0:0:100:kick_s.wav
256,192,190810,1,0,0:0:0:0:
36,192,190893,1,0,0:0:0:100:kick_s.wav
475,192,190893,1,0,0:0:0:0:
475,192,191060,1,0,0:0:0:0:
36,192,191060,1,0,0:0:0:100:kick_s.wav
329,192,191227,1,0,0:0:0:0:
36,192,191393,1,0,0:0:0:100:kick_s.wav
109,192,191393,1,0,0:0:0:0:
256,192,191477,1,0,0:0:0:0:
475,192,191643,1,0,0:0:0:0:
36,192,191727,1,0,0:0:0:100:kick_s.wav
329,192,191893,1,0,0:0:0:0:
109,192,192060,1,0,0:0:0:0:
36,192,192060,1,0,0:0:0:100:kick_s.wav
256,192,192143,1,0,0:0:0:0:
182,192,192310,1,0,0:0:0:0:
36,192,192393,1,0,0:0:0:100:kick_s.wav
329,192,192560,1,0,0:0:0:0:
36,192,192560,1,0,0:0:0:100:kick_s.wav
109,192,192643,1,0,0:0:0:100:kick_s.wav
182,192,192727,1,0,0:0:0:100:kick_s.wav
475,192,192727,1,0,0:0:0:0:
329,192,192810,1,0,0:0:0:0:
36,192,192893,1,0,0:0:0:100:kick_s.wav
402,192,192977,1,0,0:0:0:0:
109,192,193060,1,0,0:0:0:100:bb_j.wav
36,192,193060,1,0,0:0:0:100:kick_s.wav
475,192,193227,1,0,0:0:0:0:
109,192,193393,1,0,0:0:0:100:bb_j.wav
36,192,193393,1,0,0:0:0:100:kick_s.wav
329,192,193393,1,0,0:0:0:0:
182,192,193560,1,0,0:0:0:0:
329,192,193727,1,0,0:0:0:0:
475,192,193727,1,0,0:0:0:100:kick_s.wav
256,192,193893,1,0,0:0:0:0:
475,192,194060,1,0,0:0:0:100:kick_s.wav
36,192,194060,1,0,0:0:0:0:
182,192,194143,1,0,0:0:0:0:
329,192,194310,1,0,0:0:0:0:
475,192,194393,1,0,0:0:0:100:kick_s.wav
256,192,194560,1,0,0:0:0:0:
36,192,194727,1,0,0:0:0:0:
475,192,194727,1,0,0:0:0:100:kick_s.wav
182,192,194810,1,0,0:0:0:0:
329,192,194977,1,0,0:0:0:0:
475,192,195060,1,0,0:0:0:100:kick_s.wav
256,192,195227,1,0,0:0:0:0:
36,192,195393,1,0,0:0:0:0:
475,192,195393,1,0,0:0:0:100:kick_s.wav
182,192,195477,1,0,0:0:0:0:
329,192,195643,1,0,0:0:0:0:
475,192,195727,1,0,0:0:0:100:kick_s.wav
182,192,195893,1,0,0:0:0:0:
475,192,196060,1,0,0:0:0:100:kick_s.wav
256,192,196060,1,0,0:0:0:0:
109,192,196143,1,0,0:0:0:0:
475,192,196227,1,0,0:0:0:100:kick_s.wav
329,192,196227,1,0,0:0:0:0:
329,192,196393,1,0,0:0:0:0:
475,192,196393,1,0,0:0:0:100:kick_s.wav
256,192,196560,1,0,0:0:0:0:
475,192,196727,1,0,0:0:0:100:kick_s.wav
36,192,196727,1,0,0:0:0:0:
182,192,196810,1,0,0:0:0:0:
329,192,196977,1,0,0:0:0:0:
475,192,197060,1,0,0:0:0:100:kick_s.wav
36,192,197227,1,0,0:0:0:0:
475,192,197393,1,0,0:0:0:100:kick_s.wav
109,192,197393,1,0,0:0:0:0:
256,192,197477,1,0,0:0:0:0:
182,192,197643,1,0,0:0:0:0:
475,192,197727,1,0,0:0:0:100:kick_s.wav
36,192,197893,1,0,0:0:0:0:
109,192,198060,1,0,0:0:0:0:
475,192,198060,1,0,0:0:0:100:kick_s.wav
256,192,198143,1,0,0:0:0:0:
329,192,198310,1,0,0:0:0:0:
475,192,198393,1,0,0:0:0:100:kick_s.wav
475,192,198560,1,0,0:0:0:100:kick_s.wav
109,192,198560,1,0,0:0:0:0:
402,192,198643,1,0,0:0:0:100:kick_s.wav
329,192,198727,1,0,0:0:0:100:kick_s.wav
182,192,198727,1,0,0:0:0:0:
475,192,198893,1,0,0:0:0:100:kick_s.wav
256,192,198893,1,0,0:0:0:0:
329,192,199060,1,0,0:0:0:0:
475,192,199060,1,0,0:0:0:100:kick_s.wav
256,192,199227,1,0,0:0:0:0:
36,192,199393,1,0,0:0:0:0:
475,192,199393,1,0,0:0:0:100:kick_s.wav
182,192,199477,1,0,0:0:0:0:
329,192,199643,1,0,0:0:0:0:
475,192,199727,1,0,0:0:0:100:kick_s.wav
256,192,199893,1,0,0:0:0:0:
475,192,200060,1,0,0:0:0:100:kick_s.wav
36,192,200060,1,0,0:0:0:0:
182,192,200143,1,0,0:0:0:0:
329,192,200310,1,0,0:0:0:0:
475,192,200393,1,0,0:0:0:100:kick_s.wav
256,192,200560,1,0,0:0:0:0:
475,192,200727,1,0,0:0:0:100:kick_s.wav
36,192,200727,1,0,0:0:0:0:
182,192,200810,1,0,0:0:0:0:
329,192,200977,1,0,0:0:0:0:
475,192,201060,1,0,0:0:0:100:kick_s.wav
182,192,201227,1,0,0:0:0:0:
475,192,201393,1,0,0:0:0:100:kick_s.wav
256,192,201393,1,0,0:0:0:0:
109,192,201477,1,0,0:0:0:0:
475,192,201560,1,0,0:0:0:100:kick_s.wav
329,192,201560,1,0,0:0:0:0:
329,192,201727,1,0,0:0:0:0:
475,192,201727,1,0,0:0:0:100:kick_s.wav
256,192,201893,1,0,0:0:0:0:
36,192,202060,1,0,0:0:0:0:
475,192,202060,1,0,0:0:0:100:kick_s.wav
182,192,202143,1,0,0:0:0:0:
329,192,202310,1,0,0:0:0:0:
475,192,202393,1,0,0:0:0:100:kick_s.wav
256,192,202560,1,0,0:0:0:0:
475,192,202727,1,0,0:0:0:100:kick_s.wav
36,192,202727,1,0,0:0:0:0:
182,192,202810,1,0,0:0:0:0:
109,192,202977,1,0,0:0:0:0:
475,192,203060,128,0,203727:0:0:0:100:normal-hitclap9.wav
329,192,203227,1,0,0:0:0:0:
256,192,203393,1,0,0:0:0:0:
109,192,203477,1,0,0:0:0:0:
182,192,203643,1,0,0:0:0:0:
402,192,203727,1,0,0:0:0:100:bb_j.wav
36,192,203810,1,0,0:0:0:0:
182,192,203893,1,0,0:0:0:0:
109,192,203977,1,0,0:0:0:0:
402,192,204060,1,0,0:0:0:100:bb_j.wav
475,192,204060,1,0,0:0:0:0:
256,192,204060,1,0,0:0:0:0:
36,192,204060,128,0,204393:0:0:0:0:
475,192,204393,1,0,0:0:0:100:kick_s.wav
329,192,204393,128,0,204727:0:0:0:0:
475,192,204727,1,0,0:0:0:100:kick_s.wav
182,192,204727,128,0,205060:0:0:0:0:
475,192,205060,1,0,0:0:0:100:kick_s.wav
109,192,205060,1,0,0:0:0:0:
256,192,205227,1,0,0:0:0:0:
475,192,205393,1,0,0:0:0:100:kick_s.wav
329,192,205560,128,0,205893:0:0:0:0:
475,192,205727,1,0,0:0:0:100:kick_s.wav
109,192,205893,128,0,206227:0:0:0:0:
475,192,206060,1,0,0:0:0:100:kick_s.wav
182,192,206227,1,0,0:0:0:0:
475,192,206393,1,0,0:0:0:100:kick_s.wav
36,192,206393,1,0,0:0:0:0:
182,192,206560,128,0,207060:0:0:0:0:
475,192,206727,1,0,0:0:0:100:kick_s.wav
475,192,206893,1,0,0:0:0:100:kick_s.wav
475,192,207060,1,0,0:0:0:100:kick_s.wav
256,192,207227,128,0,207560:0:0:0:0:
475,192,207393,1,0,0:0:0:100:kick_s.wav
36,192,207560,1,0,0:0:0:0:
475,192,207727,1,0,0:0:0:100:kick_s.wav
182,192,207727,1,0,0:0:0:0:
329,192,207893,1,0,0:0:0:0:
475,192,208060,1,0,0:0:0:100:kick_s.wav
182,192,208060,1,0,0:0:0:0:
329,192,208227,128,0,209060:0:0:0:0:
475,192,208393,1,0,0:0:0:100:kick_s.wav
475,192,208727,1,0,0:0:0:100:kick_s.wav
475,192,209060,1,0,0:0:0:100:kick_s.wav
182,192,209227,1,0,0:0:0:100:kick_s.wav
109,192,209310,1,0,0:0:0:100:kick_s.wav
36,192,209393,1,0,0:0:0:100:kick_s.wav
36,192,209560,1,0,0:0:0:100:kick_s.wav
36,192,209727,1,0,0:0:0:100:kick_s.wav
402,192,209727,128,0,210060:0:0:0:0:
36,192,210060,1,0,0:0:0:100:kick_s.wav
182,192,210060,1,0,0:0:0:0:
402,192,210227,1,0,0:0:0:0:
36,192,210393,1,0,0:0:0:100:kick_s.wav
182,192,210393,128,0,210727:0:0:0:0:
36,192,210727,1,0,0:0:0:100:kick_s.wav
256,192,210727,1,0,0:0:0:0:
475,192,210893,128,0,211227:0:0:0:0:
36,192,211060,1,0,0:0:0:100:kick_s.wav
256,192,211227,128,0,211560:0:0:0:0:
36,192,211393,1,0,0:0:0:100:kick_s.wav
402,192,211560,1,0,0:0:0:0:
36,192,211727,1,0,0:0:0:100:kick_s.wav
182,192,211727,1,0,0:0:0:0:
402,192,211893,128,0,212393:0:0:0:0:
36,192,212060,1,0,0:0:0:100:kick_s.wav
36,192,212227,1,0,0:0:0:100:kick_s.wav
36,192,212393,1,0,0:0:0:100:kick_s.wav
256,192,212560,1,0,0:0:0:0:
402,192,212727,1,0,0:0:0:0:
36,192,212727,1,0,0:0:0:100:kick_s.wav
256,192,212893,1,0,0:0:0:0:
36,192,213060,1,0,0:0:0:100:kick_s.wav
475,192,213060,1,0,0:0:0:0:
329,192,213227,1,0,0:0:0:0:
36,192,213393,1,0,0:0:0:100:kick_s.wav
182,192,213393,1,0,0:0:0:0:
402,192,213560,128,0,214727:0:0:0:0:
36,192,213727,1,0,0:0:0:100:kick_s.wav
182,192,213893,1,0,0:0:0:100:kick_s.wav
109,192,213977,1,0,0:0:0:100:kick_s.wav
36,192,214060,1,0,0:0:0:100:kick_s.wav
36,192,214227,1,0,0:0:0:100:kick_s.wav
36,192,214393,1,0,0:0:0:100:kick_s.wav
256,192,214393,1,0,0:0:0:0:
182,192,214393,1,0,0:0:0:100:bb_j.wav
182,192,214727,1,0,0:0:0:100:bb_j.wav
256,192,214727,1,0,0:0:0:0:
36,192,214727,128,0,215060:0:0:0:0:
475,192,215060,1,0,0:0:0:100:bb_i.wav
329,192,215060,128,0,215393:0:0:0:0:
475,192,215393,1,0,0:0:0:100:bb_i.wav
182,192,215393,128,0,215727:0:0:0:0:
475,192,215727,1,0,0:0:0:100:bb_i.wav
109,192,215727,1,0,0:0:0:0:
256,192,215893,1,0,0:0:0:0:
475,192,216060,1,0,0:0:0:100:bb_i.wav
329,192,216227,128,0,216560:0:0:0:0:
475,192,216393,1,0,0:0:0:100:bb_i.wav
109,192,216560,128,0,216893:0:0:0:0:
475,192,216727,1,0,0:0:0:100:bb_i.wav
182,192,216893,1,0,0:0:0:0:
475,192,217060,1,0,0:0:0:100:bb_i.wav
36,192,217060,1,0,0:0:0:0:
182,192,217227,128,0,217727:0:0:0:0:
475,192,217393,1,0,0:0:0:100:bb_i.wav
475,192,217560,1,0,0:0:0:100:bb_i.wav
475,192,217727,1,0,0:0:0:100:bb_i.wav
256,192,217893,128,0,218227:0:0:0:0:
475,192,218060,1,0,0:0:0:100:bb_i.wav
36,192,218227,1,0,0:0:0:0:
475,192,218393,1,0,0:0:0:100:bb_i.wav
182,192,218393,1,0,0:0:0:0:
329,192,218560,1,0,0:0:0:0:
182,192,218727,1,0,0:0:0:0:
475,192,218727,1,0,0:0:0:100:bb_i.wav
329,192,218893,128,0,219727:0:0:0:0:
475,192,219060,1,0,0:0:0:100:bb_i.wav
475,192,219393,1,0,0:0:0:100:bb_i.wav
475,192,219727,1,0,0:0:0:100:bb_i.wav
182,192,219893,1,0,0:0:0:100:bb_i.wav
109,192,219977,1,0,0:0:0:100:bb_i.wav
36,192,220060,1,0,0:0:0:100:bb_i.wav
36,192,220227,1,0,0:0:0:100:bb_i.wav
36,192,220393,1,0,0:0:0:100:bb_i.wav
475,192,220393,128,0,220727:0:0:0:0:
182,192,220560,1,0,0:0:0:100:bb_i.wav
36,192,220727,1,0,0:0:0:100:bb_i.wav
329,192,220727,1,0,0:0:0:0:
402,192,220893,1,0,0:0:0:0:
182,192,220893,1,0,0:0:0:100:bb_i.wav
36,192,221060,1,0,0:0:0:100:bb_i.wav
475,192,221060,128,0,221393:0:0:0:0:
182,192,221227,1,0,0:0:0:100:bb_i.wav
36,192,221393,1,0,0:0:0:100:bb_i.wav
329,192,221393,1,0,0:0:0:0:
182,192,221560,1,0,0:0:0:100:bb_i.wav
475,192,221560,128,0,221893:0:0:0:0:
36,192,221727,1,0,0:0:0:100:bb_i.wav
329,192,221893,1,0,0:0:0:0:
182,192,221893,1,0,0:0:0:100:bb_i.wav
402,192,222060,1,0,0:0:0:0:
36,192,222060,1,0,0:0:0:100:bb_i.wav
475,192,222227,1,0,0:0:0:0:
182,192,222227,1,0,0:0:0:100:bb_i.wav
36,192,222393,1,0,0:0:0:100:bb_i.wav
402,192,222393,1,0,0:0:0:0:
182,192,222560,1,0,0:0:0:100:bb_i.wav
329,192,222560,128,0,223060:0:0:0:0:
36,192,222727,1,0,0:0:0:100:bb_i.wav
36,192,222893,1,0,0:0:0:100:bb_i.wav
36,192,223060,1,0,0:0:0:100:bb_i.wav
109,192,223143,1,0,0:0:0:100:bb_i.wav
182,192,223227,1,0,0:0:0:100:bb_i.wav
402,192,223227,128,0,223393:0:0:0:0:
256,192,223310,1,0,0:0:0:100:bb_i.wav
36,192,223393,1,0,0:0:0:100:bb_i.wav
109,192,223477,1,0,0:0:0:100:bb_i.wav
182,192,223560,1,0,0:0:0:100:bb_i.wav
402,192,223560,128,0,223727:0:0:0:0:
256,192,223643,1,0,0:0:0:100:bb_i.wav
36,192,223727,1,0,0:0:0:100:bb_i.wav
109,192,223810,1,0,0:0:0:100:bb_i.wav
182,192,223893,1,0,0:0:0:100:bb_i.wav
329,192,223893,1,0,0:0:0:0:
109,192,223977,1,0,0:0:0:100:bb_i.wav
36,192,224060,128,0,224393:0:0:0:100:normal-hitclap9.wav
402,192,224060,1,0,0:0:0:0:
475,192,224227,1,0,0:0:0:0:
329,192,224393,1,0,0:0:0:100:kick.wav
182,192,224393,1,0,0:0:0:0:
109,192,224727,1,0,0:0:0:100:kick.wav
256,192,225060,1,0,0:0:0:100:kick.wav
402,192,225393,1,0,0:0:0:100:kick.wav
36,192,225727,1,0,0:0:0:0:
256,192,225727,1,0,0:0:0:0:
475,192,225727,1,0,0:0:0:100:kick_s.wav
475,192,226060,1,0,0:0:0:100:kick_s.wav
256,192,226227,1,0,0:0:0:0:
36,192,226227,1,0,0:0:0:0:
36,192,226393,1,0,0:0:0:0:
256,192,226393,1,0,0:0:0:0:
475,192,226393,1,0,0:0:0:100:kick_s.wav
475,192,226727,1,0,0:0:0:100:kick_s.wav
475,192,227060,1,0,0:0:0:100:kick_s.wav
475,192,227393,1,0,0:0:0:100:kick_s.wav
475,192,227727,1,0,0:0:0:100:kick_s.wav
36,192,227893,1,0,0:0:0:0:
182,192,227893,1,0,0:0:0:0:
475,192,228060,1,0,0:0:0:100:kick_s.wav
109,192,228060,1,0,0:0:0:0:
256,192,228060,1,0,0:0:0:0:
475,192,228227,1,0,0:0:0:100:kick_s.wav
182,192,228227,1,0,0:0:0:0:
329,192,228227,1,0,0:0:0:0:
475,192,228393,1,0,0:0:0:100:kick_s.wav
36,192,228393,1,0,0:0:0:0:
256,192,228393,1,0,0:0:0:0:
475,192,228727,1,0,0:0:0:100:kick_s.wav
36,192,228893,1,0,0:0:0:0:
256,192,228893,1,0,0:0:0:0:
475,192,229060,1,0,0:0:0:100:kick_s.wav
36,192,229060,1,0,0:0:0:0:
256,192,229060,1,0,0:0:0:0:
475,192,229393,1,0,0:0:0:100:kick_s.wav
475,192,229727,1,0,0:0:0:100:kick_s.wav
475,192,230060,1,0,0:0:0:100:kick_s.wav
475,192,230393,1,0,0:0:0:100:kick_s.wav
36,192,230560,1,0,0:0:0:0:
329,192,230560,1,0,0:0:0:100:kick_s.wav
182,192,230560,1,0,0:0:0:0:
402,192,230643,1,0,0:0:0:100:kick_s.wav
109,192,230727,1,0,0:0:0:0:
475,192,230727,128,0,231060:0:0:0:100:normal-hitclap9.wav
256,192,230727,1,0,0:0:0:0:
182,192,230893,1,0,0:0:0:0:
329,192,230893,1,0,0:0:0:0:
402,192,231060,1,0,0:0:0:0:
36,192,231060,1,0,0:0:0:0:
256,192,231060,1,0,0:0:0:0:
475,192,231393,1,0,0:0:0:100:kick_s.wav
36,192,231560,1,0,0:0:0:0:
256,192,231560,1,0,0:0:0:0:
36,192,231727,1,0,0:0:0:0:
256,192,231727,1,0,0:0:0:0:
475,192,231727,1,0,0:0:0:100:kick_s.wav
475,192,232060,1,0,0:0:0:100:kick_s.wav
475,192,232393,1,0,0:0:0:100:kick_s.wav
475,192,232727,1,0,0:0:0:100:kick_s.wav
475,192,233060,1,0,0:0:0:100:kick_s.wav
36,192,233227,1,0,0:0:0:0:
182,192,233227,1,0,0:0:0:0:
475,192,233393,1,0,0:0:0:100:kick_s.wav
109,192,233393,1,0,0:0:0:0:
256,192,233393,1,0,0:0:0:0:
475,192,233560,1,0,0:0:0:100:kick_s.wav
182,192,233560,1,0,0:0:0:0:
329,192,233560,1,0,0:0:0:0:
475,192,233727,1,0,0:0:0:100:kick_s.wav
36,192,233727,1,0,0:0:0:0:
256,192,233727,1,0,0:0:0:0:
402,192,234060,1,0,0:0:0:100:bb_j.wav
475,192,234060,1,0,0:0:0:100:kick_s.wav
256,192,234227,1,0,0:0:0:0:
36,192,234227,1,0,0:0:0:0:
475,192,234393,1,0,0:0:0:100:kick_s.wav
36,192,234393,1,0,0:0:0:0:
256,192,234393,1,0,0:0:0:0:
475,192,234727,1,0,0:0:0:100:kick_s.wav
402,192,234727,1,0,0:0:0:100:bb_j.wav
475,192,235060,1,0,0:0:0:100:kick_s.wav
36,192,235060,1,0,0:0:0:0:
109,192,235227,1,0,0:0:0:0:
402,192,235393,1,0,0:0:0:100:bb_j.wav
475,192,235393,1,0,0:0:0:100:kick_s.wav
182,192,235393,1,0,0:0:0:0:
475,192,235727,1,0,0:0:0:100:kick_s.wav
182,192,235727,1,0,0:0:0:0:
475,192,235893,1,0,0:0:0:100:kick_s.wav
109,192,235893,1,0,0:0:0:0:
256,192,235893,1,0,0:0:0:0:
475,192,236060,1,0,0:0:0:100:kick_s.wav
36,192,236060,1,0,0:0:0:0:
329,192,236060,1,0,0:0:0:0:
182,192,236060,1,0,0:0:0:0:
402,192,236227,1,0,0:0:0:0:
256,192,236227,1,0,0:0:0:0:
36,192,236393,1,0,0:0:0:100:cym_b.wav
475,192,236393,1,0,0:0:0:0:
256,192,236393,1,0,0:0:0:0:
36,192,236727,1,0,0:0:0:100:kick_s.wav
256,192,236893,1,0,0:0:0:0:
475,192,236893,1,0,0:0:0:0:
36,192,237060,1,0,0:0:0:100:kick_s.wav
256,192,237060,1,0,0:0:0:0:
475,192,237060,1,0,0:0:0:0:
36,192,237393,1,0,0:0:0:100:kick_s.wav
36,192,237727,1,0,0:0:0:100:kick_s.wav
36,192,238060,1,0,0:0:0:100:kick_s.wav
36,192,238393,1,0,0:0:0:100:kick_s.wav
329,192,238560,1,0,0:0:0:0:
182,192,238560,1,0,0:0:0:0:
36,192,238727,1,0,0:0:0:100:kick_s.wav
256,192,238727,1,0,0:0:0:0:
402,192,238727,1,0,0:0:0:0:
475,192,238893,1,0,0:0:0:0:
329,192,238893,1,0,0:0:0:0:
36,192,239060,1,0,0:0:0:100:kick_s.wav
256,192,239060,1,0,0:0:0:0:
475,192,239060,1,0,0:0:0:0:
36,192,239393,1,0,0:0:0:100:kick_s.wav
256,192,239560,1,0,0:0:0:0:
475,192,239560,1,0,0:0:0:0:
36,192,239727,1,0,0:0:0:100:kick_s.wav
256,192,239727,1,0,0:0:0:0:
475,192,239727,1,0,0:0:0:0:
36,192,239893,1,0,0:0:0:100:kick_s.wav
36,192,240060,1,0,0:0:0:100:kick_s.wav
36,192,240393,1,0,0:0:0:100:kick_s.wav
36,192,240727,1,0,0:0:0:100:kick_s.wav
36,192,241060,1,0,0:0:0:100:kick_s.wav
109,192,241060,1,0,0:0:0:100:bb_j.wav
182,192,241227,1,0,0:0:0:0:
329,192,241227,1,0,0:0:0:0:
36,192,241393,128,0,241727:0:0:0:100:normal-hitclap9.wav
256,192,241393,1,0,0:0:0:0:
402,192,241393,1,0,0:0:0:0:
329,192,241560,1,0,0:0:0:0:
475,192,241560,1,0,0:0:0:0:
182,192,241727,1,0,0:0:0:100:bb_j.wav
256,192,241727,1,0,0:0:0:0:
475,192,241727,1,0,0:0:0:0:
36,192,241893,1,0,0:0:0:100:bb_i.wav
182,192,242060,1,0,0:0:0:100:bb_i.wav
256,192,242227,1,0,0:0:0:0:
475,192,242227,1,0,0:0:0:0:
36,192,242227,1,0,0:0:0:100:bb_i.wav
256,192,242393,1,0,0:0:0:0:
475,192,242393,1,0,0:0:0:0:
182,192,242393,1,0,0:0:0:100:bb_i.wav
36,192,242560,1,0,0:0:0:100:bb_i.wav
182,192,242727,1,0,0:0:0:100:bb_i.wav
36,192,242893,1,0,0:0:0:100:bb_i.wav
182,192,243060,1,0,0:0:0:100:bb_i.wav
36,192,243227,1,0,0:0:0:100:bb_i.wav
182,192,243393,1,0,0:0:0:100:bb_i.wav
36,192,243560,128,0,243727:0:0:0:100:normal-hitclap9.wav
182,192,243727,1,0,0:0:0:100:bb_i.wav
36,192,243893,1,0,0:0:0:100:bb_i.wav
256,192,243893,1,0,0:0:0:0:
329,192,243893,1,0,0:0:0:0:
182,192,244060,1,0,0:0:0:100:bb_i.wav
329,192,244060,1,0,0:0:0:0:
402,192,244060,1,0,0:0:0:0:
402,192,244227,1,0,0:0:0:0:
475,192,244227,1,0,0:0:0:0:
36,192,244227,1,0,0:0:0:100:bb_i.wav
182,192,244393,1,0,0:0:0:100:bb_i.wav
36,192,244477,1,0,0:0:0:100:bb_i.wav
182,192,244560,1,0,0:0:0:100:bb_i.wav
36,192,244643,1,0,0:0:0:100:bb_i.wav
329,192,244727,128,0,244893:0:0:0:100:normal-hitclap9.wav
182,192,244893,128,0,245060:0:0:0:100:bb_i.wav
402,192,245060,1,0,0:0:0:100:bb_i.wav
109,192,245143,1,0,0:0:0:100:bb_i.wav
402,192,245227,1,0,0:0:0:100:bb_i.wav
109,192,245310,1,0,0:0:0:100:bb_i.wav
329,192,245393,1,0,0:0:0:100:bb_i.wav
475,192,245393,1,0,0:0:0:100:normal-hitclap9.wav
36,192,245393,1,0,0:0:0:100:normal-hitclap9.wav
182,192,245477,1,0,0:0:0:100:bb_i.wav
475,192,245560,1,0,0:0:0:100:normal-hitclap9.wav
36,192,245560,1,0,0:0:0:100:normal-hitclap9.wav
329,192,245560,1,0,0:0:0:100:bb_i.wav
182,192,245643,1,0,0:0:0:100:bb_i.wav
36,192,245727,128,0,248560:0:0:0:0:kick.wav
475,192,245727,128,0,248560:0:0:0:0:kick.wav
329,192,245727,1,0,0:0:0:100:bb_i.wav
256,192,246727,128,0,248560:0:0:0:0:normal-hitclap9.wav
109,192,247727,128,0,248560:0:0:0:0:
402,192,248060,128,0,248560:0:0:0:0:
182,192,248560,1,0,0:0:0:70:kick_s.wav
329,192,248560,1,0,0:0:0:70:kick_s.wav
