osu file format v14

[General]
AudioFilename: audio.mp3
AudioLeadIn: 0
PreviewTime: 72014
Countdown: 1
SampleSet: Normal
StackLeniency: 0.7
Mode: 1
LetterboxInBreaks: 0
WidescreenStoryboard: 1

[Editor]
Bookmarks: 11335,20023,28711,37399,46086,63462,72150,89525,106901
DistanceSpacing: 0.9
BeatDivisor: 4
GridSize: 32
TimelineZoom: 4.099998

[Metadata]
Title:lEyl
TitleUnicode:lEyl
Artist:t+pazolite feat. incl*incr
ArtistUnicode:t+pazolite feat. incl*incr
Creator:[_Chichinya_]
Version:ADVANCED
Source:SOUND VOLTEX VIVID WAVE
Tags:SDVX VW tpz Tomoyuki Hamada 浜田知幸 Konami Amusement Bemani Electronic Rhythm Videogame Game Kqrth Mayazumi Sayaka Vulkin nyokota
BeatmapID:2297182
BeatmapSetID:944066

[Difficulty]
HPDrainRate:7
CircleSize:2
OverallDifficulty:2
ApproachRate:10
SliderMultiplier:1.4
SliderTickRate:1

[Events]
//Background and Video events
0,0,"illustration-white-hair-anime-anime-girls-glasses-original-characters-55202-wallhere.com (1) (1).jpg",0,0
//Break Periods
2,20248,28286
//Storyboard Layer 0 (Background)
//Storyboard Layer 1 (Fail)
//Storyboard Layer 2 (Pass)
//Storyboard Layer 3 (Foreground)
//Storyboard Layer 4 (Overlay)
//Storyboard Sound Samples

[TimingPoints]
501,271.493212669683,4,1,0,50,1,0
11360,-100,4,1,0,50,0,1
20048,-100,4,1,0,50,0,0
46111,-100,4,1,0,50,0,1
63487,-100,4,1,0,50,0,0
72175,-100,4,1,0,50,0,1
89279,-100,4,1,0,50,0,0
89550,-100,4,1,0,50,0,1
106926,-100,4,1,0,50,0,0

[HitObjects]
256,192,501,5,0,0:0:0:0:
256,192,636,1,0,0:0:0:0:
256,192,772,1,0,0:0:0:0:
256,192,908,1,8,0:0:0:0:
256,192,1043,1,8,0:0:0:0:
256,192,1179,1,0,0:0:0:0:
256,192,1315,1,0,0:0:0:0:
256,192,1451,1,8,0:0:0:0:
256,192,1586,1,0,0:0:0:0:
256,192,1722,1,8,0:0:0:0:
256,192,1858,1,0,0:0:0:0:
256,192,1994,1,8,0:0:0:0:
256,192,2265,1,8,0:0:0:0:
256,192,2333,1,8,0:0:0:0:
256,192,2401,1,8,0:0:0:0:
256,192,2537,1,8,0:0:0:0:
256,192,2672,1,4,0:0:0:0:
256,192,2944,1,8,0:0:0:0:
256,192,3080,1,0,0:0:0:0:
256,192,3351,1,8,0:0:0:0:
256,192,3487,1,0,0:0:0:0:
256,192,3555,1,0,0:0:0:0:
256,192,3623,1,0,0:0:0:0:
256,192,3758,1,8,0:0:0:0:
256,192,3894,1,0,0:0:0:0:
256,192,4166,1,8,0:0:0:0:
256,192,4301,1,8,0:0:0:0:
256,192,4437,1,0,0:0:0:0:
256,192,4573,1,8,0:0:0:0:
256,192,4709,1,8,0:0:0:0:
256,192,4844,1,0,0:0:0:0:
256,192,4980,1,8,0:0:0:0:
256,192,5048,1,8,0:0:0:0:
256,192,5116,1,8,0:0:0:0:
256,192,5252,1,0,0:0:0:0:
256,192,5523,1,0,0:0:0:0:
256,192,5659,1,8,0:0:0:0:
256,192,5795,1,8,0:0:0:0:
256,192,5930,1,8,0:0:0:0:
256,192,6202,1,0,0:0:0:0:
256,192,6338,1,0,0:0:0:0:
256,192,6405,1,0,0:0:0:0:
256,192,6473,1,0,0:0:0:0:
256,192,6609,1,0,0:0:0:0:
256,192,6745,1,8,0:0:0:0:
256,192,6813,1,8,0:0:0:0:
256,192,6881,1,8,0:0:0:0:
256,192,7016,1,0,0:0:0:0:
256,192,7695,1,0,0:0:0:0:
256,192,8102,1,0,0:0:0:0:
256,192,8781,1,8,0:0:0:0:
256,192,9188,1,8,0:0:0:0:
256,192,9867,1,8,0:0:0:0:
256,192,10274,1,0,0:0:0:0:
256,192,10817,1,8,0:0:0:0:
256,192,11360,1,0,0:0:0:0:
256,192,11632,1,8,0:0:0:0:
256,192,12175,1,8,0:0:0:0:
256,192,12446,1,0,0:0:0:0:
256,192,12718,1,8,0:0:0:0:
256,192,13261,1,8,0:0:0:0:
256,192,13532,1,0,0:0:0:0:
256,192,13804,1,8,0:0:0:0:
256,192,14347,1,0,0:0:0:0:
256,192,14618,1,8,0:0:0:0:
256,192,14890,1,0,0:0:0:0:
256,192,15161,1,0,0:0:0:0:
256,192,15433,1,8,0:0:0:0:
256,192,15704,1,0,0:0:0:0:
256,192,16519,1,8,0:0:0:0:
256,192,16790,1,0,0:0:0:0:
256,192,17062,1,0,0:0:0:0:
256,192,17605,1,0,0:0:0:0:
256,192,17876,1,8,0:0:0:0:
256,192,18419,1,0,0:0:0:0:
256,192,18962,1,8,0:0:0:0:
256,192,19234,1,0,0:0:0:0:
256,192,20048,1,12,0:0:0:0:
256,192,28736,5,0,0:0:0:0:
256,192,29007,1,8,0:0:0:0:
256,192,29550,1,8,0:0:0:0:
256,192,29822,1,0,0:0:0:0:
256,192,30636,1,8,0:0:0:0:
256,192,30908,1,0,0:0:0:0:
256,192,31451,1,8,0:0:0:0:
256,192,31994,1,0,0:0:0:0:
256,192,32265,1,8,0:0:0:0:
256,192,32808,1,8,0:0:0:0:
256,192,33080,1,0,0:0:0:0:
256,192,33894,1,8,0:0:0:0:
256,192,34166,1,0,0:0:0:0:
256,192,34709,1,8,0:0:0:0:
256,192,35252,1,0,0:0:0:0:
256,192,35523,1,8,0:0:0:0:
256,192,36066,1,8,0:0:0:0:
256,192,36338,1,0,0:0:0:0:
256,192,36881,1,8,0:0:0:0:
256,192,37424,1,0,0:0:0:0:
256,192,37831,1,0,0:0:0:0:
256,192,38510,1,0,0:0:0:0:
256,192,38917,1,0,0:0:0:0:
256,192,39596,1,0,0:0:0:0:
256,192,40003,1,0,0:0:0:0:
256,192,40681,1,0,0:0:0:0:
256,192,41089,1,0,0:0:0:0:
256,192,41767,1,0,0:0:0:0:
256,192,42310,1,8,0:0:0:0:
256,192,42853,1,0,0:0:0:0:
256,192,43396,1,8,0:0:0:0:
256,192,43939,1,0,0:0:0:0:
256,192,44211,1,8,0:0:0:0:
256,192,44482,1,0,0:0:0:0:
256,192,44754,1,0,0:0:0:0:
256,192,45025,1,8,0:0:0:0:
256,192,46111,1,0,0:0:0:0:
256,192,46315,1,8,0:0:0:0:
256,192,46519,1,0,0:0:0:0:
256,192,46926,1,8,0:0:0:0:
256,192,47197,1,0,0:0:0:0:
256,192,48283,1,8,0:0:0:0:
256,192,48487,1,0,0:0:0:0:
256,192,48691,1,8,0:0:0:0:
256,192,49369,1,8,0:0:0:0:
256,192,49912,1,0,0:0:0:0:
256,192,50184,1,8,0:0:0:0:
256,192,50455,1,0,0:0:0:0:
256,192,50659,1,8,0:0:0:0:
256,192,50862,1,0,0:0:0:0:
256,192,51541,1,0,0:0:0:0:
256,192,51948,1,8,0:0:0:0:
256,192,52356,1,8,0:0:0:0:
256,192,52627,1,0,0:0:0:0:
256,192,53713,1,8,0:0:0:0:
256,192,54256,1,8,0:0:0:0:
256,192,54799,1,0,0:0:0:0:
256,192,55003,1,8,0:0:0:0:
256,192,55206,1,0,0:0:0:0:
256,192,55885,1,0,0:0:0:0:
256,192,56292,1,8,0:0:0:0:
256,192,56971,1,8,0:0:0:0:
256,192,57175,1,0,0:0:0:0:
256,192,57378,1,8,0:0:0:0:
256,192,57786,1,8,0:0:0:0:
256,192,58057,1,0,0:0:0:0:
256,192,58600,1,0,0:0:0:0:
256,192,59143,1,0,0:0:0:0:
256,192,59347,1,8,0:0:0:0:
256,192,59550,1,0,0:0:0:0:
256,192,59958,1,8,0:0:0:0:
256,192,60229,1,8,0:0:0:0:
256,192,60908,1,8,0:0:0:0:
256,192,61043,1,8,0:0:0:0:
256,192,61315,1,0,0:0:0:0:
256,192,62401,1,8,0:0:0:0:
256,192,62944,1,8,0:0:0:0:
256,192,63215,1,8,0:0:0:0:
256,192,63487,1,0,0:0:0:0:
256,192,67559,1,8,0:0:0:0:
256,192,67831,1,0,0:0:0:0:
256,192,68374,1,0,0:0:0:0:
256,192,68917,1,0,0:0:0:0:
256,192,70003,1,0,0:0:0:0:
256,192,70274,1,8,0:0:0:0:
256,192,70546,1,0,0:0:0:0:
256,192,70817,1,8,0:0:0:0:
256,192,71089,1,0,0:0:0:0:
256,192,71903,1,8,0:0:0:0:
256,192,72175,1,0,0:0:0:0:
256,192,72446,1,8,0:0:0:0:
256,192,72853,1,8,0:0:0:0:
256,192,72989,1,8,0:0:0:0:
256,192,73261,1,0,0:0:0:0:
256,192,73804,1,8,0:0:0:0:
256,192,74347,1,0,0:0:0:0:
256,192,74618,1,8,0:0:0:0:
256,192,75025,1,8,0:0:0:0:
256,192,75161,1,8,0:0:0:0:
256,192,75433,1,0,0:0:0:0:
256,192,75976,1,8,0:0:0:0:
256,192,76519,1,0,0:0:0:0:
256,192,76790,1,8,0:0:0:0:
256,192,77197,1,8,0:0:0:0:
256,192,77333,1,0,0:0:0:0:
256,192,77605,1,8,0:0:0:0:
256,192,78148,1,8,0:0:0:0:
256,192,78691,1,0,0:0:0:0:
256,192,78962,1,8,0:0:0:0:
256,192,79369,1,8,0:0:0:0:
256,192,79505,1,0,0:0:0:0:
256,192,79777,1,8,0:0:0:0:
256,192,80184,1,0,0:0:0:0:
256,192,80591,1,8,0:0:0:0:
256,192,80862,1,0,0:0:0:0:
256,192,81134,1,8,0:0:0:0:
256,192,81541,1,8,0:0:0:0:
256,192,81677,1,8,0:0:0:0:
256,192,81948,1,0,0:0:0:0:
256,192,82491,1,8,0:0:0:0:
256,192,83034,1,8,0:0:0:0:
256,192,83306,1,8,0:0:0:0:
256,192,83713,1,8,0:0:0:0:
256,192,83849,1,8,0:0:0:0:
256,192,84120,1,0,0:0:0:0:
256,192,84663,1,8,0:0:0:0:
256,192,84935,1,8,0:0:0:0:
256,192,85206,1,0,0:0:0:0:
256,192,85478,1,8,0:0:0:0:
256,192,85885,1,8,0:0:0:0:
256,192,86021,1,8,0:0:0:0:
256,192,86292,1,0,0:0:0:0:
256,192,86835,1,8,0:0:0:0:
256,192,87107,1,8,0:0:0:0:
256,192,87378,1,0,0:0:0:0:
256,192,87921,1,8,0:0:0:0:
256,192,88464,1,0,0:0:0:0:
256,192,88736,1,8,0:0:0:0:
256,192,89007,1,0,0:0:0:0:
256,192,89279,1,12,0:0:0:0:
256,192,89550,1,8,0:0:0:0:
256,192,90093,1,8,0:0:0:0:
256,192,90636,1,0,0:0:0:0:
256,192,90908,1,0,0:0:0:0:
256,192,91179,1,8,0:0:0:0:
256,192,91451,1,8,0:0:0:0:
256,192,91722,1,8,0:0:0:0:
256,192,92265,1,0,0:0:0:0:
256,192,92808,1,0,0:0:0:0:
256,192,93080,1,8,0:0:0:0:
256,192,93351,1,0,0:0:0:0:
256,192,93894,1,0,0:0:0:0:
256,192,94437,1,8,0:0:0:0:
256,192,94980,1,0,0:0:0:0:
256,192,95252,1,8,0:0:0:0:
256,192,95523,1,8,0:0:0:0:
256,192,95795,1,8,0:0:0:0:
256,192,96066,1,0,0:0:0:0:
256,192,96609,1,0,0:0:0:0:
256,192,97152,1,8,0:0:0:0:
256,192,97695,1,0,0:0:0:0:
256,192,97967,1,0,0:0:0:0:
256,192,98238,1,0,0:0:0:0:
256,192,98781,1,8,0:0:0:0:
256,192,99324,1,0,0:0:0:0:
256,192,99867,1,8,0:0:0:0:
256,192,100139,1,0,0:0:0:0:
256,192,100410,1,8,0:0:0:0:
256,192,100681,1,8,0:0:0:0:
256,192,100953,1,0,0:0:0:0:
256,192,101496,1,8,0:0:0:0:
256,192,101767,1,8,0:0:0:0:
256,192,102039,1,0,0:0:0:0:
256,192,102582,1,8,0:0:0:0:
256,192,103125,1,0,0:0:0:0:
256,192,103668,1,8,0:0:0:0:
256,192,103939,1,0,0:0:0:0:
256,192,104211,1,8,0:0:0:0:
256,192,104482,1,8,0:0:0:0:
256,192,104754,1,0,0:0:0:0:
256,192,105297,1,8,0:0:0:0:
256,192,105840,1,0,0:0:0:0:
256,192,106111,1,8,0:0:0:0:
256,192,106383,1,8,0:0:0:0:
256,192,106926,1,0,0:0:0:0:
256,192,107333,1,0,0:0:0:0:
256,192,107740,1,0,0:0:0:0:
256,192,108012,1,0,0:0:0:0:
256,192,108419,1,0,0:0:0:0:
256,192,108826,1,0,0:0:0:0:
256,192,109098,1,0,0:0:0:0:
256,192,109505,1,0,0:0:0:0:
256,192,109912,1,0,0:0:0:0:
256,192,110184,1,0,0:0:0:0:
256,192,110591,1,0,0:0:0:0:
256,192,110998,1,0,0:0:0:0:
256,192,111270,1,0,0:0:0:0:
256,192,111813,1,0,0:0:0:0:
256,192,112356,1,0,0:0:0:0:
256,192,112899,1,8,0:0:0:0:
256,192,113442,1,0,0:0:0:0:
256,192,113713,1,8,0:0:0:0:
256,192,113985,1,0,0:0:0:0:
256,192,114799,1,8,0:0:0:0:
256,192,115071,1,8,0:0:0:0:
256,192,115342,1,0,0:0:0:0:
