osu file format v14

[General]
AudioFilename: audio.mp3
AudioLeadIn: 0
PreviewTime: 57927
Countdown: 0
SampleSet: Soft
StackLeniency: 0.7
Mode: 3
LetterboxInBreaks: 0
SpecialStyle: 0
WidescreenStoryboard: 1

[Editor]
Bookmarks: 846,12035,22414,30197,32792,40576,43170,45765,50954,58738,78197,79495,89873,100251,113224,118414,124900,133981,136576,145657,146954,156035,157332,167711
DistanceSpacing: 0.4
BeatDivisor: 4
GridSize: 16
TimelineZoom: 1.7

[Metadata]
Title:TOBIDASE! TO THE COSMIC!!
TitleUnicode:とびだせ!TO THE COSMIC!!
Artist:t+pazolite feat. Shama (CV: Tanezaki Atsumi) & Milk (CV: Ito Asuka)
ArtistUnicode:t+pazolite feat. しゃま (CV: 種﨑敦美) & みるく (CV: 伊藤あすか)
Creator:keksikosu
Version:CS' ADVANCED!!
Source:maimai でらっくす UNiVERSE
Tags:DX Japanese Video game rhythm electronic jpop j-pop pop Hideaki Tsutsumi tpz sega ツツミヒデアキ 宇宙すてーしょんちほー CHUNITHM NEW PLUS Critical_Star Drum-Hitnormal dudehacker Syadow- FAMoss
BeatmapID:3518270
BeatmapSetID:1721538

[Difficulty]
HPDrainRate:7
CircleSize:4
OverallDifficulty:7
ApproachRate:5
SliderMultiplier:1.4
SliderTickRate:1

[Events]
//Background and Video events
0,0,"BG.jpg",0,0
Video,650,"meow.mp4"
//Break Periods
//Storyboard Layer 0 (Background)
//Storyboard Layer 1 (Fail)
//Storyboard Layer 2 (Pass)
//Storyboard Layer 3 (Foreground)
//Storyboard Layer 4 (Overlay)
//Storyboard Sound Samples

[TimingPoints]
1654,324.324324324324,4,2,1,70,1,0
58735,-100,4,2,1,70,0,1
78194,-100,4,2,1,70,0,0
79491,-100,4,2,1,70,0,1
89870,-100,4,2,1,70,0,0
136572,-100,4,2,1,70,0,1
145653,-100,4,2,1,70,0,0
146951,-100,4,2,1,70,0,1
156032,-100,4,2,1,70,0,0
157329,-100,4,2,1,70,0,1
178086,-100,4,2,1,70,0,0

[HitObjects]
64,192,843,5,0,0:0:0:0:
320,192,1005,1,0,0:0:0:0:
192,192,1167,1,0,0:0:0:0:
448,192,1329,1,0,0:0:0:0:
64,192,1491,128,0,2302:0:0:0:0:
320,192,1654,1,0,0:0:0:0:
448,192,1978,1,0,0:0:0:0:
192,192,2302,1,0,0:0:0:0:
64,192,2626,1,0,0:0:0:0:
448,192,2789,128,0,3599:0:0:0:0:
192,192,2951,1,0,0:0:0:0:
64,192,3275,1,0,0:0:0:0:
320,192,3599,1,0,0:0:0:0:
64,192,3924,1,0,0:0:0:0:
192,192,4086,128,0,4572:0:0:0:0:
448,192,4248,1,0,0:0:0:0:
320,192,4572,1,0,0:0:0:0:
448,192,4735,128,0,5059:0:0:0:0:
64,192,4897,1,0,0:0:0:0:
192,192,5059,1,0,0:0:0:0:
320,192,5221,1,0,0:0:0:0:
64,192,5383,128,0,5708:0:0:0:0:
448,192,5545,1,0,0:0:0:0:
192,192,5870,1,0,0:0:0:0:
448,192,6032,1,0,0:0:0:0:
192,192,6194,1,0,0:0:0:0:
320,192,6356,1,0,0:0:0:0:
64,192,6518,1,0,0:0:0:0:
448,192,6681,128,0,7491:0:0:0:0:
192,192,6843,1,0,0:0:0:0:
64,192,7167,1,0,0:0:0:0:
320,192,7491,1,0,0:0:0:0:
448,192,7816,1,0,0:0:0:0:
64,192,7978,128,0,8789:0:0:0:0:
320,192,8140,1,0,0:0:0:0:
448,192,8464,1,0,0:0:0:0:
192,192,8789,1,0,0:0:0:0:
448,192,9113,1,0,0:0:0:0:
320,192,9275,128,0,9762:0:0:0:0:
64,192,9437,1,0,0:0:0:0:
192,192,9762,1,0,0:0:0:0:
64,192,9924,128,0,10248:0:0:0:0:
448,192,10086,1,0,0:0:0:0:
320,192,10248,1,0,0:0:0:0:
192,192,10410,1,0,0:0:0:0:
448,192,10572,128,0,11870:0:0:0:0:
64,192,10735,1,0,0:0:0:0:
320,192,11059,1,0,0:0:0:0:
192,192,11383,1,0,0:0:0:0:
64,192,11708,1,0,0:0:0:0:
192,192,11870,1,0,0:0:0:0:
320,192,12032,128,2,12356:0:0:0:0:
448,192,12032,1,4,0:0:0:0:
64,192,12356,1,8,0:0:0:0:
192,192,12518,1,0,0:0:0:0:
448,192,12681,1,2,0:0:0:0:
64,192,12843,1,0,0:0:0:0:
320,192,13005,1,8,0:0:0:0:
192,192,13167,1,0,0:0:0:0:
64,192,13329,1,2,0:0:0:0:
448,192,13329,1,0,0:0:0:0:
448,192,13491,1,0,0:0:0:0:
64,192,13653,1,8,0:0:0:0:
192,192,13816,1,0,0:0:0:0:
448,192,13978,1,2,0:0:0:0:
192,192,14140,1,0,0:0:0:0:
320,192,14302,1,8,0:0:0:0:
448,192,14464,1,0,0:0:0:0:
64,192,14626,1,2,0:0:0:0:
192,192,14626,1,0,0:0:0:0:
64,192,14789,1,0,0:0:0:0:
320,192,14951,1,8,0:0:0:0:
192,192,15113,1,0,0:0:0:0:
448,192,15275,1,2,0:0:0:0:
320,192,15437,1,0,0:0:0:0:
64,192,15599,1,8,0:0:0:0:
192,192,15762,1,0,0:0:0:0:
320,192,15924,1,2,0:0:0:0:
448,192,15924,1,0,0:0:0:0:
448,192,16086,1,0,0:0:0:0:
192,192,16248,1,8,0:0:0:0:
320,192,16410,1,0,0:0:0:0:
64,192,16572,1,2,0:0:0:0:
192,192,16735,1,0,0:0:0:0:
448,192,16897,1,0,0:0:0:70:LR_Drum Rim Fast.wav
320,192,17059,1,0,0:0:0:70:LR_Drum Rim Fast.wav
64,192,17221,128,2,17545:0:0:0:0:
192,192,17221,1,4,0:0:0:0:
320,192,17545,1,8,0:0:0:0:
192,192,17708,1,0,0:0:0:0:
448,192,17870,1,2,0:0:0:0:
64,192,18032,1,0,0:0:0:0:
192,192,18194,1,8,0:0:0:0:
320,192,18356,1,0,0:0:0:0:
64,192,18518,1,2,0:0:0:0:
448,192,18518,1,0,0:0:0:0:
448,192,18681,1,0,0:0:0:0:
192,192,18843,1,8,0:0:0:0:
64,192,19005,1,0,0:0:0:0:
320,192,19167,1,2,0:0:0:0:
448,192,19329,1,0,0:0:0:0:
192,192,19491,1,8,0:0:0:0:
320,192,19653,1,0,0:0:0:0:
64,192,19816,1,2,0:0:0:0:
448,192,19816,1,0,0:0:0:0:
64,192,19978,1,0,0:0:0:0:
320,192,20140,1,8,0:0:0:0:
192,192,20302,1,0,0:0:0:0:
448,192,20464,1,2,0:0:0:0:
64,192,20626,1,0,0:0:0:0:
448,192,20789,1,8,0:0:0:0:
320,192,20951,1,0,0:0:0:0:
64,192,21113,1,2,0:0:0:0:
192,192,21113,128,0,21356:0:0:0:0:
448,192,21356,1,0,0:0:0:70:LR_Drum Rim Fast.wav
64,192,21518,1,0,0:0:0:70:LR_Drum Rim Fast.wav
320,192,21599,128,2,21843:0:0:0:0:
448,192,21599,1,0,0:0:0:0:
64,192,21762,1,0,0:0:0:70:LR_Drum Rim Fast.wav
192,192,22005,1,0,0:0:0:70:LR_Drum Rim Fast.wav
64,192,22086,1,2,0:0:0:0:
448,192,22086,128,0,22410:0:0:0:0:
320,192,22248,1,0,0:0:0:70:LR_Drum Rim Fast.wav
64,192,22410,1,2,0:0:0:0:
192,192,22410,1,4,0:0:0:0:
320,192,22572,1,0,0:0:0:0:
448,192,22735,1,2,0:0:0:0:
192,192,22897,1,0,0:0:0:0:
448,192,23059,1,2,0:0:0:0:
64,192,23221,1,0,0:0:0:0:
320,192,23383,1,2,0:0:0:0:
192,192,23545,128,0,23708:0:0:0:0:
64,192,23708,1,2,0:0:0:0:
448,192,23708,128,0,23870:0:0:0:0:
192,192,24032,1,2,0:0:0:0:
320,192,24032,128,0,24194:0:0:0:0:
192,192,24356,128,2,24518:0:0:0:0:
448,192,24356,1,0,0:0:0:0:
64,192,24681,128,2,24843:0:0:0:0:
320,192,24681,1,0,0:0:0:0:
448,192,25005,1,2,0:0:0:0:
320,192,25167,1,0,0:0:0:0:
64,192,25329,1,2,0:0:0:0:
192,192,25491,1,0,0:0:0:0:
448,192,25653,1,2,0:0:0:0:
192,192,25816,1,0,0:0:0:0:
320,192,25978,1,2,0:0:0:0:
64,192,26140,1,0,0:0:0:0:
448,192,26302,1,2,0:0:0:0:
192,192,26464,1,0,0:0:0:0:
448,192,26626,1,2,0:0:0:0:
192,192,26789,1,0,0:0:0:0:
320,192,26951,1,2,0:0:0:0:
64,192,27113,1,0,0:0:0:0:
320,192,27275,1,2,0:0:0:0:
64,192,27437,1,0,0:0:0:0:
192,192,27599,1,2,0:0:0:0:
448,192,27599,1,4,0:0:0:0:
320,192,27762,1,0,0:0:0:0:
64,192,27924,1,2,0:0:0:0:
192,192,28086,1,0,0:0:0:0:
448,192,28248,1,2,0:0:0:0:
320,192,28410,1,0,0:0:0:0:
448,192,28572,1,2,0:0:0:0:
64,192,28735,1,0,0:0:0:0:
320,192,28897,1,2,0:0:0:0:
192,192,29059,1,0,0:0:0:0:
448,192,29221,1,2,0:0:0:0:
320,192,29383,1,0,0:0:0:0:
64,192,29545,1,2,0:0:0:0:
192,192,29708,1,0,0:0:0:0:
320,192,29870,1,2,0:0:0:0:
448,192,30032,1,0,0:0:0:0:
64,192,30194,128,2,31491:0:0:0:0:
192,192,30194,1,4,0:0:0:0:
448,192,30518,128,0,30843:0:0:0:0:
320,192,30843,1,2,0:0:0:0:
448,192,31005,1,0,0:0:0:0:
192,192,31167,1,0,0:0:0:0:
448,192,31329,1,0,0:0:0:0:
320,192,31491,1,2,0:0:0:0:
64,192,31653,1,0,0:0:0:0:
192,192,31816,1,0,0:0:0:0:
64,192,31978,1,0,0:0:0:0:
320,192,32140,1,2,0:0:0:0:
448,192,32302,1,0,0:0:0:0:
192,192,32464,1,0,0:0:0:30:LR_Drum Rim Fast.wav
448,192,32626,1,0,0:0:0:0:
192,192,32789,1,2,0:0:0:0:
320,192,32789,1,4,0:0:0:0:
64,192,32951,1,0,0:0:0:0:
320,192,33113,1,8,0:0:0:0:
448,192,33275,1,0,0:0:0:0:
192,192,33437,1,2,0:0:0:0:
320,192,33599,1,0,0:0:0:0:
64,192,33762,1,8,0:0:0:0:
448,192,33924,128,0,34086:0:0:0:0:
192,192,34086,1,2,0:0:0:0:
320,192,34248,1,0,0:0:0:0:
64,192,34410,128,8,34572:0:0:0:0:
192,192,34410,1,0,0:0:0:0:
448,192,34572,1,0,0:0:0:0:
64,192,34735,1,2,0:0:0:0:
192,192,34735,128,0,34897:0:0:0:0:
320,192,35059,128,8,35221:0:0:0:0:
448,192,35059,1,0,0:0:0:0:
64,192,35383,1,2,0:0:0:0:
448,192,35383,1,0,0:0:0:0:
320,192,35545,1,0,0:0:0:0:
64,192,35708,1,8,0:0:0:0:
192,192,35870,1,0,0:0:0:0:
448,192,36032,1,2,0:0:0:0:
192,192,36194,1,0,0:0:0:0:
320,192,36356,1,8,0:0:0:0:
448,192,36518,1,0,0:0:0:0:
64,192,36681,1,2,0:0:0:0:
320,192,36843,1,0,0:0:0:0:
64,192,37005,1,8,0:0:0:0:
320,192,37167,1,0,0:0:0:0:
192,192,37329,1,2,0:0:0:0:
448,192,37491,1,0,0:0:0:0:
192,192,37653,1,8,0:0:0:0:
448,192,37816,1,0,0:0:0:0:
64,192,37978,1,2,0:0:0:0:
192,192,37978,1,4,0:0:0:0:
320,192,38140,1,0,0:0:0:0:
448,192,38302,1,8,0:0:0:0:
320,192,38464,1,0,0:0:0:0:
192,192,38626,1,2,0:0:0:0:
64,192,38789,1,0,0:0:0:0:
320,192,38951,1,8,0:0:0:0:
448,192,39113,1,0,0:0:0:0:
64,192,39275,1,2,0:0:0:0:
320,192,39437,1,0,0:0:0:0:
192,192,39599,1,8,0:0:0:0:
64,192,39762,1,0,0:0:0:0:
448,192,39924,1,2,0:0:0:0:
192,192,40086,1,0,0:0:0:0:
320,192,40248,1,8,0:0:0:0:
64,192,40410,1,0,0:0:0:0:
320,192,40572,1,2,0:0:0:0:
448,192,40572,128,4,41870:0:0:0:0:
64,192,40897,128,0,41221:0:0:0:0:
192,192,41221,1,2,0:0:0:0:
64,192,41383,1,0,0:0:0:0:
320,192,41545,1,0,0:0:0:0:
64,192,41708,1,0,0:0:0:0:
192,192,41870,1,2,0:0:0:0:
448,192,42032,1,0,0:0:0:0:
320,192,42194,1,0,0:0:0:0:
448,192,42356,1,0,0:0:0:0:
64,192,42518,1,2,0:0:0:0:
448,192,42681,1,0,0:0:0:0:
192,192,42843,1,0,0:0:0:70:LR_J Hit Pong.wav
64,192,43167,1,4,0:0:0:0:
448,192,43167,1,2,0:0:0:0:
320,192,43329,1,0,0:0:0:0:
448,192,43491,1,2,0:0:0:0:
320,192,43653,1,0,0:0:0:0:
64,192,43816,1,2,0:0:0:0:
192,192,43978,1,0,0:0:0:0:
64,192,44140,1,2,0:0:0:0:
320,192,44302,1,0,0:0:0:0:
448,192,44464,1,2,0:0:0:0:
192,192,44626,1,2,0:0:0:0:
320,192,44789,1,2,0:0:0:0:
64,192,44951,1,2,0:0:0:0:
320,192,45113,1,2,0:0:0:0:
192,192,45275,1,2,0:0:0:0:
448,192,45437,1,2,0:0:0:0:
192,192,45599,1,2,0:0:0:0:
64,192,45762,128,2,46735:0:0:0:0:
448,192,45762,1,0,0:0:0:0:
192,192,46086,1,0,0:0:0:70:LR_J Hit.wav
448,192,46248,1,2,0:0:0:0:
448,192,46410,1,2,0:0:0:0:
448,192,46735,1,0,0:0:0:70:clap01_D.wav
320,192,46897,1,0,0:0:0:0:
64,192,47059,1,2,0:0:0:0:
192,192,47059,128,0,47708:0:0:0:0:
448,192,47383,1,0,0:0:0:70:LR_J Hit.wav
320,192,47545,1,2,0:0:0:0:
64,192,47708,1,2,0:0:0:0:
448,192,47708,128,0,47870:0:0:0:0:
192,192,48032,1,0,0:0:0:70:clap01_D.wav
320,192,48032,128,0,48194:0:0:0:0:
64,192,48356,1,2,0:0:0:0:
448,192,48356,128,0,48843:0:0:0:0:
192,192,48681,1,0,0:0:0:70:LR_J Hit.wav
320,192,48843,1,2,0:0:0:0:
64,192,49005,128,2,49491:0:0:0:0:
320,192,49005,1,0,0:0:0:0:
448,192,49329,1,0,0:0:0:70:clap01_D.wav
192,192,49491,1,0,0:0:0:0:
320,192,49653,128,2,50302:0:0:0:0:
448,192,49653,1,0,0:0:0:0:
448,192,49978,1,0,0:0:0:70:LR_J Hit.wav
64,192,50140,1,2,0:0:0:0:
64,192,50302,1,2,0:0:0:0:
320,192,50626,1,0,0:0:0:70:clap01_D.wav
192,192,50789,1,0,0:0:0:0:
64,192,50951,128,2,51599:0:0:0:0:
448,192,50951,1,4,0:0:0:0:
448,192,51275,1,0,0:0:0:70:clap01_D.wav
448,192,51599,1,0,0:0:0:70:clap01_D.wav
192,192,51924,128,0,52248:0:0:0:70:clap01_D.wav
448,192,51924,1,0,0:0:0:0:
64,192,52248,1,2,0:0:0:0:
448,192,52248,128,4,52897:0:0:0:0:
64,192,52572,1,0,0:0:0:70:clap01_D.wav
64,192,52897,1,0,0:0:0:70:clap01_D.wav
192,192,52897,128,0,53059:0:0:0:0:
64,192,53221,1,0,0:0:0:70:clap01_D.wav
320,192,53221,128,0,53383:0:0:0:0:
64,192,53545,128,4,55329:0:0:0:0:
448,192,53545,128,2,55329:0:0:0:0:
192,192,53870,1,2,0:0:0:0:
320,192,54194,1,2,0:0:0:0:
192,192,54518,1,2,0:0:0:0:
320,192,54843,1,2,0:0:0:0:
192,192,55167,1,2,0:0:0:0:
320,192,55329,1,2,0:0:0:0:
448,192,55491,1,2,0:0:0:0:
64,192,55653,1,2,0:0:0:0:
448,192,55816,1,2,0:0:0:0:
64,192,55978,1,2,0:0:0:0:
320,192,56140,1,2,0:0:0:0:
192,192,56302,1,2,0:0:0:0:
320,192,56464,1,2,0:0:0:0:
192,192,56626,1,2,0:0:0:0:
448,192,56789,1,2,0:0:0:0:
320,192,56951,1,2,0:0:0:0:
64,192,57113,1,2,0:0:0:0:
192,192,57275,1,2,0:0:0:0:
320,192,57437,1,2,0:0:0:0:
448,192,57437,1,0,0:0:0:55:Cymatics - Future Bass Clap 3.wav
64,192,57599,1,2,0:0:0:0:
192,192,57599,1,0,0:0:0:55:Cymatics - Future Bass Clap 3.wav
320,192,57762,1,2,0:0:0:0:
448,192,57762,1,0,0:0:0:55:Cymatics - Future Bass Clap 3.wav
64,192,57924,1,0,0:0:0:0:
192,192,58086,1,0,0:0:0:0:
320,192,58248,1,0,0:0:0:0:
64,192,58410,1,0,0:0:0:70:h03.wav
448,192,58410,1,0,0:0:0:0:
192,192,58572,1,0,0:0:0:0:
320,192,58735,1,2,0:0:0:0:
448,192,58735,128,4,59221:0:0:0:0:
64,192,59059,1,8,0:0:0:0:
192,192,59221,128,0,59708:0:0:0:0:
448,192,59383,1,2,0:0:0:0:
320,192,59708,1,8,0:0:0:0:
64,192,59870,128,0,60518:0:0:0:0:
448,192,60032,1,2,0:0:0:0:
320,192,60356,1,8,0:0:0:0:
448,192,60518,128,0,61005:0:0:0:0:
64,192,60681,1,2,0:0:0:0:
320,192,61005,1,8,0:0:0:0:
192,192,61167,128,0,61653:0:0:0:0:
448,192,61329,1,2,0:0:0:0:
64,192,61653,128,8,61816:0:0:0:0:
448,192,61653,1,0,0:0:0:0:
320,192,61816,128,0,61978:0:0:0:0:
64,192,61978,1,2,0:0:0:0:
448,192,62140,128,0,62302:0:0:0:0:
64,192,62302,1,8,0:0:0:0:
320,192,62302,128,0,62464:0:0:0:0:
192,192,62464,128,0,62951:0:0:0:0:
448,192,62626,1,2,0:0:0:0:
448,192,62951,1,8,0:0:0:0:
192,192,63113,128,0,63275:0:0:0:0:
64,192,63275,1,2,0:0:0:0:
448,192,63275,128,0,63437:0:0:0:0:
192,192,63437,128,0,63599:0:0:0:0:
64,192,63599,1,8,0:0:0:0:
320,192,63599,128,0,63762:0:0:0:0:
448,192,63762,128,0,63924:0:0:0:0:
64,192,63924,128,4,64410:0:0:0:0:
192,192,63924,1,2,0:0:0:0:
448,192,64248,1,8,0:0:0:0:
320,192,64410,128,0,64897:0:0:0:0:
64,192,64572,1,2,0:0:0:0:
448,192,64735,1,0,0:0:0:0:
192,192,64897,1,8,0:0:0:0:
448,192,65059,128,0,65708:0:0:0:0:
64,192,65221,1,2,0:0:0:0:
320,192,65383,1,0,0:0:0:0:
192,192,65545,1,8,0:0:0:0:
64,192,65708,128,0,66194:0:0:0:0:
448,192,65870,1,2,0:0:0:0:
192,192,66194,1,8,0:0:0:0:
320,192,66356,128,0,66843:0:0:0:0:
64,192,66518,1,2,0:0:0:0:
64,192,66843,1,8,0:0:0:0:
448,192,66843,128,0,67005:0:0:0:0:
192,192,67005,128,0,67167:0:0:0:0:
448,192,67167,1,2,0:0:0:0:
64,192,67329,128,0,67491:0:0:0:0:
192,192,67491,128,8,67653:0:0:0:0:
448,192,67491,1,0,0:0:0:0:
320,192,67653,128,0,68140:0:0:0:0:
64,192,67816,1,2,0:0:0:0:
64,192,68140,1,8,0:0:0:0:
448,192,68302,1,0,0:0:0:0:
320,192,68464,1,2,0:0:0:0:
192,192,68626,1,0,0:0:0:70:LR_J Hit.wav
192,192,68789,1,0,0:0:0:70:LR_J Hit.wav
320,192,68951,1,0,0:0:0:0:
64,192,69113,1,2,0:0:0:0:
448,192,69113,128,4,69599:0:0:0:0:
192,192,69437,1,8,0:0:0:0:
64,192,69599,128,0,70086:0:0:0:0:
448,192,69762,1,2,0:0:0:0:
448,192,70086,1,8,0:0:0:0:
320,192,70248,128,0,70735:0:0:0:0:
64,192,70410,1,2,0:0:0:0:
64,192,70735,1,8,0:0:0:0:
192,192,70897,128,0,71383:0:0:0:0:
448,192,71059,1,2,0:0:0:0:
448,192,71383,1,8,0:0:0:0:
320,192,71545,128,0,72032:0:0:0:0:
64,192,71708,1,2,0:0:0:0:
192,192,72032,1,8,0:0:0:0:
64,192,72194,128,0,72518:0:0:0:0:
448,192,72356,1,2,0:0:0:0:
320,192,72518,128,0,72681:0:0:0:0:
64,192,72681,1,8,0:0:0:0:
192,192,72681,128,0,72843:0:0:0:0:
448,192,72843,128,0,73329:0:0:0:0:
64,192,73005,1,2,0:0:0:0:
192,192,73329,1,8,0:0:0:0:
320,192,73491,128,0,73653:0:0:0:0:
64,192,73653,1,2,0:0:0:0:
448,192,73653,128,0,73816:0:0:0:0:
192,192,73816,128,0,73978:0:0:0:0:
320,192,73978,128,8,74140:0:0:0:0:
448,192,73978,1,0,0:0:0:0:
64,192,74140,128,0,74302:0:0:0:0:
192,192,74302,1,2,0:0:0:0:
448,192,74302,128,4,74789:0:0:0:0:
192,192,74626,1,8,0:0:0:0:
64,192,74789,128,0,75275:0:0:0:0:
448,192,74951,1,2,0:0:0:0:
192,192,75113,1,0,0:0:0:0:
320,192,75275,1,8,0:0:0:0:
448,192,75437,128,0,75924:0:0:0:0:
192,192,75599,1,2,0:0:0:0:
64,192,75762,1,0,0:0:0:0:
192,192,75924,1,8,0:0:0:0:
320,192,76086,128,0,76572:0:0:0:0:
64,192,76248,1,2,0:0:0:0:
192,192,76572,1,8,0:0:0:0:
64,192,76735,128,0,77221:0:0:0:0:
448,192,76897,1,2,0:0:0:0:
320,192,77221,1,8,0:0:0:0:
192,192,77383,128,0,77545:0:0:0:0:
448,192,77545,1,2,0:0:0:0:
320,192,77708,128,0,77870:0:0:0:0:
64,192,77870,1,8,0:0:0:0:
448,192,78032,128,0,78194:0:0:0:0:
192,192,78194,1,2,0:0:0:0:
64,192,78356,1,0,0:0:0:70:LR_Drum Rim Fast.wav
320,192,78518,1,0,0:0:0:70:LR_Drum Rim Fast.wav
192,192,78681,1,0,0:0:0:0:
448,192,78843,1,0,0:0:0:0:
320,192,79005,1,0,0:0:0:70:LR_Drum Rim Fast.wav
64,192,79167,1,0,0:0:0:70:h03.wav
448,192,79167,1,0,0:0:0:0:
320,192,79491,1,2,0:0:0:0:
448,192,79491,1,4,0:0:0:0:
64,192,79653,1,0,0:0:0:0:
320,192,79816,1,8,0:0:0:0:
192,192,79978,1,0,0:0:0:0:
448,192,80140,1,2,0:0:0:0:
192,192,80302,1,0,0:0:0:0:
320,192,80464,1,8,0:0:0:0:
64,192,80626,128,0,80789:0:0:0:0:
448,192,80789,1,2,0:0:0:0:
192,192,80951,128,0,81113:0:0:0:0:
448,192,81113,1,8,0:0:0:0:
320,192,81275,128,0,81437:0:0:0:0:
64,192,81437,1,2,0:0:0:0:
320,192,81599,1,0,0:0:0:0:
448,192,81599,1,0,0:0:0:0:
320,192,81762,1,8,0:0:0:0:
448,192,81762,128,0,82086:0:0:0:0:
192,192,82086,1,2,0:0:0:0:
320,192,82248,1,0,0:0:0:0:
64,192,82410,1,8,0:0:0:0:
192,192,82572,1,0,0:0:0:0:
448,192,82735,1,2,0:0:0:0:
320,192,82897,1,0,0:0:0:0:
192,192,83059,1,8,0:0:0:0:
448,192,83221,128,0,83383:0:0:0:0:
64,192,83383,1,2,0:0:0:0:
320,192,83545,128,0,83708:0:0:0:0:
448,192,83708,1,8,0:0:0:0:
192,192,83870,128,0,84032:0:0:0:0:
320,192,84032,1,2,0:0:0:0:
64,192,84194,1,0,0:0:0:0:
192,192,84194,1,0,0:0:0:0:
64,192,84356,128,8,84681:0:0:0:0:
192,192,84356,1,0,0:0:0:0:
320,192,84681,1,2,0:0:0:0:
448,192,84681,1,4,0:0:0:0:
192,192,84843,1,0,0:0:0:0:
448,192,85005,1,8,0:0:0:0:
320,192,85167,1,0,0:0:0:0:
64,192,85329,1,2,0:0:0:0:
192,192,85491,1,0,0:0:0:0:
320,192,85653,1,8,0:0:0:0:
448,192,85816,128,0,85978:0:0:0:0:
64,192,85978,1,2,0:0:0:0:
192,192,86140,128,0,86302:0:0:0:0:
448,192,86302,1,8,0:0:0:0:
320,192,86464,128,0,86626:0:0:0:0:
64,192,86626,1,2,0:0:0:0:
192,192,86789,1,0,0:0:0:0:
448,192,86789,1,0,0:0:0:0:
192,192,86951,1,8,0:0:0:0:
448,192,86951,128,0,87275:0:0:0:0:
64,192,87275,1,4,0:0:0:0:
320,192,87275,1,2,0:0:0:0:
192,192,87437,1,0,0:0:0:0:
448,192,87599,1,8,0:0:0:0:
320,192,87762,1,0,0:0:0:0:
64,192,87924,1,2,0:0:0:0:
448,192,88086,1,2,0:0:0:0:
64,192,88248,1,8,0:0:0:0:
320,192,88410,1,4,0:0:0:0:
448,192,88410,1,2,0:0:0:0:
192,192,88735,1,4,0:0:0:0:
320,192,88735,1,2,0:0:0:0:
64,192,89059,128,4,89383:0:0:0:0:
192,192,89059,1,2,0:0:0:0:
320,192,89383,1,0,0:0:0:0:
448,192,89383,1,0,0:0:0:0:
320,192,89545,1,0,0:0:0:0:
448,192,89545,128,0,89870:0:0:0:0:
64,192,89870,1,2,0:0:0:0:
192,192,89870,1,4,0:0:0:0:
64,192,90032,1,0,0:0:0:0:
448,192,90194,1,8,0:0:0:0:
320,192,90356,1,0,0:0:0:0:
64,192,90518,1,2,0:0:0:0:
448,192,90681,1,0,0:0:0:0:
192,192,90843,1,8,0:0:0:0:
320,192,91005,1,0,0:0:0:0:
64,192,91167,1,2,0:0:0:0:
448,192,91167,1,0,0:0:0:0:
448,192,91329,1,0,0:0:0:0:
64,192,91491,1,8,0:0:0:0:
192,192,91653,1,0,0:0:0:0:
448,192,91816,1,2,0:0:0:0:
192,192,91978,1,0,0:0:0:0:
320,192,92140,1,8,0:0:0:0:
64,192,92302,1,0,0:0:0:0:
320,192,92464,1,2,0:0:0:0:
448,192,92464,1,0,0:0:0:0:
448,192,92626,1,0,0:0:0:0:
192,192,92789,1,8,0:0:0:0:
320,192,92951,1,0,0:0:0:0:
64,192,93113,1,2,0:0:0:0:
192,192,93275,1,0,0:0:0:0:
448,192,93437,1,8,0:0:0:0:
320,192,93599,1,0,0:0:0:0:
64,192,93762,1,2,0:0:0:0:
192,192,93762,1,0,0:0:0:0:
64,192,93924,1,0,0:0:0:0:
320,192,94086,1,8,0:0:0:0:
192,192,94248,1,0,0:0:0:0:
448,192,94410,1,2,0:0:0:0:
320,192,94572,1,0,0:0:0:0:
64,192,94735,1,8,0:0:0:0:
192,192,94897,1,0,0:0:0:70:LR_Drum Rim Fast.wav
320,192,95059,1,4,0:0:0:0:
448,192,95059,128,2,95383:0:0:0:0:
192,192,95383,1,8,0:0:0:0:
320,192,95545,1,0,0:0:0:0:
64,192,95708,1,2,0:0:0:0:
448,192,95870,1,0,0:0:0:0:
320,192,96032,1,8,0:0:0:0:
192,192,96194,1,0,0:0:0:0:
64,192,96356,1,2,0:0:0:0:
448,192,96356,1,0,0:0:0:0:
64,192,96518,1,0,0:0:0:0:
320,192,96681,1,8,0:0:0:0:
448,192,96843,1,0,0:0:0:0:
192,192,97005,1,2,0:0:0:0:
64,192,97167,1,0,0:0:0:0:
320,192,97329,1,8,0:0:0:0:
192,192,97491,1,0,0:0:0:0:
64,192,97653,1,2,0:0:0:0:
448,192,97653,1,0,0:0:0:0:
448,192,97816,1,0,0:0:0:0:
192,192,97978,1,8,0:0:0:0:
320,192,98140,1,0,0:0:0:0:
64,192,98302,1,2,0:0:0:0:
448,192,98464,1,0,0:0:0:0:
64,192,98626,1,8,0:0:0:0:
192,192,98789,1,0,0:0:0:0:
320,192,98951,1,2,0:0:0:0:
448,192,98951,1,0,0:0:0:0:
64,192,99113,1,0,0:0:0:0:
448,192,99275,1,0,0:0:0:0:
320,192,99437,1,0,0:0:0:0:
448,192,99599,1,0,0:0:0:0:
192,192,99762,1,0,0:0:0:0:
320,192,99924,1,0,0:0:0:0:
64,192,100086,1,0,0:0:0:0:
192,192,100248,128,2,100897:0:0:0:0:
448,192,100248,1,4,0:0:0:0:
448,192,100572,128,0,100897:0:0:0:0:
64,192,100897,1,0,0:0:0:70:LR_Drum Rim Fast.wav
320,192,100897,1,0,0:0:0:0:
64,192,101221,1,2,0:0:0:0:
192,192,101221,128,0,101708:0:0:0:0:
448,192,101545,1,0,0:0:0:70:Cymatics - Future Bass Clap 3.wav
320,192,101708,1,0,0:0:0:70:Cymatics - Future Bass Clap 3.wav
64,192,101870,1,2,0:0:0:0:
192,192,101870,128,0,102194:0:0:0:0:
64,192,102194,1,0,0:0:0:70:LR_Drum Rim Fast.wav
448,192,102194,1,0,0:0:0:0:
320,192,102356,1,0,0:0:0:0:
64,192,102518,1,2,0:0:0:0:
192,192,102681,1,0,0:0:0:0:
320,192,102843,128,2,103491:0:0:0:0:
448,192,102843,1,0,0:0:0:0:
64,192,103167,128,0,103491:0:0:0:0:
192,192,103491,1,0,0:0:0:70:LR_Drum Rim Fast.wav
448,192,103491,1,0,0:0:0:0:
320,192,103816,128,2,104302:0:0:0:0:
448,192,103816,1,0,0:0:0:0:
64,192,104140,1,0,0:0:0:70:Cymatics - Future Bass Clap 3.wav
192,192,104302,1,0,0:0:0:70:Cymatics - Future Bass Clap 3.wav
320,192,104464,128,2,104789:0:0:0:0:
448,192,104464,1,0,0:0:0:0:
64,192,104789,1,0,0:0:0:70:LR_Drum Rim Fast.wav
448,192,104789,1,0,0:0:0:0:
192,192,104951,1,0,0:0:0:0:
320,192,105113,1,2,0:0:0:0:
448,192,105275,1,0,0:0:0:0:
64,192,105437,128,4,106086:0:0:0:0:
192,192,105437,1,2,0:0:0:0:
320,192,105762,128,0,106086:0:0:0:0:
192,192,106086,1,0,0:0:0:70:LR_Drum Rim Fast.wav
448,192,106086,1,0,0:0:0:0:
64,192,106410,128,2,106897:0:0:0:0:
192,192,106410,1,0,0:0:0:0:
448,192,106735,1,0,0:0:0:70:Cymatics - Future Bass Clap 3.wav
320,192,106897,1,0,0:0:0:70:Cymatics - Future Bass Clap 3.wav
64,192,107059,128,2,107383:0:0:0:0:
192,192,107059,1,0,0:0:0:0:
320,192,107383,1,0,0:0:0:70:LR_Drum Rim Fast.wav
448,192,107383,1,0,0:0:0:0:
192,192,107545,1,0,0:0:0:0:
448,192,107708,1,2,0:0:0:0:
320,192,107870,1,0,0:0:0:0:
64,192,108032,1,2,0:0:0:0:
192,192,108032,1,4,0:0:0:0:
320,192,108194,1,0,0:0:0:0:
64,192,108356,1,0,0:0:0:0:
448,192,108518,1,0,0:0:0:0:
192,192,108681,1,0,0:0:0:70:LR_Drum Rim Fast.wav
320,192,108681,1,0,0:0:0:0:
64,192,108843,1,0,0:0:0:0:
192,192,109005,1,2,0:0:0:0:
448,192,109005,1,0,0:0:0:0:
320,192,109167,1,0,0:0:0:0:
192,192,109329,1,0,0:0:0:70:Cymatics - Future Bass Clap 3.wav
320,192,109491,1,0,0:0:0:70:Cymatics - Future Bass Clap 3.wav
64,192,109653,1,2,0:0:0:0:
448,192,109653,1,0,0:0:0:0:
192,192,109816,1,0,0:0:0:0:
320,192,109978,1,0,0:0:0:70:LR_Drum Rim Fast.wav
448,192,109978,1,0,0:0:0:0:
192,192,110140,1,0,0:0:0:0:
64,192,110302,1,2,0:0:0:0:
448,192,110302,1,0,0:0:0:0:
320,192,110464,1,0,0:0:0:0:
64,192,110626,1,2,0:0:0:0:
448,192,110626,1,0,0:0:0:0:
192,192,110789,1,0,0:0:0:0:
64,192,110951,1,0,0:0:0:0:
192,192,111113,1,0,0:0:0:0:
64,192,111275,1,0,0:0:0:70:LR_Drum Rim Fast.wav
448,192,111275,1,0,0:0:0:0:
320,192,111437,1,0,0:0:0:0:
192,192,111599,1,2,0:0:0:0:
448,192,111599,1,0,0:0:0:0:
320,192,111762,1,0,0:0:0:0:
64,192,111924,128,2,112248:0:0:0:0:
448,192,111924,1,4,0:0:0:0:
320,192,112248,1,0,0:0:0:70:LR_Drum Rim Fast.wav
448,192,112410,1,0,0:0:0:0:
192,192,112572,1,0,0:0:0:0:
320,192,112735,1,2,0:0:0:0:
64,192,112897,1,0,0:0:0:70:LR_Drum Rim Fast.wav
320,192,113059,1,0,0:0:0:70:LR_Drum Rim Fast.wav
64,192,113221,128,2,114194:0:0:0:0:
192,192,113221,1,0,0:0:0:0:
320,192,113383,1,0,0:0:0:0:
448,192,113545,1,0,0:0:0:0:
192,192,113708,1,0,0:0:0:0:
320,192,114032,1,2,0:0:0:0:
448,192,114194,1,0,0:0:0:0:
192,192,114356,1,0,0:0:0:0:
320,192,114518,128,2,115005:0:0:0:0:
448,192,114518,1,0,0:0:0:0:
64,192,114681,1,0,0:0:0:0:
192,192,114843,1,0,0:0:0:0:
448,192,115005,1,0,0:0:0:0:
192,192,115167,128,0,115491:0:0:0:0:
448,192,115329,1,2,0:0:0:0:
64,192,115491,1,0,0:0:0:0:
320,192,115491,128,0,115816:0:0:0:0:
192,192,115653,1,0,0:0:0:0:
64,192,115816,1,2,0:0:0:0:
448,192,115816,128,0,116302:0:0:0:0:
320,192,115978,1,0,0:0:0:0:
192,192,116140,1,0,0:0:0:0:
64,192,116302,1,0,0:0:0:0:
320,192,116464,128,0,116951:0:0:0:0:
448,192,116464,1,0,0:0:0:0:
64,192,116626,1,2,0:0:0:0:
192,192,116789,1,0,0:0:0:0:
448,192,116951,1,0,0:0:0:0:
64,192,117113,128,2,117762:0:0:0:0:
192,192,117113,1,0,0:0:0:0:
320,192,117275,1,0,0:0:0:0:
448,192,117437,1,0,0:0:0:0:
192,192,117599,1,2,0:0:0:0:
320,192,117762,1,2,0:0:0:0:
192,192,118086,1,0,0:0:0:0:
320,192,118248,1,0,0:0:0:0:
64,192,118410,1,4,0:0:0:0:
448,192,118410,128,2,119059:0:0:0:0:
64,192,118735,1,0,0:0:0:70:clap01_D.wav
64,192,119059,1,0,0:0:0:70:clap01_D.wav
192,192,119059,128,0,119383:0:0:0:0:
64,192,119383,1,0,0:0:0:70:clap01_D.wav
320,192,119383,128,0,119708:0:0:0:0:
64,192,119708,128,4,120032:0:0:0:0:
448,192,119708,1,2,0:0:0:0:
448,192,120032,1,0,0:0:0:70:clap01_D.wav
192,192,120194,128,0,120356:0:0:0:0:
320,192,120356,128,0,120518:0:0:0:70:clap01_D.wav
448,192,120356,1,0,0:0:0:0:
192,192,120681,128,0,120843:0:0:0:70:clap01_D.wav
64,192,121005,128,2,122789:0:0:0:0:
448,192,121005,128,4,122789:0:0:0:0:
320,192,121329,1,2,0:0:0:0:
192,192,121653,1,2,0:0:0:0:
320,192,121978,1,2,0:0:0:0:
192,192,122302,1,2,0:0:0:0:
320,192,122626,1,2,0:0:0:0:
192,192,122789,1,2,0:0:0:0:
64,192,122951,1,2,0:0:0:0:
448,192,123113,1,2,0:0:0:0:
64,192,123275,1,2,0:0:0:0:
448,192,123437,1,2,0:0:0:0:
192,192,123599,1,2,0:0:0:0:
320,192,123762,1,2,0:0:0:0:
192,192,123924,1,2,0:0:0:0:
320,192,124086,1,2,0:0:0:0:
64,192,124248,1,2,0:0:0:0:
320,192,124410,1,2,0:0:0:0:
192,192,124572,1,2,0:0:0:0:
448,192,124735,1,2,0:0:0:0:
64,192,124897,1,0,0:0:0:0:
320,192,125383,1,0,0:0:0:0:
448,192,125545,1,0,0:0:0:0:
64,192,125708,1,0,0:0:0:0:
192,192,125870,1,0,0:0:0:0:
320,192,126032,128,0,126843:0:0:0:0:
64,192,126194,1,0,0:0:0:0:
192,192,126518,1,0,0:0:0:0:
448,192,126843,1,0,0:0:0:0:
192,192,127167,1,0,0:0:0:0:
64,192,127329,128,0,128140:0:0:0:0:
448,192,127491,1,0,0:0:0:0:
320,192,127816,1,0,0:0:0:0:
192,192,128140,1,0,0:0:0:0:
320,192,128464,1,0,0:0:0:0:
448,192,128626,128,0,129113:0:0:0:0:
64,192,128789,1,0,0:0:0:0:
192,192,129113,1,0,0:0:0:0:
320,192,129275,128,0,129762:0:0:0:0:
448,192,129437,1,0,0:0:0:0:
64,192,129762,1,0,0:0:0:0:
192,192,129924,128,0,130248:0:0:0:0:
192,192,130572,1,0,0:0:0:0:
64,192,130735,1,0,0:0:0:0:
448,192,130897,1,0,0:0:0:0:
320,192,131059,1,0,0:0:0:0:
192,192,131221,128,0,132032:0:0:0:0:
448,192,131383,1,0,0:0:0:0:
320,192,131708,1,0,0:0:0:0:
64,192,132032,1,0,0:0:0:0:
320,192,132356,1,0,0:0:0:0:
448,192,132518,128,0,133329:0:0:0:0:
64,192,132681,1,0,0:0:0:0:
192,192,133005,1,0,0:0:0:0:
64,192,133329,128,0,133491:0:0:0:0:
320,192,133329,1,0,0:0:0:0:
448,192,133653,1,0,0:0:0:0:
192,192,133816,1,0,0:0:0:0:
320,192,133978,1,2,0:0:0:0:
448,192,133978,128,4,134302:0:0:0:0:
64,192,134140,1,0,0:0:0:0:
320,192,134302,1,0,0:0:0:0:
192,192,134464,1,0,0:0:0:0:
64,192,134626,128,4,134951:0:0:0:0:
448,192,134626,1,2,0:0:0:0:
320,192,134789,1,0,0:0:0:0:
448,192,134951,1,0,0:0:0:0:
64,192,135113,1,2,0:0:0:0:
192,192,135113,128,4,135599:0:0:0:0:
192,192,135762,1,0,0:0:0:0:
320,192,135924,1,0,0:0:0:0:
64,192,136086,1,0,0:0:0:0:
192,192,136248,1,0,0:0:0:70:h03.wav
448,192,136248,1,0,0:0:0:0:
320,192,136410,1,0,0:0:0:0:
64,192,136572,128,2,137059:0:0:0:0:
192,192,136572,1,4,0:0:0:0:
448,192,136897,1,8,0:0:0:0:
320,192,137059,128,0,137545:0:0:0:0:
64,192,137221,1,2,0:0:0:0:
192,192,137545,1,8,0:0:0:0:
448,192,137708,128,0,138356:0:0:0:0:
64,192,137870,1,2,0:0:0:0:
192,192,138194,1,8,0:0:0:0:
64,192,138356,128,0,138843:0:0:0:0:
448,192,138518,1,2,0:0:0:0:
192,192,138843,1,8,0:0:0:0:
320,192,139005,128,0,139491:0:0:0:0:
64,192,139167,1,2,0:0:0:0:
64,192,139491,1,8,0:0:0:0:
448,192,139491,128,0,139653:0:0:0:0:
192,192,139653,128,0,139816:0:0:0:0:
448,192,139816,1,2,0:0:0:0:
64,192,139978,128,0,140140:0:0:0:0:
192,192,140140,128,8,140302:0:0:0:0:
448,192,140140,1,0,0:0:0:0:
320,192,140302,128,0,140789:0:0:0:0:
64,192,140464,1,2,0:0:0:0:
64,192,140789,1,8,0:0:0:0:
320,192,140951,128,0,141113:0:0:0:0:
64,192,141113,1,2,0:0:0:0:
448,192,141113,1,0,0:0:0:0:
192,192,141275,1,0,0:0:0:70:LR_J Hit.wav
448,192,141437,1,0,0:0:0:70:LR_J Hit.wav
192,192,141599,1,0,0:0:0:0:
320,192,141762,1,4,0:0:0:0:
448,192,141762,128,2,142248:0:0:0:0:
64,192,142086,1,8,0:0:0:0:
192,192,142248,128,0,142735:0:0:0:0:
448,192,142410,1,2,0:0:0:0:
320,192,142735,1,8,0:0:0:0:
64,192,142897,128,0,143545:0:0:0:0:
320,192,143059,1,2,0:0:0:0:
448,192,143059,1,4,0:0:0:0:
192,192,143221,1,0,0:0:0:0:
320,192,143383,1,8,0:0:0:0:
448,192,143545,128,0,144032:0:0:0:0:
64,192,143708,1,2,0:0:0:0:
192,192,143708,1,4,0:0:0:0:
320,192,144032,1,8,0:0:0:0:
192,192,144194,1,0,0:0:0:0:
320,192,144356,1,2,0:0:0:0:
448,192,144356,1,4,0:0:0:0:
64,192,144518,1,0,0:0:0:0:
448,192,144681,1,0,0:0:0:0:
192,192,144843,1,2,0:0:0:0:
320,192,144843,1,4,0:0:0:0:
64,192,145005,1,0,0:0:0:0:
320,192,145167,1,2,0:0:0:0:
448,192,145167,1,4,0:0:0:0:
192,192,145329,1,0,0:0:0:0:
64,192,145491,1,4,0:0:0:0:
448,192,145491,128,2,146464:0:0:0:0:
64,192,146140,1,0,0:0:0:0:
192,192,146302,1,0,0:0:0:0:
320,192,146464,1,0,0:0:0:0:
64,192,146626,1,0,0:0:0:70:h03.wav
448,192,146626,1,0,0:0:0:0:
320,192,146789,1,0,0:0:0:0:
64,192,146951,1,2,0:0:0:0:
192,192,146951,1,4,0:0:0:0:
64,192,147113,1,2,0:0:0:0:
448,192,147275,1,8,0:0:0:0:
448,192,147437,1,2,0:0:0:0:
192,192,147599,1,2,0:0:0:0:
192,192,147762,1,2,0:0:0:0:
320,192,147924,1,8,0:0:0:0:
320,192,148086,1,2,0:0:0:0:
64,192,148248,1,2,0:0:0:0:
64,192,148410,1,2,0:0:0:0:
448,192,148572,1,8,0:0:0:0:
448,192,148735,1,2,0:0:0:0:
192,192,148897,1,2,0:0:0:0:
64,192,149059,1,2,0:0:0:0:
320,192,149221,1,8,0:0:0:0:
448,192,149383,1,2,0:0:0:0:
64,192,149545,1,2,0:0:0:0:
64,192,149708,1,2,0:0:0:0:
448,192,149870,1,8,0:0:0:0:
448,192,150032,1,2,0:0:0:0:
192,192,150194,1,2,0:0:0:0:
192,192,150356,1,2,0:0:0:0:
448,192,150518,1,8,0:0:0:0:
448,192,150681,1,2,0:0:0:0:
64,192,150843,1,2,0:0:0:0:
320,192,150843,1,4,0:0:0:0:
64,192,151086,1,2,0:0:0:0:
320,192,151086,1,4,0:0:0:0:
192,192,151329,1,4,0:0:0:0:
448,192,151329,1,2,0:0:0:0:
192,192,151572,1,2,0:0:0:0:
448,192,151572,1,4,0:0:0:0:
320,192,151816,1,6,0:0:0:0:
192,192,151978,1,2,0:0:0:0:
64,192,152140,1,4,0:0:0:0:
448,192,152140,1,2,0:0:0:0:
320,192,152302,1,2,0:0:0:0:
64,192,152464,1,8,0:0:0:0:
192,192,152626,1,2,0:0:0:0:
320,192,152789,1,2,0:0:0:0:
448,192,152789,1,4,0:0:0:0:
64,192,152951,1,2,0:0:0:0:
320,192,153113,1,8,0:0:0:0:
192,192,153275,1,2,0:0:0:0:
64,192,153437,1,2,0:0:0:0:
448,192,153437,1,4,0:0:0:0:
320,192,153599,1,2,0:0:0:0:
64,192,153762,1,8,0:0:0:0:
192,192,153924,1,2,0:0:0:0:
64,192,154086,1,2,0:0:0:0:
448,192,154086,1,4,0:0:0:0:
192,192,154248,1,2,0:0:0:0:
320,192,154410,128,2,154735:0:0:0:0:
448,192,154410,1,0,0:0:0:0:
64,192,154572,1,0,0:0:0:0:
192,192,154735,1,4,0:0:0:0:
448,192,154735,1,0,0:0:0:0:
192,192,155059,1,0,0:0:0:0:
64,192,155221,1,2,0:0:0:0:
448,192,155221,1,4,0:0:0:0:
192,192,155545,1,4,0:0:0:0:
448,192,155545,1,2,0:0:0:0:
64,192,155708,1,0,0:0:0:0:
320,192,155870,128,2,157005:0:0:0:0:
448,192,155870,1,4,0:0:0:0:
64,192,156356,128,0,156681:0:0:0:70:LR_Drum Rim Fast.wav
192,192,156681,128,0,157005:0:0:0:0:
64,192,157005,1,0,0:0:0:70:h03.wav
448,192,157005,1,0,0:0:0:0:
64,192,157329,1,2,0:0:0:0:
192,192,157329,1,4,0:0:0:0:
448,192,157491,1,0,0:0:0:0:
192,192,157653,1,8,0:0:0:0:
320,192,157816,1,0,0:0:0:0:
64,192,157978,1,2,0:0:0:0:
320,192,158140,1,0,0:0:0:0:
192,192,158302,1,8,0:0:0:0:
448,192,158464,128,0,158626:0:0:0:0:
64,192,158626,1,2,0:0:0:0:
320,192,158789,128,0,158951:0:0:0:0:
64,192,158951,1,8,0:0:0:0:
192,192,159113,128,0,159275:0:0:0:0:
448,192,159275,1,2,0:0:0:0:
64,192,159437,1,0,0:0:0:0:
192,192,159437,1,0,0:0:0:0:
64,192,159599,128,8,159924:0:0:0:0:
192,192,159599,1,0,0:0:0:0:
320,192,159924,1,2,0:0:0:0:
192,192,160086,1,0,0:0:0:0:
448,192,160248,1,8,0:0:0:0:
320,192,160410,1,0,0:0:0:0:
64,192,160572,1,2,0:0:0:0:
192,192,160735,1,0,0:0:0:0:
320,192,160897,1,8,0:0:0:0:
64,192,161059,128,0,161221:0:0:0:0:
448,192,161221,1,2,0:0:0:0:
192,192,161383,128,0,161545:0:0:0:0:
64,192,161545,1,8,0:0:0:0:
320,192,161708,128,0,161870:0:0:0:0:
192,192,161870,1,2,0:0:0:0:
320,192,162032,1,0,0:0:0:0:
448,192,162032,1,0,0:0:0:0:
320,192,162194,1,8,0:0:0:0:
448,192,162194,128,0,162518:0:0:0:0:
64,192,162518,1,2,0:0:0:0:
192,192,162518,1,4,0:0:0:0:
320,192,162681,1,0,0:0:0:0:
64,192,162843,1,8,0:0:0:0:
192,192,163005,1,0,0:0:0:0:
448,192,163167,1,2,0:0:0:0:
320,192,163329,1,0,0:0:0:0:
192,192,163491,1,8,0:0:0:0:
64,192,163653,128,0,163816:0:0:0:0:
448,192,163816,1,2,0:0:0:0:
320,192,163978,128,0,164140:0:0:0:0:
64,192,164140,1,8,0:0:0:0:
192,192,164302,128,0,164464:0:0:0:0:
448,192,164464,1,2,0:0:0:0:
64,192,164626,1,0,0:0:0:0:
320,192,164626,1,0,0:0:0:0:
64,192,164789,128,8,165113:0:0:0:0:
320,192,164789,1,0,0:0:0:0:
192,192,165113,1,4,0:0:0:0:
448,192,165113,1,2,0:0:0:0:
320,192,165275,1,0,0:0:0:0:
64,192,165437,1,8,0:0:0:0:
192,192,165599,1,0,0:0:0:0:
448,192,165762,1,2,0:0:0:0:
64,192,165924,1,2,0:0:0:0:
448,192,166086,1,8,0:0:0:0:
64,192,166248,1,2,0:0:0:0:
192,192,166248,128,4,166572:0:0:0:0:
320,192,166572,128,2,166897:0:0:0:0:
448,192,166572,1,4,0:0:0:0:
64,192,166897,1,2,0:0:0:0:
448,192,166897,128,4,167221:0:0:0:0:
64,192,167221,1,0,0:0:0:0:
192,192,167221,1,0,0:0:0:0:
64,192,167383,128,0,167708:0:0:0:0:
192,192,167383,1,0,0:0:0:0:
320,192,167708,1,2,0:0:0:0:
448,192,167708,1,4,0:0:0:0:
64,192,167870,1,0,0:0:0:0:
320,192,168032,1,8,0:0:0:0:
192,192,168194,1,0,0:0:0:0:
448,192,168356,1,2,0:0:0:0:
192,192,168518,1,0,0:0:0:0:
320,192,168681,1,8,0:0:0:0:
64,192,168843,128,0,169005:0:0:0:0:
448,192,169005,1,2,0:0:0:0:
192,192,169167,128,0,169329:0:0:0:0:
448,192,169329,1,8,0:0:0:0:
320,192,169491,128,0,169653:0:0:0:0:
64,192,169653,1,2,0:0:0:0:
320,192,169816,1,0,0:0:0:0:
448,192,169816,1,0,0:0:0:0:
320,192,169978,1,8,0:0:0:0:
448,192,169978,128,0,170302:0:0:0:0:
192,192,170302,1,2,0:0:0:0:
320,192,170464,1,0,0:0:0:0:
64,192,170626,1,8,0:0:0:0:
192,192,170789,1,0,0:0:0:0:
448,192,170951,1,2,0:0:0:0:
320,192,171113,1,2,0:0:0:0:
192,192,171275,1,8,0:0:0:0:
320,192,171437,1,2,0:0:0:0:
448,192,171437,128,0,171599:0:0:0:0:
64,192,171599,1,2,0:0:0:0:
192,192,171599,1,4,0:0:0:0:
320,192,171762,128,2,171924:0:0:0:0:
64,192,171924,1,8,0:0:0:0:
448,192,171924,1,4,0:0:0:0:
192,192,172086,128,2,172248:0:0:0:0:
320,192,172248,1,4,0:0:0:0:
448,192,172248,1,2,0:0:0:0:
64,192,172410,1,2,0:0:0:0:
192,192,172410,1,0,0:0:0:0:
64,192,172572,128,8,172897:0:0:0:0:
192,192,172572,1,0,0:0:0:0:
320,192,172897,1,2,0:0:0:0:
448,192,172897,1,4,0:0:0:0:
192,192,173059,1,2,0:0:0:0:
448,192,173221,1,8,0:0:0:0:
320,192,173383,1,2,0:0:0:0:
64,192,173545,1,2,0:0:0:0:
192,192,173708,1,2,0:0:0:0:
320,192,173870,1,8,0:0:0:0:
448,192,174032,128,2,174194:0:0:0:0:
64,192,174194,1,2,0:0:0:0:
192,192,174194,1,4,0:0:0:0:
320,192,174356,128,2,174518:0:0:0:0:
448,192,174356,1,0,0:0:0:0:
64,192,174518,1,8,0:0:0:0:
192,192,174681,128,2,174843:0:0:0:0:
320,192,174681,1,0,0:0:0:0:
64,192,174843,1,4,0:0:0:0:
448,192,174843,1,2,0:0:0:0:
192,192,175005,1,2,0:0:0:0:
320,192,175005,1,0,0:0:0:0:
192,192,175167,1,8,0:0:0:0:
320,192,175167,128,0,175491:0:0:0:0:
64,192,175329,1,2,0:0:0:0:
192,192,175491,1,4,0:0:0:0:
448,192,175491,1,2,0:0:0:0:
320,192,175653,1,2,0:0:0:0:
192,192,175816,1,12,0:0:0:0:
320,192,175978,1,2,0:0:0:0:
64,192,176140,128,6,176302:0:0:0:0:
448,192,176302,1,2,0:0:0:0:
192,192,176464,128,6,176626:0:0:0:0:
320,192,176626,1,2,0:0:0:0:
448,192,176626,1,4,0:0:0:0:
192,192,176951,1,2,0:0:0:0:
320,192,176951,1,4,0:0:0:0:
64,192,177275,128,2,177599:0:0:0:0:
192,192,177275,1,4,0:0:0:0:
320,192,177599,1,0,0:0:0:0:
448,192,177599,1,0,0:0:0:0:
320,192,177762,128,2,178086:0:0:0:0:
448,192,177762,128,4,178086:0:0:0:0:
