osu file format v14

[General]
AudioFilename: audio.mp3
AudioLeadIn: 0
PreviewTime: 319114
Countdown: 0
SampleSet: Normal
StackLeniency: 0.7
Mode: 1
LetterboxInBreaks: 0
WidescreenStoryboard: 0

[Editor]
DistanceSpacing: 1.4
BeatDivisor: 4
GridSize: 16
TimelineZoom: 2.5

[Metadata]
Title:Unlimited Spark! (remake)
TitleUnicode:Unlimited Spark! (remake)
Artist:t+pazolite feat. Rizna
ArtistUnicode:t+pazolite feat. リズナ
Creator:KawaiiBass
Version:Prism
Source:東方永夜抄 ~ Imperishable Night.
Tags:video game japanese electronic touhou 東方project toho tōhō 2hu eiyashou honey i scream c.h.s marisa's theme kirisame marisa 恋色マスタースパーク koiiro master spark love coloured colored love-coloured love-colored marisa tpz th08 eternal night vignette in chs
BeatmapID:3602872
BeatmapSetID:1760316

[Difficulty]
HPDrainRate:5
CircleSize:5
OverallDifficulty:6.5
ApproachRate:5
SliderMultiplier:1.4
SliderTickRate:1

[Events]
//Background and Video events
0,0,"SPARK.jpg",0,100
//Break Periods
2,253182,261674
//Storyboard Layer 0 (Background)
//Storyboard Layer 1 (Fail)
//Storyboard Layer 2 (Pass)
//Storyboard Layer 3 (Foreground)
//Storyboard Layer 4 (Overlay)
//Storyboard Sound Samples

[TimingPoints]
1307,324.324324324324,4,1,0,60,1,0
1307,-111.111111111111,4,1,0,60,0,0
11685,-105.263157894737,4,1,0,65,0,0
24334,-100,4,1,0,65,0,0
24658,-100,4,1,0,80,0,1
45415,-100,4,1,0,70,0,0
45739,-111.111111111111,4,1,0,70,0,0
50604,-100,4,1,0,70,0,0
66496,-111.111111111111,4,1,0,60,0,0
76550,-100,4,1,0,70,0,0
86928,-100,4,1,0,85,0,1
107685,-100,4,1,0,90,0,1
128442,-100,4,1,0,70,0,0
149523,-111.111111111111,4,1,0,60,0,0
159577,-100,4,1,0,70,0,0
169955,-100,4,1,0,80,0,1
190712,-100,4,1,0,70,0,0
190874,-105.263157894737,4,1,0,70,0,0
201090,-100,4,1,0,75,0,0
211469,-95.2380952380952,4,1,0,90,0,1
252982,-100,4,1,0,70,0,0
276334,-111.111111111111,4,1,0,60,0,0
286712,-105.263157894737,4,1,0,65,0,0
295793,-100,4,1,0,70,0,0
297090,-100,4,1,0,85,0,1
317847,-100,4,1,0,85,0,0
319144,-95.2380952380952,4,1,0,90,0,1
341198,-76.9230769230769,4,1,0,90,0,0

[HitObjects]
256,192,1307,5,0,0:0:0:0:
256,192,1469,1,0,0:0:0:0:
256,192,1631,1,8,0:0:0:0:
256,192,1955,1,8,0:0:0:0:
256,192,2117,1,8,0:0:0:0:
256,192,2279,1,0,0:0:0:0:
256,192,2442,1,8,0:0:0:0:
256,192,3415,1,0,0:0:0:0:
256,192,3577,1,8,0:0:0:0:
256,192,3739,1,0,0:0:0:0:
256,192,3901,1,0,0:0:0:0:
256,192,4063,1,0,0:0:0:0:
256,192,4225,1,8,0:0:0:0:
256,192,4550,1,8,0:0:0:0:
256,192,4712,1,8,0:0:0:0:
256,192,4874,1,0,0:0:0:0:
256,192,5036,1,8,0:0:0:0:
256,192,5685,1,8,0:0:0:0:
256,192,6009,1,8,0:0:0:0:
256,192,6171,1,0,0:0:0:0:
256,192,6334,1,8,0:0:0:0:
256,192,6496,1,0,0:0:0:0:
256,192,6658,1,0,0:0:0:0:
256,192,6820,1,8,0:0:0:0:
256,192,7144,1,8,0:0:0:0:
256,192,7306,1,8,0:0:0:0:
256,192,7469,1,0,0:0:0:0:
256,192,7631,1,8,0:0:0:0:
256,192,7955,1,8,0:0:0:0:
256,192,8117,1,0,0:0:0:0:
256,192,8279,1,8,0:0:0:0:
256,192,8442,1,0,0:0:0:0:
256,192,8604,1,0,0:0:0:0:
256,192,8766,1,8,0:0:0:0:
256,192,8928,1,8,0:0:0:0:
256,192,9090,1,0,0:0:0:0:
256,192,10225,1,0,0:0:0:0:
256,192,10388,1,8,0:0:0:0:
256,192,10550,1,8,0:0:0:0:
256,192,10712,1,0,0:0:0:0:
256,192,10874,1,8,0:0:0:0:
256,192,11198,1,8,0:0:0:0:
256,192,11361,1,0,0:0:0:0:
256,192,11685,1,0,0:0:0:0:
256,192,11847,1,0,0:0:0:0:
256,192,12009,1,8,0:0:0:0:
256,192,12334,1,0,0:0:0:0:
256,192,12496,1,0,0:0:0:0:
256,192,12658,1,8,0:0:0:0:
256,192,12820,1,0,0:0:0:0:
256,192,13144,1,0,0:0:0:0:
256,192,13306,1,8,0:0:0:0:
256,192,13793,1,0,0:0:0:0:
256,192,13955,1,8,0:0:0:0:
256,192,14117,1,0,0:0:0:0:
256,192,14279,1,0,0:0:0:0:
256,192,14442,1,0,0:0:0:0:
256,192,14604,1,8,0:0:0:0:
256,192,14928,1,0,0:0:0:0:
256,192,15090,1,0,0:0:0:0:
256,192,15252,1,8,0:0:0:0:
256,192,15415,1,0,0:0:0:0:
256,192,15739,1,0,0:0:0:0:
256,192,15901,1,8,0:0:0:0:
256,192,16063,1,8,0:0:0:0:
256,192,16225,1,0,0:0:0:0:
256,192,16388,1,0,0:0:0:0:
256,192,16550,1,8,0:0:0:0:
256,192,16712,1,0,0:0:0:0:
256,192,16874,1,0,0:0:0:0:
256,192,17036,1,0,0:0:0:0:
256,192,17198,1,8,0:0:0:0:
256,192,17523,1,0,0:0:0:0:
256,192,17685,1,0,0:0:0:0:
256,192,17847,1,8,0:0:0:0:
256,192,18009,1,0,0:0:0:0:
256,192,18334,1,8,0:0:0:0:
256,192,18496,1,0,0:0:0:0:
256,192,18658,1,8,0:0:0:0:
256,192,18820,1,0,0:0:0:0:
256,192,18982,1,0,0:0:0:0:
256,192,19144,1,8,0:0:0:0:
256,192,19306,1,8,0:0:0:0:
256,192,19469,1,0,0:0:0:0:
256,192,19793,1,8,0:0:0:0:
256,192,20279,1,0,0:0:0:0:
256,192,20604,5,0,0:0:0:0:
256,192,20766,1,0,0:0:0:0:
256,192,20928,1,0,0:0:0:0:
256,192,21090,1,8,0:0:0:0:
256,192,21252,1,8,0:0:0:0:
256,192,21577,1,8,0:0:0:0:
256,192,21739,1,0,0:0:0:0:
256,192,22063,12,0,23361,0:0:0:0:
256,192,24334,5,8,0:0:0:0:
256,192,24388,1,8,0:0:0:0:
256,192,24442,1,8,0:0:0:0:
256,192,24496,1,8,0:0:0:0:
256,192,24658,5,4,0:0:0:0:
256,192,24820,1,8,0:0:0:0:
256,192,24901,1,8,0:0:0:0:
256,192,24982,1,0,0:0:0:0:
256,192,25063,1,8,0:0:0:0:
256,192,25144,1,0,0:0:0:0:
256,192,25225,1,0,0:0:0:0:
256,192,25306,1,8,0:0:0:0:
256,192,25388,1,8,0:0:0:0:
256,192,25469,1,0,0:0:0:0:
256,192,25550,1,0,0:0:0:0:
256,192,25631,1,8,0:0:0:0:
256,192,25793,1,8,0:0:0:0:
256,192,25955,5,0,0:0:0:0:
256,192,26036,1,0,0:0:0:0:
256,192,26117,1,8,0:0:0:0:
256,192,26198,1,0,0:0:0:0:
256,192,26279,1,0,0:0:0:0:
256,192,26361,1,8,0:0:0:0:
256,192,26442,1,0,0:0:0:0:
256,192,26523,1,0,0:0:0:0:
256,192,26604,1,8,0:0:0:0:
256,192,26685,1,8,0:0:0:0:
256,192,26766,1,0,0:0:0:0:
256,192,26847,1,8,0:0:0:0:
256,192,26928,1,8,0:0:0:0:
256,192,27090,1,0,0:0:0:0:
256,192,27252,5,8,0:0:0:0:
256,192,27334,1,0,0:0:0:0:
256,192,27415,1,0,0:0:0:0:
256,192,27496,1,8,0:0:0:0:
256,192,27577,1,0,0:0:0:0:
256,192,27658,1,0,0:0:0:0:
256,192,27739,1,8,0:0:0:0:
256,192,27820,1,0,0:0:0:0:
256,192,27901,1,8,0:0:0:0:
256,192,27982,1,8,0:0:0:0:
256,192,28063,1,0,0:0:0:0:
256,192,28144,1,0,0:0:0:0:
256,192,28225,1,8,0:0:0:0:
256,192,28388,1,8,0:0:0:0:
256,192,28550,1,8,0:0:0:0:
256,192,28631,1,8,0:0:0:0:
256,192,28712,1,0,0:0:0:0:
256,192,28793,1,8,0:0:0:0:
256,192,28874,1,0,0:0:0:0:
256,192,28955,1,0,0:0:0:0:
256,192,29036,1,8,0:0:0:0:
256,192,29117,1,0,0:0:0:0:
256,192,29198,1,8,0:0:0:0:
256,192,29279,1,8,0:0:0:0:
256,192,29361,1,0,0:0:0:0:
256,192,29442,1,0,0:0:0:0:
256,192,29523,1,8,0:0:0:0:
256,192,29685,1,8,0:0:0:0:
256,192,29847,5,0,0:0:0:0:
256,192,29928,1,0,0:0:0:0:
256,192,30009,1,8,0:0:0:0:
256,192,30090,1,0,0:0:0:0:
256,192,30171,1,0,0:0:0:0:
256,192,30252,1,8,0:0:0:0:
256,192,30334,1,0,0:0:0:0:
256,192,30415,1,0,0:0:0:0:
256,192,30496,1,8,0:0:0:0:
256,192,30577,1,8,0:0:0:0:
256,192,30658,1,0,0:0:0:0:
256,192,30739,1,0,0:0:0:0:
256,192,30820,1,8,0:0:0:0:
256,192,30982,1,0,0:0:0:0:
256,192,31144,5,8,0:0:0:0:
256,192,31225,1,0,0:0:0:0:
256,192,31306,1,0,0:0:0:0:
256,192,31388,1,8,0:0:0:0:
256,192,31469,1,0,0:0:0:0:
256,192,31550,1,0,0:0:0:0:
256,192,31631,1,8,0:0:0:0:
256,192,31712,1,0,0:0:0:0:
256,192,31793,1,8,0:0:0:0:
256,192,31874,1,8,0:0:0:0:
256,192,31955,1,0,0:0:0:0:
256,192,32036,1,8,0:0:0:0:
256,192,32117,1,0,0:0:0:0:
256,192,32279,1,8,0:0:0:0:
256,192,32442,5,0,0:0:0:0:
256,192,32523,1,0,0:0:0:0:
256,192,32604,1,8,0:0:0:0:
256,192,32685,1,0,0:0:0:0:
256,192,32766,1,0,0:0:0:0:
256,192,32847,1,8,0:0:0:0:
256,192,32928,1,0,0:0:0:0:
256,192,33009,1,0,0:0:0:0:
256,192,33090,1,8,0:0:0:0:
256,192,33171,1,8,0:0:0:0:
256,192,33252,1,0,0:0:0:0:
256,192,33334,1,8,0:0:0:0:
256,192,33415,1,0,0:0:0:0:
256,192,33577,1,8,0:0:0:0:
256,192,33739,1,8,0:0:0:0:
256,192,33820,1,8,0:0:0:0:
256,192,33901,1,0,0:0:0:0:
256,192,33982,1,8,0:0:0:0:
256,192,34063,1,0,0:0:0:0:
256,192,34144,1,0,0:0:0:0:
256,192,34225,1,8,0:0:0:0:
256,192,34306,1,0,0:0:0:0:
256,192,34388,1,8,0:0:0:0:
256,192,34469,1,8,0:0:0:0:
256,192,34550,1,0,0:0:0:0:
256,192,34631,1,0,0:0:0:0:
256,192,34712,1,8,0:0:0:0:
256,192,34793,1,0,0:0:0:0:
256,192,34874,1,8,0:0:0:0:
256,192,35036,5,4,0:0:0:0:
256,192,35198,1,8,0:0:0:0:
256,192,35279,1,8,0:0:0:0:
256,192,35361,1,0,0:0:0:0:
256,192,35442,1,8,0:0:0:0:
256,192,35523,1,0,0:0:0:0:
256,192,35604,1,0,0:0:0:0:
256,192,35685,1,8,0:0:0:0:
256,192,35766,1,8,0:0:0:0:
256,192,35847,1,0,0:0:0:0:
256,192,35928,1,0,0:0:0:0:
256,192,36009,1,8,0:0:0:0:
256,192,36171,1,8,0:0:0:0:
256,192,36334,5,0,0:0:0:0:
256,192,36415,1,0,0:0:0:0:
256,192,36496,1,8,0:0:0:0:
256,192,36577,1,0,0:0:0:0:
256,192,36658,1,0,0:0:0:0:
256,192,36739,1,8,0:0:0:0:
256,192,36820,1,0,0:0:0:0:
256,192,36901,1,0,0:0:0:0:
256,192,36982,1,8,0:0:0:0:
256,192,37063,1,8,0:0:0:0:
256,192,37144,1,0,0:0:0:0:
256,192,37225,1,8,0:0:0:0:
256,192,37306,1,8,0:0:0:0:
256,192,37469,1,0,0:0:0:0:
256,192,37631,5,8,0:0:0:0:
256,192,37712,1,0,0:0:0:0:
256,192,37793,1,0,0:0:0:0:
256,192,37874,1,8,0:0:0:0:
256,192,37955,1,0,0:0:0:0:
256,192,38036,1,0,0:0:0:0:
256,192,38117,1,8,0:0:0:0:
256,192,38198,1,0,0:0:0:0:
256,192,38279,1,8,0:0:0:0:
256,192,38361,1,8,0:0:0:0:
256,192,38442,1,0,0:0:0:0:
256,192,38523,1,0,0:0:0:0:
256,192,38604,1,8,0:0:0:0:
256,192,38766,1,8,0:0:0:0:
256,192,38928,1,8,0:0:0:0:
256,192,39009,1,8,0:0:0:0:
256,192,39090,1,0,0:0:0:0:
256,192,39171,1,8,0:0:0:0:
256,192,39252,1,0,0:0:0:0:
256,192,39334,1,0,0:0:0:0:
256,192,39415,1,8,0:0:0:0:
256,192,39496,1,0,0:0:0:0:
256,192,39577,1,0,0:0:0:0:
256,192,39658,1,8,0:0:0:0:
256,192,39739,1,8,0:0:0:0:
256,192,39820,1,0,0:0:0:0:
256,192,39901,1,8,0:0:0:0:
256,192,40063,1,8,0:0:0:0:
256,192,40225,5,0,0:0:0:0:
256,192,40306,1,0,0:0:0:0:
256,192,40388,1,8,0:0:0:0:
256,192,40469,1,0,0:0:0:0:
256,192,40550,1,0,0:0:0:0:
256,192,40631,1,8,0:0:0:0:
256,192,40712,1,0,0:0:0:0:
256,192,40793,1,0,0:0:0:0:
256,192,40874,1,8,0:0:0:0:
256,192,40955,1,8,0:0:0:0:
256,192,41036,1,0,0:0:0:0:
256,192,41117,1,0,0:0:0:0:
256,192,41198,1,8,0:0:0:0:
256,192,41361,1,0,0:0:0:0:
256,192,41523,5,8,0:0:0:0:
256,192,41604,1,0,0:0:0:0:
256,192,41685,1,0,0:0:0:0:
256,192,41766,1,8,0:0:0:0:
256,192,41847,1,0,0:0:0:0:
256,192,41928,1,0,0:0:0:0:
256,192,42009,1,8,0:0:0:0:
256,192,42090,1,0,0:0:0:0:
256,192,42171,1,8,0:0:0:0:
256,192,42252,1,8,0:0:0:0:
256,192,42334,1,0,0:0:0:0:
256,192,42415,1,0,0:0:0:0:
256,192,42496,1,8,0:0:0:0:
256,192,42658,1,8,0:0:0:0:
256,192,42820,5,0,0:0:0:0:
256,192,42901,1,0,0:0:0:0:
256,192,42982,1,8,0:0:0:0:
256,192,43063,1,0,0:0:0:0:
256,192,43144,1,0,0:0:0:0:
256,192,43225,1,8,0:0:0:0:
256,192,43306,1,8,0:0:0:0:
256,192,43388,1,0,0:0:0:0:
256,192,43469,1,8,0:0:0:0:
256,192,43631,1,8,0:0:0:0:
256,192,43793,1,0,0:0:0:0:
256,192,43874,1,0,0:0:0:0:
256,192,43955,1,0,0:0:0:0:
256,192,44036,1,0,0:0:0:0:
256,192,44117,1,8,0:0:0:0:
256,192,44198,1,0,0:0:0:0:
256,192,44279,1,0,0:0:0:0:
256,192,44361,1,8,0:0:0:0:
256,192,44442,1,0,0:0:0:0:
256,192,44523,1,0,0:0:0:0:
256,192,44604,1,8,0:0:0:0:
256,192,44685,1,8,0:0:0:0:
256,192,44766,1,0,0:0:0:0:
256,192,44847,1,8,0:0:0:0:
256,192,44928,1,0,0:0:0:0:
256,192,45009,1,0,0:0:0:0:
256,192,45090,1,8,0:0:0:0:
256,192,45171,1,0,0:0:0:0:
256,192,45252,1,8,0:0:0:0:
256,192,45415,1,4,0:0:0:0:
256,192,45739,1,8,0:0:0:0:
256,192,46063,1,0,0:0:0:0:
256,192,46225,1,0,0:0:0:0:
256,192,46388,1,8,0:0:0:0:
256,192,46712,1,0,0:0:0:0:
256,192,46874,1,0,0:0:0:0:
256,192,47036,1,8,0:0:0:0:
256,192,47198,1,0,0:0:0:0:
256,192,47361,1,8,0:0:0:0:
256,192,47523,1,8,0:0:0:0:
256,192,47685,1,0,0:0:0:0:
256,192,47847,1,0,0:0:0:0:
256,192,48009,1,8,0:0:0:0:
256,192,48334,1,8,0:0:0:0:
256,192,48496,1,0,0:0:0:0:
256,192,49631,1,0,0:0:0:0:
256,192,49955,1,0,0:0:0:0:
256,192,50279,1,0,0:0:0:0:
256,192,50604,1,4,0:0:0:0:
256,192,50766,1,8,0:0:0:0:
256,192,50847,1,8,0:0:0:0:
256,192,50928,1,0,0:0:0:0:
256,192,51090,1,8,0:0:0:0:
256,192,51252,1,0,0:0:0:0:
256,192,51415,1,8,0:0:0:0:
256,192,51496,1,0,0:0:0:0:
256,192,51577,1,8,0:0:0:0:
256,192,51739,1,8,0:0:0:0:
256,192,51901,1,0,0:0:0:0:
256,192,52063,1,0,0:0:0:0:
256,192,52144,1,0,0:0:0:0:
256,192,52225,1,8,0:0:0:0:
256,192,52306,1,8,0:0:0:0:
256,192,52388,1,0,0:0:0:0:
256,192,52469,1,0,0:0:0:0:
256,192,52550,1,8,0:0:0:0:
256,192,52712,1,0,0:0:0:0:
256,192,52874,1,8,0:0:0:0:
256,192,53036,1,8,0:0:0:0:
256,192,53198,1,0,0:0:0:0:
256,192,53361,1,8,0:0:0:0:
256,192,53442,1,8,0:0:0:0:
256,192,53523,1,0,0:0:0:0:
256,192,53685,1,8,0:0:0:0:
256,192,53847,1,0,0:0:0:0:
256,192,54009,1,8,0:0:0:0:
256,192,54090,1,8,0:0:0:0:
256,192,54171,1,0,0:0:0:0:
256,192,54252,1,0,0:0:0:0:
256,192,54334,1,8,0:0:0:0:
256,192,54496,1,0,0:0:0:0:
256,192,54658,1,0,0:0:0:0:
256,192,54739,1,0,0:0:0:0:
256,192,54820,1,8,0:0:0:0:
256,192,54982,1,0,0:0:0:0:
256,192,55144,1,8,0:0:0:0:
256,192,55306,1,0,0:0:0:0:
256,192,55388,1,0,0:0:0:0:
256,192,55469,1,8,0:0:0:0:
256,192,55550,1,8,0:0:0:0:
256,192,55631,1,8,0:0:0:0:
256,192,55793,1,4,0:0:0:0:
256,192,55955,1,8,0:0:0:0:
256,192,56036,1,8,0:0:0:0:
256,192,56117,1,0,0:0:0:0:
256,192,56279,1,8,0:0:0:0:
256,192,56442,1,0,0:0:0:0:
256,192,56604,1,8,0:0:0:0:
256,192,56685,1,0,0:0:0:0:
256,192,56766,1,8,0:0:0:0:
256,192,56928,1,8,0:0:0:0:
256,192,57090,1,0,0:0:0:0:
256,192,57252,1,8,0:0:0:0:
256,192,57334,1,0,0:0:0:0:
256,192,57415,1,8,0:0:0:0:
256,192,57496,1,8,0:0:0:0:
256,192,57577,1,0,0:0:0:0:
256,192,57658,1,0,0:0:0:0:
256,192,57739,1,8,0:0:0:0:
256,192,57901,1,0,0:0:0:0:
256,192,58063,1,8,0:0:0:0:
256,192,58225,1,8,0:0:0:0:
256,192,58306,1,0,0:0:0:0:
256,192,58388,1,8,0:0:0:0:
256,192,58550,1,0,0:0:0:0:
256,192,58712,1,8,0:0:0:0:
256,192,58874,1,0,0:0:0:0:
256,192,58955,1,0,0:0:0:0:
256,192,59036,1,8,0:0:0:0:
256,192,59198,1,0,0:0:0:0:
256,192,59361,1,8,0:0:0:0:
256,192,59523,1,8,0:0:0:0:
256,192,59685,1,0,0:0:0:0:
256,192,59847,1,8,0:0:0:0:
256,192,59928,1,8,0:0:0:0:
256,192,60009,1,0,0:0:0:0:
256,192,60171,1,8,0:0:0:0:
256,192,60334,1,0,0:0:0:0:
256,192,60496,1,8,0:0:0:0:
256,192,60577,1,8,0:0:0:0:
256,192,60658,1,0,0:0:0:0:
256,192,60739,1,0,0:0:0:0:
256,192,60820,1,8,0:0:0:0:
256,192,60982,1,0,0:0:0:0:
256,192,61144,1,0,0:0:0:0:
256,192,61306,1,8,0:0:0:0:
256,192,61469,1,0,0:0:0:0:
256,192,61550,1,0,0:0:0:0:
256,192,61631,1,8,0:0:0:0:
256,192,61793,1,0,0:0:0:0:
256,192,61955,1,8,0:0:0:0:
256,192,62117,1,8,0:0:0:0:
256,192,62279,1,0,0:0:0:0:
256,192,62442,1,8,0:0:0:0:
256,192,62523,1,0,0:0:0:0:
256,192,62604,1,8,0:0:0:0:
256,192,62766,1,0,0:0:0:0:
256,192,62928,1,8,0:0:0:0:
256,192,63090,1,8,0:0:0:0:
256,192,63252,1,0,0:0:0:0:
256,192,63415,1,8,0:0:0:0:
256,192,63577,1,0,0:0:0:0:
256,192,63739,1,8,0:0:0:0:
256,192,63820,1,8,0:0:0:0:
256,192,63901,1,0,0:0:0:0:
256,192,64063,1,8,0:0:0:0:
256,192,64144,1,8,0:0:0:0:
256,192,64225,1,0,0:0:0:0:
256,192,64306,1,0,0:0:0:0:
256,192,64388,1,8,0:0:0:0:
256,192,64469,1,0,0:0:0:0:
256,192,64550,1,8,0:0:0:0:
256,192,64712,1,8,0:0:0:0:
256,192,64874,1,0,0:0:0:0:
256,192,65198,1,8,0:0:0:0:
256,192,65361,1,0,0:0:0:0:
256,192,65442,1,0,0:0:0:0:
256,192,65523,1,0,0:0:0:0:
256,192,65685,1,0,0:0:0:0:
256,192,65847,1,8,0:0:0:0:
256,192,66009,1,8,0:0:0:0:
256,192,66171,1,4,0:0:0:0:
256,192,66496,1,0,0:0:0:0:
256,192,66820,1,8,0:0:0:0:
256,192,67306,1,0,0:0:0:0:
256,192,67631,1,0,0:0:0:0:
256,192,67793,1,0,0:0:0:0:
256,192,68117,1,8,0:0:0:0:
256,192,68766,1,0,0:0:0:0:
256,192,69090,1,0,0:0:0:0:
256,192,69415,1,8,0:0:0:0:
256,192,69901,1,0,0:0:0:0:
256,192,70225,1,0,0:0:0:0:
256,192,70388,1,0,0:0:0:0:
256,192,70712,1,8,0:0:0:0:
256,192,70874,1,0,0:0:0:0:
256,192,71036,1,8,0:0:0:0:
256,192,71198,1,8,0:0:0:0:
256,192,71361,1,0,0:0:0:0:
256,192,71685,1,0,0:0:0:0:
256,192,72009,1,8,0:0:0:0:
256,192,72496,1,0,0:0:0:0:
256,192,72820,1,0,0:0:0:0:
256,192,72982,1,0,0:0:0:0:
256,192,73306,1,8,0:0:0:0:
256,192,73955,1,0,0:0:0:0:
256,192,74279,1,0,0:0:0:0:
256,192,74604,1,8,0:0:0:0:
256,192,75090,1,0,0:0:0:0:
256,192,75415,1,0,0:0:0:0:
256,192,75577,1,0,0:0:0:0:
256,192,75901,1,8,0:0:0:0:
256,192,76063,1,0,0:0:0:0:
256,192,76225,1,0,0:0:0:0:
256,192,76388,1,8,0:0:0:0:
256,192,76550,1,4,0:0:0:0:
256,192,76793,1,8,0:0:0:0:
256,192,76874,1,0,0:0:0:0:
256,192,77036,1,8,0:0:0:0:
256,192,77198,1,0,0:0:0:0:
256,192,77361,1,8,0:0:0:0:
256,192,77442,1,8,0:0:0:0:
256,192,77523,1,0,0:0:0:0:
256,192,77685,1,8,0:0:0:0:
256,192,77847,1,0,0:0:0:0:
256,192,78009,1,8,0:0:0:0:
256,192,78090,1,0,0:0:0:0:
256,192,78171,1,8,0:0:0:0:
256,192,78334,1,0,0:0:0:0:
256,192,78496,1,8,0:0:0:0:
256,192,78658,1,0,0:0:0:0:
256,192,78739,1,0,0:0:0:0:
256,192,78820,1,8,0:0:0:0:
256,192,78982,1,8,0:0:0:0:
256,192,79144,1,0,0:0:0:0:
256,192,79306,1,8,0:0:0:0:
256,192,79388,1,8,0:0:0:0:
256,192,79469,1,0,0:0:0:0:
256,192,79631,1,0,0:0:0:0:
256,192,79793,1,8,0:0:0:0:
256,192,79955,1,0,0:0:0:0:
256,192,80036,1,0,0:0:0:0:
256,192,80117,1,8,0:0:0:0:
256,192,80279,1,8,0:0:0:0:
256,192,80442,1,0,0:0:0:0:
256,192,80604,1,8,0:0:0:0:
256,192,80685,1,8,0:0:0:0:
256,192,80766,1,0,0:0:0:0:
256,192,80928,1,8,0:0:0:0:
256,192,81009,1,0,0:0:0:0:
256,192,81090,1,8,0:0:0:0:
256,192,81171,1,8,0:0:0:0:
256,192,81252,1,0,0:0:0:0:
256,192,81415,1,8,0:0:0:0:
256,192,81577,1,8,0:0:0:0:
256,192,81739,1,0,0:0:0:0:
256,192,81901,1,0,0:0:0:0:
256,192,81982,1,0,0:0:0:0:
256,192,82063,1,8,0:0:0:0:
256,192,82225,1,0,0:0:0:0:
256,192,82388,1,8,0:0:0:0:
256,192,82550,1,0,0:0:0:0:
256,192,82631,1,8,0:0:0:0:
256,192,82712,1,8,0:0:0:0:
256,192,82874,1,0,0:0:0:0:
256,192,83036,1,8,0:0:0:0:
256,192,83198,1,0,0:0:0:0:
256,192,83279,1,0,0:0:0:0:
256,192,83361,1,8,0:0:0:0:
256,192,83523,1,0,0:0:0:0:
256,192,83604,1,0,0:0:0:0:
256,192,83685,1,8,0:0:0:0:
256,192,83766,1,0,0:0:0:0:
256,192,83847,1,8,0:0:0:0:
256,192,83928,1,8,0:0:0:0:
256,192,84009,1,0,0:0:0:0:
256,192,84171,1,8,0:0:0:0:
256,192,84334,1,0,0:0:0:0:
256,192,84496,1,8,0:0:0:0:
256,192,84577,1,8,0:0:0:0:
256,192,84658,1,0,0:0:0:0:
256,192,84820,1,8,0:0:0:0:
256,192,84901,1,0,0:0:0:0:
256,192,84982,1,8,0:0:0:0:
256,192,85063,1,8,0:0:0:0:
256,192,85144,1,0,0:0:0:0:
256,192,85225,1,0,0:0:0:0:
256,192,85306,1,8,0:0:0:0:
256,192,85388,1,8,0:0:0:0:
256,192,85469,1,8,0:0:0:0:
256,192,85631,1,4,0:0:0:0:
256,192,85793,5,4,0:0:0:0:
256,192,85955,1,4,0:0:0:0:
256,192,86604,1,8,0:0:0:0:
256,192,86658,1,8,0:0:0:0:
256,192,86712,1,8,0:0:0:0:
256,192,86766,1,8,0:0:0:0:
256,192,86928,5,4,0:0:0:0:
256,192,87090,1,8,0:0:0:0:
256,192,87171,1,8,0:0:0:0:
256,192,87252,1,0,0:0:0:0:
256,192,87415,1,8,0:0:0:0:
256,192,87577,1,0,0:0:0:0:
256,192,87658,1,8,0:0:0:0:
256,192,87739,1,0,0:0:0:0:
256,192,87820,1,0,0:0:0:0:
256,192,87901,1,8,0:0:0:0:
256,192,88063,1,8,0:0:0:0:
256,192,88225,1,0,0:0:0:0:
256,192,88388,1,8,0:0:0:0:
256,192,88469,1,8,0:0:0:0:
256,192,88550,1,0,0:0:0:0:
256,192,88631,1,8,0:0:0:0:
256,192,88712,1,0,0:0:0:0:
256,192,88793,1,0,0:0:0:0:
256,192,88874,1,8,0:0:0:0:
256,192,88955,1,0,0:0:0:0:
256,192,89036,1,0,0:0:0:0:
256,192,89117,1,8,0:0:0:0:
256,192,89198,1,8,0:0:0:0:
256,192,89361,1,0,0:0:0:0:
256,192,89523,1,8,0:0:0:0:
256,192,89685,1,0,0:0:0:0:
256,192,89766,1,0,0:0:0:0:
256,192,89847,1,8,0:0:0:0:
256,192,90009,1,0,0:0:0:0:
256,192,90171,1,8,0:0:0:0:
256,192,90252,1,0,0:0:0:0:
256,192,90334,1,8,0:0:0:0:
256,192,90415,1,8,0:0:0:0:
256,192,90496,1,0,0:0:0:0:
256,192,90658,1,0,0:0:0:0:
256,192,90820,1,8,0:0:0:0:
256,192,90982,1,0,0:0:0:0:
256,192,91063,1,8,0:0:0:0:
256,192,91144,1,8,0:0:0:0:
256,192,91306,1,0,0:0:0:0:
256,192,91388,1,0,0:0:0:0:
256,192,91469,1,8,0:0:0:0:
256,192,91550,1,8,0:0:0:0:
256,192,91631,1,0,0:0:0:0:
256,192,91793,1,8,0:0:0:0:
256,192,91955,1,8,0:0:0:0:
256,192,92117,1,0,0:0:0:0:
256,192,92279,1,8,0:0:0:0:
256,192,92361,1,8,0:0:0:0:
256,192,92442,1,0,0:0:0:0:
256,192,92604,1,8,0:0:0:0:
256,192,92685,1,0,0:0:0:0:
256,192,92766,1,8,0:0:0:0:
256,192,92847,1,8,0:0:0:0:
256,192,92928,1,0,0:0:0:0:
256,192,93009,1,0,0:0:0:0:
256,192,93090,1,8,0:0:0:0:
256,192,93252,1,8,0:0:0:0:
256,192,93415,1,0,0:0:0:0:
256,192,93577,1,8,0:0:0:0:
256,192,93658,1,0,0:0:0:0:
256,192,93739,1,8,0:0:0:0:
256,192,93901,1,0,0:0:0:0:
256,192,94063,1,8,0:0:0:0:
256,192,94144,1,8,0:0:0:0:
256,192,94225,1,0,0:0:0:0:
256,192,94306,1,8,0:0:0:0:
256,192,94388,1,0,0:0:0:0:
256,192,94550,1,0,0:0:0:0:
256,192,94712,1,8,0:0:0:0:
256,192,94874,1,0,0:0:0:0:
256,192,94955,1,8,0:0:0:0:
256,192,95036,1,8,0:0:0:0:
256,192,95198,1,0,0:0:0:0:
256,192,95279,1,8,0:0:0:0:
256,192,95442,1,8,0:0:0:0:
256,192,95523,1,0,0:0:0:0:
256,192,95604,1,0,0:0:0:0:
256,192,95685,1,8,0:0:0:0:
256,192,95847,1,0,0:0:0:0:
256,192,96009,1,8,0:0:0:0:
256,192,96171,1,0,0:0:0:0:
256,192,96252,1,8,0:0:0:0:
256,192,96334,1,0,0:0:0:0:
256,192,96496,1,8,0:0:0:0:
256,192,96577,1,8,0:0:0:0:
256,192,96658,1,0,0:0:0:0:
256,192,96739,1,0,0:0:0:0:
256,192,96820,1,8,0:0:0:0:
256,192,96901,1,0,0:0:0:0:
256,192,96982,1,8,0:0:0:0:
256,192,97144,1,8,0:0:0:0:
256,192,97306,5,4,0:0:0:0:
256,192,97469,1,8,0:0:0:0:
256,192,97550,1,8,0:0:0:0:
256,192,97631,1,0,0:0:0:0:
256,192,97793,1,8,0:0:0:0:
256,192,97955,1,0,0:0:0:0:
256,192,98036,1,0,0:0:0:0:
256,192,98117,1,8,0:0:0:0:
256,192,98198,1,0,0:0:0:0:
256,192,98279,1,8,0:0:0:0:
256,192,98442,1,8,0:0:0:0:
256,192,98604,1,0,0:0:0:0:
256,192,98766,1,8,0:0:0:0:
256,192,98847,1,0,0:0:0:0:
256,192,98928,1,0,0:0:0:0:
256,192,99009,1,8,0:0:0:0:
256,192,99090,1,0,0:0:0:0:
256,192,99171,1,0,0:0:0:0:
256,192,99252,1,8,0:0:0:0:
256,192,99334,1,8,0:0:0:0:
256,192,99415,1,0,0:0:0:0:
256,192,99496,1,8,0:0:0:0:
256,192,99577,1,8,0:0:0:0:
256,192,99739,1,0,0:0:0:0:
256,192,99901,1,8,0:0:0:0:
256,192,100063,1,0,0:0:0:0:
256,192,100144,1,0,0:0:0:0:
256,192,100225,1,8,0:0:0:0:
256,192,100388,1,0,0:0:0:0:
256,192,100469,1,0,0:0:0:0:
256,192,100550,1,8,0:0:0:0:
256,192,100631,1,8,0:0:0:0:
256,192,100712,1,0,0:0:0:0:
256,192,100874,1,8,0:0:0:0:
256,192,101036,1,8,0:0:0:0:
256,192,101198,1,0,0:0:0:0:
256,192,101361,1,8,0:0:0:0:
256,192,101442,1,0,0:0:0:0:
256,192,101523,1,8,0:0:0:0:
256,192,101685,1,0,0:0:0:0:
256,192,101766,1,8,0:0:0:0:
256,192,101847,1,8,0:0:0:0:
256,192,101928,1,8,0:0:0:0:
256,192,102009,1,0,0:0:0:0:
256,192,102171,1,8,0:0:0:0:
256,192,102334,1,8,0:0:0:0:
256,192,102496,1,0,0:0:0:0:
256,192,102658,1,8,0:0:0:0:
256,192,102739,1,8,0:0:0:0:
256,192,102820,1,0,0:0:0:0:
256,192,102982,1,8,0:0:0:0:
256,192,103063,1,0,0:0:0:0:
256,192,103144,1,8,0:0:0:0:
256,192,103225,1,8,0:0:0:0:
256,192,103306,1,0,0:0:0:0:
256,192,103388,1,0,0:0:0:0:
256,192,103469,1,8,0:0:0:0:
256,192,103631,1,8,0:0:0:0:
256,192,103793,1,0,0:0:0:0:
256,192,103955,1,8,0:0:0:0:
256,192,104036,1,0,0:0:0:0:
256,192,104117,1,8,0:0:0:0:
256,192,104279,1,0,0:0:0:0:
256,192,104442,1,8,0:0:0:0:
256,192,104523,1,8,0:0:0:0:
256,192,104604,1,0,0:0:0:0:
256,192,104685,1,8,0:0:0:0:
256,192,104766,1,0,0:0:0:0:
256,192,104928,1,0,0:0:0:0:
256,192,105090,1,8,0:0:0:0:
256,192,105252,1,0,0:0:0:0:
256,192,105334,1,8,0:0:0:0:
256,192,105415,1,8,0:0:0:0:
256,192,105577,1,0,0:0:0:0:
256,192,105739,1,8,0:0:0:0:
256,192,105901,1,8,0:0:0:0:
256,192,106063,1,0,0:0:0:0:
256,192,106144,1,0,0:0:0:0:
256,192,106225,1,0,0:0:0:0:
256,192,106306,1,0,0:0:0:0:
256,192,106387,1,8,0:0:0:0:
256,192,106468,1,0,0:0:0:0:
256,192,106549,1,0,0:0:0:0:
256,192,106630,1,8,0:0:0:0:
256,192,106711,1,0,0:0:0:0:
256,192,106792,1,0,0:0:0:0:
256,192,106873,1,8,0:0:0:0:
256,192,106954,1,8,0:0:0:0:
256,192,107036,1,0,0:0:0:0:
256,192,107117,1,8,0:0:0:0:
256,192,107198,1,0,0:0:0:0:
256,192,107279,1,0,0:0:0:0:
256,192,107360,1,8,0:0:0:0:
256,192,107441,1,0,0:0:0:0:
256,192,107522,1,8,0:0:0:0:
256,192,107685,1,4,0:0:0:0:
256,192,107847,1,8,0:0:0:0:
256,192,107928,1,8,0:0:0:0:
256,192,108009,1,0,0:0:0:0:
256,192,108090,1,8,0:0:0:0:
256,192,108171,1,0,0:0:0:0:
256,192,108252,1,0,0:0:0:0:
256,192,108334,1,8,0:0:0:0:
256,192,108415,1,8,0:0:0:0:
256,192,108496,1,0,0:0:0:0:
256,192,108577,1,0,0:0:0:0:
256,192,108658,1,8,0:0:0:0:
256,192,108820,1,8,0:0:0:0:
256,192,108982,5,0,0:0:0:0:
256,192,109063,1,0,0:0:0:0:
256,192,109144,1,8,0:0:0:0:
256,192,109225,1,0,0:0:0:0:
256,192,109306,1,0,0:0:0:0:
256,192,109388,1,8,0:0:0:0:
256,192,109469,1,0,0:0:0:0:
256,192,109550,1,0,0:0:0:0:
256,192,109631,1,8,0:0:0:0:
256,192,109712,1,8,0:0:0:0:
256,192,109793,1,0,0:0:0:0:
256,192,109874,1,8,0:0:0:0:
256,192,109955,1,8,0:0:0:0:
256,192,110117,1,0,0:0:0:0:
256,192,110279,5,8,0:0:0:0:
256,192,110361,1,0,0:0:0:0:
256,192,110442,1,0,0:0:0:0:
256,192,110523,1,8,0:0:0:0:
256,192,110604,1,0,0:0:0:0:
256,192,110685,1,0,0:0:0:0:
256,192,110766,1,8,0:0:0:0:
256,192,110847,1,0,0:0:0:0:
256,192,110928,1,8,0:0:0:0:
256,192,111009,1,8,0:0:0:0:
256,192,111090,1,0,0:0:0:0:
256,192,111171,1,0,0:0:0:0:
256,192,111252,1,8,0:0:0:0:
256,192,111415,1,8,0:0:0:0:
256,192,111577,1,8,0:0:0:0:
256,192,111658,1,8,0:0:0:0:
256,192,111739,1,0,0:0:0:0:
256,192,111820,1,8,0:0:0:0:
256,192,111901,1,0,0:0:0:0:
256,192,111982,1,0,0:0:0:0:
256,192,112063,1,8,0:0:0:0:
256,192,112144,1,0,0:0:0:0:
256,192,112225,1,8,0:0:0:0:
256,192,112306,1,8,0:0:0:0:
256,192,112388,1,0,0:0:0:0:
256,192,112469,1,0,0:0:0:0:
256,192,112550,1,8,0:0:0:0:
256,192,112712,1,8,0:0:0:0:
256,192,112874,5,0,0:0:0:0:
256,192,112955,1,0,0:0:0:0:
256,192,113036,1,8,0:0:0:0:
256,192,113117,1,0,0:0:0:0:
256,192,113198,1,0,0:0:0:0:
256,192,113279,1,8,0:0:0:0:
256,192,113361,1,0,0:0:0:0:
256,192,113442,1,0,0:0:0:0:
256,192,113523,1,8,0:0:0:0:
256,192,113604,1,8,0:0:0:0:
256,192,113685,1,0,0:0:0:0:
256,192,113766,1,0,0:0:0:0:
256,192,113847,1,8,0:0:0:0:
256,192,114009,1,0,0:0:0:0:
256,192,114171,5,8,0:0:0:0:
256,192,114252,1,0,0:0:0:0:
256,192,114334,1,0,0:0:0:0:
256,192,114415,1,8,0:0:0:0:
256,192,114496,1,0,0:0:0:0:
256,192,114577,1,0,0:0:0:0:
256,192,114658,1,8,0:0:0:0:
256,192,114739,1,0,0:0:0:0:
256,192,114820,1,8,0:0:0:0:
256,192,114901,1,8,0:0:0:0:
256,192,114982,1,0,0:0:0:0:
256,192,115063,1,8,0:0:0:0:
256,192,115144,1,0,0:0:0:0:
256,192,115306,1,8,0:0:0:0:
256,192,115469,5,0,0:0:0:0:
256,192,115550,1,0,0:0:0:0:
256,192,115631,1,8,0:0:0:0:
256,192,115712,1,0,0:0:0:0:
256,192,115793,1,0,0:0:0:0:
256,192,115874,1,8,0:0:0:0:
256,192,115955,1,0,0:0:0:0:
256,192,116036,1,0,0:0:0:0:
256,192,116117,1,8,0:0:0:0:
256,192,116198,1,8,0:0:0:0:
256,192,116279,1,0,0:0:0:0:
256,192,116361,1,8,0:0:0:0:
256,192,116442,1,0,0:0:0:0:
256,192,116604,1,8,0:0:0:0:
256,192,116766,1,8,0:0:0:0:
256,192,116847,1,8,0:0:0:0:
256,192,116928,1,0,0:0:0:0:
256,192,117009,1,8,0:0:0:0:
256,192,117090,1,0,0:0:0:0:
256,192,117171,1,0,0:0:0:0:
256,192,117252,1,8,0:0:0:0:
256,192,117334,1,0,0:0:0:0:
256,192,117415,1,8,0:0:0:0:
256,192,117496,1,8,0:0:0:0:
256,192,117577,1,0,0:0:0:0:
256,192,117658,1,0,0:0:0:0:
256,192,117739,1,8,0:0:0:0:
256,192,117820,1,0,0:0:0:0:
256,192,117901,1,8,0:0:0:0:
256,192,118063,5,4,0:0:0:0:
256,192,118225,1,8,0:0:0:0:
256,192,118306,1,8,0:0:0:0:
256,192,118388,1,0,0:0:0:0:
256,192,118469,1,8,0:0:0:0:
256,192,118550,1,0,0:0:0:0:
256,192,118631,1,0,0:0:0:0:
256,192,118712,1,8,0:0:0:0:
256,192,118793,1,8,0:0:0:0:
256,192,118874,1,0,0:0:0:0:
256,192,118955,1,0,0:0:0:0:
256,192,119036,1,8,0:0:0:0:
256,192,119198,1,8,0:0:0:0:
256,192,119361,5,0,0:0:0:0:
256,192,119442,1,0,0:0:0:0:
256,192,119523,1,8,0:0:0:0:
256,192,119604,1,0,0:0:0:0:
256,192,119685,1,0,0:0:0:0:
256,192,119766,1,8,0:0:0:0:
256,192,119847,1,0,0:0:0:0:
256,192,119928,1,0,0:0:0:0:
256,192,120009,1,8,0:0:0:0:
256,192,120090,1,8,0:0:0:0:
256,192,120171,1,0,0:0:0:0:
256,192,120252,1,8,0:0:0:0:
256,192,120334,1,8,0:0:0:0:
256,192,120496,1,0,0:0:0:0:
256,192,120658,5,8,0:0:0:0:
256,192,120739,1,0,0:0:0:0:
256,192,120820,1,0,0:0:0:0:
256,192,120901,1,8,0:0:0:0:
256,192,120982,1,0,0:0:0:0:
256,192,121063,1,0,0:0:0:0:
256,192,121144,1,8,0:0:0:0:
256,192,121225,1,0,0:0:0:0:
256,192,121306,1,8,0:0:0:0:
256,192,121388,1,8,0:0:0:0:
256,192,121469,1,0,0:0:0:0:
256,192,121550,1,0,0:0:0:0:
256,192,121631,1,8,0:0:0:0:
256,192,121793,1,8,0:0:0:0:
256,192,121955,1,8,0:0:0:0:
256,192,122036,1,8,0:0:0:0:
256,192,122117,1,0,0:0:0:0:
256,192,122198,1,8,0:0:0:0:
256,192,122279,1,0,0:0:0:0:
256,192,122361,1,0,0:0:0:0:
256,192,122442,1,8,0:0:0:0:
256,192,122523,1,0,0:0:0:0:
256,192,122604,1,0,0:0:0:0:
256,192,122685,1,8,0:0:0:0:
256,192,122766,1,8,0:0:0:0:
256,192,122847,1,0,0:0:0:0:
256,192,122928,1,8,0:0:0:0:
256,192,123090,1,8,0:0:0:0:
256,192,123252,5,0,0:0:0:0:
256,192,123334,1,0,0:0:0:0:
256,192,123415,1,8,0:0:0:0:
256,192,123496,1,0,0:0:0:0:
256,192,123577,1,0,0:0:0:0:
256,192,123658,1,8,0:0:0:0:
256,192,123739,1,0,0:0:0:0:
256,192,123820,1,0,0:0:0:0:
256,192,123901,1,8,0:0:0:0:
256,192,123982,1,8,0:0:0:0:
256,192,124063,1,0,0:0:0:0:
256,192,124144,1,0,0:0:0:0:
256,192,124225,1,8,0:0:0:0:
256,192,124388,1,0,0:0:0:0:
256,192,124550,5,8,0:0:0:0:
256,192,124631,1,0,0:0:0:0:
256,192,124712,1,0,0:0:0:0:
256,192,124793,1,8,0:0:0:0:
256,192,124874,1,0,0:0:0:0:
256,192,124955,1,0,0:0:0:0:
256,192,125036,1,8,0:0:0:0:
256,192,125117,1,0,0:0:0:0:
256,192,125198,1,8,0:0:0:0:
256,192,125279,1,8,0:0:0:0:
256,192,125361,1,0,0:0:0:0:
256,192,125442,1,0,0:0:0:0:
256,192,125523,1,8,0:0:0:0:
256,192,125685,1,8,0:0:0:0:
256,192,125847,5,0,0:0:0:0:
256,192,125928,1,0,0:0:0:0:
256,192,126009,1,8,0:0:0:0:
256,192,126090,1,0,0:0:0:0:
256,192,126171,1,0,0:0:0:0:
256,192,126252,1,8,0:0:0:0:
256,192,126334,1,8,0:0:0:0:
256,192,126415,1,0,0:0:0:0:
256,192,126496,1,8,0:0:0:0:
256,192,126658,1,8,0:0:0:0:
256,192,126820,1,0,0:0:0:0:
256,192,126901,1,0,0:0:0:0:
256,192,126982,1,0,0:0:0:0:
256,192,127063,1,0,0:0:0:0:
256,192,127144,1,8,0:0:0:0:
256,192,127225,1,0,0:0:0:0:
256,192,127306,5,0,0:0:0:0:
256,192,127388,1,8,0:0:0:0:
256,192,127469,1,0,0:0:0:0:
256,192,127550,1,0,0:0:0:0:
256,192,127631,1,8,0:0:0:0:
256,192,127712,1,8,0:0:0:0:
256,192,127793,1,0,0:0:0:0:
256,192,127874,1,8,0:0:0:0:
256,192,127955,1,0,0:0:0:0:
256,192,128036,1,0,0:0:0:0:
256,192,128117,1,8,0:0:0:0:
256,192,128198,1,0,0:0:0:0:
256,192,128279,1,8,0:0:0:0:
256,192,128442,1,4,0:0:0:0:
256,192,128604,1,8,0:0:0:0:
256,192,128685,1,8,0:0:0:0:
256,192,128766,1,0,0:0:0:0:
256,192,128928,1,8,0:0:0:0:
256,192,129090,1,0,0:0:0:0:
256,192,129252,1,8,0:0:0:0:
256,192,129334,1,0,0:0:0:0:
256,192,129415,1,8,0:0:0:0:
256,192,129577,1,0,0:0:0:0:
256,192,129739,1,8,0:0:0:0:
256,192,129901,1,0,0:0:0:0:
256,192,129982,1,0,0:0:0:0:
256,192,130063,1,8,0:0:0:0:
256,192,130225,1,0,0:0:0:0:
256,192,130388,1,8,0:0:0:0:
256,192,130550,1,8,0:0:0:0:
256,192,130712,1,0,0:0:0:0:
256,192,130874,1,8,0:0:0:0:
256,192,130955,1,8,0:0:0:0:
256,192,131036,1,0,0:0:0:0:
256,192,131198,1,0,0:0:0:0:
256,192,131361,1,8,0:0:0:0:
256,192,131523,1,0,0:0:0:0:
256,192,131604,1,0,0:0:0:0:
256,192,131685,1,8,0:0:0:0:
256,192,131847,1,0,0:0:0:0:
256,192,132009,1,8,0:0:0:0:
256,192,132171,1,8,0:0:0:0:
256,192,132334,1,0,0:0:0:0:
256,192,132496,1,8,0:0:0:0:
256,192,132577,1,8,0:0:0:0:
256,192,132658,1,0,0:0:0:0:
256,192,132820,1,8,0:0:0:0:
256,192,132901,1,0,0:0:0:0:
256,192,132982,1,8,0:0:0:0:
256,192,133063,1,8,0:0:0:0:
256,192,133144,1,0,0:0:0:0:
256,192,133225,1,0,0:0:0:0:
256,192,133306,1,8,0:0:0:0:
256,192,133469,1,8,0:0:0:0:
256,192,133631,1,0,0:0:0:0:
256,192,133793,1,8,0:0:0:0:
256,192,133874,1,0,0:0:0:0:
256,192,133955,1,8,0:0:0:0:
256,192,134117,1,8,0:0:0:0:
256,192,134279,1,0,0:0:0:0:
256,192,134442,1,0,0:0:0:0:
256,192,134523,1,0,0:0:0:0:
256,192,134604,1,8,0:0:0:0:
256,192,134766,1,8,0:0:0:0:
256,192,134928,1,0,0:0:0:0:
256,192,135090,1,8,0:0:0:0:
256,192,135171,1,8,0:0:0:0:
256,192,135252,1,0,0:0:0:0:
256,192,135415,1,0,0:0:0:0:
256,192,135577,1,8,0:0:0:0:
256,192,135739,1,8,0:0:0:0:
256,192,135901,1,0,0:0:0:0:
256,192,136063,1,8,0:0:0:0:
256,192,136225,1,0,0:0:0:0:
256,192,136388,1,8,0:0:0:0:
256,192,136469,1,8,0:0:0:0:
256,192,136550,1,0,0:0:0:0:
256,192,136712,1,0,0:0:0:0:
256,192,136793,1,0,0:0:0:0:
256,192,136874,1,8,0:0:0:0:
256,192,136955,1,8,0:0:0:0:
256,192,137036,1,0,0:0:0:0:
256,192,137117,1,0,0:0:0:0:
256,192,137198,1,8,0:0:0:0:
256,192,137361,1,8,0:0:0:0:
256,192,137523,1,0,0:0:0:0:
256,192,137685,1,8,0:0:0:0:
256,192,137766,1,0,0:0:0:0:
256,192,137847,1,8,0:0:0:0:
256,192,138009,1,0,0:0:0:0:
256,192,138171,1,8,0:0:0:0:
256,192,138334,1,0,0:0:0:0:
256,192,138415,1,0,0:0:0:0:
256,192,138496,1,8,0:0:0:0:
256,192,138577,1,8,0:0:0:0:
256,192,138658,1,8,0:0:0:0:
256,192,138820,1,4,0:0:0:0:
256,192,138982,1,8,0:0:0:0:
256,192,139063,1,8,0:0:0:0:
256,192,139144,1,0,0:0:0:0:
256,192,139306,1,8,0:0:0:0:
256,192,139469,1,0,0:0:0:0:
256,192,139631,1,8,0:0:0:0:
256,192,139712,1,0,0:0:0:0:
256,192,139793,1,8,0:0:0:0:
256,192,139955,1,0,0:0:0:0:
256,192,140117,1,8,0:0:0:0:
256,192,140279,1,0,0:0:0:0:
256,192,140361,1,0,0:0:0:0:
256,192,140442,1,8,0:0:0:0:
256,192,140604,1,0,0:0:0:0:
256,192,140766,1,8,0:0:0:0:
256,192,140928,1,8,0:0:0:0:
256,192,141090,1,0,0:0:0:0:
256,192,141252,1,8,0:0:0:0:
256,192,141334,1,0,0:0:0:0:
256,192,141415,1,8,0:0:0:0:
256,192,141577,1,0,0:0:0:0:
256,192,141739,1,8,0:0:0:0:
256,192,141901,1,0,0:0:0:0:
256,192,141982,1,0,0:0:0:0:
256,192,142063,1,8,0:0:0:0:
256,192,142225,1,0,0:0:0:0:
256,192,142388,1,8,0:0:0:0:
256,192,142550,1,8,0:0:0:0:
256,192,142712,1,0,0:0:0:0:
256,192,142874,1,8,0:0:0:0:
256,192,142955,1,8,0:0:0:0:
256,192,143036,1,0,0:0:0:0:
256,192,143198,1,8,0:0:0:0:
256,192,143279,1,0,0:0:0:0:
256,192,143361,1,8,0:0:0:0:
256,192,143442,1,8,0:0:0:0:
256,192,143523,1,0,0:0:0:0:
256,192,143604,1,0,0:0:0:0:
256,192,143685,1,8,0:0:0:0:
256,192,143847,1,8,0:0:0:0:
256,192,144009,1,0,0:0:0:0:
256,192,144171,1,0,0:0:0:0:
256,192,144334,1,8,0:0:0:0:
256,192,144496,1,0,0:0:0:0:
256,192,144577,1,0,0:0:0:0:
256,192,144658,1,8,0:0:0:0:
256,192,144820,1,0,0:0:0:0:
256,192,144982,1,8,0:0:0:0:
256,192,145144,1,8,0:0:0:0:
256,192,145306,1,0,0:0:0:0:
256,192,145469,1,8,0:0:0:0:
256,192,145550,1,0,0:0:0:0:
256,192,145631,1,8,0:0:0:0:
256,192,145793,1,0,0:0:0:0:
256,192,145955,1,8,0:0:0:0:
256,192,146117,1,8,0:0:0:0:
256,192,146279,1,0,0:0:0:0:
256,192,146442,1,8,0:0:0:0:
256,192,146604,1,0,0:0:0:0:
256,192,146766,1,8,0:0:0:0:
256,192,146847,1,8,0:0:0:0:
256,192,146928,1,0,0:0:0:0:
256,192,147090,1,8,0:0:0:0:
256,192,147171,1,8,0:0:0:0:
256,192,147252,1,0,0:0:0:0:
256,192,147334,1,0,0:0:0:0:
256,192,147415,1,8,0:0:0:0:
256,192,147496,1,0,0:0:0:0:
256,192,147577,1,8,0:0:0:0:
256,192,147739,1,8,0:0:0:0:
256,192,147901,1,0,0:0:0:0:
256,192,148225,1,8,0:0:0:0:
256,192,148388,1,0,0:0:0:0:
256,192,148469,1,0,0:0:0:0:
256,192,148550,1,0,0:0:0:0:
256,192,148712,1,0,0:0:0:0:
256,192,148874,1,8,0:0:0:0:
256,192,149036,1,8,0:0:0:0:
256,192,149198,1,4,0:0:0:0:
256,192,149523,1,0,0:0:0:0:
256,192,149847,1,8,0:0:0:0:
256,192,150334,1,0,0:0:0:0:
256,192,150658,1,0,0:0:0:0:
256,192,150820,1,0,0:0:0:0:
256,192,151144,1,8,0:0:0:0:
256,192,151793,1,0,0:0:0:0:
256,192,152117,1,0,0:0:0:0:
256,192,152442,1,8,0:0:0:0:
256,192,152928,1,0,0:0:0:0:
256,192,153252,1,0,0:0:0:0:
256,192,153415,1,0,0:0:0:0:
256,192,153739,1,8,0:0:0:0:
256,192,153901,1,0,0:0:0:0:
256,192,154063,1,8,0:0:0:0:
256,192,154225,1,8,0:0:0:0:
256,192,154388,1,0,0:0:0:0:
256,192,154712,1,0,0:0:0:0:
256,192,155036,1,8,0:0:0:0:
256,192,155523,1,0,0:0:0:0:
256,192,155847,1,0,0:0:0:0:
256,192,156009,1,0,0:0:0:0:
256,192,156334,1,8,0:0:0:0:
256,192,156982,1,0,0:0:0:0:
256,192,157306,1,0,0:0:0:0:
256,192,157631,1,8,0:0:0:0:
256,192,158117,1,0,0:0:0:0:
256,192,158442,1,0,0:0:0:0:
256,192,158604,1,0,0:0:0:0:
256,192,158928,1,8,0:0:0:0:
256,192,159090,1,0,0:0:0:0:
256,192,159252,1,0,0:0:0:0:
256,192,159415,1,8,0:0:0:0:
256,192,159577,1,4,0:0:0:0:
256,192,159820,1,8,0:0:0:0:
256,192,159901,1,0,0:0:0:0:
256,192,160063,1,8,0:0:0:0:
256,192,160225,1,0,0:0:0:0:
256,192,160388,1,8,0:0:0:0:
256,192,160469,1,0,0:0:0:0:
256,192,160550,1,8,0:0:0:0:
256,192,160712,1,8,0:0:0:0:
256,192,160874,1,0,0:0:0:0:
256,192,161036,1,0,0:0:0:0:
256,192,161117,1,0,0:0:0:0:
256,192,161198,1,8,0:0:0:0:
256,192,161361,1,0,0:0:0:0:
256,192,161523,1,8,0:0:0:0:
256,192,161685,1,8,0:0:0:0:
256,192,161847,1,0,0:0:0:0:
256,192,162009,1,8,0:0:0:0:
256,192,162171,1,0,0:0:0:0:
256,192,162334,1,8,0:0:0:0:
256,192,162415,1,0,0:0:0:0:
256,192,162496,1,8,0:0:0:0:
256,192,162658,1,0,0:0:0:0:
256,192,162820,1,8,0:0:0:0:
256,192,162982,1,0,0:0:0:0:
256,192,163063,1,8,0:0:0:0:
256,192,163144,1,0,0:0:0:0:
256,192,163306,1,8,0:0:0:0:
256,192,163469,1,0,0:0:0:0:
256,192,163631,1,8,0:0:0:0:
256,192,163712,1,8,0:0:0:0:
256,192,163793,1,0,0:0:0:0:
256,192,163955,1,8,0:0:0:0:
256,192,164036,1,0,0:0:0:0:
256,192,164117,1,8,0:0:0:0:
256,192,164198,1,8,0:0:0:0:
256,192,164279,1,0,0:0:0:0:
256,192,164442,1,8,0:0:0:0:
256,192,164604,1,8,0:0:0:0:
256,192,164766,1,0,0:0:0:0:
256,192,164928,1,0,0:0:0:0:
256,192,165009,1,0,0:0:0:0:
256,192,165090,1,8,0:0:0:0:
256,192,165252,1,0,0:0:0:0:
256,192,165415,1,8,0:0:0:0:
256,192,165577,1,0,0:0:0:0:
256,192,165658,1,8,0:0:0:0:
256,192,165739,1,8,0:0:0:0:
256,192,165901,1,0,0:0:0:0:
256,192,166063,1,8,0:0:0:0:
256,192,166225,1,0,0:0:0:0:
256,192,166306,1,0,0:0:0:0:
256,192,166388,1,8,0:0:0:0:
256,192,166550,1,0,0:0:0:0:
256,192,166631,1,0,0:0:0:0:
256,192,166712,1,8,0:0:0:0:
256,192,166793,1,0,0:0:0:0:
256,192,166874,1,8,0:0:0:0:
256,192,166955,1,8,0:0:0:0:
256,192,167036,1,0,0:0:0:0:
256,192,167198,1,8,0:0:0:0:
256,192,167361,1,0,0:0:0:0:
256,192,167523,1,8,0:0:0:0:
256,192,167604,1,8,0:0:0:0:
256,192,167685,1,0,0:0:0:0:
256,192,167847,1,8,0:0:0:0:
256,192,167928,1,0,0:0:0:0:
256,192,168009,1,8,0:0:0:0:
256,192,168090,1,8,0:0:0:0:
256,192,168171,1,0,0:0:0:0:
256,192,168252,1,0,0:0:0:0:
256,192,168334,1,8,0:0:0:0:
256,192,168415,1,8,0:0:0:0:
256,192,168496,1,8,0:0:0:0:
256,192,168658,1,4,0:0:0:0:
256,192,168820,5,4,0:0:0:0:
256,192,168982,1,4,0:0:0:0:
256,192,169631,1,8,0:0:0:0:
256,192,169685,1,8,0:0:0:0:
256,192,169739,1,8,0:0:0:0:
256,192,169793,1,8,0:0:0:0:
256,192,169955,5,4,0:0:0:0:
256,192,170117,1,8,0:0:0:0:
256,192,170198,1,8,0:0:0:0:
256,192,170279,1,0,0:0:0:0:
256,192,170442,1,8,0:0:0:0:
256,192,170523,1,8,0:0:0:0:
256,192,170604,1,0,0:0:0:0:
256,192,170685,1,8,0:0:0:0:
256,192,170766,1,0,0:0:0:0:
256,192,170847,1,0,0:0:0:0:
256,192,170928,1,8,0:0:0:0:
256,192,171090,1,8,0:0:0:0:
256,192,171252,1,0,0:0:0:0:
256,192,171415,1,8,0:0:0:0:
256,192,171496,1,8,0:0:0:0:
256,192,171577,1,0,0:0:0:0:
256,192,171658,1,8,0:0:0:0:
256,192,171739,1,0,0:0:0:0:
256,192,171820,1,0,0:0:0:0:
256,192,171901,1,8,0:0:0:0:
256,192,171982,1,0,0:0:0:0:
256,192,172063,1,0,0:0:0:0:
256,192,172144,1,8,0:0:0:0:
256,192,172225,1,8,0:0:0:0:
256,192,172388,1,0,0:0:0:0:
256,192,172550,1,8,0:0:0:0:
256,192,172712,1,0,0:0:0:0:
256,192,172793,1,0,0:0:0:0:
256,192,172874,1,8,0:0:0:0:
256,192,173036,1,0,0:0:0:0:
256,192,173198,1,8,0:0:0:0:
256,192,173279,1,0,0:0:0:0:
256,192,173361,1,8,0:0:0:0:
256,192,173442,1,8,0:0:0:0:
256,192,173523,1,0,0:0:0:0:
256,192,173685,1,0,0:0:0:0:
256,192,173847,1,8,0:0:0:0:
256,192,174009,1,0,0:0:0:0:
256,192,174090,1,8,0:0:0:0:
256,192,174171,1,8,0:0:0:0:
256,192,174334,1,0,0:0:0:0:
256,192,174415,1,0,0:0:0:0:
256,192,174496,1,8,0:0:0:0:
256,192,174577,1,8,0:0:0:0:
256,192,174658,1,0,0:0:0:0:
256,192,174820,1,8,0:0:0:0:
256,192,174982,1,8,0:0:0:0:
256,192,175144,1,0,0:0:0:0:
256,192,175306,1,8,0:0:0:0:
256,192,175388,1,8,0:0:0:0:
256,192,175469,1,0,0:0:0:0:
256,192,175631,1,8,0:0:0:0:
256,192,175712,1,0,0:0:0:0:
256,192,175793,1,8,0:0:0:0:
256,192,175874,1,8,0:0:0:0:
256,192,175955,1,0,0:0:0:0:
256,192,176036,1,0,0:0:0:0:
256,192,176117,1,8,0:0:0:0:
256,192,176279,1,8,0:0:0:0:
256,192,176442,1,0,0:0:0:0:
256,192,176604,1,8,0:0:0:0:
256,192,176685,1,0,0:0:0:0:
256,192,176766,1,8,0:0:0:0:
256,192,176928,1,0,0:0:0:0:
256,192,177009,1,0,0:0:0:0:
256,192,177090,1,8,0:0:0:0:
256,192,177171,1,8,0:0:0:0:
256,192,177252,1,0,0:0:0:0:
256,192,177334,1,8,0:0:0:0:
256,192,177415,1,0,0:0:0:0:
256,192,177577,1,0,0:0:0:0:
256,192,177739,1,8,0:0:0:0:
256,192,177901,1,0,0:0:0:0:
256,192,177982,1,8,0:0:0:0:
256,192,178063,1,8,0:0:0:0:
256,192,178225,1,0,0:0:0:0:
256,192,178306,1,8,0:0:0:0:
256,192,178469,1,8,0:0:0:0:
256,192,178550,1,0,0:0:0:0:
256,192,178631,1,0,0:0:0:0:
256,192,178712,1,8,0:0:0:0:
256,192,178874,1,0,0:0:0:0:
256,192,179036,1,8,0:0:0:0:
256,192,179198,1,0,0:0:0:0:
256,192,179279,1,8,0:0:0:0:
256,192,179361,1,0,0:0:0:0:
256,192,179523,1,8,0:0:0:0:
256,192,179604,1,8,0:0:0:0:
256,192,179685,1,0,0:0:0:0:
256,192,179766,1,0,0:0:0:0:
256,192,179847,1,8,0:0:0:0:
256,192,179928,1,0,0:0:0:0:
256,192,180009,1,8,0:0:0:0:
256,192,180171,1,8,0:0:0:0:
256,192,180334,5,4,0:0:0:0:
256,192,180496,1,8,0:0:0:0:
256,192,180577,1,8,0:0:0:0:
256,192,180658,1,0,0:0:0:0:
256,192,180820,1,8,0:0:0:0:
256,192,180982,1,0,0:0:0:0:
256,192,181063,1,0,0:0:0:0:
256,192,181144,1,8,0:0:0:0:
256,192,181225,1,0,0:0:0:0:
256,192,181306,1,8,0:0:0:0:
256,192,181469,1,8,0:0:0:0:
256,192,181631,1,0,0:0:0:0:
256,192,181793,1,8,0:0:0:0:
256,192,181874,1,0,0:0:0:0:
256,192,181955,1,0,0:0:0:0:
256,192,182036,1,8,0:0:0:0:
256,192,182117,1,0,0:0:0:0:
256,192,182198,1,0,0:0:0:0:
256,192,182279,1,8,0:0:0:0:
256,192,182361,1,8,0:0:0:0:
256,192,182442,1,0,0:0:0:0:
256,192,182523,1,8,0:0:0:0:
256,192,182604,1,8,0:0:0:0:
256,192,182766,1,0,0:0:0:0:
256,192,182928,1,8,0:0:0:0:
256,192,183090,1,0,0:0:0:0:
256,192,183171,1,0,0:0:0:0:
256,192,183252,1,8,0:0:0:0:
256,192,183415,1,0,0:0:0:0:
256,192,183496,1,0,0:0:0:0:
256,192,183577,1,8,0:0:0:0:
256,192,183658,1,8,0:0:0:0:
256,192,183739,1,0,0:0:0:0:
256,192,183901,1,8,0:0:0:0:
256,192,184063,1,8,0:0:0:0:
256,192,184225,1,0,0:0:0:0:
256,192,184388,1,8,0:0:0:0:
256,192,184469,1,0,0:0:0:0:
256,192,184550,1,8,0:0:0:0:
256,192,184631,1,8,0:0:0:0:
256,192,184712,1,0,0:0:0:0:
256,192,184793,1,0,0:0:0:0:
256,192,184874,1,8,0:0:0:0:
256,192,184955,1,0,0:0:0:0:
256,192,185036,1,8,0:0:0:0:
256,192,185198,1,8,0:0:0:0:
256,192,185361,1,8,0:0:0:0:
256,192,185523,1,0,0:0:0:0:
256,192,185685,1,8,0:0:0:0:
256,192,185766,1,8,0:0:0:0:
256,192,185847,1,0,0:0:0:0:
256,192,186009,1,8,0:0:0:0:
256,192,186090,1,8,0:0:0:0:
256,192,186171,1,0,0:0:0:0:
256,192,186252,1,8,0:0:0:0:
256,192,186334,1,0,0:0:0:0:
256,192,186415,1,0,0:0:0:0:
256,192,186496,1,8,0:0:0:0:
256,192,186658,1,8,0:0:0:0:
256,192,186820,1,0,0:0:0:0:
256,192,186982,1,8,0:0:0:0:
256,192,187063,1,0,0:0:0:0:
256,192,187144,1,8,0:0:0:0:
256,192,187306,1,0,0:0:0:0:
256,192,187469,1,8,0:0:0:0:
256,192,187550,1,8,0:0:0:0:
256,192,187631,1,0,0:0:0:0:
256,192,187712,1,8,0:0:0:0:
256,192,187793,1,0,0:0:0:0:
256,192,187955,1,0,0:0:0:0:
256,192,188117,1,8,0:0:0:0:
256,192,188279,1,0,0:0:0:0:
256,192,188361,1,8,0:0:0:0:
256,192,188442,1,8,0:0:0:0:
256,192,188604,1,0,0:0:0:0:
256,192,188766,1,8,0:0:0:0:
256,192,188928,1,8,0:0:0:0:
256,192,189090,1,0,0:0:0:0:
256,192,189171,1,0,0:0:0:0:
256,192,189252,1,0,0:0:0:0:
256,192,189415,1,12,0:0:0:0:
256,192,189658,1,12,0:0:0:0:
256,192,189901,1,12,0:0:0:0:
256,192,190144,1,12,0:0:0:0:
256,192,190388,1,12,0:0:0:0:
256,192,190550,1,12,0:0:0:0:
256,192,190712,1,4,0:0:0:0:
256,192,190874,1,8,0:0:0:0:
256,192,190955,1,8,0:0:0:0:
256,192,191036,1,0,0:0:0:0:
256,192,191117,1,8,0:0:0:0:
256,192,191198,1,0,0:0:0:0:
256,192,191361,1,8,0:0:0:0:
256,192,191442,1,0,0:0:0:0:
256,192,191604,1,0,0:0:0:0:
256,192,191685,1,8,0:0:0:0:
256,192,191847,1,8,0:0:0:0:
256,192,192009,5,0,0:0:0:0:
256,192,192171,1,8,0:0:0:0:
256,192,192252,1,0,0:0:0:0:
256,192,192334,1,0,0:0:0:0:
256,192,192415,1,8,0:0:0:0:
256,192,192496,1,0,0:0:0:0:
256,192,192658,1,8,0:0:0:0:
256,192,192739,1,0,0:0:0:0:
256,192,192901,1,8,0:0:0:0:
256,192,192982,1,8,0:0:0:0:
256,192,193144,1,8,0:0:0:0:
256,192,193306,5,0,0:0:0:0:
256,192,193469,1,8,0:0:0:0:
256,192,193550,1,8,0:0:0:0:
256,192,193631,1,0,0:0:0:0:
256,192,193712,1,8,0:0:0:0:
256,192,193793,1,0,0:0:0:0:
256,192,193955,1,8,0:0:0:0:
256,192,194036,1,8,0:0:0:0:
256,192,194117,1,0,0:0:0:0:
256,192,194198,1,0,0:0:0:0:
256,192,194279,1,8,0:0:0:0:
256,192,194442,1,0,0:0:0:0:
256,192,194604,1,8,0:0:0:0:
256,192,194766,1,0,0:0:0:0:
256,192,194847,1,8,0:0:0:0:
256,192,195009,1,0,0:0:0:0:
256,192,195090,1,8,0:0:0:0:
256,192,195171,1,0,0:0:0:0:
256,192,195252,1,8,0:0:0:0:
256,192,195334,1,8,0:0:0:0:
256,192,195415,1,0,0:0:0:0:
256,192,195496,1,0,0:0:0:0:
256,192,195577,1,8,0:0:0:0:
256,192,195739,1,8,0:0:0:0:
256,192,195901,5,0,0:0:0:0:
256,192,196063,1,8,0:0:0:0:
256,192,196144,1,0,0:0:0:0:
256,192,196225,1,0,0:0:0:0:
256,192,196306,1,8,0:0:0:0:
256,192,196388,1,0,0:0:0:0:
256,192,196550,1,8,0:0:0:0:
256,192,196631,1,8,0:0:0:0:
256,192,196712,1,0,0:0:0:0:
256,192,196793,1,0,0:0:0:0:
256,192,196874,1,8,0:0:0:0:
256,192,197036,1,8,0:0:0:0:
256,192,197198,5,0,0:0:0:0:
256,192,197361,1,8,0:0:0:0:
256,192,197442,1,8,0:0:0:0:
256,192,197523,1,0,0:0:0:0:
256,192,197604,1,8,0:0:0:0:
256,192,197685,1,0,0:0:0:0:
256,192,197847,1,8,0:0:0:0:
256,192,197928,1,8,0:0:0:0:
256,192,198009,1,0,0:0:0:0:
256,192,198090,1,8,0:0:0:0:
256,192,198171,1,8,0:0:0:0:
256,192,198334,1,8,0:0:0:0:
256,192,198496,5,0,0:0:0:0:
256,192,198658,1,8,0:0:0:0:
256,192,198739,1,0,0:0:0:0:
256,192,198820,1,0,0:0:0:0:
256,192,198901,1,8,0:0:0:0:
256,192,198982,1,0,0:0:0:0:
256,192,199144,1,8,0:0:0:0:
256,192,199225,1,8,0:0:0:0:
256,192,199306,1,0,0:0:0:0:
256,192,199388,1,8,0:0:0:0:
256,192,199469,1,0,0:0:0:0:
256,192,199631,1,8,0:0:0:0:
256,192,199793,1,8,0:0:0:0:
256,192,199874,1,8,0:0:0:0:
256,192,199955,1,0,0:0:0:0:
256,192,200036,1,8,0:0:0:0:
256,192,200117,1,0,0:0:0:0:
256,192,200198,1,0,0:0:0:0:
256,192,200279,1,8,0:0:0:0:
256,192,200361,1,0,0:0:0:0:
256,192,200442,1,8,0:0:0:0:
256,192,200523,1,8,0:0:0:0:
256,192,200604,1,0,0:0:0:0:
256,192,200685,1,0,0:0:0:0:
256,192,200766,1,8,0:0:0:0:
256,192,200847,1,0,0:0:0:0:
256,192,200928,1,8,0:0:0:0:
256,192,201090,5,4,0:0:0:0:
256,192,201252,1,8,0:0:0:0:
256,192,201334,1,0,0:0:0:0:
256,192,201415,1,0,0:0:0:0:
256,192,201496,1,8,0:0:0:0:
256,192,201577,1,0,0:0:0:0:
256,192,201658,1,0,0:0:0:0:
256,192,201739,1,8,0:0:0:0:
256,192,201820,1,8,0:0:0:0:
256,192,201901,1,0,0:0:0:0:
256,192,201982,1,0,0:0:0:0:
256,192,202063,1,8,0:0:0:0:
256,192,202225,1,8,0:0:0:0:
256,192,202388,5,0,0:0:0:0:
256,192,202550,1,8,0:0:0:0:
256,192,202631,1,8,0:0:0:0:
256,192,202712,1,0,0:0:0:0:
256,192,202793,1,8,0:0:0:0:
256,192,202874,1,0,0:0:0:0:
256,192,202955,1,0,0:0:0:0:
256,192,203036,1,8,0:0:0:0:
256,192,203117,1,8,0:0:0:0:
256,192,203198,1,0,0:0:0:0:
256,192,203279,1,8,0:0:0:0:
256,192,203361,1,8,0:0:0:0:
256,192,203523,1,8,0:0:0:0:
256,192,203685,5,0,0:0:0:0:
256,192,203847,1,8,0:0:0:0:
256,192,203928,1,0,0:0:0:0:
256,192,204009,1,0,0:0:0:0:
256,192,204090,1,8,0:0:0:0:
256,192,204171,1,0,0:0:0:0:
256,192,204252,1,0,0:0:0:0:
256,192,204334,1,8,0:0:0:0:
256,192,204415,1,8,0:0:0:0:
256,192,204496,1,0,0:0:0:0:
256,192,204577,1,0,0:0:0:0:
256,192,204658,1,8,0:0:0:0:
256,192,204820,1,8,0:0:0:0:
256,192,204982,1,8,0:0:0:0:
256,192,205063,1,8,0:0:0:0:
256,192,205144,1,0,0:0:0:0:
256,192,205225,1,8,0:0:0:0:
256,192,205306,1,0,0:0:0:0:
256,192,205388,1,0,0:0:0:0:
256,192,205469,1,8,0:0:0:0:
256,192,205550,1,0,0:0:0:0:
256,192,205631,1,0,0:0:0:0:
256,192,205712,1,8,0:0:0:0:
256,192,205793,1,8,0:0:0:0:
256,192,205874,1,0,0:0:0:0:
256,192,205955,1,8,0:0:0:0:
256,192,206117,1,8,0:0:0:0:
256,192,206279,5,0,0:0:0:0:
256,192,206442,1,8,0:0:0:0:
256,192,206523,1,0,0:0:0:0:
256,192,206604,1,0,0:0:0:0:
256,192,206685,1,8,0:0:0:0:
256,192,206766,1,0,0:0:0:0:
256,192,206847,1,0,0:0:0:0:
256,192,206928,1,8,0:0:0:0:
256,192,207009,1,8,0:0:0:0:
256,192,207090,1,0,0:0:0:0:
256,192,207171,1,0,0:0:0:0:
256,192,207252,1,8,0:0:0:0:
256,192,207334,1,0,0:0:0:0:
256,192,207415,1,8,0:0:0:0:
256,192,207577,5,0,0:0:0:0:
256,192,207739,1,8,0:0:0:0:
256,192,207820,1,8,0:0:0:0:
256,192,207901,1,0,0:0:0:0:
256,192,207982,1,8,0:0:0:0:
256,192,208063,1,0,0:0:0:0:
256,192,208144,1,0,0:0:0:0:
256,192,208225,1,8,0:0:0:0:
256,192,208306,1,0,0:0:0:0:
256,192,208388,1,0,0:0:0:0:
256,192,208469,1,8,0:0:0:0:
256,192,208550,1,8,0:0:0:0:
256,192,208631,1,0,0:0:0:0:
256,192,208712,1,8,0:0:0:0:
256,192,208874,5,0,0:0:0:0:
256,192,209036,1,8,0:0:0:0:
256,192,209117,1,8,0:0:0:0:
256,192,209198,1,0,0:0:0:0:
256,192,209279,1,8,0:0:0:0:
256,192,209361,1,0,0:0:0:0:
256,192,209442,1,0,0:0:0:0:
256,192,209523,1,8,0:0:0:0:
256,192,209685,1,8,0:0:0:0:
256,192,209847,1,0,0:0:0:0:
256,192,209928,1,0,0:0:0:0:
256,192,210009,1,0,0:0:0:0:
256,192,210090,1,0,0:0:0:0:
256,192,210171,1,8,0:0:0:0:
256,192,210252,1,0,0:0:0:0:
256,192,210334,1,0,0:0:0:0:
256,192,210415,1,8,0:0:0:0:
256,192,210496,1,0,0:0:0:0:
256,192,210577,1,0,0:0:0:0:
256,192,210658,1,8,0:0:0:0:
256,192,210739,1,8,0:0:0:0:
256,192,210820,1,0,0:0:0:0:
256,192,210901,1,8,0:0:0:0:
256,192,210982,1,0,0:0:0:0:
256,192,211063,1,0,0:0:0:0:
256,192,211144,1,8,0:0:0:0:
256,192,211225,1,0,0:0:0:0:
256,192,211306,1,8,0:0:0:0:
256,192,211469,1,4,0:0:0:0:
256,192,211631,1,8,0:0:0:0:
256,192,211712,1,0,0:0:0:0:
256,192,211793,1,8,0:0:0:0:
256,192,211874,1,8,0:0:0:0:
256,192,211955,1,0,0:0:0:0:
256,192,212036,1,0,0:0:0:0:
256,192,212117,1,8,0:0:0:0:
256,192,212198,1,8,0:0:0:0:
256,192,212279,1,0,0:0:0:0:
256,192,212361,1,0,0:0:0:0:
256,192,212442,1,8,0:0:0:0:
256,192,212523,1,0,0:0:0:0:
256,192,212604,1,8,0:0:0:0:
256,192,212685,1,8,0:0:0:0:
256,192,212766,1,0,0:0:0:0:
256,192,212847,1,0,0:0:0:0:
256,192,212928,1,8,0:0:0:0:
256,192,213009,1,0,0:0:0:0:
256,192,213090,1,8,0:0:0:0:
256,192,213171,1,8,0:0:0:0:
256,192,213252,1,0,0:0:0:0:
256,192,213334,1,0,0:0:0:0:
256,192,213415,1,8,0:0:0:0:
256,192,213496,1,8,0:0:0:0:
256,192,213577,1,8,0:0:0:0:
256,192,213658,1,0,0:0:0:0:
256,192,213739,1,8,0:0:0:0:
256,192,213820,1,8,0:0:0:0:
256,192,213901,1,0,0:0:0:0:
256,192,213982,1,0,0:0:0:0:
256,192,214063,1,8,0:0:0:0:
256,192,214144,1,0,0:0:0:0:
256,192,214225,1,0,0:0:0:0:
256,192,214306,1,8,0:0:0:0:
256,192,214388,1,0,0:0:0:0:
256,192,214469,1,0,0:0:0:0:
256,192,214550,1,8,0:0:0:0:
256,192,214631,1,0,0:0:0:0:
256,192,214712,1,8,0:0:0:0:
256,192,214793,1,8,0:0:0:0:
256,192,214874,1,0,0:0:0:0:
256,192,214955,1,0,0:0:0:0:
256,192,215036,1,8,0:0:0:0:
256,192,215117,1,8,0:0:0:0:
256,192,215198,1,0,0:0:0:0:
256,192,215279,1,0,0:0:0:0:
256,192,215361,1,8,0:0:0:0:
256,192,215442,1,0,0:0:0:0:
256,192,215523,1,0,0:0:0:0:
256,192,215604,1,8,0:0:0:0:
256,192,215685,1,0,0:0:0:0:
256,192,215766,1,0,0:0:0:0:
256,192,215847,1,8,0:0:0:0:
256,192,215928,1,0,0:0:0:0:
256,192,216009,1,8,0:0:0:0:
256,192,216090,1,8,0:0:0:0:
256,192,216171,1,0,0:0:0:0:
256,192,216252,1,8,0:0:0:0:
256,192,216334,1,0,0:0:0:0:
256,192,216415,1,0,0:0:0:0:
256,192,216496,1,8,0:0:0:0:
256,192,216577,1,8,0:0:0:0:
256,192,216658,1,0,0:0:0:0:
256,192,216739,1,0,0:0:0:0:
256,192,216820,1,8,0:0:0:0:
256,192,216901,1,0,0:0:0:0:
256,192,216982,1,8,0:0:0:0:
256,192,217063,1,8,0:0:0:0:
256,192,217144,1,0,0:0:0:0:
256,192,217225,1,0,0:0:0:0:
256,192,217306,1,8,0:0:0:0:
256,192,217388,1,8,0:0:0:0:
256,192,217469,1,0,0:0:0:0:
256,192,217550,1,0,0:0:0:0:
256,192,217631,1,8,0:0:0:0:
256,192,217712,1,0,0:0:0:0:
256,192,217793,1,8,0:0:0:0:
256,192,217874,1,8,0:0:0:0:
256,192,217955,1,0,0:0:0:0:
256,192,218036,1,0,0:0:0:0:
256,192,218117,1,8,0:0:0:0:
256,192,218198,1,0,0:0:0:0:
256,192,218279,1,8,0:0:0:0:
256,192,218361,1,8,0:0:0:0:
256,192,218442,1,0,0:0:0:0:
256,192,218523,1,0,0:0:0:0:
256,192,218604,1,8,0:0:0:0:
256,192,218685,1,8,0:0:0:0:
256,192,218766,1,8,0:0:0:0:
256,192,218847,1,0,0:0:0:0:
256,192,218928,1,8,0:0:0:0:
256,192,219009,1,8,0:0:0:0:
256,192,219090,1,0,0:0:0:0:
256,192,219171,1,0,0:0:0:0:
256,192,219252,1,8,0:0:0:0:
256,192,219334,1,8,0:0:0:0:
256,192,219415,1,0,0:0:0:0:
256,192,219496,1,8,0:0:0:0:
256,192,219577,1,0,0:0:0:0:
256,192,219658,1,0,0:0:0:0:
256,192,219739,1,8,0:0:0:0:
256,192,219820,1,0,0:0:0:0:
256,192,219901,1,8,0:0:0:0:
256,192,219982,1,8,0:0:0:0:
256,192,220063,1,0,0:0:0:0:
256,192,220144,1,0,0:0:0:0:
256,192,220225,1,8,0:0:0:0:
256,192,220306,1,8,0:0:0:0:
256,192,220388,1,0,0:0:0:0:
256,192,220469,1,0,0:0:0:0:
256,192,220550,1,8,0:0:0:0:
256,192,220631,1,8,0:0:0:0:
256,192,220712,1,0,0:0:0:0:
256,192,220793,1,8,0:0:0:0:
256,192,220874,1,8,0:0:0:0:
256,192,220955,1,0,0:0:0:0:
256,192,221036,1,8,0:0:0:0:
256,192,221117,1,0,0:0:0:0:
256,192,221198,1,8,0:0:0:0:
256,192,221279,1,8,0:0:0:0:
256,192,221361,1,0,0:0:0:0:
256,192,221442,1,8,0:0:0:0:
256,192,221523,1,0,0:0:0:0:
256,192,221604,1,0,0:0:0:0:
256,192,221685,1,8,0:0:0:0:
256,192,221847,1,4,0:0:0:0:
256,192,222009,1,8,0:0:0:0:
256,192,222090,1,8,0:0:0:0:
256,192,222171,1,0,0:0:0:0:
256,192,222252,1,8,0:0:0:0:
256,192,222334,1,0,0:0:0:0:
256,192,222415,1,0,0:0:0:0:
256,192,222496,1,8,0:0:0:0:
256,192,222577,1,8,0:0:0:0:
256,192,222658,1,0,0:0:0:0:
256,192,222739,1,0,0:0:0:0:
256,192,222820,1,8,0:0:0:0:
256,192,222901,1,0,0:0:0:0:
256,192,222982,1,8,0:0:0:0:
256,192,223063,1,8,0:0:0:0:
256,192,223144,1,0,0:0:0:0:
256,192,223225,1,0,0:0:0:0:
256,192,223306,1,8,0:0:0:0:
256,192,223388,1,0,0:0:0:0:
256,192,223469,1,8,0:0:0:0:
256,192,223550,1,8,0:0:0:0:
256,192,223631,1,0,0:0:0:0:
256,192,223712,1,0,0:0:0:0:
256,192,223793,1,8,0:0:0:0:
256,192,223874,1,8,0:0:0:0:
256,192,223955,1,8,0:0:0:0:
256,192,224036,1,0,0:0:0:0:
256,192,224117,1,8,0:0:0:0:
256,192,224198,1,8,0:0:0:0:
256,192,224279,1,0,0:0:0:0:
256,192,224361,1,0,0:0:0:0:
256,192,224442,1,8,0:0:0:0:
256,192,224523,1,0,0:0:0:0:
256,192,224604,1,0,0:0:0:0:
256,192,224685,1,8,0:0:0:0:
256,192,224766,1,0,0:0:0:0:
256,192,224847,1,0,0:0:0:0:
256,192,224928,1,8,0:0:0:0:
256,192,225009,1,0,0:0:0:0:
256,192,225090,1,8,0:0:0:0:
256,192,225171,1,8,0:0:0:0:
256,192,225252,1,0,0:0:0:0:
256,192,225334,1,0,0:0:0:0:
256,192,225415,1,8,0:0:0:0:
256,192,225496,1,8,0:0:0:0:
256,192,225577,1,0,0:0:0:0:
256,192,225658,1,0,0:0:0:0:
256,192,225739,1,8,0:0:0:0:
256,192,225820,1,8,0:0:0:0:
256,192,225901,1,0,0:0:0:0:
256,192,225982,1,8,0:0:0:0:
256,192,226063,1,8,0:0:0:0:
256,192,226144,1,0,0:0:0:0:
256,192,226225,1,8,0:0:0:0:
256,192,226306,1,0,0:0:0:0:
256,192,226388,1,0,0:0:0:0:
256,192,226469,1,8,0:0:0:0:
256,192,226550,1,0,0:0:0:0:
256,192,226631,1,0,0:0:0:0:
256,192,226712,1,8,0:0:0:0:
256,192,226793,1,0,0:0:0:0:
256,192,226874,1,8,0:0:0:0:
256,192,226955,1,8,0:0:0:0:
256,192,227036,1,0,0:0:0:0:
256,192,227117,1,0,0:0:0:0:
256,192,227198,1,8,0:0:0:0:
256,192,227279,1,8,0:0:0:0:
256,192,227361,1,0,0:0:0:0:
256,192,227442,1,8,0:0:0:0:
256,192,227523,1,0,0:0:0:0:
256,192,227604,1,0,0:0:0:0:
256,192,227685,1,8,0:0:0:0:
256,192,227766,1,8,0:0:0:0:
256,192,227847,1,0,0:0:0:0:
256,192,227928,1,0,0:0:0:0:
256,192,228009,1,8,0:0:0:0:
256,192,228090,1,0,0:0:0:0:
256,192,228171,1,8,0:0:0:0:
256,192,228252,1,8,0:0:0:0:
256,192,228334,1,0,0:0:0:0:
256,192,228415,1,0,0:0:0:0:
256,192,228496,1,8,0:0:0:0:
256,192,228577,1,0,0:0:0:0:
256,192,228658,1,8,0:0:0:0:
256,192,228739,1,8,0:0:0:0:
256,192,228820,1,0,0:0:0:0:
256,192,228901,1,0,0:0:0:0:
256,192,228982,1,8,0:0:0:0:
256,192,229063,1,8,0:0:0:0:
256,192,229144,1,8,0:0:0:0:
256,192,229225,1,0,0:0:0:0:
256,192,229306,1,8,0:0:0:0:
256,192,229388,1,8,0:0:0:0:
256,192,229469,1,0,0:0:0:0:
256,192,229550,1,0,0:0:0:0:
256,192,229631,1,8,0:0:0:0:
256,192,229712,1,8,0:0:0:0:
256,192,229793,1,0,0:0:0:0:
256,192,229874,1,8,0:0:0:0:
256,192,229955,1,0,0:0:0:0:
256,192,230036,1,0,0:0:0:0:
256,192,230117,1,8,0:0:0:0:
256,192,230198,1,0,0:0:0:0:
256,192,230279,1,8,0:0:0:0:
256,192,230361,1,8,0:0:0:0:
256,192,230442,1,0,0:0:0:0:
256,192,230523,1,0,0:0:0:0:
256,192,230604,1,8,0:0:0:0:
256,192,230685,1,8,0:0:0:0:
256,192,230766,1,0,0:0:0:0:
256,192,230847,1,0,0:0:0:0:
256,192,230928,1,8,0:0:0:0:
256,192,231009,1,8,0:0:0:0:
256,192,231090,1,0,0:0:0:0:
256,192,231171,1,8,0:0:0:0:
256,192,231252,1,8,0:0:0:0:
256,192,231334,1,0,0:0:0:0:
256,192,231415,1,8,0:0:0:0:
256,192,231496,1,0,0:0:0:0:
256,192,231577,1,8,0:0:0:0:
256,192,231658,1,8,0:0:0:0:
256,192,231739,1,0,0:0:0:0:
256,192,231820,1,0,0:0:0:0:
256,192,231901,1,8,0:0:0:0:
256,192,231982,1,0,0:0:0:0:
256,192,232063,1,8,0:0:0:0:
256,192,232225,1,4,0:0:0:0:
256,192,232388,1,0,0:0:0:0:
256,192,232469,1,0,0:0:0:0:
256,192,232550,1,8,0:0:0:0:
256,192,232712,1,0,0:0:0:0:
256,192,232874,1,8,0:0:0:0:
256,192,233036,1,0,0:0:0:0:
256,192,233117,1,8,0:0:0:0:
256,192,233198,1,8,0:0:0:0:
256,192,233361,1,0,0:0:0:0:
256,192,233523,1,8,0:0:0:0:
256,192,233685,1,0,0:0:0:0:
256,192,233766,1,0,0:0:0:0:
256,192,233847,1,8,0:0:0:0:
256,192,233928,1,8,0:0:0:0:
256,192,234009,1,0,0:0:0:0:
256,192,234090,1,0,0:0:0:0:
256,192,234171,1,8,0:0:0:0:
256,192,234334,1,0,0:0:0:0:
256,192,234496,1,8,0:0:0:0:
256,192,234658,1,0,0:0:0:0:
256,192,234739,1,8,0:0:0:0:
256,192,234820,1,8,0:0:0:0:
256,192,234982,1,0,0:0:0:0:
256,192,235144,1,8,0:0:0:0:
256,192,235306,1,0,0:0:0:0:
256,192,235388,1,0,0:0:0:0:
256,192,235469,1,8,0:0:0:0:
256,192,235550,1,8,0:0:0:0:
256,192,235631,1,0,0:0:0:0:
256,192,235793,1,8,0:0:0:0:
256,192,235955,1,8,0:0:0:0:
256,192,236117,1,0,0:0:0:0:
256,192,236279,1,8,0:0:0:0:
256,192,236361,1,8,0:0:0:0:
256,192,236442,1,0,0:0:0:0:
256,192,236523,1,8,0:0:0:0:
256,192,236604,1,0,0:0:0:0:
256,192,236685,1,0,0:0:0:0:
256,192,236766,1,8,0:0:0:0:
256,192,236928,1,0,0:0:0:0:
256,192,237090,1,8,0:0:0:0:
256,192,237252,1,8,0:0:0:0:
256,192,237415,1,0,0:0:0:0:
256,192,237577,1,8,0:0:0:0:
256,192,237658,1,0,0:0:0:0:
256,192,237739,1,8,0:0:0:0:
256,192,237901,1,0,0:0:0:0:
256,192,238063,1,8,0:0:0:0:
256,192,238225,1,0,0:0:0:0:
256,192,238306,1,8,0:0:0:0:
256,192,238388,1,8,0:0:0:0:
256,192,238550,1,0,0:0:0:0:
256,192,238712,1,8,0:0:0:0:
256,192,238874,1,0,0:0:0:0:
256,192,238955,1,0,0:0:0:0:
256,192,239036,1,8,0:0:0:0:
256,192,239117,1,8,0:0:0:0:
256,192,239198,1,0,0:0:0:0:
256,192,239279,1,0,0:0:0:0:
256,192,239361,1,8,0:0:0:0:
256,192,239523,1,0,0:0:0:0:
256,192,239685,1,8,0:0:0:0:
256,192,239847,1,0,0:0:0:0:
256,192,239928,1,8,0:0:0:0:
256,192,240009,1,0,0:0:0:0:
256,192,240171,1,0,0:0:0:0:
256,192,240334,1,8,0:0:0:0:
256,192,240496,1,0,0:0:0:0:
256,192,240577,1,0,0:0:0:0:
256,192,240658,1,8,0:0:0:0:
256,192,240739,1,0,0:0:0:0:
256,192,240820,1,8,0:0:0:0:
256,192,240901,1,8,0:0:0:0:
256,192,240982,1,0,0:0:0:0:
256,192,241144,1,8,0:0:0:0:
256,192,241306,1,8,0:0:0:0:
256,192,241388,1,0,0:0:0:0:
256,192,241469,1,0,0:0:0:0:
256,192,241550,1,8,0:0:0:0:
256,192,241631,1,0,0:0:0:0:
256,192,241712,1,0,0:0:0:0:
256,192,241793,1,8,0:0:0:0:
256,192,241874,1,0,0:0:0:0:
256,192,241955,1,0,0:0:0:0:
256,192,242036,1,8,0:0:0:0:
256,192,242117,1,8,0:0:0:0:
256,192,242198,1,0,0:0:0:0:
256,192,242279,1,8,0:0:0:0:
256,192,242442,1,0,0:0:0:0:
256,192,242604,1,4,0:0:0:0:
256,192,242766,1,8,0:0:0:0:
256,192,242847,1,8,0:0:0:0:
256,192,242928,1,0,0:0:0:0:
256,192,243090,1,8,0:0:0:0:
256,192,243252,1,0,0:0:0:0:
256,192,243415,1,8,0:0:0:0:
256,192,243496,1,8,0:0:0:0:
256,192,243577,1,0,0:0:0:0:
256,192,243658,1,8,0:0:0:0:
256,192,243739,1,0,0:0:0:0:
256,192,243820,1,0,0:0:0:0:
256,192,243901,1,8,0:0:0:0:
256,192,244063,1,0,0:0:0:0:
256,192,244225,1,8,0:0:0:0:
256,192,244388,1,0,0:0:0:0:
256,192,244469,1,0,0:0:0:0:
256,192,244550,1,8,0:0:0:0:
256,192,244631,1,8,0:0:0:0:
256,192,244712,1,0,0:0:0:0:
256,192,244874,1,8,0:0:0:0:
256,192,245036,1,8,0:0:0:0:
256,192,245198,1,0,0:0:0:0:
256,192,245361,1,8,0:0:0:0:
256,192,245442,1,8,0:0:0:0:
256,192,245523,1,0,0:0:0:0:
256,192,245685,1,8,0:0:0:0:
256,192,245766,1,0,0:0:0:0:
256,192,245847,1,8,0:0:0:0:
256,192,245928,1,8,0:0:0:0:
256,192,246009,1,0,0:0:0:0:
256,192,246090,1,0,0:0:0:0:
256,192,246171,1,8,0:0:0:0:
256,192,246334,1,0,0:0:0:0:
256,192,246496,1,8,0:0:0:0:
256,192,246658,1,0,0:0:0:0:
256,192,246739,1,0,0:0:0:0:
256,192,246820,1,8,0:0:0:0:
256,192,246982,1,0,0:0:0:0:
256,192,247063,1,8,0:0:0:0:
256,192,247144,1,8,0:0:0:0:
256,192,247225,1,8,0:0:0:0:
256,192,247306,1,0,0:0:0:0:
256,192,247388,1,0,0:0:0:0:
256,192,247469,1,8,0:0:0:0:
256,192,247631,1,8,0:0:0:0:
256,192,247793,1,0,0:0:0:0:
256,192,247955,1,8,0:0:0:0:
256,192,248036,1,0,0:0:0:0:
256,192,248117,1,8,0:0:0:0:
256,192,248279,1,0,0:0:0:0:
256,192,248442,1,8,0:0:0:0:
256,192,248523,1,8,0:0:0:0:
256,192,248604,1,0,0:0:0:0:
256,192,248685,1,0,0:0:0:0:
256,192,248766,1,8,0:0:0:0:
256,192,248928,1,0,0:0:0:0:
256,192,249090,1,8,0:0:0:0:
256,192,249252,1,0,0:0:0:0:
256,192,249334,1,8,0:0:0:0:
256,192,249415,1,0,0:0:0:0:
256,192,249577,1,8,0:0:0:0:
256,192,249658,1,8,0:0:0:0:
256,192,249739,1,0,0:0:0:0:
256,192,249820,1,8,0:0:0:0:
256,192,249901,1,0,0:0:0:0:
256,192,250063,1,8,0:0:0:0:
256,192,250225,1,8,0:0:0:0:
256,192,250388,1,0,0:0:0:0:
256,192,250550,1,8,0:0:0:0:
256,192,250631,1,8,0:0:0:0:
256,192,250712,1,0,0:0:0:0:
256,192,250874,1,8,0:0:0:0:
256,192,250955,1,8,0:0:0:0:
256,192,251036,1,0,0:0:0:0:
256,192,251117,1,8,0:0:0:0:
256,192,251198,1,8,0:0:0:0:
256,192,251361,1,0,0:0:0:0:
256,192,251442,1,0,0:0:0:0:
256,192,251523,1,0,0:0:0:0:
256,192,251604,1,0,0:0:0:0:
256,192,251685,1,8,0:0:0:0:
256,192,251766,1,0,0:0:0:0:
256,192,251847,1,0,0:0:0:0:
256,192,251928,1,8,0:0:0:0:
256,192,252009,1,0,0:0:0:0:
256,192,252090,1,0,0:0:0:0:
256,192,252171,1,8,0:0:0:0:
256,192,252252,1,8,0:0:0:0:
256,192,252334,1,0,0:0:0:0:
256,192,252415,1,8,0:0:0:0:
256,192,252496,1,0,0:0:0:0:
256,192,252577,1,0,0:0:0:0:
256,192,252658,1,8,0:0:0:0:
256,192,252739,1,0,0:0:0:0:
256,192,252820,1,8,0:0:0:0:
256,192,252982,1,4,0:0:0:0:
256,192,262874,5,0,0:0:0:0:
256,192,263036,1,8,0:0:0:0:
256,192,263198,1,8,0:0:0:0:
256,192,263361,1,4,0:0:0:0:
256,192,263685,1,8,0:0:0:0:
256,192,263847,1,0,0:0:0:0:
256,192,263928,1,0,0:0:0:0:
256,192,264009,1,0,0:0:0:0:
256,192,264171,1,0,0:0:0:0:
256,192,264334,1,8,0:0:0:0:
256,192,264496,1,8,0:0:0:0:
256,192,264658,1,0,0:0:0:0:
256,192,264982,1,8,0:0:0:0:
256,192,265144,1,0,0:0:0:0:
256,192,265225,1,0,0:0:0:0:
256,192,265306,1,8,0:0:0:0:
256,192,265469,1,0,0:0:0:0:
256,192,265631,1,8,0:0:0:0:
256,192,265793,1,8,0:0:0:0:
256,192,265955,1,0,0:0:0:0:
256,192,266117,1,0,0:0:0:0:
256,192,266279,1,8,0:0:0:0:
256,192,266442,1,0,0:0:0:0:
256,192,266523,1,0,0:0:0:0:
256,192,266604,1,8,0:0:0:0:
256,192,266766,1,0,0:0:0:0:
256,192,266928,1,8,0:0:0:0:
256,192,267090,1,8,0:0:0:0:
256,192,267252,1,0,0:0:0:0:
256,192,267577,1,8,0:0:0:0:
256,192,267739,1,0,0:0:0:0:
256,192,267820,1,8,0:0:0:0:
256,192,267901,1,0,0:0:0:0:
256,192,268063,1,0,0:0:0:0:
256,192,268225,1,8,0:0:0:0:
256,192,268388,1,8,0:0:0:0:
256,192,268550,1,0,0:0:0:0:
256,192,268874,1,8,0:0:0:0:
256,192,269036,1,0,0:0:0:0:
256,192,269117,1,0,0:0:0:0:
256,192,269198,1,0,0:0:0:0:
256,192,269361,1,0,0:0:0:0:
256,192,269523,1,8,0:0:0:0:
256,192,269685,1,8,0:0:0:0:
256,192,269847,1,0,0:0:0:0:
256,192,270171,1,8,0:0:0:0:
256,192,270334,1,0,0:0:0:0:
256,192,270415,1,0,0:0:0:0:
256,192,270496,1,8,0:0:0:0:
256,192,270658,1,0,0:0:0:0:
256,192,270820,1,8,0:0:0:0:
256,192,270982,1,8,0:0:0:0:
256,192,271144,1,0,0:0:0:0:
256,192,271306,1,0,0:0:0:0:
256,192,271469,1,8,0:0:0:0:
256,192,271631,1,0,0:0:0:0:
256,192,271712,1,0,0:0:0:0:
256,192,271793,1,8,0:0:0:0:
256,192,271955,1,0,0:0:0:0:
256,192,272117,1,8,0:0:0:0:
256,192,272279,1,8,0:0:0:0:
256,192,272442,1,0,0:0:0:0:
256,192,272604,1,0,0:0:0:0:
256,192,272766,1,8,0:0:0:0:
256,192,272928,1,0,0:0:0:0:
256,192,273009,1,8,0:0:0:0:
256,192,273090,1,0,0:0:0:0:
256,192,273252,1,0,0:0:0:0:
256,192,273415,1,8,0:0:0:0:
256,192,273577,1,8,0:0:0:0:
256,192,273739,1,0,0:0:0:0:
256,192,273901,1,0,0:0:0:0:
256,192,274063,1,8,0:0:0:0:
256,192,274225,1,0,0:0:0:0:
256,192,274306,1,0,0:0:0:0:
256,192,274388,1,8,0:0:0:0:
256,192,274469,1,8,0:0:0:0:
256,192,274550,1,0,0:0:0:0:
256,192,274712,1,8,0:0:0:0:
256,192,274874,1,8,0:0:0:0:
256,192,275036,1,4,0:0:0:0:
256,192,275198,1,4,0:0:0:0:
256,192,275361,1,4,0:0:0:0:
256,192,276009,1,8,0:0:0:0:
256,192,276063,1,8,0:0:0:0:
256,192,276117,1,8,0:0:0:0:
256,192,276171,1,8,0:0:0:0:
256,192,276334,5,4,0:0:0:0:
256,192,276496,1,0,0:0:0:0:
256,192,276658,1,8,0:0:0:0:
256,192,276982,1,0,0:0:0:0:
256,192,277144,1,0,0:0:0:0:
256,192,277306,1,8,0:0:0:0:
256,192,277469,1,0,0:0:0:0:
256,192,278442,1,0,0:0:0:0:
256,192,278604,1,8,0:0:0:0:
256,192,278766,1,0,0:0:0:0:
256,192,278928,1,0,0:0:0:0:
256,192,279090,1,0,0:0:0:0:
256,192,279252,1,8,0:0:0:0:
256,192,279577,1,0,0:0:0:0:
256,192,279739,1,0,0:0:0:0:
256,192,279901,1,8,0:0:0:0:
256,192,280063,1,8,0:0:0:0:
256,192,280712,1,8,0:0:0:0:
256,192,281036,1,8,0:0:0:0:
256,192,281198,1,0,0:0:0:0:
256,192,281361,1,8,0:0:0:0:
256,192,281523,1,0,0:0:0:0:
256,192,281685,1,0,0:0:0:0:
256,192,281847,1,8,0:0:0:0:
256,192,282171,1,0,0:0:0:0:
256,192,282334,1,0,0:0:0:0:
256,192,282496,1,0,0:0:0:0:
256,192,282658,1,8,0:0:0:0:
256,192,282982,1,0,0:0:0:0:
256,192,283144,1,8,0:0:0:0:
256,192,283306,1,8,0:0:0:0:
256,192,283469,1,0,0:0:0:0:
256,192,283631,1,0,0:0:0:0:
256,192,283793,1,8,0:0:0:0:
256,192,283955,1,8,0:0:0:0:
256,192,284117,1,0,0:0:0:0:
256,192,285252,1,8,0:0:0:0:
256,192,285415,1,0,0:0:0:0:
256,192,285577,1,0,0:0:0:0:
256,192,285739,1,8,0:0:0:0:
256,192,285901,1,8,0:0:0:0:
256,192,286225,1,8,0:0:0:0:
256,192,286388,1,0,0:0:0:0:
256,192,286712,1,4,0:0:0:0:
256,192,286874,1,0,0:0:0:0:
256,192,287036,1,8,0:0:0:0:
256,192,287361,1,0,0:0:0:0:
256,192,287523,1,0,0:0:0:0:
256,192,287685,1,8,0:0:0:0:
256,192,287847,1,0,0:0:0:0:
256,192,288171,1,0,0:0:0:0:
256,192,288334,1,8,0:0:0:0:
256,192,288658,1,0,0:0:0:0:
256,192,288820,1,0,0:0:0:0:
256,192,288982,1,8,0:0:0:0:
256,192,289144,1,8,0:0:0:0:
256,192,289306,1,4,0:0:0:0:
256,192,289469,1,0,0:0:0:0:
256,192,289631,1,8,0:0:0:0:
256,192,289955,1,0,0:0:0:0:
256,192,290117,1,0,0:0:0:0:
256,192,290279,1,8,0:0:0:0:
256,192,290442,1,0,0:0:0:0:
256,192,290766,1,0,0:0:0:0:
256,192,290928,1,8,0:0:0:0:
256,192,291090,1,0,0:0:0:0:
256,192,291415,1,8,0:0:0:0:
256,192,291577,1,0,0:0:0:0:
256,192,291739,1,8,0:0:0:0:
256,192,291901,1,4,0:0:0:0:
256,192,292063,1,0,0:0:0:0:
256,192,292225,1,8,0:0:0:0:
256,192,292550,1,0,0:0:0:0:
256,192,292712,1,0,0:0:0:0:
256,192,292874,1,8,0:0:0:0:
256,192,293036,1,8,0:0:0:0:
256,192,293198,1,4,0:0:0:0:
256,192,293523,1,8,0:0:0:0:
256,192,293685,1,0,0:0:0:0:
256,192,293847,1,8,0:0:0:0:
256,192,294009,1,8,0:0:0:0:
256,192,294171,1,0,0:0:0:0:
256,192,294334,1,8,0:0:0:0:
256,192,294496,1,4,0:0:0:0:
256,192,294820,1,8,0:0:0:0:
256,192,295144,1,4,0:0:0:0:
256,192,295469,1,0,0:0:0:0:
256,192,295793,1,4,0:0:0:0:
256,192,295955,1,4,0:0:0:0:
256,192,296117,1,4,0:0:0:0:
256,192,296766,1,8,0:0:0:0:
256,192,296820,1,8,0:0:0:0:
256,192,296874,1,8,0:0:0:0:
256,192,296928,1,8,0:0:0:0:
256,192,297090,5,4,0:0:0:0:
256,192,297252,1,8,0:0:0:0:
256,192,297334,1,8,0:0:0:0:
256,192,297415,1,0,0:0:0:0:
256,192,297577,1,8,0:0:0:0:
256,192,297739,1,0,0:0:0:0:
256,192,297820,1,8,0:0:0:0:
256,192,297901,1,0,0:0:0:0:
256,192,297982,1,0,0:0:0:0:
256,192,298063,1,8,0:0:0:0:
256,192,298225,1,8,0:0:0:0:
256,192,298388,1,0,0:0:0:0:
256,192,298550,1,8,0:0:0:0:
256,192,298631,1,8,0:0:0:0:
256,192,298712,1,0,0:0:0:0:
256,192,298793,1,8,0:0:0:0:
256,192,298874,1,0,0:0:0:0:
256,192,298955,1,0,0:0:0:0:
256,192,299036,1,8,0:0:0:0:
256,192,299117,1,0,0:0:0:0:
256,192,299198,1,0,0:0:0:0:
256,192,299279,1,8,0:0:0:0:
256,192,299361,1,8,0:0:0:0:
256,192,299523,1,0,0:0:0:0:
256,192,299685,1,8,0:0:0:0:
256,192,299847,1,0,0:0:0:0:
256,192,299928,1,8,0:0:0:0:
256,192,300009,1,0,0:0:0:0:
256,192,300171,1,8,0:0:0:0:
256,192,300252,1,8,0:0:0:0:
256,192,300334,1,0,0:0:0:0:
256,192,300415,1,0,0:0:0:0:
256,192,300496,1,8,0:0:0:0:
256,192,300577,1,0,0:0:0:0:
256,192,300658,1,8,0:0:0:0:
256,192,300820,1,0,0:0:0:0:
256,192,300982,1,8,0:0:0:0:
256,192,301144,1,0,0:0:0:0:
256,192,301225,1,8,0:0:0:0:
256,192,301306,1,8,0:0:0:0:
256,192,301469,1,0,0:0:0:0:
256,192,301550,1,0,0:0:0:0:
256,192,301631,1,8,0:0:0:0:
256,192,301712,1,8,0:0:0:0:
256,192,301793,1,0,0:0:0:0:
256,192,301955,1,8,0:0:0:0:
256,192,302117,1,8,0:0:0:0:
256,192,302279,1,0,0:0:0:0:
256,192,302442,1,8,0:0:0:0:
256,192,302523,1,8,0:0:0:0:
256,192,302604,1,0,0:0:0:0:
256,192,302766,1,8,0:0:0:0:
256,192,302847,1,0,0:0:0:0:
256,192,302928,1,8,0:0:0:0:
256,192,303009,1,8,0:0:0:0:
256,192,303090,1,0,0:0:0:0:
256,192,303171,1,0,0:0:0:0:
256,192,303252,1,8,0:0:0:0:
256,192,303415,1,8,0:0:0:0:
256,192,303577,1,0,0:0:0:0:
256,192,303739,1,8,0:0:0:0:
256,192,303820,1,0,0:0:0:0:
256,192,303901,1,8,0:0:0:0:
256,192,304063,1,0,0:0:0:0:
256,192,304225,1,8,0:0:0:0:
256,192,304306,1,8,0:0:0:0:
256,192,304388,1,0,0:0:0:0:
256,192,304469,1,8,0:0:0:0:
256,192,304550,1,0,0:0:0:0:
256,192,304712,1,0,0:0:0:0:
256,192,304874,1,8,0:0:0:0:
256,192,305036,1,0,0:0:0:0:
256,192,305117,1,8,0:0:0:0:
256,192,305198,1,8,0:0:0:0:
256,192,305361,1,0,0:0:0:0:
256,192,305442,1,8,0:0:0:0:
256,192,305604,1,8,0:0:0:0:
256,192,305685,1,0,0:0:0:0:
256,192,305766,1,0,0:0:0:0:
256,192,305847,1,8,0:0:0:0:
256,192,306009,1,0,0:0:0:0:
256,192,306171,1,8,0:0:0:0:
256,192,306334,1,0,0:0:0:0:
256,192,306415,1,8,0:0:0:0:
256,192,306496,1,0,0:0:0:0:
256,192,306658,1,8,0:0:0:0:
256,192,306739,1,8,0:0:0:0:
256,192,306820,1,0,0:0:0:0:
256,192,306901,1,0,0:0:0:0:
256,192,306982,1,8,0:0:0:0:
256,192,307063,1,0,0:0:0:0:
256,192,307144,1,8,0:0:0:0:
256,192,307306,1,8,0:0:0:0:
256,192,307469,5,4,0:0:0:0:
256,192,307631,1,8,0:0:0:0:
256,192,307712,1,8,0:0:0:0:
256,192,307793,1,0,0:0:0:0:
256,192,307955,1,8,0:0:0:0:
256,192,308117,1,0,0:0:0:0:
256,192,308198,1,0,0:0:0:0:
256,192,308279,1,8,0:0:0:0:
256,192,308361,1,0,0:0:0:0:
256,192,308442,1,8,0:0:0:0:
256,192,308604,1,8,0:0:0:0:
256,192,308766,1,0,0:0:0:0:
256,192,308928,1,8,0:0:0:0:
256,192,309009,1,0,0:0:0:0:
256,192,309090,1,0,0:0:0:0:
256,192,309171,1,8,0:0:0:0:
256,192,309252,1,0,0:0:0:0:
256,192,309334,1,0,0:0:0:0:
256,192,309415,1,8,0:0:0:0:
256,192,309496,1,8,0:0:0:0:
256,192,309577,1,0,0:0:0:0:
256,192,309658,1,8,0:0:0:0:
256,192,309739,1,8,0:0:0:0:
256,192,309901,1,0,0:0:0:0:
256,192,310063,1,8,0:0:0:0:
256,192,310225,1,0,0:0:0:0:
256,192,310306,1,0,0:0:0:0:
256,192,310388,1,8,0:0:0:0:
256,192,310550,1,0,0:0:0:0:
256,192,310631,1,0,0:0:0:0:
256,192,310712,1,8,0:0:0:0:
256,192,310793,1,8,0:0:0:0:
256,192,310874,1,0,0:0:0:0:
256,192,311036,1,8,0:0:0:0:
256,192,311198,1,8,0:0:0:0:
256,192,311361,1,0,0:0:0:0:
256,192,311523,1,8,0:0:0:0:
256,192,311604,1,0,0:0:0:0:
256,192,311685,1,8,0:0:0:0:
256,192,311847,1,0,0:0:0:0:
256,192,311928,1,8,0:0:0:0:
256,192,312009,1,8,0:0:0:0:
256,192,312090,1,8,0:0:0:0:
256,192,312171,1,0,0:0:0:0:
256,192,312334,1,8,0:0:0:0:
256,192,312496,1,8,0:0:0:0:
256,192,312658,1,0,0:0:0:0:
256,192,312820,1,8,0:0:0:0:
256,192,312901,1,8,0:0:0:0:
256,192,312982,1,0,0:0:0:0:
256,192,313144,1,8,0:0:0:0:
256,192,313225,1,0,0:0:0:0:
256,192,313306,1,8,0:0:0:0:
256,192,313388,1,8,0:0:0:0:
256,192,313469,1,0,0:0:0:0:
256,192,313550,1,0,0:0:0:0:
256,192,313631,1,8,0:0:0:0:
256,192,313793,1,8,0:0:0:0:
256,192,313955,1,0,0:0:0:0:
256,192,314117,1,8,0:0:0:0:
256,192,314198,1,0,0:0:0:0:
256,192,314279,1,8,0:0:0:0:
256,192,314442,1,0,0:0:0:0:
256,192,314604,1,8,0:0:0:0:
256,192,314685,1,8,0:0:0:0:
256,192,314766,1,0,0:0:0:0:
256,192,314847,1,8,0:0:0:0:
256,192,314928,1,0,0:0:0:0:
256,192,315090,1,0,0:0:0:0:
256,192,315252,1,8,0:0:0:0:
256,192,315415,1,0,0:0:0:0:
256,192,315496,1,8,0:0:0:0:
256,192,315577,1,8,0:0:0:0:
256,192,315739,1,0,0:0:0:0:
256,192,315901,1,8,0:0:0:0:
256,192,316063,1,8,0:0:0:0:
256,192,316225,1,0,0:0:0:0:
256,192,316306,1,0,0:0:0:0:
256,192,316388,1,0,0:0:0:0:
256,192,316469,1,0,0:0:0:0:
256,192,316550,1,8,0:0:0:0:
256,192,316631,1,0,0:0:0:0:
256,192,316712,1,0,0:0:0:0:
256,192,316793,1,8,0:0:0:0:
256,192,316874,1,0,0:0:0:0:
256,192,316955,1,0,0:0:0:0:
256,192,317036,1,8,0:0:0:0:
256,192,317117,1,8,0:0:0:0:
256,192,317198,1,0,0:0:0:0:
256,192,317279,1,8,0:0:0:0:
256,192,317361,1,0,0:0:0:0:
256,192,317442,1,0,0:0:0:0:
256,192,317523,1,8,0:0:0:0:
256,192,317604,1,0,0:0:0:0:
256,192,317685,1,8,0:0:0:0:
256,192,317847,1,0,0:0:0:0:
256,192,318820,1,8,0:0:0:0:
256,192,318874,1,8,0:0:0:0:
256,192,318928,1,8,0:0:0:0:
256,192,318982,1,8,0:0:0:0:
256,192,319144,1,4,0:0:0:0:
256,192,319306,1,8,0:0:0:0:
256,192,319388,1,8,0:0:0:0:
256,192,319469,1,0,0:0:0:0:
256,192,319631,1,8,0:0:0:0:
256,192,319712,1,0,0:0:0:0:
256,192,319793,1,8,0:0:0:0:
256,192,319874,1,8,0:0:0:0:
256,192,319955,1,0,0:0:0:0:
256,192,320036,1,0,0:0:0:0:
256,192,320117,1,8,0:0:0:0:
256,192,320279,1,0,0:0:0:0:
256,192,320442,1,8,0:0:0:0:
256,192,320523,1,0,0:0:0:0:
256,192,320604,1,0,0:0:0:0:
256,192,320685,1,8,0:0:0:0:
256,192,320766,1,0,0:0:0:0:
256,192,320847,1,0,0:0:0:0:
256,192,320928,1,8,0:0:0:0:
256,192,321009,1,8,0:0:0:0:
256,192,321090,1,0,0:0:0:0:
256,192,321171,1,8,0:0:0:0:
256,192,321252,1,0,0:0:0:0:
256,192,321334,1,0,0:0:0:0:
256,192,321415,1,8,0:0:0:0:
256,192,321577,1,8,0:0:0:0:
256,192,321739,1,0,0:0:0:0:
256,192,321901,1,8,0:0:0:0:
256,192,321982,1,8,0:0:0:0:
256,192,322063,1,0,0:0:0:0:
256,192,322225,1,0,0:0:0:0:
256,192,322306,1,0,0:0:0:0:
256,192,322388,1,8,0:0:0:0:
256,192,322469,1,8,0:0:0:0:
256,192,322550,1,0,0:0:0:0:
256,192,322631,1,0,0:0:0:0:
256,192,322712,1,8,0:0:0:0:
256,192,322874,1,8,0:0:0:0:
256,192,323036,1,0,0:0:0:0:
256,192,323198,1,8,0:0:0:0:
256,192,323279,1,0,0:0:0:0:
256,192,323361,1,8,0:0:0:0:
256,192,323523,1,0,0:0:0:0:
256,192,323604,1,0,0:0:0:0:
256,192,323685,1,8,0:0:0:0:
256,192,323766,1,0,0:0:0:0:
256,192,323847,1,8,0:0:0:0:
256,192,323928,1,8,0:0:0:0:
256,192,324009,1,0,0:0:0:0:
256,192,324171,1,8,0:0:0:0:
256,192,324334,1,0,0:0:0:0:
256,192,324496,1,8,0:0:0:0:
256,192,324577,1,8,0:0:0:0:
256,192,324658,1,0,0:0:0:0:
256,192,324820,1,8,0:0:0:0:
256,192,324901,1,0,0:0:0:0:
256,192,324982,1,8,0:0:0:0:
256,192,325063,1,8,0:0:0:0:
256,192,325144,1,0,0:0:0:0:
256,192,325225,1,0,0:0:0:0:
256,192,325306,1,8,0:0:0:0:
256,192,325469,1,0,0:0:0:0:
256,192,325631,1,8,0:0:0:0:
256,192,325793,1,0,0:0:0:0:
256,192,325874,1,8,0:0:0:0:
256,192,325955,1,0,0:0:0:0:
256,192,326117,1,8,0:0:0:0:
256,192,326198,1,8,0:0:0:0:
256,192,326279,1,0,0:0:0:0:
256,192,326361,1,0,0:0:0:0:
256,192,326442,1,8,0:0:0:0:
256,192,326523,1,0,0:0:0:0:
256,192,326604,1,8,0:0:0:0:
256,192,326766,1,0,0:0:0:0:
256,192,326928,1,8,0:0:0:0:
256,192,327009,1,8,0:0:0:0:
256,192,327090,1,0,0:0:0:0:
256,192,327171,1,8,0:0:0:0:
256,192,327252,1,0,0:0:0:0:
256,192,327334,1,0,0:0:0:0:
256,192,327415,1,8,0:0:0:0:
256,192,327496,1,0,0:0:0:0:
256,192,327577,1,8,0:0:0:0:
256,192,327658,1,8,0:0:0:0:
256,192,327739,1,0,0:0:0:0:
256,192,327820,1,0,0:0:0:0:
256,192,327901,1,8,0:0:0:0:
256,192,328063,1,0,0:0:0:0:
256,192,328225,1,8,0:0:0:0:
256,192,328388,1,0,0:0:0:0:
256,192,328469,1,8,0:0:0:0:
256,192,328550,1,0,0:0:0:0:
256,192,328712,1,8,0:0:0:0:
256,192,328793,1,8,0:0:0:0:
256,192,328874,1,0,0:0:0:0:
256,192,328955,1,0,0:0:0:0:
256,192,329036,1,8,0:0:0:0:
256,192,329117,1,8,0:0:0:0:
256,192,329198,1,0,0:0:0:0:
256,192,329361,1,8,0:0:0:0:
256,192,329523,1,4,0:0:0:0:
256,192,329685,1,8,0:0:0:0:
256,192,329766,1,0,0:0:0:0:
256,192,329847,1,8,0:0:0:0:
256,192,330009,1,0,0:0:0:0:
256,192,330090,1,0,0:0:0:0:
256,192,330171,1,8,0:0:0:0:
256,192,330252,1,8,0:0:0:0:
256,192,330334,1,0,0:0:0:0:
256,192,330415,1,0,0:0:0:0:
256,192,330496,1,8,0:0:0:0:
256,192,330658,1,0,0:0:0:0:
256,192,330820,1,8,0:0:0:0:
256,192,330901,1,8,0:0:0:0:
256,192,330982,1,0,0:0:0:0:
256,192,331063,1,8,0:0:0:0:
256,192,331144,1,0,0:0:0:0:
256,192,331225,1,0,0:0:0:0:
256,192,331306,1,8,0:0:0:0:
256,192,331388,1,8,0:0:0:0:
256,192,331469,1,0,0:0:0:0:
256,192,331550,1,8,0:0:0:0:
256,192,331631,1,0,0:0:0:0:
256,192,331712,1,0,0:0:0:0:
256,192,331793,1,8,0:0:0:0:
256,192,331955,1,8,0:0:0:0:
256,192,332117,1,0,0:0:0:0:
256,192,332279,1,8,0:0:0:0:
256,192,332361,1,8,0:0:0:0:
256,192,332442,1,0,0:0:0:0:
256,192,332604,1,0,0:0:0:0:
256,192,332685,1,0,0:0:0:0:
256,192,332766,1,8,0:0:0:0:
256,192,332847,1,0,0:0:0:0:
256,192,332928,1,8,0:0:0:0:
256,192,333009,1,8,0:0:0:0:
256,192,333090,1,0,0:0:0:0:
256,192,333252,1,8,0:0:0:0:
256,192,333415,1,0,0:0:0:0:
256,192,333577,1,8,0:0:0:0:
256,192,333658,1,0,0:0:0:0:
256,192,333739,1,8,0:0:0:0:
256,192,333901,1,0,0:0:0:0:
256,192,333982,1,0,0:0:0:0:
256,192,334063,1,8,0:0:0:0:
256,192,334144,1,8,0:0:0:0:
256,192,334225,1,0,0:0:0:0:
256,192,334306,1,8,0:0:0:0:
256,192,334388,1,0,0:0:0:0:
256,192,334550,1,8,0:0:0:0:
256,192,334712,1,0,0:0:0:0:
256,192,334874,1,8,0:0:0:0:
256,192,334955,1,8,0:0:0:0:
256,192,335036,1,0,0:0:0:0:
256,192,335198,1,8,0:0:0:0:
256,192,335279,1,8,0:0:0:0:
256,192,335361,1,0,0:0:0:0:
256,192,335442,1,8,0:0:0:0:
256,192,335523,1,0,0:0:0:0:
256,192,335604,1,0,0:0:0:0:
256,192,335685,1,8,0:0:0:0:
256,192,335847,1,0,0:0:0:0:
256,192,336009,1,8,0:0:0:0:
256,192,336171,1,0,0:0:0:0:
256,192,336252,1,8,0:0:0:0:
256,192,336334,1,0,0:0:0:0:
256,192,336496,1,8,0:0:0:0:
256,192,336577,1,0,0:0:0:0:
256,192,336658,1,8,0:0:0:0:
256,192,336739,1,8,0:0:0:0:
256,192,336820,1,0,0:0:0:0:
256,192,336901,1,0,0:0:0:0:
256,192,336982,1,8,0:0:0:0:
256,192,337144,1,0,0:0:0:0:
256,192,337306,1,8,0:0:0:0:
256,192,337388,1,8,0:0:0:0:
256,192,337469,1,0,0:0:0:0:
256,192,337550,1,8,0:0:0:0:
256,192,337631,1,0,0:0:0:0:
256,192,337712,1,0,0:0:0:0:
256,192,337793,1,8,0:0:0:0:
256,192,337874,1,0,0:0:0:0:
256,192,337955,1,8,0:0:0:0:
256,192,338036,1,8,0:0:0:0:
256,192,338117,1,0,0:0:0:0:
256,192,338198,1,0,0:0:0:0:
256,192,338279,1,8,0:0:0:0:
256,192,338442,1,0,0:0:0:0:
256,192,338604,1,8,0:0:0:0:
256,192,338685,1,8,0:0:0:0:
256,192,338766,1,0,0:0:0:0:
256,192,338847,1,0,0:0:0:0:
256,192,338928,1,8,0:0:0:0:
256,192,338982,1,8,0:0:0:0:
256,192,339036,1,8,0:0:0:0:
256,192,339090,1,0,0:0:0:0:
256,192,339252,1,8,0:0:0:0:
256,192,339334,1,0,0:0:0:0:
256,192,339415,1,0,0:0:0:0:
256,192,339496,1,0,0:0:0:0:
256,192,339577,1,8,0:0:0:0:
256,192,339617,1,8,0:0:0:0:
256,192,339739,1,8,0:0:0:0:
256,192,339779,1,8,0:0:0:0:
256,192,339901,1,4,0:0:0:0:
256,192,340144,1,4,0:0:0:0:
256,192,340388,1,4,0:0:0:0:
256,192,340631,1,4,0:0:0:0:
256,192,340874,1,4,0:0:0:0:
256,192,341036,1,4,0:0:0:0:
256,192,341198,12,4,342496,0:0:0:0:
