osu file format v14

[General]
AudioFilename: audio.mp3
AudioLeadIn: 0
PreviewTime: 17047
Countdown: 0
SampleSet: Soft
StackLeniency: 0.7
Mode: 0
LetterboxInBreaks: 0
WidescreenStoryboard: 0

[Editor]
Bookmarks: 95047,127047,191047,223047,263047,271047,343047,375047,394859
DistanceSpacing: 0.9
BeatDivisor: 4
GridSize: 32
TimelineZoom: 2.7

[Metadata]
Title:Distorted Lovesong (Full length)
TitleUnicode:Distorted Lovesong (Full length)
Artist:t+pazolite feat. Rizna
ArtistUnicode:t+pazolite feat. リズナ
Creator:rollpan
Version:Yandere Madness
Source:
Tags:English Electronic hardcore tano*c syndrome 4 songs for X Girlz tpz roll_pan shirasaka koume ZETAWIN otudou Sagu CENSOLED eac2023 east asia cup 2023 grand finals gf tb tiebreaker
BeatmapID:4061084
BeatmapSetID:1959806

[Difficulty]
HPDrainRate:6
CircleSize:4
OverallDifficulty:9.4
ApproachRate:9.8
SliderMultiplier:1.8
SliderTickRate:1

[Events]
//Background and Video events
0,0,"bg.jpg",0,0
//Break Periods
2,127621,142568
2,263247,270568
2,375497,394380
//Storyboard Layer 0 (Background)
//Storyboard Layer 1 (Fail)
//Storyboard Layer 2 (Pass)
//Storyboard Layer 3 (Foreground)
//Storyboard Layer 4 (Overlay)
//Storyboard Sound Samples

[TimingPoints]
17047,250,4,2,1,70,1,0
17047,-166.666666666667,4,2,1,70,0,0
19047,-250,4,2,1,70,0,0
21047,-166.666666666667,4,2,1,70,0,0
23047,-250,4,2,1,70,0,0
25047,-166.666666666667,4,2,1,70,0,0
27047,-250,4,2,1,70,0,0
29047,-166.666666666667,4,2,1,70,0,0
31047,-250,4,2,1,70,0,0
33047,-83.3333333333333,4,2,1,80,0,0
34547,-250,4,2,1,80,0,0
37047,-83.3333333333333,4,2,1,80,0,0
38547,-250,4,2,1,80,0,0
41047,-83.3333333333333,4,2,1,80,0,0
42547,-250,4,2,1,80,0,0
45047,-83.3333333333333,4,2,1,80,0,0
46547,-250,4,2,1,80,0,0
49047,-83.3333333333333,4,2,1,80,0,0
50547,-250,4,2,1,80,0,0
53047,-83.3333333333333,4,2,1,80,0,0
54547,-250,4,2,1,80,0,0
57047,-83.3333333333333,4,2,1,80,0,0
58547,-250,4,2,1,80,0,0
61047,-83.3333333333333,4,2,1,85,0,0
62547,-250,4,2,1,85,0,0
63047,-125,4,2,1,85,0,0
64047,-125,4,2,2,90,0,0
65047,-76.9230769230769,4,2,2,90,0,0
65422,-90.9090909090909,4,2,2,90,0,0
66047,-66.6666666666667,4,2,2,90,0,0
66297,-100,4,2,2,90,0,0
66547,-133.333333333333,4,2,2,90,0,0
66797,-200,4,2,2,90,0,0
67047,-90.9090909090909,4,2,2,90,0,0
68047,-66.6666666666667,4,2,2,90,0,0
68422,-100,4,2,2,90,0,0
69047,-90.9090909090909,4,2,2,90,0,0
70047,-66.6666666666667,4,2,2,90,0,0
70422,-100,4,2,2,90,0,0
71047,-90.9090909090909,4,2,2,90,0,0
72047,-66.6666666666667,4,2,2,90,0,0
72422,-100,4,2,2,90,0,0
73047,-90.9090909090909,4,2,2,85,0,0
81047,250,7,2,2,80,1,0
81047,-71.4285714285714,7,2,2,80,0,0
91547,250,3,2,2,80,1,0
93047,250,4,2,2,80,1,0
93047,-71.4285714285714,4,2,2,80,0,0
94547,-200,4,2,2,80,0,0
94797,-62.5,4,2,2,80,0,0
95047,-90.9090909090909,4,2,2,85,0,1
102047,-37.037037037037,4,2,2,85,0,1
102297,-30.3030303030303,4,2,2,85,0,1
103047,-76.9230769230769,4,2,2,85,0,1
109922,-71.4285714285714,4,2,2,85,0,1
111047,-66.6666666666667,4,2,2,90,0,1
127047,-100,4,2,2,90,0,0
127422,-100,4,2,2,5,0,0
143047,-125,4,2,1,75,0,0
158547,-125,4,2,1,85,0,0
159047,-62.5,4,2,2,85,0,0
159547,-100,4,2,2,85,0,0
159922,-62.5,4,2,2,85,0,0
161547,-100,4,2,2,85,0,0
163047,-62.5,4,2,2,85,0,0
163547,-100,4,2,2,85,0,0
163922,-62.5,4,2,2,85,0,0
165547,-100,4,2,2,85,0,0
167047,-62.5,4,2,2,85,0,0
168047,-100,4,2,2,85,0,0
169047,-62.5,4,2,2,85,0,0
169547,-100,4,2,2,85,0,0
171047,-62.5,4,2,2,85,0,0
171297,-100,4,2,2,85,0,0
171547,-62.5,4,2,2,85,0,0
171797,-100,4,2,2,85,0,0
172047,-62.5,4,2,2,85,0,0
172297,-100,4,2,2,85,0,0
172547,-62.5,4,2,2,85,0,0
172797,-100,4,2,2,85,0,0
173047,-62.5,4,2,2,85,0,0
174047,-142.857142857143,4,2,2,85,0,0
174547,-66.6666666666667,4,2,2,85,0,0
175047,-58.8235294117647,4,2,2,90,0,0
175422,-111.111111111111,4,2,2,90,0,0
175547,-71.4285714285714,4,2,2,90,0,0
176047,-62.5,4,2,2,90,0,0
176547,-71.4285714285714,4,2,2,90,0,0
177047,-58.8235294117647,4,2,2,90,0,0
177422,-111.111111111111,4,2,2,90,0,0
177547,-71.4285714285714,4,2,2,90,0,0
178047,-62.5,4,2,2,90,0,0
179047,-58.8235294117647,4,2,2,90,0,0
179422,-111.111111111111,4,2,2,90,0,0
179547,-71.4285714285714,4,2,2,90,0,0
180047,-62.5,4,2,2,90,0,0
180547,-71.4285714285714,4,2,2,90,0,0
181047,-58.8235294117647,4,2,2,90,0,0
181422,-111.111111111111,4,2,2,90,0,0
181547,-71.4285714285714,4,2,2,90,0,0
182047,-58.8235294117647,4,2,2,90,0,0
182797,-90.9090909090909,4,2,2,90,0,0
183047,-58.8235294117647,4,2,2,90,0,0
183422,-111.111111111111,4,2,2,90,0,0
183547,-71.4285714285714,4,2,2,90,0,0
184047,-62.5,4,2,2,90,0,0
184547,-71.4285714285714,4,2,2,90,0,0
185047,-58.8235294117647,4,2,2,90,0,0
185422,-111.111111111111,4,2,2,90,0,0
185547,-71.4285714285714,4,2,2,90,0,0
186047,-62.5,4,2,2,90,0,0
187047,-58.8235294117647,4,2,2,90,0,0
187422,-111.111111111111,4,2,2,90,0,0
187547,-71.4285714285714,4,2,2,90,0,0
188047,-62.5,4,2,2,90,0,0
188547,-71.4285714285714,4,2,2,90,0,0
189047,-62.5,4,2,2,90,0,0
191047,-55.5555555555556,4,2,2,90,0,1
192172,-71.4285714285714,4,2,2,90,0,1
192297,-58.8235294117647,4,2,2,90,0,1
192797,-71.4285714285714,4,2,2,90,0,1
193047,-58.8235294117647,4,2,2,90,0,1
194297,-71.4285714285714,4,2,2,90,0,1
195047,-58.8235294117647,4,2,2,90,0,1
196172,-71.4285714285714,4,2,2,90,0,1
197047,-58.8235294117647,4,2,2,90,0,1
200172,-71.4285714285714,4,2,2,90,0,1
200297,-58.8235294117647,4,2,2,90,0,1
200797,-71.4285714285714,4,2,2,90,0,1
201047,-58.8235294117647,4,2,2,90,0,1
202797,-71.4285714285714,4,2,2,90,0,1
203047,-58.8235294117647,4,2,2,90,0,1
204172,-71.4285714285714,4,2,2,90,0,1
205047,-58.8235294117647,4,2,2,90,0,1
205797,-44.4444444444445,4,2,2,90,0,1
207047,-50,4,2,2,85,0,1
207547,-62.5,4,2,2,85,0,1
209047,-50,4,2,2,85,0,1
209547,-62.5,4,2,2,85,0,1
211047,-50,4,2,2,85,0,1
211547,-62.5,4,2,2,85,0,1
213047,-50,4,2,2,85,0,1
213547,-62.5,4,2,2,85,0,1
215047,-58.8235294117647,4,2,2,90,0,1
216047,-71.4285714285714,4,2,2,90,0,1
217047,-58.8235294117647,4,2,2,90,0,1
218047,-71.4285714285714,4,2,2,90,0,1
218297,-58.8235294117647,4,2,2,90,0,1
218547,-71.4285714285714,4,2,2,90,0,1
219047,-58.8235294117647,4,2,2,90,0,1
220047,-71.4285714285714,4,2,2,90,0,1
221047,-58.8235294117647,4,2,2,90,0,1
222047,-71.4285714285714,4,2,2,90,0,1
223047,-200,4,2,1,90,0,0
223297,-200,4,2,1,5,0,0
224047,-125,4,2,1,70,0,0
224797,-166.666666666667,4,2,1,70,0,0
227047,-125,4,2,1,70,0,0
227797,-166.666666666667,4,2,1,70,0,0
231047,-125,4,2,1,70,0,0
231797,-166.666666666667,4,2,1,70,0,0
238047,-125,4,2,3,95,0,0
239047,-55.5555555555556,4,2,3,95,0,0
239547,-71.4285714285714,4,2,3,95,0,0
241422,-55.5555555555556,4,2,3,95,0,0
241797,-71.4285714285714,4,2,3,95,0,0
243047,-55.5555555555556,4,2,3,95,0,0
243422,-71.4285714285714,4,2,3,95,0,0
247047,-125,4,2,3,95,0,0
247797,-71.4285714285714,4,2,3,95,0,0
249422,-55.5555555555556,4,2,3,95,0,0
249797,-71.4285714285714,4,2,3,95,0,0
251047,-55.5555555555556,4,2,3,95,0,0
251422,-71.4285714285714,4,2,3,95,0,0
253422,-55.5555555555556,4,2,3,95,0,0
253797,-71.4285714285714,4,2,3,95,0,0
255047,-250,4,2,1,65,0,0
271047,-62.5,4,2,2,75,0,0
271547,-125,4,2,1,75,0,0
278047,-500,4,2,3,80,0,0
278797,-55.5555555555556,4,2,2,90,0,0
279047,-71.4285714285714,4,2,2,90,0,0
279797,-58.8235294117647,4,2,2,90,0,0
280047,-71.4285714285714,4,2,2,90,0,0
280297,-58.8235294117647,4,2,2,90,0,0
280547,-71.4285714285714,4,2,2,90,0,0
280797,-58.8235294117647,4,2,2,90,0,0
281047,-71.4285714285714,4,2,2,90,0,0
281297,-58.8235294117647,4,2,2,90,0,0
282047,-71.4285714285714,4,2,2,90,0,0
282797,-58.8235294117647,4,2,2,90,0,0
283047,-71.4285714285714,4,2,2,90,0,0
283297,-58.8235294117647,4,2,2,90,0,0
284047,-71.4285714285714,4,2,2,90,0,0
284297,-58.8235294117647,4,2,2,90,0,0
284547,-71.4285714285714,4,2,2,90,0,0
285797,-58.8235294117647,4,2,2,90,0,0
286297,-71.4285714285714,4,2,2,90,0,0
293047,-58.8235294117647,4,2,2,90,0,0
295047,-71.4285714285714,4,2,2,85,0,0
303047,-45.4545454545455,4,2,2,90,0,0
303797,-71.4285714285714,4,2,2,90,0,0
307047,-71.4285714285714,4,2,2,85,0,0
311047,-45.4545454545455,4,2,2,95,0,0
323047,-125,4,2,2,80,0,0
326172,-125,4,2,2,90,0,0
327047,-58.8235294117647,4,2,2,90,0,0
327422,-111.111111111111,4,2,2,90,0,0
327547,-71.4285714285714,4,2,2,90,0,0
328047,-62.5,4,2,2,90,0,0
328547,-71.4285714285714,4,2,2,90,0,0
329047,-58.8235294117647,4,2,2,90,0,0
329422,-111.111111111111,4,2,2,90,0,0
329547,-71.4285714285714,4,2,2,90,0,0
330047,-62.5,4,2,2,90,0,0
331047,-58.8235294117647,4,2,2,90,0,0
331422,-111.111111111111,4,2,2,90,0,0
331547,-71.4285714285714,4,2,2,90,0,0
332047,-62.5,4,2,2,90,0,0
332547,-71.4285714285714,4,2,2,90,0,0
333047,-58.8235294117647,4,2,2,90,0,0
333422,-111.111111111111,4,2,2,90,0,0
333547,-71.4285714285714,4,2,2,90,0,0
334047,-58.8235294117647,4,2,2,90,0,0
334797,-90.9090909090909,4,2,2,90,0,0
335047,-58.8235294117647,4,2,2,90,0,0
335422,-111.111111111111,4,2,2,90,0,0
335547,-71.4285714285714,4,2,2,90,0,0
336047,-62.5,4,2,2,90,0,0
336547,-71.4285714285714,4,2,2,90,0,0
337047,-58.8235294117647,4,2,2,90,0,0
337422,-111.111111111111,4,2,2,90,0,0
337547,-71.4285714285714,4,2,2,90,0,0
338047,-62.5,4,2,2,90,0,0
339047,-58.8235294117647,4,2,2,90,0,0
339422,-111.111111111111,4,2,2,90,0,0
339547,-71.4285714285714,4,2,2,90,0,0
340047,-62.5,4,2,2,90,0,0
340547,-71.4285714285714,4,2,2,90,0,0
341047,-62.5,4,2,2,90,0,0
343047,-55.5555555555556,4,2,2,90,0,1
343547,-62.5,4,2,2,90,0,1
344047,-76.9230769230769,4,2,2,90,0,1
344547,-58.8235294117647,4,2,2,90,0,1
345047,-55.5555555555556,4,2,2,90,0,1
346672,-50,4,2,2,90,0,1
347047,-55.5555555555556,4,2,2,90,0,1
347547,-62.5,4,2,2,90,0,1
348047,-76.9230769230769,4,2,2,90,0,1
348547,-58.8235294117647,4,2,2,90,0,1
349047,-111.111111111111,4,2,2,90,0,1
349172,-55.5555555555556,4,2,2,90,0,1
351547,-62.5,4,2,2,90,0,1
352047,-76.9230769230769,4,2,2,90,0,1
352547,-58.8235294117647,4,2,2,90,0,1
353047,-55.5555555555556,4,2,2,90,0,1
354672,-50,4,2,2,90,0,1
355047,-55.5555555555556,4,2,2,90,0,1
355547,-62.5,4,2,2,90,0,1
356047,-76.9230769230769,4,2,2,90,0,1
356547,-58.8235294117647,4,2,2,90,0,1
357047,-111.111111111111,4,2,2,90,0,1
357172,-55.5555555555556,4,2,2,90,0,1
358047,-62.5,4,2,2,90,0,1
359047,-58.8235294117647,4,2,2,85,0,1
360047,-76.9230769230769,4,2,2,85,0,1
361047,-58.8235294117647,4,2,2,85,0,1
362047,-76.9230769230769,4,2,2,85,0,1
363047,-58.8235294117647,4,2,2,85,0,1
364047,-76.9230769230769,4,2,2,85,0,1
365047,-58.8235294117647,4,2,2,85,0,1
366047,-76.9230769230769,4,2,2,85,0,1
367047,-55.5555555555556,4,2,2,90,0,1
368047,-66.6666666666667,4,2,2,90,0,1
368547,-58.8235294117647,4,2,2,90,0,1
369047,-55.5555555555556,4,2,2,90,0,1
370047,-66.6666666666667,4,2,2,90,0,1
370547,-58.8235294117647,4,2,2,90,0,1
371047,-55.5555555555556,4,2,2,90,0,1
372047,-66.6666666666667,4,2,2,90,0,1
372547,-58.8235294117647,4,2,2,90,0,1
373047,-55.5555555555556,4,2,2,90,0,1
374047,-66.6666666666667,4,2,2,90,0,1
374547,-58.8235294117647,4,2,2,90,0,1
375047,-200,4,2,2,90,0,0
375297,-200,4,2,2,5,0,0
394859,-33.3333333333333,4,2,4,50,0,0
394922,-33.3333333333333,4,2,4,5,0,0
396922,-33.3333333333333,4,2,4,50,0,0
397047,-33.3333333333333,4,2,4,5,0,0
398297,-33.3333333333333,4,2,4,50,0,0
398359,-33.3333333333333,4,2,4,5,0,0
399172,-33.3333333333333,4,2,4,50,0,0
399234,-33.3333333333333,4,2,4,5,0,0
400609,-33.3333333333333,4,2,4,50,0,0
400672,-33.3333333333333,4,2,4,5,0,0
401297,-33.3333333333333,4,2,4,50,0,0
401422,-33.3333333333333,4,2,4,5,0,0
403047,-33.3333333333333,4,2,4,50,0,0
403109,-33.3333333333333,4,2,4,5,0,0
404047,-66.6666666666667,4,2,4,50,0,0
405109,-33.3333333333333,4,2,4,50,0,0
405234,-33.3333333333333,4,2,4,5,0,0
406234,-33.3333333333333,4,2,4,50,0,0
406297,-33.3333333333333,4,2,4,50,0,0
406359,-33.3333333333333,4,2,4,5,0,0
406484,-33.3333333333333,4,2,4,50,0,0
406547,-33.3333333333333,4,2,4,5,0,0
409297,250,4,2,4,100,1,0
409297,-37.037037037037,4,2,4,100,0,0
409797,-58.8235294117647,4,2,4,100,0,0
410797,-41.6666666666667,4,2,4,100,0,0
410922,-66.6666666666667,4,2,4,100,0,0
411047,-41.6666666666667,4,2,4,100,0,0
411547,-50,4,2,4,100,0,0
412359,-62.5,4,2,4,100,0,0
412547,-71.4285714285714,4,2,4,100,0,0
412922,-33.3333333333333,4,2,4,100,0,0
413547,-50,4,2,4,100,0,0
413847,-45.4545454545455,4,2,4,100,0,0
414797,-66.6666666666667,4,2,4,100,0,0
414922,-45.4545454545455,4,2,4,100,0,0
415797,-40,4,2,4,100,0,0
416922,-20,4,2,4,100,0,0
417047,-66.6666666666667,4,2,4,100,0,0
417484,-133.333333333333,4,2,4,100,0,0
419547,-55.5555555555556,4,2,4,100,0,0
419672,-66.6666666666667,4,2,4,100,0,0
419797,-58.8235294117647,4,2,4,100,0,0
420172,-32.258064516129,4,2,4,100,0,0
420922,-38.4615384615385,4,2,4,100,0,0
421547,-100,4,2,4,100,0,0
423047,-200,4,2,4,100,0,0
423172,-66.6666666666667,4,2,4,100,0,0
423547,-58.8235294117647,4,2,4,100,0,0
423797,-76.9230769230769,4,2,4,100,0,0
424109,-100,4,2,4,100,0,0
424234,-66.6666666666667,4,2,4,100,0,0
424797,-100,4,2,4,60,0,0
425922,-166.666666666667,4,2,4,30,0,0
427047,-166.666666666667,4,2,4,15,0,0

[Colours]
Combo1 : 252,126,126
Combo2 : 238,77,173
Combo3 : 250,152,203
Combo4 : 247,36,36

[HitObjects]
115,340,17047,22,1,B|115:317|89:304|85:309|80:311|49:312|12:260|43:203|92:206|114:218|127:243,1,215.999993408203,2|0,0:0|0:0,0:0:0:0:
149,160,17797,1,2,0:0:0:0:
115,340,18047,2,1,B|122:319|151:316|154:322|157:326|186:338|239:302|231:238|184:224|159:227|138:245,1,215.999993408203,2|0,0:0|0:0,0:0:0:0:
149,160,18797,1,0,0:0:0:0:
80,121,19047,22,0,P|66:88|48:52,1,72,2|0,0:0|0:0,0:0:0:0:
176,2,19547,2,0,P|160:34|145:67,1,72,2|0,0:0|0:0,0:0:0:0:
215,109,20047,2,0,P|249:98|287:88,1,72,2|0,0:0|0:0,0:0:0:0:
354,51,20547,2,0,P|388:62|426:72,1,72,2|0,0:0|0:0,0:0:0:0:
326,269,21047,22,1,B|325:246|351:233|355:238|360:240|391:241|428:189|397:132|348:135|326:147|313:172,1,215.999993408203,2|0,0:0|0:0,0:0:0:0:
292,89,21797,1,2,0:0:0:0:
326,269,22047,2,1,B|319:248|290:245|287:251|284:255|255:267|202:231|210:167|257:153|282:156|303:174,1,215.999993408203,2|0,0:0|0:0,0:0:0:0:
292,89,22797,1,0,0:0:0:0:
366,133,23047,22,0,P|401:121|433:106,1,72,2|0,0:0|0:0,0:0:0:0:
503,224,23547,2,0,P|470:208|436:197,1,72,2|0,0:0|0:0,0:0:0:0:
430,354,24047,2,0,P|444:320|461:286,1,72,2|0,0:0|0:0,0:0:0:0:
345,229,24547,2,0,P|360:261|374:294,1,72,2|0,0:0|0:0,0:0:0:0:
205,145,25047,22,1,B|192:120|170:108|121:105|90:162|127:214|158:213|163:211|167:206|193:219|193:242,1,215.999993408203,2|0,0:0|0:0,0:0:0:0:
178,313,25797,1,2,0:0:0:0:
216,147,26047,2,1,B|237:129|262:126|309:140|317:204|264:240|235:228|232:224|229:218|200:221|193:242,1,215.999993408203,2|0,0:0|0:0,0:0:0:0:
178,313,26797,1,0,0:0:0:0:
258,283,27047,22,0,P|275:315|290:350,1,72,2|0,0:0|0:0,0:0:0:0:
195,234,27547,2,0,P|209:200|226:169,1,72,2|0,0:0|0:0,0:0:0:0:
172,111,28047,2,0,P|141:102|97:83,1,72,2|0,0:0|0:0,0:0:0:0:
293,209,28547,2,0,P|326:194|360:184,1,72,2|0,0:0|0:0,0:0:0:0:
255,43,29047,22,1,B|234:25|209:22|162:36|154:100|207:136|236:124|239:120|242:114|271:117|278:138,1,215.999993408203,2|0,0:0|0:0,0:0:0:0:
293,209,29797,1,2,0:0:0:0:
266,42,30047,2,1,B|279:17|301:5|350:2|380:59|344:111|312:110|308:108|303:103|277:116|278:138,1,215.999993408203,2|0,0:0|0:0,0:0:0:0:
293,209,30797,1,0,0:0:0:0:
209,111,31047,22,0,P|176:122|138:141,1,72,2|0,0:0|0:0,0:0:0:0:
96,198,31547,2,0,P|63:187|25:168,1,72,2|0,0:0|0:0,0:0:0:0:
167,270,32047,2,0,P|177:234|193:196,1,72,2|0,0:0|0:0,0:0:0:0:
96,300,32547,2,0,P|109:333|119:368,1,72,2|0,0:0|0:0,0:0:0:0:
256,316,33047,6,0,B|245:316|245:316|241:306|241:306|229:305|229:305|221:320|221:320|210:311|210:311|198:320|198:320|183:319|183:319|181:328|181:328|174:328|174:328|162:338|162:338|156:324|156:324|158:308|158:308|143:317|143:317|140:301|140:301|145:287|145:287|138:281|138:281|147:275|147:275|137:267|137:267|135:249|135:249|125:253|125:253|118:268|118:268|101:266|101:266|99:275|99:275|94:283|94:283|84:286|84:286|70:280|70:280|75:274|75:274|62:270|62:270|55:277|55:277|41:276|41:276|28:270|28:270|16:268|16:268|5:276,1,431.999986816407,2|0,1:2|0:0,0:0:0:0:
169,175,33797,1,2,1:2:0:0:
34,360,34047,1,10,0:2:0:0:
25,350,34547,6,0,P|14:329|2:314,1,36,8|0,0:1|0:0,0:0:0:0:
99,260,34797,2,0,P|88:274|80:290,1,36,2|0,0:0|0:0,0:0:0:0:
113,377,35047,2,0,P|166:363|225:353,2,108,2|2|2,1:2|0:2|0:2,0:0:0:0:
280,304,36047,2,0,P|333:318|392:328,2,108,10|2|2,0:2|0:2|0:2,0:0:0:0:
352,233,37047,6,0,B|364:230|364:230|382:235|382:235|387:227|387:227|399:216|399:216|408:212|408:212|403:203|403:203|419:200|419:200|416:188|416:188|423:176|423:176|432:182|432:182|443:176|443:176|453:165|453:165|456:174|456:174|449:183|449:183|456:195|456:195|443:206|443:206|435:219|435:219|441:222|441:222|435:232|435:232|441:240|441:240|447:244|447:244|443:251|443:251|449:257|449:257|440:267|440:267|448:266|448:266|458:272|458:272|449:275|449:275|450:284|450:284|459:291|459:291|469:292|469:292|467:302|467:302|474:304|474:304|476:312|476:312|486:303|486:303|487:290|487:290|499:296|499:296|505:291|505:291|515:296|515:296|525:292,1,431.999986816407,2|0,1:2|0:0,0:0:0:0:
378,308,37797,1,2,1:2:0:0:
512,117,38047,1,10,0:2:0:0:
506,107,38547,6,0,P|493:89|477:77,1,36,8|0,0:1|0:0,0:0:0:0:
443,17,38797,2,0,P|420:19|402:27,1,36,2|0,0:2|0:0,0:0:0:0:
355,80,39047,2,0,P|377:129|394:182,2,108,2|2|2,1:2|0:2|0:2,0:0:0:0:
347,240,40047,1,10,0:2:0:0:
344,250,40547,1,8,0:1:0:0:
341,260,40797,1,0,1:0:0:0:
264,228,40922,1,0,1:0:0:0:
214,295,41047,6,0,B|199:309|199:309|189:304|189:304|182:310|182:310|178:318|178:318|171:321|171:321|165:313|165:313|154:311|154:311|145:318|145:318|136:314|136:314|134:306|134:306|123:309|123:309|122:297|122:297|114:295|114:295|120:283|120:283|116:276|116:276|102:270|102:270|98:260|98:260|110:257|110:257|116:250|116:250|111:237|111:237|117:231|117:231|116:219|116:219|116:210|116:210|123:204|123:204|132:210|132:210|138:207|138:207|136:199|136:199|147:204|147:204|152:197|152:197|147:188|147:188|150:180|150:180|163:175|163:175|167:168|167:168|158:159|158:159|164:152|164:152|165:144|165:144|155:143|155:143|156:131|156:131|150:124|150:124|143:130|143:130|138:128|138:128|131:120|131:120|128:113|128:113|113:113,1,431.999986816407,2|0,1:2|0:0,0:0:0:0:
65,155,41797,1,2,1:2:0:0:
9,32,42047,1,8,0:2:0:0:
13,26,42547,6,0,P|29:48|35:66,1,36,8|0,0:1|0:0,0:0:0:0:
90,107,42797,2,0,P|106:85|112:67,1,36,2|0,0:2|0:0,0:0:0:0:
42,168,43047,2,0,P|61:213|82:276,2,108,2|2|2,1:2|0:2|0:2,0:0:0:0:
130,366,44047,2,0,P|147:314|167:264,2,108,10|2|2,0:2|0:2|0:2,0:0:0:0:
236,211,45047,6,0,B|241:201|241:201|253:204|253:204|258:199|258:199|263:187|263:187|272:193|272:193|281:184|281:184|287:186|287:186|297:196|297:196|307:188|307:188|312:191|312:191|314:200|314:200|323:201|323:201|333:197|333:197|339:201|339:201|336:213|336:213|342:220|342:220|354:220|354:220|354:228|354:228|361:236|361:236|350:245|350:245|353:252|353:252|363:257|363:257|357:265|357:265|359:271|359:271|367:277|367:277|370:287|370:287|380:289|380:289|382:294|382:294|384:305|384:305|389:311|389:311|400:305|400:305|402:312|402:312|408:320|408:320|416:318|416:318|427:319|427:319|431:328|431:328|444:325|444:325|446:318|446:318|457:320|457:320|460:325|460:325|469:324|469:324|470:313|470:313|480:314|480:314|489:303,1,431.999986816407,2|0,1:2|0:0,0:0:0:0:
341,370,45797,1,2,1:2:0:0:
402,161,46047,1,10,0:2:0:0:
396,154,46547,6,0,P|407:130|417:124,1,36,8|0,0:1|0:0,0:0:0:0:
464,67,46797,2,0,P|490:64|500:70,1,36,2|0,0:2|0:0,0:0:0:0:
389,55,47047,2,0,B|364:58|335:41|339:37|343:32|318:16|286:21,2,108,2|2|2,1:2|0:2|0:2,0:0:0:0:
243,152,48047,1,10,0:2:0:0:
234,155,48547,1,8,0:1:0:0:
225,158,48797,2,0,P|201:151|178:146,1,36,2|0,0:0|0:0,0:0:0:0:
93,54,49047,6,0,B|101:57|101:57|103:66|103:66|109:68|109:68|108:78|108:78|118:80|118:80|121:85|121:85|117:96|117:96|126:97|126:97|129:103|129:103|123:114|123:114|135:121|135:121|130:133|130:133|132:140|132:140|142:145|142:145|144:155|144:155|141:160|141:160|149:168|149:168|147:178|147:178|141:177|141:177|141:183|141:183|147:192|147:192|141:200|141:200|148:204|148:204|153:211|153:211|149:221|149:221|141:218|141:218|146:226|146:226|152:232|152:232|148:245|148:245|141:238|141:238|141:233|141:233|134:223|134:223|129:231|129:231|124:227|124:227|123:209|123:209|114:205|114:205|108:214|108:214|100:212|100:212|93:202|93:202|85:199|85:199|80:205|80:205|73:199|73:199|64:206|64:206|58:205|58:205|55:198|55:198|47:203|47:203|39:204,1,431.999986816407,2|0,1:2|0:0,0:0:0:0:
173,315,49797,1,2,1:2:0:0:
44,120,50047,1,10,0:2:0:0:
36,115,50547,6,0,P|27:95|17:76,1,36,8|0,0:1|0:0,0:0:0:0:
108,21,50797,2,0,P|99:37|92:53,1,36,2|0,0:2|0:0,0:0:0:0:
122,164,51047,2,0,B|153:169|179:155|174:150|170:145|196:130|221:132,2,108,2|2|2,1:2|0:2|0:2,0:0:0:0:
278,81,52047,2,0,B|309:76|335:90|330:95|326:100|352:115|377:113,2,108,10|2|2,0:2|0:2|0:2,0:0:0:0:
441,37,53047,6,0,B|456:40|456:40|456:51|456:51|461:59|461:59|474:58|474:58|475:66|475:66|468:74|468:74|481:77|481:77|486:86|486:86|477:92|477:92|480:97|480:97|487:103|487:103|483:111|483:111|492:119|492:119|490:126|490:126|480:129|480:129|480:135|480:135|487:141|487:141|479:148|479:148|480:162|480:162|474:163|474:163|474:173|474:173|468:180|468:180|459:181|459:181|454:191|454:191|453:201|453:201|448:207|448:207|437:200|437:200|429:199|429:199|426:215|426:215|420:213|420:213|411:209|411:209|408:220|408:220|402:222|402:222|392:216|392:216|385:214|385:214|383:223|383:223|374:219|374:219|371:211|371:211|365:222|365:222|358:216|358:216|350:216|350:216|342:209|342:209|346:201|346:201|342:196|342:196|334:200|334:200|320:192,1,431.999986816407,2|0,1:2|0:0,0:0:0:0:
487,278,53797,1,2,1:2:0:0:
288,141,54047,1,10,0:2:0:0:
280,146,54547,6,0,P|265:165|261:186,1,36,8|0,0:1|0:0,0:0:0:0:
189,198,54797,2,0,P|197:220|214:234,1,36,2|0,0:2|0:0,0:0:0:0:
260,354,55047,2,0,P|271:302|292:248,2,108,2|2|2,1:2|0:2|0:2,0:0:0:0:
388,266,56047,1,10,0:2:0:0:
397,261,56547,1,8,0:1:0:0:
406,256,56797,1,0,1:0:0:0:
445,182,56922,1,0,1:0:0:0:
383,125,57047,6,0,B|366:123|366:123|360:129|360:129|352:134|352:134|344:126|344:126|341:135|341:135|330:133|330:133|315:135|315:135|311:147|311:147|302:149|302:149|289:142|289:142|283:147|283:147|280:160|280:160|265:160|265:160|254:166|254:166|248:158|248:158|240:169|240:169|236:176|236:176|225:174|225:174|218:183|218:183|214:192|214:192|208:178|208:178|218:170|218:170|223:156|223:156|214:150|214:150|220:137|220:137|221:128|221:128|214:126|214:126|228:117|228:117|220:111|220:111|221:104|221:104|231:98|231:98|229:92|229:92|239:84|239:84|235:73|235:73|234:67|234:67|241:62|241:62|243:53|243:53|235:41|235:41|232:45,1,431.999986816407,2|0,1:2|0:0,0:0:0:0:
172,254,57797,1,2,1:2:0:0:
318,54,58047,1,10,0:2:0:0:
325,48,58547,6,0,P|338:63|345:79,1,36,8|0,0:1|0:0,0:0:0:0:
399,129,58797,2,0,P|412:114|419:98,1,36,2|0,0:2|0:0,0:0:0:0:
250,153,59047,2,0,B|279:151|305:165|301:168|296:172|317:188|356:189,2,108,2|2|2,1:2|0:2|0:2,0:0:0:0:
452,231,60047,2,0,B|423:229|397:243|401:246|406:250|385:266|346:267,2,108,10|2|2,0:2|0:2|0:2,0:0:0:0:
329,343,61047,6,0,B|315:334|315:334|304:340|304:340|298:337|298:337|296:326|296:326|288:331|288:331|283:321|283:321|277:316|277:316|269:322|269:322|267:312|267:312|277:304|277:304|269:295|269:295|275:290|275:290|277:281|277:281|271:273|271:273|271:265|271:265|265:257|265:257|255:258|255:258|251:250|251:250|243:250|243:250|239:240|239:240|222:240|222:240|221:248|221:248|211:256|211:256|221:263|221:263|218:271|218:271|209:276|209:276|204:282|204:282|208:290|208:290|199:292|199:292|203:303|203:303|199:315|199:315|188:317|188:317|192:328|192:328|176:322|176:322|172:312|172:312|163:313|163:313|157:321|157:321|145:307|145:307|132:317|132:317|116:308,1,431.999986816407,2|0,1:2|0:0,0:0:0:0:
73,365,61797,1,0,1:0:0:0:
174,180,62047,1,10,0:2:0:0:
166,171,62547,38,0,B|132:170|110:188|114:190|118:193|97:211|65:209,1,108,8|0,0:1|0:0,0:0:0:0:
55,203,63047,22,0,P|47:184|38:163,1,36,2|0,1:2|0:0,0:0:0:0:
148,44,63547,2,0,P|140:60|133:77,1,36,8|0,0:1|0:0,0:0:0:0:
250,163,64047,6,0,P|242:144|233:123,3,36,8|0|0|0,0:1|0:0|0:0|0:0,0:0:0:0:
328,78,64297,2,0,P|320:94|313:111,3,36,8|0|0|0,0:1|0:0|0:0|0:0,0:0:0:0:
353,226,64547,2,0,L|397:217,1,36,8|0,0:1|0:0,0:0:0:0:
454,185,64672,2,0,L|498:176,1,36,8|0,0:1|0:0,0:0:0:0:
397,137,64797,1,8,0:1:0:0:
409,180,64859,1,8,0:1:0:0:
422,223,64922,1,8,0:1:0:0:
435,266,64984,1,8,0:1:0:0:
448,309,65047,6,0,B|462:312|462:312|465:288|465:288|401:311|401:311|384:353|384:353|347:372,1,175.499991966248,4|0,1:0|0:0,0:0:0:0:
343,371,65297,1,0,3:0:0:0:
165,172,65422,2,0,P|200:257|239:371,1,198.000006042481,0|0,1:0|0:0,0:0:0:0:
127,317,65797,1,0,1:0:0:0:
260,173,65922,37,0,1:0:0:0:
268,176,65984,1,0,1:0:0:0:
276,179,66047,2,0,P|305:167|316:134,1,67.5000025749208,12|0,0:2|0:0,0:0:0:0:
389,117,66172,2,0,P|393:85|370:59,1,67.5000025749208,0|0,3:0|0:0,0:0:0:0:
220,76,66297,5,8,0:2:0:0:
214,74,66359,1,0,3:0:0:0:
209,72,66422,2,0,P|188:62|167:68,1,45,0|0,3:0|0:0,0:0:0:0:
127,8,66547,37,8,0:1:0:0:
123,10,66609,1,0,3:0:0:0:
118,12,66672,2,0,P|105:22|101:38,1,33.7500012874604,8|0,0:2|0:0,0:0:0:0:
28,50,66797,5,8,0:1:0:0:
27,54,66859,1,8,0:1:0:0:
28,59,66922,2,0,P|29:70|36:77,1,22.5,8|8,0:1|0:1,0:0:0:0:
72,254,67047,38,0,B|52:215|87:185|94:192|102:198|139:172|118:120,1,148.50000453186,4|0,1:0|0:0,0:0:0:0:
112,115,67297,1,0,3:0:0:0:
185,342,67422,2,0,B|106:323|106:323|85:345|85:345|-5:329,1,198.000006042481,0|0,1:0|0:0,0:0:0:0:
192,205,67797,1,0,1:0:0:0:
298,376,67922,5,0,3:0:0:0:
287,371,67984,1,0,3:0:0:0:
277,368,68047,2,0,P|267:325|291:299,1,67.5000025749208,12|0,0:2|0:0,0:0:0:0:
353,314,68172,2,0,P|385:284|419:292,1,67.5000025749208,0|0,3:0|0:0,0:0:0:0:
497,358,68297,37,8,0:2:0:0:
493,362,68359,1,0,3:0:0:0:
489,366,68422,2,0,L|476:315,1,45,0|0,1:0|0:0,0:0:0:0:
439,218,68547,5,8,0:1:0:0:
460,224,68609,1,0,3:0:0:0:
481,219,68672,1,8,0:1:0:0:
498,204,68734,1,8,0:1:0:0:
505,183,68797,2,0,P|494:153|488:139,1,45,8|0,0:1|0:0,0:0:0:0:
437,55,68922,2,0,P|428:75|420:96,1,45,8|0,0:2|0:0,0:0:0:0:
346,184,69047,38,0,B|313:190|272:164|278:160|286:157|240:129|207:138,1,148.50000453186,4|0,1:0|0:0,0:0:0:0:
192,146,69297,1,0,1:0:0:0:
362,23,69422,2,0,P|320:142|294:235,1,198.000006042481,0|0,1:0|0:0,0:0:0:0:
248,28,69797,1,0,1:0:0:0:
418,135,69922,1,0,3:0:0:0:
267,277,70047,6,0,P|233:250|230:213,1,67.5000025749208,12|0,0:2|0:0,0:0:0:0:
175,170,70172,2,0,P|153:195|151:229,1,67.5000025749208,0|0,3:0|0:0,0:0:0:0:
102,349,70297,37,8,0:1:0:0:
98,353,70359,1,0,3:0:0:0:
94,357,70422,2,0,P|117:348|140:342,1,45,8|0,0:2|0:0,0:0:0:0:
24,309,70547,6,0,P|20:333|13:356,1,45,8|0,0:1|0:0,0:0:0:0:
90,271,70672,37,8,0:2:0:0:
95,272,70734,1,8,0:1:0:0:
100,273,70797,2,0,P|80:257|64:240,1,45,8|0,0:1|0:0,0:0:0:0:
203,311,70922,6,0,P|226:320|249:326,1,45,8|8,0:1|0:1,0:0:0:0:
422,263,71047,38,0,P|349:283|344:369,1,148.50000453186,4|0,1:0|0:0,0:0:0:0:
341,365,71297,1,0,1:0:0:0:
504,203,71422,2,0,P|400:175|301:133,1,198.000006042481,0|0,1:0|0:0,0:0:0:0:
195,26,71797,1,0,1:0:0:0:
298,215,71922,1,0,0:0:0:0:
435,112,72047,6,0,P|460:91|466:58,1,67.5000025749208,12|0,0:2|0:0,0:0:0:0:
360,0,72172,2,0,P|385:21|390:53,1,67.5000025749208,0|0,3:0|0:0,0:0:0:0:
308,132,72297,37,8,0:2:0:0:
312,136,72359,1,8,0:2:0:0:
316,140,72422,2,0,L|262:128,1,45,0|0,1:0|0:0,0:0:0:0:
52,77,72547,5,8,0:2:0:0:
87,49,72609,1,8,0:2:0:0:
127,55,72672,1,8,0:2:0:0:
147,78,72734,1,8,0:2:0:0:
152,104,72797,1,8,0:1:0:0:
144,125,72859,1,8,0:1:0:0:
131,138,72922,1,8,0:3:0:0:
117,138,72984,1,8,0:3:0:0:
109,133,73047,38,0,L|74:294,1,148.50000453186,4|0,1:0|0:0,0:0:0:0:
74,297,73297,1,0,1:0:0:0:
0,130,73422,1,8,0:0:0:0:
177,343,73547,2,0,P|122:361|81:391,1,99.0000030212403,0|0,1:0|0:0,0:0:0:0:
315,204,73797,2,0,B|360:210|360:210|363:217|363:217|408:224,1,99.0000030212403,0|0,1:0|3:0,0:0:0:0:
477,293,73984,1,0,3:0:0:0:
476,313,74047,6,0,P|452:354|405:356,1,99.0000030212403,0|0,1:0|0:0,0:0:0:0:
198,165,74297,1,2,1:2:0:0:
285,277,74422,1,0,3:0:0:0:
473,78,74547,2,0,B|428:85|428:85|425:92|425:92|379:98,1,99.0000030212403,2|0,1:2|0:0,0:0:0:0:
250,27,74797,38,0,P|264:49|276:74,1,49.5000015106202,2|0,1:2|0:0,0:0:0:0:
443,207,74922,2,0,P|453:184|467:164,1,49.5000015106202,8|0,0:0|0:0,0:0:0:0:
190,176,75047,6,0,P|198:245|266:262,1,148.50000453186,2|0,1:2|0:0,0:0:0:0:
285,255,75297,1,0,1:0:0:0:
368,96,75422,1,0,3:0:0:0:
129,289,75547,2,0,P|160:340|177:382,1,99.0000030212403,0|0,1:0|0:0,0:0:0:0:
0,197,75797,2,0,L|108:167,1,99.0000030212403,0|0,1:0|3:0,0:0:0:0:
170,71,75984,1,0,3:0:0:0:
182,55,76047,38,0,P|152:3|99:11,1,99.0000030212403,2|0,1:2|0:0,0:0:0:0:
56,40,76234,1,0,3:0:0:0:
36,33,76297,1,0,1:0:0:0:
166,224,76422,1,0,3:0:0:0:
340,88,76547,2,0,B|393:73|434:116|428:121|421:128|455:168|513:158,1,198.000006042481,0|0,1:0|1:0,0:0:0:0:
278,251,76922,1,8,0:0:0:0:
508,304,77047,6,0,B|467:292|436:324|441:328|446:333|421:363|378:356,1,148.50000453186,2|0,1:2|0:0,0:0:0:0:
361,351,77297,1,0,1:0:0:0:
154,240,77422,1,2,3:2:0:0:
94,321,77547,2,0,P|76:274|51:231,1,99.0000030212403,0|0,1:0|0:0,0:0:0:0:
340,88,77797,2,0,P|316:129|296:181,1,99.0000030212403,0|0,1:0|3:0,0:0:0:0:
351,233,77984,1,0,3:0:0:0:
367,227,78047,37,0,1:0:0:0:
171,220,78172,1,0,3:0:0:0:
424,85,78297,1,0,1:0:0:0:
256,350,78422,1,0,3:0:0:0:
249,343,78484,1,0,3:0:0:0:
242,336,78547,2,0,L|257:287,2,49.5000015106202,0|0|0,1:0|0:0|3:0,0:0:0:0:
332,150,78797,1,0,1:0:0:0:
122,81,78922,5,8,0:0:0:0:
94,72,78984,1,0,3:0:0:0:
66,63,79047,1,2,1:2:0:0:
211,188,79172,1,0,1:0:0:0:
156,10,79297,37,0,1:0:0:0:
47,208,79422,1,2,1:2:0:0:
310,279,79547,5,0,1:0:0:0:
190,111,79672,1,0,1:0:0:0:
255,337,79797,37,0,1:0:0:0:
435,225,79922,1,0,1:0:0:0:
246,34,80047,5,2,1:2:0:0:
231,30,80109,1,0,1:0:0:0:
216,26,80172,1,0,1:0:0:0:
201,22,80234,1,0,1:0:0:0:
186,18,80297,1,0,1:0:0:0:
171,14,80360,1,0,1:0:0:0:
156,10,80422,2,0,P|144:35|136:65,1,49.5000015106202,2|0,1:2|1:0,0:0:0:0:
84,146,80547,37,0,1:0:0:0:
88,142,80609,1,0,1:0:0:0:
92,138,80672,2,0,P|88:126|82:115,4,24.7500007553101,2|2|2|2|2,0:3|0:3|0:3|0:3|1:2,0:0:0:0:
260,218,80922,1,0,0:0:0:0:
97,368,81047,21,4,1:0:0:0:
189,176,81172,1,2,3:2:0:0:
331,260,81297,5,2,3:2:0:0:
365,339,81422,1,0,1:0:0:0:
260,135,81547,37,10,0:2:0:0:
189,259,81672,1,2,3:2:0:0:
331,177,81797,5,0,3:0:0:0:
131,74,81922,1,2,1:2:0:0:
351,358,82047,38,0,P|411:327|476:305,1,125.999996154785,2|0,1:2|0:0,0:0:0:0:
103,260,82297,2,0,P|99:327|86:394,1,125.999996154785,10|0,1:2|0:0,0:0:0:0:
311,94,82547,2,0,P|254:57|202:12,1,125.999996154785,10|0,1:2|0:0,0:0:0:0:
322,198,82797,5,4,1:0:0:0:
512,101,82922,1,2,3:2:0:0:
203,9,83047,37,2,3:2:0:0:
238,109,83172,1,0,1:0:0:0:
469,250,83297,5,10,0:2:0:0:
323,121,83422,1,0,3:0:0:0:
139,182,83547,1,2,1:2:0:0:
284,311,83672,2,0,P|312:252|345:190,1,125.999996154785,2|0,1:2|1:0,0:0:0:0:
203,9,83922,1,2,3:2:0:0:
211,211,84047,37,10,1:2:0:0:
264,133,84172,1,10,0:2:0:0:
124,38,84297,1,10,1:2:0:0:
71,116,84422,1,10,0:2:0:0:
252,280,84547,5,4,1:0:0:0:
18,194,84672,1,2,3:2:0:0:
99,361,84797,37,2,3:2:0:0:
186,332,84922,1,0,1:0:0:0:
379,170,85047,5,10,0:2:0:0:
254,120,85172,1,2,3:2:0:0:
322,282,85297,37,0,1:0:0:0:
489,164,85422,1,2,3:2:0:0:
215,7,85547,6,0,P|165:56|142:112,1,125.999996154785,2|0,1:2|0:0,0:0:0:0:
430,283,85797,2,0,P|412:215|375:167,1,125.999996154785,10|0,1:2|0:0,0:0:0:0:
83,331,86047,2,0,P|150:349|210:341,1,125.999996154785,10|0,1:2|0:0,0:0:0:0:
360,70,86297,37,4,1:0:0:0:
276,216,86422,1,2,3:2:0:0:
488,370,86547,5,2,3:2:0:0:
430,283,86672,1,0,1:0:0:0:
211,158,86797,37,10,0:2:0:0:
387,201,86922,1,0,3:0:0:0:
260,332,87047,1,2,1:2:0:0:
83,289,87172,2,0,P|144:266|202:228,1,125.999996154785,2|0,3:2|1:0,0:0:0:0:
430,283,87422,1,2,3:2:0:0:
399,92,87547,5,2,1:2:0:0:
353,81,87609,1,2,3:2:0:0:
311,100,87672,1,2,3:2:0:0:
288,141,87734,1,2,3:2:0:0:
294,187,87797,1,2,1:2:0:0:
418,360,87922,1,2,3:2:0:0:
512,105,88047,1,10,3:1:0:0:
507,99,88297,37,4,1:1:0:0:
327,258,88422,1,0,1:0:0:0:
512,320,88547,5,10,0:2:0:0:
370,162,88672,1,2,3:2:0:0:
249,364,88797,37,0,1:0:0:0:
355,328,88922,1,2,1:2:0:0:
124,42,89047,6,0,P|67:58|24:110,1,125.999996154785,10|0,0:2|1:0,0:0:0:0:
327,258,89297,2,0,P|340:200|315:137,1,125.999996154785,10|0,1:2|0:0,0:0:0:0:
37,325,89547,2,0,P|79:365|145:375,1,125.999996154785,10|0,1:2|0:0,0:0:0:0:
275,90,89797,37,4,1:0:0:0:
70,245,89922,1,2,3:2:0:0:
292,283,90047,5,2,3:2:0:0:
232,173,90172,1,0,1:0:0:0:
473,300,90297,37,10,0:2:0:0:
302,360,90422,1,0,1:0:0:0:
163,243,90547,1,2,3:2:0:0:
334,182,90672,2,0,P|363:262|378:315,1,125.999996154785,4|8,1:2|0:2,0:0:0:0:
449,57,90922,1,2,1:2:0:0:
232,173,91047,5,6,1:2:0:0:
193,84,91172,1,2,3:2:0:0:
339,0,91297,1,2,1:2:0:0:
378,89,91422,1,2,3:2:0:0:
189,251,91547,37,4,1:0:0:0:
341,167,91672,1,2,3:2:0:0:
461,293,91797,1,2,3:2:0:0:
378,89,91922,5,4,1:0:0:0:
270,275,92047,1,2,3:2:0:0:
63,220,92172,1,2,3:2:0:0:
352,247,92297,37,4,1:0:0:0:
317,36,92422,1,2,3:2:0:0:
198,195,92547,1,2,3:2:0:0:
49,108,92672,5,4,1:0:0:0:
126,339,92797,1,2,3:2:0:0:
264,148,92922,1,2,3:2:0:0:
386,237,93047,37,4,1:0:0:0:
256,288,93172,1,2,1:2:0:0:
126,339,93297,1,10,0:2:0:0:
63,222,93422,5,4,1:0:0:0:
449,354,93547,1,2,1:2:0:0:
440,362,93609,1,2,3:2:0:0:
431,370,93672,1,10,0:2:0:0:
256,288,93797,2,0,P|271:222|290:153,1,125.999996154785,4|8,1:0|0:2,0:0:0:0:
459,20,94047,37,10,0:2:0:0:
78,106,94172,1,10,0:2:0:0:
459,20,94297,5,10,0:2:0:0:
78,106,94422,1,10,0:2:0:0:
300,109,94547,38,2,P|313:77|341:46,1,67.5,0|0,0:0|0:0,0:0:0:0:
236,30,94797,6,2,P|274:132|287:169,1,144,0|0,1:0|0:0,0:2:0:0:
157,298,95047,6,0,B|179:263|179:263|243:249|243:249|268:308|324:294,1,198.000006042481,4|0,1:0|0:0,0:0:0:0:
347,379,95422,1,2,1:2:0:0:
84,240,95547,2,0,P|33:224|-30:203,1,99.0000030212403,10|0,0:2|0:0,0:0:0:0:
274,143,95797,2,0,P|325:127|388:106,1,99.0000030212403,2|0,1:2|0:0,0:0:0:0:
156,101,96047,21,2,1:2:0:0:
209,215,96172,1,2,0:2:0:0:
130,84,96297,21,2,1:2:0:0:
84,240,96422,1,2,0:2:0:0:
19,43,96547,21,10,0:2:0:0:
76,255,96672,1,2,0:2:0:0:
265,13,96797,21,2,1:2:0:0:
208,231,96922,1,2,0:2:0:0:
8,25,97047,22,0,B|75:52|75:52|90:109|90:109|187:134,1,198.000006042481,2|0,1:2|0:0,0:0:0:0:
390,195,97422,1,2,1:2:0:0:
400,49,97547,2,0,P|344:57|326:120,1,99.0000030212403,10|0,0:2|0:0,0:0:0:0:
474,262,97797,2,0,P|489:207|516:141,1,99.0000030212403,2|2,1:2|0:2,0:0:0:0:
227,323,98047,21,2,1:2:0:0:
294,230,98172,1,2,0:2:0:0:
234,349,98297,21,2,1:2:0:0:
170,203,98422,1,2,0:2:0:0:
369,296,98547,21,10,0:2:0:0:
235,111,98672,1,2,0:2:0:0:
117,313,98797,21,2,1:2:0:0:
250,90,98922,1,2,0:2:0:0:
322,364,99047,22,0,P|387:334|520:299,1,198.000006042481,4|0,1:0|0:0,0:0:0:0:
117,313,99422,1,2,1:2:0:0:
239,247,99547,2,0,P|191:244|170:194,1,99.0000030212403,10|0,0:2|0:0,0:0:0:0:
43,94,99797,2,0,P|61:27|78:-12,1,99.0000030212403,2|0,1:2|0:0,0:0:0:0:
402,87,100047,21,2,1:2:0:0:
295,134,100172,1,2,0:2:0:0:
441,179,100297,21,2,1:2:0:0:
279,117,100422,1,2,0:2:0:0:
466,192,100547,21,10,0:2:0:0:
239,247,100672,1,2,0:2:0:0:
479,330,100797,21,2,1:2:0:0:
219,266,100922,1,2,0:2:0:0:
402,87,101047,22,0,B|425:146|425:146|393:196|393:196|424:303,1,198.000006042481,2|0,1:2|0:0,0:0:0:0:
196,168,101422,1,2,1:2:0:0:
126,299,101547,2,0,P|177:277|237:263,1,99.0000030212403,10|0,0:2|0:0,0:0:0:0:
11,89,101797,2,0,P|62:111|122:125,1,99.0000030212403,2|2,1:2|0:2,0:0:0:0:
454,256,102047,22,0,B|451:244|451:244|440:243|440:243|441:237|441:237|435:231|435:231|426:238|426:238|419:225|419:225|406:232|406:232|398:223|398:223|387:222|387:222|381:232|381:232|371:226|371:226|364:228|364:228|361:235|361:235|357:244|357:244|349:234|349:234|339:242|339:242|345:251|345:251|331:253|331:253|333:263|333:263|322:266|322:266|326:277|326:277|314:280|314:280|315:288|315:288|325:295|325:295|325:301|325:301|310:310|310:310|314:320|314:320|326:323|326:323|320:332|320:332|318:340|318:340|325:343|325:343|334:350|334:350|332:358|332:358|344:360|344:360,1,364.500001390457,2|0,1:2|0:0,0:0:0:0:
340,372,102297,22,0,B|320:365|320:365|321:355|321:355|309:349|309:349|306:340|306:340|313:329|313:329|305:323|305:323|299:314|299:314|300:301|300:301|307:296|307:296|300:286|300:286|302:275|302:275|312:272|312:272|310:259|310:259|314:249|314:249|332:256|332:256|334:244|334:244|329:237|329:237|335:225|335:225|345:225|345:225|354:229|354:229|355:216|355:216|362:210|362:210|372:219|372:219|382:214|382:214|387:205|387:205|395:206|395:206|398:218|398:218|410:206|410:206|420:217|420:217|431:208|431:208|440:213|440:213|440:228|440:228|453:227|453:227|463:231|463:231|460:243|460:243|458:249|458:249|472:249|472:249|480:265,1,445.500004248619,2|0,1:2|0:0,0:0:0:0:
196,168,102547,21,10,0:2:0:0:
201,162,102609,1,2,0:2:0:0:
197,153,102672,1,2,0:2:0:0:
203,146,102734,1,2,0:2:0:0:
201,137,102797,1,2,1:2:0:0:
287,229,102922,1,0,0:0:0:0:
122,55,103047,22,0,P|66:73|-6:93,1,116.999994644165,4|0,1:0|0:0,0:0:0:0:
86,183,103297,1,2,0:2:0:0:
208,0,103422,2,0,P|264:18|336:38,1,116.999994644165,2|10,1:2|0:2,0:0:0:0:
275,241,103672,1,0,3:0:0:0:
401,91,103797,2,0,P|457:75|512:57,1,116.999994644165,2|0,1:2|0:0,0:0:0:0:
275,241,104047,21,2,1:2:0:0:
325,122,104172,1,2,0:2:0:0:
393,291,104297,1,2,1:2:0:0:
443,172,104422,1,2,0:2:0:0:
227,334,104547,21,10,0:2:0:0:
177,215,104672,1,2,0:2:0:0:
109,384,104797,1,2,1:2:0:0:
59,265,104922,1,2,0:2:0:0:
325,384,105047,22,0,P|337:321|355:254,1,116.999994644165,2|0,1:2|0:0,0:0:0:0:
169,89,105297,1,2,0:2:0:0:
177,215,105422,2,0,P|165:152|147:85,1,116.999994644165,2|10,1:2|0:2,0:0:0:0:
358,267,105672,1,0,3:0:0:0:
329,0,105797,2,0,P|314:56|303:114,1,116.999994644165,2|2,1:2|0:2,0:0:0:0:
71,297,106047,21,2,1:2:0:0:
177,215,106172,1,2,0:2:0:0:
358,267,106297,1,2,1:2:0:0:
464,185,106422,1,2,0:2:0:0:
299,384,106547,21,10,0:2:0:0:
346,258,106672,1,2,0:2:0:0:
170,197,106797,1,2,1:2:0:0:
217,71,106922,1,2,0:2:0:0:
19,245,107047,22,0,P|72:261|147:297,1,116.999994644165,4|0,1:0|0:0,0:0:0:0:
211,59,107297,1,2,0:2:0:0:
455,216,107422,2,0,P|402:232|327:268,1,116.999994644165,2|10,1:2|0:2,0:0:0:0:
180,363,107672,1,0,3:0:0:0:
101,17,107797,2,0,P|154:33|229:69,1,116.999994644165,2|0,1:2|0:0,0:0:0:0:
415,338,108047,21,4,1:0:0:0:
292,299,108172,1,2,0:2:0:0:
455,216,108297,1,2,1:2:0:0:
333,175,108422,1,2,0:2:0:0:
101,264,108547,21,10,0:2:0:0:
224,225,108672,1,2,0:2:0:0:
61,142,108797,1,2,1:2:0:0:
183,101,108922,1,2,0:2:0:0:
422,330,109047,22,0,P|435:265|453:200,1,116.999994644165,4|0,1:0|0:0,0:0:0:0:
346,75,109297,1,2,0:2:0:0:
450,201,109422,1,2,1:2:0:0:
221,17,109547,21,10,0:2:0:0:
125,268,109672,1,0,0:0:0:0:
366,160,109797,1,2,1:2:0:0:
50,38,109922,22,0,B|37:29|30:0|30:0|-36:27|-38:100|20:133,1,188.999994232178,2|0,1:2|0:0,0:0:0:0:
19,144,110172,1,2,0:2:0:0:
214,242,110297,1,2,0:2:0:0:
318,68,110422,1,2,1:2:0:0:
67,249,110547,21,10,0:2:0:0:
97,244,110609,1,2,0:2:0:0:
121,225,110672,1,2,1:2:0:0:
131,195,110734,1,2,1:2:0:0:
124,165,110797,1,10,0:2:0:0:
362,281,110922,1,0,1:0:0:0:
244,373,111047,22,0,P|232:302|211:234,1,135.000005149842,4|0,1:0|0:0,0:0:0:0:
422,165,111297,1,2,1:2:0:0:
362,281,111422,1,2,0:2:0:0:
191,119,111547,21,8,1:2:0:0:
332,8,111672,1,2,0:2:0:0:
512,254,111797,2,0,P|492:318|481:385,1,135.000005149842,2|2,1:2|0:2,0:0:0:0:
153,255,112047,22,0,P|192:234|238:227,1,67.5000025749208,2|0,1:2|0:0,0:0:0:0:
185,138,112172,2,0,P|146:159|100:166,1,67.5000025749208,2|0,3:2|0:0,0:0:0:0:
147,270,112297,21,2,1:2:0:0:
191,119,112422,1,2,0:2:0:0:
287,257,112547,21,10,1:2:0:0:
60,145,112672,1,2,0:2:0:0:
123,363,112797,21,2,1:2:0:0:
215,29,112922,1,2,0:2:0:0:
17,308,113047,22,0,P|92:281|167:267,1,135.000005149842,2|0,1:2|0:0,0:0:0:0:
385,172,113297,1,2,1:2:0:0:
267,118,113422,1,2,0:2:0:0:
417,330,113547,21,8,1:2:0:0:
498,79,113672,1,2,0:2:0:0:
232,228,113797,1,2,1:2:0:0:
236,244,113859,1,0,3:0:0:0:
240,260,113922,1,2,3:2:0:0:
244,277,113984,1,0,3:0:0:0:
248,293,114047,22,0,P|255:260|268:221,1,67.5000025749208,2|0,1:2|0:0,0:0:0:0:
165,167,114172,2,0,P|175:199|182:232,1,67.5000025749208,2|0,3:2|0:0,0:0:0:0:
128,311,114297,21,2,1:2:0:0:
303,136,114422,1,2,0:2:0:0:
379,359,114547,22,0,L|293:327,1,67.5000025749208,10|0,1:2|0:0,0:0:0:0:
84,221,114672,2,0,L|-1:190,1,67.5000025749208,2|0,3:2|0:0,0:0:0:0:
0,255,114797,22,0,L|86:223,1,67.5000025749208,2|0,1:2|0:0,0:0:0:0:
300,119,114922,2,0,L|385:88,1,67.5000025749208,2|0,3:2|0:0,0:0:0:0:
103,11,115047,22,0,B|120:39|120:39|186:24|222:72,1,135.000005149842,4|0,1:0|0:0,0:0:0:0:
250,211,115297,1,2,1:2:0:0:
382,88,115422,1,2,0:2:0:0:
489,320,115547,21,8,1:2:0:0:
349,197,115672,1,2,0:2:0:0:
512,0,115797,2,0,P|494:62|476:139,1,135.000005149842,2|2,1:2|0:2,0:0:0:0:
217,328,116047,22,0,P|254:308|296:304,1,67.5000025749208,2|0,1:2|0:0,0:0:0:0:
250,211,116172,2,0,P|213:231|171:235,1,67.5000025749208,2|0,3:2|0:0,0:0:0:0:
211,349,116297,21,2,1:2:0:0:
249,187,116422,1,2,0:2:0:0:
341,369,116547,21,10,1:2:0:0:
144,148,116672,1,2,0:2:0:0:
30,319,116797,21,2,1:2:0:0:
437,209,116922,1,2,0:2:0:0:
152,8,117047,22,0,B|118:49|118:49|139:151,1,135.000005149842,2|0,1:2|0:0,0:0:0:0:
352,269,117297,1,2,1:2:0:0:
250,165,117422,1,2,0:2:0:0:
123,384,117547,21,8,1:2:0:0:
123,384,117609,1,0,3:0:0:0:
123,384,117672,2,0,P|163:362|212:353,1,67.5000025749208,2|0,0:2|0:0,0:0:0:0:
14,144,117797,22,0,P|27:181|56:201,1,67.5000025749208,2|0,1:2|0:0,0:0:0:0:
0,173,117922,22,0,P|29:198|64:201,1,67.5000025749208,2|0,3:2|0:0,0:0:0:0:
269,100,118047,22,0,L|246:177,1,67.5000025749208,2|0,1:2|0:0,0:0:0:0:
343,248,118172,2,0,L|320:325,1,67.5000025749208,2|0,3:2|0:0,0:0:0:0:
261,85,118297,22,0,L|238:162,1,67.5000025749208,2|0,1:2|0:0,0:0:0:0:
353,263,118422,2,0,L|330:340,1,67.5000025749208,2|0,3:2|0:0,0:0:0:0:
445,115,118547,21,10,1:2:0:0:
428,119,118609,1,2,0:2:0:0:
412,124,118672,1,2,0:2:0:0:
396,129,118734,1,2,0:2:0:0:
380,135,118797,1,2,1:2:0:0:
511,245,118922,2,0,L|431:213,1,67.5000025749208,2|0,3:2|0:0,0:0:0:0:
220,322,119047,22,0,B|164:341|164:341|148:365|148:365|84:386,1,135.000005149842,4|0,1:0|0:0,0:0:0:0:
233,193,119297,1,2,1:2:0:0:
353,263,119422,1,2,0:2:0:0:
147,100,119547,21,8,1:2:0:0:
93,230,119672,1,2,0:2:0:0:
23,45,119797,2,0,P|91:25|164:-4,1,135.000005149842,2|2,1:2|0:2,0:0:0:0:
392,152,120047,22,0,P|352:160|312:181,1,67.5000025749208,2|0,1:2|0:0,0:0:0:0:
298,84,120172,2,0,P|338:76|378:55,1,67.5000025749208,2|0,3:2|0:0,0:0:0:0:
404,162,120297,21,2,1:2:0:0:
286,73,120422,1,2,0:2:0:0:
277,232,120547,21,10,1:2:0:0:
432,13,120672,1,2,0:2:0:0:
327,319,120797,21,2,1:2:0:0:
189,55,120922,1,2,0:2:0:0:
56,214,121047,22,0,B|86:205|86:205|148:245|148:245|184:234,1,135.000005149842,2|0,1:2|0:0,0:0:0:0:
404,162,121297,1,2,1:2:0:0:
322,331,121422,1,2,0:2:0:0:
491,230,121547,21,8,1:2:0:0:
351,63,121672,1,2,0:2:0:0:
214,254,121797,1,2,1:2:0:0:
229,248,121859,1,0,3:0:0:0:
245,243,121922,1,2,3:2:0:0:
261,237,121984,1,0,3:0:0:0:
277,232,122047,22,0,P|242:217|213:198,1,67.5000025749208,2|0,1:2|0:0,0:0:0:0:
123,260,122172,2,0,P|88:275|59:294,1,67.5000025749208,2|0,3:2|0:0,0:0:0:0:
130,156,122297,21,2,1:2:0:0:
188,335,122422,1,2,0:2:0:0:
0,181,122547,22,0,L|72:206,1,67.5000025749208,10|0,1:2|0:0,0:0:0:0:
281,359,122672,2,0,L|353:384,1,67.5000025749208,2|0,3:2|0:0,0:0:0:0:
340,209,122797,22,0,L|268:234,1,67.5000025749208,2|0,1:2|0:0,0:0:0:0:
63,325,122922,2,0,L|-9:350,1,67.5000025749208,2|0,3:2|0:0,0:0:0:0:
179,71,123047,22,0,B|202:105|198:149|198:149|156:160|151:218,1,135.000005149842,4|0,1:0|0:0,0:0:0:0:
79,79,123297,1,2,1:2:0:0:
239,0,123422,1,2,0:2:0:0:
409,164,123547,21,8,1:2:0:0:
272,85,123672,1,2,0:2:0:0:
512,0,123797,2,0,P|489:85|478:143,1,135.000005149842,2|2,1:2|0:2,0:0:0:0:
263,252,124047,22,0,P|280:284|288:326,1,67.5000025749208,2|0,1:2|0:0,0:0:0:0:
369,284,124172,2,0,P|352:252|344:210,1,67.5000025749208,2|0,3:2|0:0,0:0:0:0:
245,240,124297,21,2,1:2:0:0:
384,295,124422,1,2,0:2:0:0:
204,352,124547,21,10,1:2:0:0:
409,164,124672,1,2,0:2:0:0:
142,279,124797,21,2,1:2:0:0:
472,384,124922,1,2,0:2:0:0:
230,111,125047,22,0,B|142:85|206:68|111:40,1,135.000005149842,2|0,1:2|0:0,0:0:0:0:
223,0,125297,1,2,1:2:0:0:
131,166,125422,1,2,0:2:0:0:
1,82,125547,21,8,1:2:0:0:
1,82,125609,1,0,3:0:0:0:
1,82,125672,2,0,P|13:115|24:172,1,67.5000025749208,2|0,3:2|0:0,0:0:0:0:
181,284,125797,22,0,P|204:267|211:208,1,67.5000025749208,0|0,1:2|0:0,0:0:0:0:
218,273,125922,22,0,P|229:246|205:192,1,67.5000025749208,2|0,3:2|0:0,0:0:0:0:
271,121,126047,21,2,1:2:0:0:
277,108,126109,1,0,3:2:0:0:
288,99,126172,1,2,1:2:0:0:
304,98,126234,1,0,3:2:0:0:
322,105,126297,21,2,1:2:0:0:
335,117,126359,1,0,3:2:0:0:
349,118,126422,1,2,1:2:0:0:
365,109,126484,1,0,3:2:0:0:
372,96,126547,22,0,P|390:71|377:8,1,67.5000025749208,10|0,1:2|1:0,0:0:0:0:
429,182,126672,2,0,P|457:169|477:108,1,67.5000025749208,2|0,1:2|1:0,0:0:0:0:
134,283,126797,22,0,P|103:279|55:322,1,67.5000025749208,2|0,1:2|1:0,0:0:0:0:
179,190,126922,2,0,P|153:172|90:185,1,67.5000025749208,2|0,1:2|1:0,0:0:0:0:
346,384,127047,22,0,B|359:339|359:339|398:374|398:374|410:340|410:340|437:363|437:363|446:342|446:342|463:353|463:353|477:343|477:343|492:350|492:350|504:343|504:343|516:346,1,270,4|0,1:0|0:0,0:0:0:0:
91,66,143047,38,0,B|76:109|107:133|111:130|115:126|151:155|139:213,2,144,2|2|8,0:2|0:0|0:1,0:0:0:0:
203,255,143797,2,0,P|212:220|234:192,1,72,2|0,0:2|0:0,0:0:0:0:
141,317,144047,1,2,0:2:0:0:
77,250,144172,1,0,0:0:0:0:
159,312,144297,2,0,P|138:353|126:388,1,72
217,263,144547,1,8,0:1:0:0:
271,343,144672,1,0,0:0:0:0:
339,298,144797,1,2,0:2:0:0:
368,326,144922,1,0,0:0:0:0:
443,306,145047,22,0,P|478:314|523:330,2,72,2|0|2,0:2|0:0|0:0,0:0:0:0:
438,298,145547,2,0,P|416:239|502:196,1,144,8|2,0:1|0:2,0:0:0:0:
408,111,145922,1,2,0:2:0:0:
343,158,146047,2,0,P|302:144|263:136,2,72,2|0|0,0:2|0:0|0:0,0:0:0:0:
348,166,146422,1,0,0:2:0:0:
439,27,146547,2,0,B|403:37|395:79|395:79|354:58|317:73,1,144,8|0,0:1|0:0,0:0:0:0:
130,103,147047,22,0,B|176:113|192:74|188:71|184:69|204:27|255:37,2,144,2|0|8,0:2|0:0|0:1,0:0:0:0:
23,21,147797,2,0,P|42:53|62:93,1,72,2|0,0:2|0:0,0:0:0:0:
188,180,148047,1,2,0:2:0:0:
125,115,148172,1,0,0:0:0:0:
206,181,148297,2,0,P|187:213|167:253,1,72
112,360,148547,2,0,B|78:340|78:340|98:271|98:271|78:227,1,144,8|2,0:1|0:2,0:0:0:0:
14,277,148922,1,2,0:2:0:0:
127,365,149047,22,0,P|160:348|197:333,2,72,2|0|2,0:2|0:0|0:0,0:0:0:0:
234,271,149547,2,0,B|272:252|301:284|298:288|295:293|327:318|373:310,1,144,8|2,0:1|0:2,0:0:0:0:
499,250,149922,1,2,0:2:0:0:
412,368,150047,2,0,P|400:329|375:306,1,72,2|0,0:2|0:0,0:0:0:0:
508,256,150297,2,0,P|483:281|474:316,1,72
354,217,150547,2,0,P|419:203|494:172,1,144,8|2,0:1|0:0,0:0:0:0:
210,30,151047,22,0,B|194:75|228:95|233:91|238:87|271:114|261:156,2,144,2|0|8,0:2|0:0|0:1,0:0:0:0:
338,168,151797,2,0,P|309:215|279:221,1,72,2|0,0:2|0:0,0:0:0:0:
183,153,152047,1,2,0:2:0:0:
152,254,152172,1,0,0:0:0:0:
81,205,152297,1,0,0:0:0:0:
168,241,152422,1,0,0:0:0:0:
115,322,152547,2,0,B|85:305|55:307|55:307|61:290|61:290|29:295|-8:277,1,144,8|2,0:1|0:0,0:0:0:0:
70,384,152922,1,0,0:0:0:0:
185,355,153047,22,0,P|219:336|252:325,2,72,2|0|2,0:2|0:0|0:0,0:0:0:0:
378,264,153547,2,0,P|323:273|303:352,1,144,8|2,0:1|0:2,0:0:0:0:
375,383,153922,1,2,0:2:0:0:
452,303,154047,2,0,P|463:262|480:224,2,72,2|0|0,0:2|0:0|0:0,0:0:0:0:
457,313,154422,1,0,0:0:0:0:
393,239,154547,2,0,P|375:185|336:96,1,144,8|2,0:1|0:0,0:0:0:0:
488,28,155047,22,0,P|485:102|424:109,2,144,2|0|8,0:2|0:0|0:1,0:0:0:0:
294,45,155797,2,0,P|334:35|366:22,1,72,2|0,0:2|0:0,0:0:0:0:
240,120,156047,1,0,0:0:0:0:
192,39,156172,1,0,0:0:0:0:
255,110,156297,2,0,P|232:160|225:185,1,72
132,273,156547,2,0,B|152:253|175:243|175:243|160:196|129:153,1,144,8|0,0:1|0:0,0:0:0:0:
67,215,156922,1,2,0:2:0:0:
130,87,157047,22,0,P|93:96|66:133,2,72,2|0|2,0:2|0:0|0:0,0:0:0:0:
204,255,157547,2,0,P|132:230|53:212,1,144,8|0,0:1|0:0,0:0:0:0:
168,358,157922,1,0,0:0:0:0:
253,341,158047,2,0,P|279:318|280:283,1,72,2|0,0:2|0:0,0:0:0:0:
353,270,158297,2,0,P|346:235|316:217,1,72,2|0,0:2|0:0,0:0:0:0:
235,167,158547,1,0,1:0:0:0:
371,59,158672,1,8,0:2:0:0:
376,60,158734,1,8,0:2:0:0:
382,61,158797,1,8,0:2:0:0:
388,63,158859,1,8,0:2:0:0:
394,64,158922,1,8,0:2:0:0:
400,66,158984,1,8,0:2:0:0:
406,67,159047,38,0,B|413:74|413:74|408:84|408:84|417:90|417:90|413:98|413:98|422:104|422:104|419:111|419:111|426:123|426:123|422:128|422:128|433:136|433:136|427:144|427:144|436:150|436:150|436:158|436:158|444:167|444:167|437:182|437:182|442:188|442:188|454:190|454:190|454:199|454:199|447:204|447:204|456:209|456:209|450:216|450:216|457:221,1,216,4|0,1:0|0:0,0:0:0:0:
328,94,159297,2,0,B|335:99|335:99|329:106|329:106|338:111|338:111|331:116|331:116|331:125|331:125|343:127|343:127|348:133|348:133|341:148|341:148|349:157|349:157|349:165|349:165|358:171|358:171|352:179|352:179|363:187|363:187|359:192|359:192|366:204|366:204|363:211|363:211|372:217|372:217|368:225|368:225|377:231|377:231|372:241|372:241|379:248,1,216,2|0,1:2|0:0,0:0:0:0:
470,12,159547,5,10,0:2:0:0:
277,190,159672,2,0,P|243:172|192:157,1,90,2|2,0:2|0:2,0:0:0:0:
120,354,159922,38,0,B|135:357|135:357|137:349|137:349|150:347|150:347|155:335|155:335|163:334|163:334|161:322|161:322|163:316|163:316|172:313|172:313|171:304|171:304|165:298|165:298|168:291|168:291|162:290|162:290|157:279|157:279|164:280|164:280|158:272|158:272|151:271,1,144,2|0,1:2|0:0,0:0:0:0:
88,250,160172,2,0,B|73:247|73:247|71:255|71:255|58:257|58:257|53:269|53:269|45:270|45:270|47:282|47:282|45:288|45:288|36:291|36:291|37:300|37:300|43:306|43:306|40:313|40:313|46:314|46:314|51:325|51:325|44:324|44:324|50:332|50:332|57:333,1,144,2|2,1:2|1:2,0:0:0:0:
231,259,160422,5,0,3:0:0:0:
38,96,160547,1,10,0:2:0:0:
42,89,160797,21,0,3:0:0:0:
121,130,160922,1,0,3:0:0:0:
290,63,161047,6,0,B|279:49|279:49|268:55|268:55|268:45|268:45|261:45|261:45|250:35|250:35|233:38|233:38|228:28|228:28|219:35|219:35|210:30|210:30|204:38|204:38|197:30|197:30|189:26|189:26|182:33|182:33|170:26|170:26|161:31|161:31|171:42|171:42|182:43|182:43|185:51|185:51|195:48|195:48|197:60|197:60|206:62|206:62|209:68|209:68|206:79|206:79|216:87|216:87|214:102,1,288,2|0,1:2|0:0,0:0:0:0:
378,280,161547,6,0,P|391:216|428:91,1,180,8|2,0:2|0:2,0:0:0:0:
481,199,161922,1,2,2:0:0:0:
312,320,162047,21,8,0:1:0:0:
466,384,162172,1,8,0:2:0:0:
470,380,162234,1,8,0:2:0:0:
474,376,162297,2,0,P|484:353|481:326,1,45,8|0,0:1|0:0,0:0:0:0:
410,309,162422,2,0,P|395:288|370:277,1,45,8|0,0:2|0:0,0:0:0:0:
246,371,162547,21,8,0:1:0:0:
228,366,162609,1,8,0:1:0:0:
210,362,162672,1,8,0:1:0:0:
193,358,162734,1,8,0:1:0:0:
179,348,162797,1,8,0:1:0:0:
161,343,162859,1,8,0:2:0:0:
143,339,162922,1,8,0:1:0:0:
126,335,162984,1,8,0:2:0:0:
111,324,163047,6,0,B|105:307|105:307|110:302|110:302|112:294|112:294|106:284|106:284|113:280|113:280|110:270|110:270|117:271|117:271|120:265|120:265|117:254|117:254|124:251|124:251|124:242|124:242|132:237|132:237|136:239|136:239|140:229|140:229|148:231|148:231|150:222|150:222|157:225|157:225|162:219|162:219|165:225|165:225|172:213|172:213|182:216|182:216|190:210|190:210|196:217|196:217|202:212,1,216,2|0,1:2|0:0,0:0:0:0:
102,165,163297,2,0,B|89:172|89:172|88:164|88:164|80:166|80:166|76:160|76:160|69:160|69:160|63:155|63:155|56:158|56:158|51:148|51:148|43:152|43:152|37:145|37:145|34:139|34:139|24:136|24:136|30:145|30:145|28:151|28:151|38:156|38:156|36:163|36:163|44:170|44:170|40:174|40:174|48:179|48:179|51:187|51:187|49:191|49:191|57:195|57:195|49:199|49:199|55:205|55:205|49:213,1,216,2|0,1:2|0:0,0:0:0:0:
257,261,163547,5,10,0:2:0:0:
172,45,163672,2,0,P|130:68|86:86,1,90,2|0,0:2|0:0,0:0:0:0:
257,172,163922,38,0,B|264:169|264:169|274:165|274:165|280:170|280:170|285:164|285:164|294:169|294:169|302:164|302:164|306:154|306:154|314:157|314:157|317:144|317:144|327:146|327:146|333:152|333:152|339:147|339:147|347:149|347:149|350:141|350:141|359:145|359:145|365:141,1,144,2|0,1:2|0:0,0:0:0:0:
405,46,164172,2,0,B|412:49|412:49|422:53|422:53|428:48|428:48|433:54|433:54|442:49|442:49|450:54|450:54|454:64|454:64|462:61|462:61|465:74|465:74|475:72|475:72|481:66|481:66|487:71|487:71|495:69|495:69|498:77|498:77|507:73|507:73|513:77,1,144,2|2,1:2|1:2,0:0:0:0:
452,225,164422,5,0,3:0:0:0:
328,17,164547,1,10,0:2:0:0:
335,8,164797,21,0,3:0:0:0:
255,64,164922,1,0,3:0:0:0:
354,266,165047,6,0,B|352:252|352:252|360:248|360:248|359:237|359:237|365:230|365:230|361:223|361:223|363:216|363:216|370:218|370:218|370:212|370:212|366:200|366:200|374:197|374:197|368:186|368:186|377:183|377:183|374:174|374:174|380:176|380:176|384:168|384:168|378:160|378:160|380:153|380:153|387:149|387:149|384:139|384:139|392:133|392:133|387:125|387:125|394:122|394:122|391:111|391:111|400:107|400:107|398:98|398:98|407:94|407:94|401:82|401:82|411:78|411:78|414:72|414:72|409:66|409:66|416:59,1,288,2|0,1:2|0:0,0:0:0:0:
495,297,165547,6,0,B|445:295|411:329|415:332|419:334|373:367|320:357,1,180,8|2,3:1|0:2,0:0:0:0:
214,269,165922,1,2,0:2:0:0:
147,369,166047,21,2,0:2:0:0:
253,333,166172,1,0,3:0:0:0:
85,275,166297,1,0,3:0:0:0:
311,106,166422,21,8,0:2:0:0:
329,105,166484,1,8,0:2:0:0:
347,111,166547,1,8,0:2:0:0:
362,122,166609,1,8,0:2:0:0:
373,138,166672,2,0,P|361:165|355:187,1,45,8|0,0:2|0:0,0:0:0:0:
283,91,166797,2,0,P|276:69|266:49,1,45,8|0,0:1|0:0,0:0:0:0:
241,195,166922,2,0,P|257:219|267:240,1,45,8|0,0:1|0:0,0:0:0:0:
19,114,167047,6,0,B|31:112|31:112|36:122|36:122|49:117|49:117|57:124|57:124|70:120|70:120|75:128|75:128|80:126|80:126|89:131|89:131|100:124|100:124|105:122|105:122|106:130|106:130|113:125|113:125|117:135|117:135|126:135|126:135|130:138|130:138|137:130|137:130|143:134|143:134|145:138|145:138|153:135|153:135|162:139|162:139|169:133|169:133|180:138|180:138|183:143|183:143|189:140,1,216,2|0,1:2|0:0,0:0:0:0:
5,197,167297,2,0,B|6:196|6:196|9:201|9:201|20:206|20:206|27:200|27:200|36:204|36:204|44:201|44:201|46:205|46:205|52:209|52:209|59:201|59:201|63:204|63:204|72:204|72:204|76:214|76:214|83:209|83:209|84:217|84:217|89:215|89:215|100:208|100:208|109:213|109:213|114:211|114:211|119:219|119:219|132:215|132:215|140:222|140:222|153:217|153:217|158:227|158:227|170:225,1,216,2|0,1:2|0:0,0:0:0:0:
115,47,167547,5,10,0:2:0:0:
73,295,167672,1,2,0:2:0:0:
115,47,167797,38,0,B|126:49|126:49|135:44|135:44|137:33|137:33|128:32|128:32|131:22|131:22|136:19|136:19|128:13|128:13|120:13|120:13|116:18|116:18|110:11|110:11|105:17|105:17|106:25|106:25|98:27|98:27|102:32|102:32|103:40|103:40|109:41|109:41|114:45,1,144,0|0,1:0|0:0,0:0:0:0:
34,115,168047,6,0,P|36:81|6:36,1,90,8|0,0:1|0:0,0:0:0:0:
164,145,168297,2,0,P|175:113|221:85,1,90,10|0,0:2|0:0,0:0:0:0:
73,295,168547,1,8,3:1:0:0:
71,306,168609,1,0,3:0:0:0:
69,317,168672,1,8,3:2:0:0:
67,328,168734,1,0,3:0:0:0:
65,339,168797,1,8,3:1:0:0:
64,350,168859,1,8,3:1:0:0:
62,361,168922,1,8,3:1:0:0:
60,372,168984,1,8,3:1:0:0:
58,383,169047,38,0,B|66:375|66:375|71:381|71:381|76:375|76:375|86:374|86:374|88:365|88:365|93:361|93:361|97:368|97:368|105:368|105:368|106:360|106:360|114:364|114:364|116:353|116:353|123:359|123:359|126:354|126:354|132:352|132:352|141:353|141:353|145:344|145:344|151:343|151:343|159:347|159:347|157:335|157:335|168:335|168:335|173:340|173:340|173:333|173:333|178:334|178:334|182:330|182:330|192:333|192:333|196:329,1,216,2|0,1:2|0:0,0:0:0:0:
273,277,169297,2,0,B|262:275|262:275|259:281|259:281|253:286|253:286|241:279|241:279|240:288|240:288|230:288|230:288|235:295|235:295|234:303|234:303|219:304|219:304|221:312|221:312|211:314|211:314|206:319|206:319|213:325|213:325|215:331|215:331|208:336|208:336|217:343|217:343|214:351|214:351|207:353|207:353|219:358|219:358|209:366|209:366|218:373|218:373|215:378|215:378|223:384,1,216,2|0,1:2|0:0,0:0:0:0:
296,349,169547,5,8,0:2:0:0:
163,259,169672,1,0,3:0:0:0:
312,176,169797,21,2,1:2:0:0:
280,260,169922,1,2,1:2:0:0:
173,81,170047,21,8,3:1:0:0:
178,69,170297,21,8,3:2:0:0:
248,128,170422,1,8,3:1:0:0:
333,39,170547,21,8,0:1:0:0:
337,35,170609,1,8,0:1:0:0:
341,31,170672,2,0,L|288:19,1,45,8|0,0:1|0:0,0:0:0:0:
369,171,170797,1,8,0:1:0:0:
375,192,170859,1,8,0:1:0:0:
390,208,170922,1,8,0:2:0:0:
411,217,170984,1,8,0:2:0:0:
433,216,171047,6,0,B|430:207|430:207|438:204|438:204|434:193|434:193|442:190|442:190|438:179|438:179|449:173|449:173|443:168|443:168|449:157|449:157|441:153|441:153|453:142|453:142|445:139|445:139|449:131|449:131|458:130|458:130|462:125|462:125|453:116|453:116|464:109|464:109|458:101|458:101|460:91|460:91|469:92|469:92|467:82|467:82|476:77,1,216,4|0,1:2|0:0,0:0:0:0:
509,70,171297,2,0,B|502:26|502:26|459:42,1,90,2|0,0:2|0:0,0:0:0:0:
292,185,171547,22,0,B|289:194|289:194|297:197|297:197|293:208|293:208|301:211|301:211|297:222|297:222|308:228|308:228|302:233|302:233|308:244|308:244|300:248|300:248|312:259|312:259|304:262|304:262|308:270|308:270|317:271|317:271|321:276|321:276|312:285|312:285|323:292|323:292|317:300|317:300|319:310|319:310|328:309|328:309|326:319|326:319|335:324,1,216,2|0,1:2|0:0,0:0:0:0:
318,358,171797,2,0,B|361:374|361:374|368:331,1,90,2|0,0:2|0:0,0:0:0:0:
215,127,172047,22,0,B|203:121|203:121|195:128|195:128|186:118|186:118|182:125|182:125|172:119|172:119|170:128|170:128|166:133|166:133|160:124|160:124|150:125|150:125|148:133|148:133|136:137|136:137|136:146|136:146|126:153|126:153|134:158|134:158|131:164|131:164|120:165|120:165|124:175|124:175|114:182|114:182|124:189|124:189|115:193|115:193|120:199,1,216,2|0,1:2|0:0,0:0:0:0:
106,244,172297,2,0,L|67:162,1,90,2|0,0:2|0:2,0:2:0:0:
253,50,172547,22,0,B|265:44|265:44|273:51|273:51|282:41|282:41|286:48|286:48|296:42|296:42|298:51|298:51|302:56|302:56|308:47|308:47|318:48|318:48|320:56|320:56|332:60|332:60|332:69|332:69|342:76|342:76|334:81|334:81|337:87|337:87|348:88|348:88|344:98|344:98|354:105|354:105|344:112|344:112|353:116|353:116|348:122,1,216,2|0,1:2|0:0,0:0:0:0:
362,167,172797,2,0,L|401:85,1,90,2|0,0:2|0:0,0:0:0:0:
187,345,173047,22,0,B|183:349|183:349|178:344|178:344|172:350|172:350|166:343|166:343|162:352|162:352|155:347|155:347|150:354|150:354|143:354|143:354|149:363|149:363|143:365|143:365|138:358|138:358|130:362|130:362|135:367|135:367|124:369|124:369|117:365|117:365|112:372|112:372|102:369,1,144,2|0,1:2|0:0,0:0:0:0:
323,273,173297,2,0,B|327:269|327:269|332:274|332:274|338:268|338:268|344:275|344:275|348:266|348:266|355:271|355:271|360:264|360:264|367:264|367:264|361:255|361:255|367:253|367:253|372:260|372:260|380:256|380:256|375:251|375:251|386:249|386:249|393:253|393:253|398:246|398:246|408:249,1,144,0|0,1:0|0:0,0:0:0:0:
152,273,173547,22,0,B|148:269|148:269|143:274|143:274|137:268|137:268|131:275|131:275|127:266|127:266|120:271|120:271|115:264|115:264|108:264|108:264|114:255|114:255|108:253|108:253|103:260|103:260|95:256|95:256|100:251|100:251|89:249|89:249|82:253|82:253|77:246|77:246|67:249,1,144,0|0,1:0|0:0,0:0:0:0:
357,345,173797,2,0,B|361:349|361:349|366:344|366:344|372:350|372:350|378:343|378:343|382:352|382:352|389:347|389:347|394:354|394:354|401:354|401:354|395:363|395:363|401:365|401:365|406:358|406:358|414:362|414:362|409:367|409:367|420:369|420:369|427:365|427:365|432:372|432:372|442:369,1,144,0|0,1:0|0:0,0:0:0:0:
256,309,174047,38,2,P|271:230|299:115,1,188.999994232178,10|0,3:1|0:0,0:2:0:0:
137,66,174547,21,0,1:0:0:0:
134,99,174609,1,0,1:0:0:0:
150,128,174672,1,0,1:0:0:0:
178,146,174734,1,0,1:0:0:0:
212,146,174797,2,0,B|241:139|241:139|247:133|247:133|275:127,1,67.5000025749208,0|0,1:0|1:0,0:0:0:0:
326,59,174922,2,0,B|355:66|355:66|361:72|361:72|389:78,1,67.5000025749208,0|0,1:0|1:0,0:0:0:0:
462,135,175047,38,0,P|421:236|405:293,1,153.000002918243,4|2,1:0|0:2,0:0:0:0:
492,341,175297,1,2,1:2:0:0:
358,187,175422,2,0,L|310:200,1,40.4999987640381,2|0,3:2|0:0,0:0:0:0:
205,288,175547,6,0,B|170:291|143:274|147:269|150:264|118:244|80:252,1,125.999996154785,2|2,1:2|0:2,0:0:0:0:
27,310,175734,1,0,3:0:0:0:
34,301,175797,2,0,P|58:333|72:362,1,62.9999980773926,2|0,1:2|0:0,0:0:0:0:
144,233,175922,2,0,P|159:205|178:180,1,62.9999980773926,2|0,3:2|0:0,0:0:0:0:
11,43,176047,38,0,L|66:196,2,144,2|2|2,1:2|0:2|1:2,0:0:0:0:
256,156,176422,5,2,3:2:0:0:
263,140,176484,1,0,3:0:0:0:
270,124,176547,2,0,P|282:94|302:63,1,62.9999980773926,2|0,1:2|0:0,0:0:0:0:
189,99,176672,2,0,L|126:119,1,62.9999980773926,2|0,3:2|0:0,0:0:0:0:
356,128,176797,38,0,P|387:123|424:125,1,62.9999980773926,2|0,1:2|0:0,0:0:0:0:
225,33,176922,2,0,L|162:13,1,62.9999980773926,2|0,3:2|0:0,0:0:0:0:
300,252,177047,6,0,P|286:169|266:85,1,153.000002918243,2|2,1:2|0:2,0:0:0:0:
378,230,177297,1,2,1:2:0:0:
262,333,177422,2,0,L|218:322,1,40.4999987640381,2|0,3:2|0:0,0:0:0:0:
386,221,177547,38,0,B|416:224|445:240|441:245|436:250|464:272|500:273,1,125.999996154785,2|2,1:2|0:2,0:0:0:0:
388,349,177734,1,0,3:0:0:0:
367,358,177797,2,0,P|379:324|394:292,1,62.9999980773926,2|0,1:2|0:0,0:0:0:0:
318,170,177922,2,0,P|286:184|253:197,1,62.9999980773926,2|0,3:2|0:0,0:0:0:0:
167,261,178047,6,0,P|105:233|9:206,2,144,2|2|2,1:2|0:2|1:2,0:0:0:0:
151,111,178422,37,2,1:2:0:0:
186,107,178484,1,0,1:0:0:0:
218,120,178547,1,2,1:2:0:0:
240,149,178609,1,0,1:0:0:0:
245,184,178672,1,2,1:2:0:0:
75,86,178797,6,0,P|31:105|4:113,1,72,2|0,1:2|0:0,0:0:0:0:
119,196,178922,2,0,P|136:151|150:126,1,72,2|0,1:2|0:0,0:0:0:0:
216,17,179047,38,0,B|247:44|282:41|282:41|289:53|289:53|326:50|360:73,1,153.000002918243,4|0,1:0|0:0,0:0:0:0:
482,138,179297,1,2,1:2:0:0:
449,10,179422,2,0,L|435:50,1,40.4999987640381,2|0,3:2|0:0,0:0:0:0:
402,197,179547,6,0,P|381:136|355:74,1,125.999996154785,2|2,1:2|0:2,0:0:0:0:
341,246,179734,1,0,3:0:0:0:
350,261,179797,2,0,P|380:284|411:288,1,62.9999980773926,2|0,1:2|0:0,0:0:0:0:
306,173,179922,2,0,P|278:188|244:202,1,62.9999980773926,2|0,3:2|0:0,0:0:0:0:
220,347,180047,38,0,B|184:346|148:329|153:325|158:320|123:294|86:297,2,144,2|2|2,1:2|0:2|1:2,0:0:0:0:
140,107,180422,5,2,3:2:0:0:
128,102,180484,1,0,3:0:0:0:
116,97,180547,2,0,P|83:116|74:143,1,62.9999980773926,2|0,1:2|0:0,0:0:0:0:
164,187,180672,2,0,P|199:173|225:164,1,62.9999980773926,2|0,3:2|0:0,0:0:0:0:
17,191,180797,38,0,P|16:229|35:250,1,62.9999980773926,2|0,1:2|0:0,0:0:0:0:
208,265,180922,2,0,P|245:270|272:275,1,62.9999980773926,2|0,3:2|0:0,0:0:0:0:
103,355,181047,6,0,L|142:186,1,153.000002918243,2|2,1:2|0:2,0:0:0:0:
260,143,181297,1,2,1:2:0:0:
61,41,181422,2,0,L|18:26,1,40.4999987640381,2|0,3:2|0:0,0:0:0:0:
97,132,181547,38,0,B|133:137|156:112|152:108|148:103|180:78|209:79,1,125.999996154785,2|2,1:2|0:2,0:0:0:0:
283,21,181734,1,0,3:0:0:0:
261,11,181797,2,0,P|278:40|292:78,1,62.9999980773926,2|0,1:2|0:0,0:0:0:0:
353,144,181922,2,0,P|364:114|380:87,1,62.9999980773926,2|0,3:2|0:0,0:0:0:0:
508,67,182047,6,0,B|460:104|460:104|501:204,2,153.000002918243,2|2|2,1:2|0:2|1:2,0:0:0:0:
413,225,182422,37,2,1:2:0:0:
416,262,182484,1,0,1:0:0:0:
439,292,182547,1,2,1:2:0:0:
475,305,182609,1,0,1:0:0:0:
512,298,182672,1,2,1:2:0:0:
339,159,182797,6,0,L|233:183,1,99.0000030212403,2|0,1:1|0:0,0:0:0:0:
91,125,183047,38,0,P|123:56|211:50,1,153.000002918243,4|0,1:0|0:0,0:0:0:0:
24,15,183297,1,2,1:2:0:0:
250,107,183422,2,0,L|298:96,1,40.4999987640381,2|0,3:2|0:0,0:0:0:0:
131,271,183547,6,0,B|97:257|92:225|92:225|69:237|26:228,1,125.999996154785,2|2,1:2|0:2,0:0:0:0:
169,121,183734,1,0,3:0:0:0:
186,147,183797,2,0,P|172:172|158:208,1,62.9999980773926,2|0,1:2|0:0,0:0:0:0:
43,302,183922,2,0,P|31:272|16:245,1,62.9999980773926,2|0,3:2|0:0,0:0:0:0:
240,329,184047,38,0,L|81:369,2,144,2|2|2,1:2|0:2|1:2,0:0:0:0:
447,211,184422,5,2,3:2:0:0:
457,215,184484,1,0,3:0:0:0:
467,219,184547,2,0,P|492:245|494:280,1,62.9999980773926,2|0,1:2|0:0,0:0:0:0:
373,173,184672,2,0,L|392:102,1,62.9999980773926,2|0,3:2|0:0,0:0:0:0:
421,309,184797,38,0,P|410:343|381:362,1,62.9999980773926,2|0,1:2|0:0,0:0:0:0:
263,214,184922,2,0,L|334:233,1,62.9999980773926,2|0,3:2|0:0,0:0:0:0:
459,64,185047,6,0,L|296:105,1,153.000002918243,2|2,1:2|0:2,0:0:0:0:
168,19,185297,1,2,1:2:0:0:
213,161,185422,2,0,L|226:123,1,40.4999987640381,2|0,3:2|0:0,0:0:0:0:
60,194,185547,38,0,B|95:186|120:207|116:211|112:216|143:239|185:231,1,125.999996154785,2|2,1:2|0:2,0:0:0:0:
91,107,185734,1,0,3:0:0:0:
71,113,185797,2,0,P|41:106|8:94,1,62.9999980773926,2|0,1:2|0:0,0:0:0:0:
154,299,185922,2,0,P|180:275|184:238,1,62.9999980773926,2|0,3:2|0:0,0:0:0:0:
0,244,186047,6,0,L|51:414,2,144,2|2|2,1:2|0:2|1:2,0:0:0:0:
222,352,186422,37,2,1:2:0:0:
187,346,186484,1,0,1:0:0:0:
158,367,186547,1,2,1:2:0:0:
145,332,186609,1,0,1:0:0:0:
113,318,186672,1,2,1:2:0:0:
297,246,186797,6,0,P|322:263|335:302,1,72,2|0,1:2|0:0,0:0:0:0:
408,300,186922,2,0,P|405:330|378:360,1,72,2|0,3:2|0:0,0:0:0:0:
221,216,187047,38,0,P|236:138|268:39,1,153.000002918243,2|2,1:2|0:2,0:0:0:0:
164,15,187297,1,2,1:2:0:0:
333,141,187422,2,0,L|375:131,1,40.4999987640381,2|0,3:2|0:0,0:0:0:0:
503,37,187547,6,0,B|469:16|469:16|435:124,1,125.999996154785,2|2,1:2|0:2,0:0:0:0:
459,181,187734,1,0,3:0:0:0:
477,188,187797,2,0,P|506:171|510:135,1,62.9999980773926,2|0,1:2|0:0,0:0:0:0:
382,48,187922,2,0,P|351:41|318:30,1,62.9999980773926,2|0,3:2|0:0,0:0:0:0:
339,266,188047,38,0,P|358:192|388:111,2,144,2|2|2,1:2|0:2|1:2,0:0:0:0:
295,145,188422,5,2,3:2:0:0:
288,133,188484,1,0,3:0:0:0:
281,121,188547,2,0,P|239:126|223:149,1,62.9999980773926,2|0,1:2|0:0,0:0:0:0:
146,242,188672,2,0,P|153:210|161:180,1,62.9999980773926,2|0,3:2|0:0,0:0:0:0:
14,203,188797,38,0,P|55:208|71:231,1,62.9999980773926,2|0,1:2|0:0,0:0:0:0:
149,324,188922,2,0,P|142:292|134:262,1,62.9999980773926,2|0,3:2|0:0,0:0:0:0:
254,25,189047,5,2,1:2:0:0:
102,135,189172,2,0,B|91:141|91:141|45:66|45:66|57:58|57:58|274:125,1,288,2|2,3:2|1:2,0:0:0:0:
369,243,189547,37,0,3:0:0:0:
511,91,189672,1,0,3:0:0:0:
298,199,189797,5,0,1:0:0:0:
489,347,189922,1,0,3:0:0:0:
368,35,190047,37,10,3:1:0:0:
374,29,190547,5,2,1:2:0:0:
368,64,190609,1,0,1:0:0:0:
346,91,190672,1,0,1:0:0:0:
313,105,190734,1,0,1:0:0:0:
277,100,190797,2,0,P|249:89|192:71,1,72,0|0,1:0|1:0,0:0:0:0:
390,191,190922,2,0,P|418:164|421:126,1,72,0|0,1:0|1:0,0:0:0:0:
157,6,191047,6,0,P|186:144|196:206,1,161.999995056153,4|0,1:0|0:0,0:0:0:0:
242,234,191234,1,0,3:0:0:0:
252,239,191297,2,0,P|292:223|291:164,1,80.9999975280763,2|0,1:2|0:0,0:0:0:0:
106,163,191422,2,0,P|53:148|12:141,1,80.9999975280763,2|0,3:2|0:0,0:0:0:0:
155,244,191547,21,10,1:2:0:0:
397,122,191672,1,2,0:2:0:0:
128,81,191797,1,2,1:2:0:0:
278,4,191922,1,2,0:2:0:0:
321,271,192047,21,2,3:2:0:0:
298,238,192109,1,2,3:2:0:0:
321,205,192172,2,0,P|356:213|413:226,1,62.9999980773926,2|0,3:2|0:0,0:0:0:0:
500,291,192297,22,0,P|428:314|357:344,1,153.000002918243,2|0,1:2|0:0,0:0:0:0:
140,253,192547,1,10,1:2:0:0:
42,363,192672,21,2,3:2:0:0:
42,363,192734,1,2,3:2:0:0:
42,363,192797,2,0,P|50:325|62:284,1,62.9999980773926,2|0,1:2|0:0,0:0:0:0:
229,89,192922,2,0,P|218:125|210:163,1,62.9999980773926,2|0,0:2|0:0,0:0:0:0:
73,196,193047,22,0,P|145:219|216:249,1,153.000002918243,2|0,1:2|0:0,0:0:0:0:
267,306,193234,1,0,3:0:0:0:
274,310,193297,2,0,P|320:283|324:244,1,76.5000014591217,2|0,1:2|0:0,0:0:0:0:
137,124,193422,1,2,3:2:0:0:
151,361,193547,21,10,1:2:0:0:
326,264,193672,1,2,0:2:0:0:
229,89,193797,1,2,1:2:0:0:
54,186,193922,1,2,0:2:0:0:
327,163,194047,22,0,B|406:144|369:89|453:64,1,153.000002918243,2|0,1:2|0:0,0:0:0:0:
505,130,194234,1,2,3:2:0:0:
509,139,194297,1,2,1:2:0:0:
319,68,194422,1,2,3:2:0:0:
176,157,194547,21,10,1:2:0:0:
138,150,194609,1,0,1:0:0:0:
106,130,194672,1,2,1:2:0:0:
84,98,194734,1,0,1:0:0:0:
76,61,194797,2,0,P|83:24|90:-15,1,62.9999980773926,2|0,1:2|0:0,0:0:0:0:
156,261,194922,21,2,1:2:0:0:
153,266,194984,1,0,1:0:0:0:
150,271,195047,2,0,P|81:256|-4:245,1,153.000002918243,2|2,1:2|0:2,0:0:0:0:
295,160,195234,1,0,3:0:0:0:
307,167,195297,2,0,P|353:151|405:143,1,76.5000014591217,2|0,1:2|0:0,0:0:0:0:
233,105,195422,2,0,P|201:117|190:165,1,76.5000014591217,2|0,3:2|0:0,0:0:0:0:
240,225,195547,21,10,1:2:0:0:
180,21,195672,1,2,0:2:0:0:
441,195,195797,21,2,1:2:0:0:
419,269,195922,1,2,0:2:0:0:
251,332,196047,21,2,1:2:0:0:
276,300,196109,1,2,3:2:0:0:
318,307,196172,2,0,P|326:272|340:215,1,62.9999980773926,0|0,3:2|0:0,0:0:0:0:
91,236,196297,2,0,P|99:268|107:301,1,62.9999980773926,2|0,1:2|0:0,0:0:0:0:
170,370,196422,1,2,0:2:0:0:
240,225,196547,1,10,1:2:0:0:
414,384,196672,21,0,1:0:0:0:
437,350,196734,1,0,1:0:0:0:
443,309,196797,1,0,1:0:0:0:
431,269,196859,1,0,1:0:0:0:
402,239,196922,1,0,1:0:0:0:
364,225,196984,1,0,1:0:0:0:
322,230,197047,22,0,P|246:246|145:260,1,153.000002918243,2|2,1:2|0:2,0:0:0:0:
84,306,197234,1,0,3:0:0:0:
76,295,197297,2,0,P|34:282|-26:274,1,76.5000014591217,2|0,1:2|0:0,0:0:0:0:
149,169,197422,2,0,P|162:125|178:87,1,76.5000014591217,2|0,3:2|0:0,0:0:0:0:
408,378,197547,21,10,1:2:0:0:
352,312,197672,1,2,0:2:0:0:
431,183,197797,1,2,1:2:0:0:
327,12,197922,21,2,3:2:0:0:
327,12,197984,1,2,3:2:0:0:
327,12,198047,2,0,P|403:28|504:42,1,153.000002918243,2|2,1:2|0:2,0:0:0:0:
328,141,198234,1,0,3:0:0:0:
316,128,198297,2,0,P|240:139|165:155,1,153.000002918243,2|0,1:2|0:0,0:0:0:0:
163,34,198547,21,10,1:2:0:0:
120,1,198609,1,0,1:0:0:0:
64,0,198672,1,2,1:2:0:0:
18,33,198734,1,0,1:0:0:0:
3,87,198797,2,0,L|10:128,4,38.2500007295609,2|2|2|2|2,3:2|3:2|3:2|3:2|3:2,0:0:0:0:
257,76,199047,22,0,B|289:147|289:147|255:213,1,153.000002918243,4|0,1:0|0:0,0:0:0:0:
183,257,199235,1,0,3:0:0:0:
173,248,199297,2,0,B|157:212|157:212|174:179,1,76.5000014591217,2|0,1:2|0:0,0:0:0:0:
77,259,199422,1,2,3:2:0:0:
104,93,199547,21,10,1:2:0:0:
226,335,199672,1,2,0:2:0:0:
267,66,199797,1,2,1:2:0:0:
344,216,199922,1,2,0:2:0:0:
77,259,200047,21,2,3:2:0:0:
110,236,200109,1,2,3:2:0:0:
143,259,200172,2,0,P|135:294|122:351,1,62.9999980773926,2|0,3:2|0:0,0:0:0:0:
371,340,200297,2,0,B|306:298|306:298|234:325,1,153.000002918243,2|0,1:2|0:0,0:0:0:0:
67,384,200547,1,10,1:2:0:0:
171,154,200672,21,2,3:2:0:0:
171,154,200734,1,2,3:2:0:0:
171,154,200797,2,0,P|214:146|256:135,1,62.9999980773926,2|0,1:2|0:0,0:0:0:0:
342,204,200922,2,0,P|385:212|427:223,1,62.9999980773926,2|0,0:2|0:0,0:0:0:0:
512,134,201047,22,0,P|517:59|470:0,1,153.000002918243,2|0,1:2|0:0,0:0:0:0:
393,31,201234,1,0,3:0:0:0:
382,38,201297,2,0,P|322:29|308:11,1,76.5000014591217,2|0,1:2|0:0,0:0:0:0:
253,68,201422,2,0,P|230:11|239:-9,1,76.5000014591217,2|0,3:2|0:0,0:0:0:0:
316,116,201547,21,10,1:2:0:0:
172,240,201672,1,2,0:2:0:0:
296,384,201797,1,2,1:2:0:0:
440,260,201922,1,2,0:2:0:0:
246,76,202047,22,0,B|193:65|193:65|168:30|168:30|95:13,1,153.000002918243,2|0,1:2|0:0,0:0:0:0:
39,57,202234,1,2,3:2:0:0:
33,61,202296,1,2,1:2:0:0:
240,169,202422,1,2,3:2:0:0:
78,292,202547,21,10,1:2:0:0:
45,249,202609,1,0,1:0:0:0:
44,193,202672,1,2,1:2:0:0:
77,147,202734,1,0,1:0:0:0:
131,132,202797,2,0,L|204:148,1,62.9999980773926,2|0,1:2|0:0,0:0:0:0:
164,319,202922,21,0,1:0:0:0:
164,319,202984,1,0,1:0:0:0:
164,319,203047,2,0,L|10:366,1,153.000002918243,2|2,1:2|0:2,0:0:0:0:
10,347,203234,1,0,3:0:0:0:
3,333,203297,2,0,P|29:299|85:307,1,76.5000014591217,2|0,1:2|0:0,0:0:0:0:
250,359,203422,2,0,P|285:345|350:333,1,76.5000014591217,2|0,3:2|0:0,0:0:0:0:
432,214,203547,21,10,1:2:0:0:
233,272,203672,1,2,0:2:0:0:
245,32,203797,21,2,1:2:0:0:
319,54,203922,1,2,0:2:0:0:
53,216,204047,21,2,1:2:0:0:
27,183,204109,1,2,3:2:0:0:
51,147,204172,2,0,P|104:139|131:136,1,62.9999980773926,0|0,3:2|0:0,0:0:0:0:
317,180,204297,2,0,P|264:188|237:191,1,62.9999980773926,2|0,1:2|0:0,0:0:0:0:
163,215,204422,1,2,0:2:0:0:
206,113,204547,1,10,1:2:0:0:
346,317,204671,21,2,1:2:0:0:
380,324,204734,1,0,1:0:0:0:
415,318,204796,1,2,1:2:0:0:
444,300,204859,1,0,1:0:0:0:
465,271,204921,1,0,1:2:0:0:
473,237,204984,1,0,1:0:0:0:
468,204,205047,22,0,B|434:115|328:125|350:155|250:159|228:64,1,306.000005836487,0|0,1:0|0:0,0:0:0:0:
141,371,205422,22,0,B|234:385|279:289|242:293|288:204|382:233,1,306.000005836487,0|0,1:0|0:0,0:0:0:0:
161,0,205797,22,0,B|101:73|162:160|177:126|231:211|159:277,1,306.000005836487,0|0,1:0|0:0,0:0:0:0:
11,376,206047,22,2,P|165:245|517:20,1,607.500023174287,8|0,0:1|0:0,0:1:0:0:
256,218,206547,21,0,1:0:0:0:
237,210,206609,1,0,1:0:0:0:
229,192,206672,1,0,1:0:0:0:
237,173,206734,1,0,1:0:0:0:
256,165,206797,1,0,1:0:0:0:
274,173,206859,1,0,1:0:0:0:
282,192,206922,1,0,1:0:0:0:
274,210,206984,1,0,1:0:0:0:
256,192,207047,22,0,P|173:166|37:138,1,180,4|0,1:0|0:0,0:0:0:0:
213,36,207297,1,2,3:2:0:0:
381,96,207422,6,0,P|412:78|403:24,1,90,2|0,1:2|0:0,0:0:0:0:
317,4,207547,2,0,B|334:105|362:67|369:174,2,144,10|0|0,0:2|0:0|1:0,0:0:0:0:
449,156,207922,1,2,3:2:0:0:
291,86,208047,37,2,1:2:0:0:
163,121,208172,1,2,0:2:0:0:
198,249,208297,1,2,1:2:0:0:
326,214,208422,1,2,0:2:0:0:
213,35,208547,5,10,0:2:0:0:
114,202,208672,1,2,0:2:0:0:
281,301,208797,1,2,1:2:0:0:
387,146,208922,37,2,3:2:0:0:
387,146,208984,1,2,3:2:0:0:
387,146,209047,2,0,P|373:267|362:371,1,180,2|0,1:2|0:0,0:0:0:0:
231,368,209297,1,2,3:2:0:0:
104,296,209422,6,0,B|46:286|80:261|-4:245,1,90,2|0,1:2|0:0,0:0:0:0:
59,364,209547,2,0,B|140:349|92:314|211:292,2,144,10|0|2,0:2|0:0|1:2,0:0:0:0:
231,368,209922,2,0,P|256:356|262:302,1,72,2|0,3:2|0:0,0:0:0:0:
244,230,210047,37,2,1:2:0:0:
156,105,210172,1,2,0:2:0:0:
369,142,210297,1,2,1:2:0:0:
281,17,210422,1,2,0:2:0:0:
139,210,210547,5,10,0:2:0:0:
176,0,210672,1,2,0:2:0:0:
349,247,210797,1,2,1:2:0:0:
386,37,210922,1,2,0:2:0:0:
244,230,211047,38,0,P|333:217|422:209,1,180,4|0,1:0|0:0,0:0:0:0:
263,124,211297,1,2,3:2:0:0:
130,217,211422,6,0,P|67:195|65:151,1,90,2|0,1:2|0:0,0:0:0:0:
69,0,211547,2,0,P|103:60|130:168,2,144,10|0|0,0:2|0:0|1:0,0:0:0:0:
197,163,211922,1,2,3:2:0:0:
357,51,212047,37,2,1:2:0:0:
469,121,212172,1,2,0:2:0:0:
398,234,212297,1,2,1:2:0:0:
286,163,212422,1,2,0:2:0:0:
446,25,212547,5,10,0:2:0:0:
492,213,212672,1,2,0:2:0:0:
303,258,212797,1,2,1:2:0:0:
248,80,212922,37,2,3:2:0:0:
248,80,212984,1,2,3:2:0:0:
248,80,213047,2,0,P|229:195|191:295,1,180,2|0,1:2|0:0,0:0:0:0:
324,384,213297,1,2,3:2:0:0:
477,300,213422,6,0,B|422:274|454:265|368:239,1,90,2|0,1:2|0:0,0:0:0:0:
366,317,213547,2,0,P|462:290|572:280,2,144,10|0|0,0:2|0:0|1:0,0:0:0:0:
240,371,213922,2,0,P|222:350|165:336,1,72,2|0,3:2|0:0,0:0:0:0:
50,234,214047,37,2,1:2:0:0:
175,322,214172,1,0,0:0:0:0:
138,109,214297,1,2,1:2:0:0:
263,197,214422,1,0,0:0:0:0:
369,7,214547,5,10,0:2:0:0:
325,0,214609,1,2,0:0:0:0:
283,14,214672,1,2,1:2:0:0:
254,47,214734,1,2,1:2:0:0:
245,91,214797,1,10,0:2:0:0:
279,299,214922,1,0,0:0:0:0:
129,196,215047,6,0,P|99:106|59:16,1,153.000002918243,4|0,1:0|0:0,0:0:0:0:
200,244,215234,1,0,3:0:0:0:
196,253,215297,2,0,P|162:283|123:276,1,76.5000014591217,2|0,1:2|0:0,0:0:0:0:
150,107,215422,2,0,P|164:54|173:26,1,76.5000014591217,2|0,3:2|0:0,0:0:0:0:
286,211,215547,22,0,B|377:230|324:273|425:287,2,153.000002918243,8|2|2,1:2|0:2|1:2,0:0:0:0:
429,204,215922,1,2,3:2:0:0:
313,9,216047,22,0,P|315:40|336:67,1,62.9999980773926,2|0,1:2|0:0,0:0:0:0:
274,96,216172,2,0,P|305:94|332:73,1,62.9999980773926,2|0,3:2|0:0,0:0:0:0:
361,135,216297,2,0,P|359:104|338:77,1,62.9999980773926,2|0,1:2|0:0,0:0:0:0:
400,48,216422,2,0,P|369:50|342:71,1,62.9999980773926,2|0,3:2|0:0,0:0:0:0:
213,169,216547,22,0,L|199:232,1,62.9999980773926,10|0,1:2|0:0,0:0:0:0:
336,280,216672,2,0,L|348:341,1,62.9999980773926,2|0,3:2|0:0,0:0:0:0:
178,323,216797,2,0,L|166:384,1,62.9999980773926,2|0,1:2|0:0,0:0:0:0:
38,235,216922,21,2,3:2:0:0:
38,235,216984,1,2,3:2:0:0:
38,235,217047,2,0,P|122:265|180:328,1,153.000002918243,2|0,1:2|0:0,0:0:0:0:
256,290,217234,1,0,3:0:0:0:
267,301,217297,2,0,P|319:289|312:220,1,76.5000014591217,2|0,1:2|0:0,0:0:0:0:
200,159,217422,2,0,P|148:171|155:240,1,76.5000014591217,2|0,3:2|0:0,0:0:0:0:
279,203,217547,22,0,B|294:144|294:144|315:127|315:127|342:33,2,153.000002918243,10|2|2,1:2|0:2|1:2,0:0:0:0:
240,74,217922,1,2,3:2:0:0:
65,161,218047,22,0,B|34:156|34:156|15:131,1,62.9999980773926,2|0,1:2|0:0,0:0:0:0:
108,4,218172,2,0,B|138:8|138:8|157:33,1,62.9999980773926,2|0,3:2|0:0,0:0:0:0:
122,236,218297,2,0,L|83:37,1,153.000002918243,2|2,1:2|0:2,0:0:0:0:
278,1,218547,22,0,P|250:21|243:67,1,62.9999980773926,10|0,1:2|0:0,0:0:0:0:
378,191,218672,2,0,L|457:170,1,62.9999980773926,2|0,3:2|0:0,0:0:0:0:
367,312,218797,22,0,P|339:292|332:246,1,62.9999980773926,2|0,1:2|0:0,0:0:0:0:
452,157,218922,2,0,L|531:178,1,62.9999980773926,2|0,3:2|0:0,0:0:0:0:
293,118,219047,22,0,B|218:108|246:50|163:47,1,153.000002918243,4|0,1:0|0:0,0:0:0:0:
340,54,219235,1,0,3:0:0:0:
350,53,219297,2,0,P|383:84|366:131,1,76.5000014591217,2|0,1:2|0:0,0:0:0:0:
171,139,219422,2,0,P|136:146|85:162,1,76.5000014591217,2|0,3:2|0:0,0:0:0:0:
225,339,219547,22,0,P|249:246|286:188,2,153.000002918243,10|2|2,1:2|0:2|1:2,0:0:0:0:
375,191,219922,1,2,3:2:0:0:
475,367,220047,22,0,P|484:337|466:295,1,62.9999980773926,2|0,1:2|0:0,0:0:0:0:
505,235,220172,2,0,P|475:225|433:243,1,62.9999980773926,2|0,3:2|0:0,0:0:0:0:
377,203,220297,2,0,P|367:232|385:274,1,62.9999980773926,2|0,1:2|0:0,0:0:0:0:
346,335,220422,2,0,P|375:344|417:326,1,62.9999980773926,2|0,3:2|0:0,0:0:0:0:
295,196,220547,22,0,L|213:218,1,62.9999980773926,10|0,1:2|0:0,0:0:0:0:
235,331,220672,2,0,L|153:309,1,62.9999980773926,2|0,3:2|0:0,0:0:0:0:
155,234,220797,2,0,L|73:256,1,62.9999980773926,2|0,1:2|0:0,0:0:0:0:
15,282,220922,21,2,3:2:0:0:
15,282,220984,1,2,3:2:0:0:
15,282,221047,2,0,P|92:330|82:400,1,153.000002918243,2|0,1:2|0:0,0:0:0:0:
31,196,221234,1,0,3:0:0:0:
37,189,221297,2,0,P|79:163|122:182,1,76.5000014591217,2|0,1:2|0:0,0:0:0:0:
129,93,221422,2,0,P|172:117|177:163,1,76.5000014591217,2|0,3:2|0:0,0:0:0:0:
169,325,221547,22,0,B|227:311|227:311|245:283|245:283|303:269,2,153.000002918243,10|2|2,1:2|0:2|1:2,0:0:0:0:
310,357,221922,1,2,3:2:0:0:
166,239,222047,22,0,L|184:162,1,62.9999980773926,2|0,1:2|3:2,0:0:0:0:
217,7,222172,2,0,L|235:84,1,62.9999980773926,2|0,1:2|3:2,0:0:0:0:
265,202,222297,2,0,L|283:125,1,62.9999980773926,2|0,1:2|3:2,0:0:0:0:
304,37,222422,2,0,L|322:114,1,62.9999980773926,2|0,1:2|3:2,0:0:0:0:
354,167,222547,21,10,1:2:0:0:
398,179,222609,1,2,1:2:0:0:
443,165,222672,1,2,1:2:0:0:
472,128,222734,1,2,1:2:0:0:
476,82,222797,1,2,1:2:0:0:
396,58,222922,21,2,1:2:0:0:
461,280,223047,22,0,B|469:309|469:309|469:317|469:317|486:337|486:337|496:372,1,90,4|0,1:0|0:0,0:0:0:0:
497,371,224047,38,0,B|432:362|432:362|427:351|427:351|350:340,2,144,0|0|8,3:0|0:0|0:1,0:0:0:0:
309,287,224797,21,0,0:0:0:0:
288,359,224922,1,0,0:0:0:0:
213,357,225047,2,0,P|182:365|149:377,2,53.9999983520508,0|0|0,3:0|0:0|0:0,0:0:0:0:
121,260,225547,2,0,P|87:281|88:349,1,107.999996704102,8|0,0:1|0:0,0:0:0:0:
193,276,225922,1,0,0:0:0:0:
170,205,226047,22,0,P|157:173|145:151,1,53.9999983520508,0|0,3:0|0:0,0:0:0:0:
255,110,226297,2,0,P|242:134|232:159,1,53.9999983520508
89,107,226547,2,0,B|104:85|137:80|136:84|135:89|161:86|186:57,1,107.999996704102,8|0,0:1|0:0,0:0:0:0:
188,52,226922,1,0,0:0:0:0:
38,19,227047,22,0,B|29:28|29:28|47:92|47:92|58:95|58:95|78:152,2,144,0|0|8,3:0|0:0|0:1,0:0:0:0:
150,164,227797,21,0,0:0:0:0:
36,212,227922,1,0,0:0:0:0:
124,236,228047,2,0,P|130:209|143:175,2,53.9999983520508,0|0|0,3:0|0:0|0:0,0:0:0:0:
24,365,228547,2,0,P|44:324|111:313,1,107.999996704102,8|0,0:1|0:0,0:0:0:0:
158,356,228922,1,0,0:0:0:0:
201,257,229047,22,0,P|207:230|220:196,2,53.9999983520508,0|0|0,3:0|0:0|0:0,0:0:0:0:
358,278,229547,2,0,B|331:275|303:290|308:295|313:300|283:317|250:314,1,107.999996704102,8|0,0:1|0:0,0:0:0:0:
361,353,229922,1,0,0:0:0:0:
424,312,230047,2,0,P|437:277|452:251,1,53.9999983520508,0|0,3:0|0:0,0:0:0:0:
337,214,230297,2,0,P|349:238|357:263,1,53.9999983520508
453,181,230547,2,0,P|397:161|400:107,1,107.999996704102,8|0,0:1|0:0,0:0:0:0:
454,82,230922,1,0,0:0:0:0:
292,33,231047,22,0,B|226:47|226:47|220:57|220:57|152:73,2,144,4|0|8,3:2|0:0|0:1,0:0:0:0:
108,16,231797,1,0,0:0:0:0:
66,85,231922,1,0,0:0:0:0:
185,128,232047,2,0,P|175:102|162:74,2,53.9999983520508,0|0|0,3:0|0:0|0:0,0:0:0:0:
61,309,232547,2,0,P|121:277|119:238,1,107.999996704102,8|0,0:1|0:0,0:0:0:0:
65,202,232922,1,0,0:0:0:0:
187,325,233047,22,0,P|169:356|162:377,2,53.9999983520508,0|0|0,3:0|0:0|0:0,0:0:0:0:
355,203,233547,2,0,B|327:216|316:240|316:240|290:232|256:243,1,107.999996704102,8|0,0:1|0:0,0:0:0:0:
282,160,233922,1,0,0:0:0:0:
421,238,234047,2,0,P|434:263|448:295,1,53.9999983520508,0|0,3:0|0:0,0:0:0:0:
489,367,234297,2,0,P|500:342|512:318,1,53.9999983520508
436,307,234547,2,0,L|319:333,1,107.999996704102,8|0,0:1|0:0,0:0:0:0:
265,369,234922,1,0,0:0:0:0:
217,284,235047,22,0,P|237:222|259:169,2,107.999996704102,0|0|8,3:0|0:0|0:1,0:0:0:0:
244,109,235797,1,0,0:0:0:0:
322,149,235922,1,0,0:0:0:0:
235,190,236047,2,0,P|205:178|180:173,1,53.9999983520508,0|0,3:0|0:0,0:0:0:0:
114,112,236297,2,0,P|140:105|165:95,1,53.9999983520508
103,274,236547,2,0,P|92:241|59:161,1,107.999996704102,8|0,0:1|0:0,0:0:0:0:
177,251,236922,1,0,0:0:0:0:
59,336,237047,22,0,P|18:328|1:319,2,53.9999983520508,0|0|0,3:0|0:0|0:0,0:0:0:0:
187,242,237547,2,0,B|219:236|242:250|238:254|235:258|259:274|294:273,1,107.999996704102,0|0,3:0|0:0,0:0:0:0:
348,226,237922,1,0,0:0:0:0:
413,361,238047,6,0,L|375:352,1,36,8|0,0:1|0:0,0:0:0:0:
451,288,238172,21,8,0:2:0:0:
456,295,238234,1,8,0:2:0:0:
461,302,238297,2,0,L|499:293,1,36,8|0,0:1|0:0,0:0:0:0:
404,223,238422,21,8,0:0:0:0:
399,230,238484,1,8,0:0:0:0:
394,237,238547,2,0,L|356:228,1,36,8|0,0:1|0:0,0:0:0:0:
441,147,238672,21,8,0:0:0:0:
446,154,238734,1,8,0:0:0:0:
451,161,238797,21,8,0:1:0:0:
458,134,238859,1,8,0:1:0:0:
465,108,238922,1,8,0:1:0:0:
472,82,238984,1,8,0:1:0:0:
479,56,239047,22,0,B|455:56|455:56|432:44|432:44|361:100|361:100|392:109,2,161.999995056153,0|0|8,1:0|1:0|0:0,0:0:0:0:
347,194,239422,5,8,0:2:0:0:
338,198,239484,1,8,0:2:0:0:
329,202,239547,2,0,P|299:184|293:152,1,62.9999980773926,8|0,0:1|0:0,0:0:0:0:
232,106,239672,2,0,P|232:71|257:49,1,62.9999980773926,8|0,0:1|0:0,0:0:0:0:
384,103,239797,37,8,1:2:0:0:
336,116,239859,1,8,3:2:0:0:
288,130,239922,1,8,0:1:0:0:
241,144,239984,1,8,0:1:0:0:
219,163,240047,6,0,L|241:100,3,62.9999980773926,8|8|8|0,0:1|0:0|0:1|0:0,0:0:0:0:
165,82,240297,2,0,L|121:31,1,62.9999980773926,8|0,1:2|0:0,0:0:0:0:
67,88,240422,2,0,L|2:100,1,62.9999980773926,8|0,1:2|1:0,0:0:0:0:
71,285,240547,38,0,P|90:226|119:148,1,125.999996154785,8|0,1:1|0:0,0:0:0:0:
90,358,240734,1,0,1:0:0:0:
61,369,240797,2,0,P|36:353|-4:340,1,62.9999980773926,8|0,0:2|0:0,0:0:0:0:
126,229,240922,2,0,P|151:245|191:258,1,62.9999980773926,0|0,1:0|0:0,0:0:0:0:
268,372,241047,6,0,L|246:309,1,62.9999980773926,0|0,1:0|0:0,0:0:0:0:
300,140,241172,1,8,0:0:0:0:
323,159,241234,1,8,0:0:0:0:
346,178,241297,2,0,L|325:237,1,62.9999980773926,8|0,0:1|0:0,0:0:0:0:
466,344,241422,38,0,B|461:342|461:342|402:374|402:374|394:365|394:365|421:240|421:240|438:242|438:242|509:305,1,323.999990112305,8|0,1:0|1:0,0:0:0:0:
362,81,241797,6,0,P|353:52|366:22,1,62.9999980773926,10|0,3:2|0:0,0:0:0:0:
441,35,241922,2,0,P|461:12|494:8,1,62.9999980773926,10|0,3:2|0:0,0:0:0:0:
420,149,242047,37,0,1:0:0:0:
375,168,242109,1,0,1:0:0:0:
326,161,242172,1,0,1:0:0:0:
289,130,242234,1,0,1:0:0:0:
275,83,242297,2,0,P|246:58|224:45,3,62.9999980773926,8|8|8|8,0:1|0:1|0:1|0:1,0:0:0:0:
150,126,242547,5,8,0:1:0:0:
159,120,242609,1,8,0:1:0:0:
188,115,242672,1,8,0:0:0:0:
199,118,242734,1,8,0:0:0:0:
219,139,242797,1,8,0:1:0:0:
215,148,242859,1,8,0:1:0:0:
209,177,242922,1,8,0:0:0:0:
212,187,242984,1,8,0:0:0:0:
236,204,243047,38,0,L|200:361,2,161.999995056153,0|0|8,1:0|0:0|0:0,0:0:0:0:
344,281,243422,6,0,P|311:290|284:304,1,62.9999980773926,8|0,0:1|0:0,0:0:0:0:
194,365,243547,2,0,P|165:350|135:342,1,62.9999980773926,8|0,0:0|0:0,0:0:0:0:
83,255,243672,2,0,P|92:219|106:192,1,62.9999980773926,8|0,0:1|0:0,0:0:0:0:
78,51,243797,37,8,0:0:0:0:
67,48,243859,1,8,0:0:0:0:
56,45,243922,1,8,0:0:0:0:
45,42,243984,1,8,0:0:0:0:
34,39,244047,6,0,P|13:64|13:95,1,62.9999980773926,8|0,0:1|0:0,0:0:0:0:
79,127,244172,2,0,P|90:157|116:173,1,62.9999980773926,8|0,0:1|0:0,0:0:0:0:
169,118,244297,1,8,0:0:0:0:
173,125,244359,1,8,0:0:0:0:
177,132,244422,2,0,P|209:137|235:122,1,62.9999980773926,8|0,0:0|0:0,0:0:0:0:
403,29,244547,38,0,P|388:68|380:98,3,62.9999980773926,8|8|8|8,0:0|0:0|0:0|0:1,0:0:0:0:
322,141,244797,2,0,P|333:171|342:204,1,62.9999980773926,8|0,0:1|0:0,0:0:0:0:
418,226,244922,2,0,P|397:250|373:274,1,62.9999980773926,8|0,0:1|0:0,0:0:0:0:
244,352,245047,6,0,P|252:321|263:292,1,62.9999980773926,0|0,1:0|0:0,0:0:0:0:
243,224,245172,1,8,0:1:0:0:
231,218,245234,1,8,0:1:0:0:
219,212,245297,2,0,P|189:236|187:259,1,62.9999980773926,8|0,0:1|0:0,0:0:0:0:
331,337,245422,2,0,P|361:329|392:323,1,62.9999980773926,8|0,0:0|0:0,0:0:0:0:
512,193,245547,38,0,L|472:142,1,62.9999980773926,8|0,0:1|0:0,0:0:0:0:
381,158,245672,2,0,L|405:98,1,62.9999980773926,8|0,0:1|0:0,0:0:0:0:
346,27,245797,2,0,L|409:18,3,62.9999980773926,8|8|8|8,0:0|0:0|0:0|0:0,0:0:0:0:
512,28,246047,6,0,P|483:40|460:77,1,62.9999980773926,8|0,0:1|0:0,0:0:0:0:
371,209,246172,1,8,0:1:0:0:
382,216,246234,1,8,0:1:0:0:
393,223,246297,2,0,L|414:159,1,62.9999980773926,8|0,0:0|0:0,0:0:0:0:
283,104,246422,2,0,L|302:163,1,62.9999980773926,8|0,0:0|0:0,0:0:0:0:
234,275,246547,37,8,0:0:0:0:
188,312,246609,1,8,0:0:0:0:
133,309,246672,1,8,0:0:0:0:
96,275,246734,1,8,0:0:0:0:
85,232,246797,1,8,0:1:0:0:
101,196,246859,1,8,0:1:0:0:
132,180,246922,1,8,0:1:0:0:
161,180,246984,1,8,0:1:0:0:
179,196,247047,38,0,L|144:361,2,144,0|0|8,1:0|3:0|0:0,0:0:0:0:
100,43,247797,6,0,P|71:23|36:18,1,62.9999980773926,0|0,1:0|0:0,0:0:0:0:
3,125,247922,1,0,1:0:0:0:
12,130,247984,1,0,1:0:0:0:
21,135,248047,2,0,L|88:119,1,62.9999980773926,8|0,0:1|0:0,0:0:0:0:
155,100,248172,2,0,L|222:84,1,62.9999980773926,8|0,0:1|0:0,0:0:0:0:
325,18,248297,5,8,0:1:0:0:
327,12,248359,1,8,0:1:0:0:
329,6,248422,2,0,P|294:26|284:47,1,62.9999980773926,8|0,0:0|0:0,0:0:0:0:
259,178,248547,37,8,0:0:0:0:
302,193,248609,1,8,0:0:0:0:
347,180,248672,1,8,0:0:0:0:
376,143,248734,1,8,0:0:0:0:
378,97,248797,1,8,0:1:0:0:
414,69,248859,1,8,0:1:0:0:
459,80,248922,1,8,0:1:0:0:
479,121,248984,1,8,0:1:0:0:
461,163,249047,6,0,P|448:199|441:228,1,62.9999980773926,8|0,0:2|0:0,0:0:0:0:
348,359,249172,1,8,0:1:0:0:
361,350,249234,1,8,0:1:0:0:
374,341,249297,2,0,P|365:310|353:281,1,62.9999980773926,8|0,0:1|0:0,0:0:0:0:
501,272,249422,38,0,B|448:301|448:301|408:238|408:238|320:264|320:264|279:237|279:237|253:291,1,323.999990112305,8|8,0:0|0:0,0:0:0:0:
75,367,249797,6,0,P|100:349|113:316,1,62.9999980773926,8|0,0:0|0:0,0:0:0:0:
184,324,249922,2,0,P|180:293|158:265,1,62.9999980773926,8|0,0:0|0:0,0:0:0:0:
48,231,250047,37,8,0:0:0:0:
31,187,250109,1,8,0:0:0:0:
45,143,250172,1,8,0:0:0:0:
82,115,250234,1,8,0:0:0:0:
128,117,250297,1,8,0:1:0:0:
165,90,250359,1,8,0:1:0:0:
170,44,250422,1,8,0:1:0:0:
140,10,250484,1,8,0:1:0:0:
95,9,250547,5,8,0:0:0:0:
86,16,250609,1,8,0:0:0:0:
68,39,250672,1,8,0:1:0:0:
69,50,250734,1,8,0:1:0:0:
86,74,250797,2,0,P|125:81|150:90,1,62.9999980773926,8|0,0:1|0:0,0:0:0:0:
197,161,250922,2,0,P|236:154|261:145,1,62.9999980773926,8|0,0:0|0:0,0:0:0:0:
407,58,251047,38,0,B|362:73|362:73|332:188,2,161.999995056153,8|0|8,1:2|0:0|0:1,0:0:0:0:
424,361,251422,6,0,P|392:351|377:320,1,62.9999980773926,8|0,0:1|0:0,0:0:0:0:
505,278,251547,2,0,P|512:310|492:339,1,62.9999980773926,8|0,0:0|0:0,0:0:0:0:
393,250,251672,2,0,P|417:227|452:229,1,62.9999980773926,8|8,0:1|0:1,0:0:0:0:
377,326,251797,37,8,0:0:0:0:
367,330,251859,1,8,0:0:0:0:
357,334,251922,2,0,P|311:322|278:316,1,62.9999980773926,8|8,0:1|0:1,0:0:0:0:
91,190,252047,6,0,L|108:250,1,62.9999980773926,8|0,0:1|0:0,0:0:0:0:
17,209,252172,2,0,L|34:269,1,62.9999980773926,8|0,0:1|0:0,0:0:0:0:
172,379,252297,37,8,0:0:0:0:
180,348,252359,1,8,0:0:0:0:
188,318,252422,1,8,0:0:0:0:
197,287,252484,1,8,0:1:0:0:
205,257,252547,1,8,0:1:0:0:
213,227,252609,1,8,0:1:0:0:
222,196,252672,1,8,0:1:0:0:
230,166,252734,1,8,0:1:0:0:
239,136,252797,2,0,L|262:57,1,62.9999980773926,8|0,0:1|0:0,0:0:0:0:
176,14,252922,5,8,0:0:0:0:
166,18,252984,1,8,0:0:0:0:
156,22,253047,2,0,P|161:58|181:75,1,62.9999980773926,8|0,0:0|0:0,0:0:0:0:
315,164,253172,1,8,0:1:0:0:
334,158,253235,1,8,0:1:0:0:
353,152,253297,2,0,P|387:129|419:112,1,62.9999980773926,8|0,0:1|0:0,0:0:0:0:
476,65,253422,38,0,B|366:39|366:39|359:45|359:45|407:191|407:191|417:194|417:194|451:174,1,323.999990112305,8|8,0:0|0:0,0:0:0:0:
498,366,253797,6,0,P|497:334|477:294,1,62.9999980773926,8|0,0:1|0:0,0:0:0:0:
411,325,253922,2,0,P|383:309|338:307,1,62.9999980773926,8|0,0:1|0:0,0:0:0:0:
212,230,254047,38,0,P|252:219|281:208,1,62.9999980773926,8|0,0:0|0:0,0:0:0:0:
220,376,254171,1,8,0:1:0:0:
212,380,254234,1,8,0:1:0:0:
204,384,254297,2,0,P|174:373|143:365,1,62.9999980773926,8|0,0:1|0:0,0:0:0:0:
41,289,254422,2,0,P|81:278|110:267,1,62.9999980773926,8|0,0:1|0:0,0:0:0:0:
140,82,254547,5,8,0:0:0:0:
142,76,254609,1,8,0:0:0:0:
144,70,254672,2,0,P|131:33|123:2,1,62.9999980773926,8|0,0:2|0:0,0:0:0:0:
33,135,254797,37,8,0:1:0:0:
80,145,254859,1,8,0:1:0:0:
126,155,254922,1,8,0:1:0:0:
172,165,254984,1,8,0:1:0:0:
219,175,255047,22,0,B|293:97|430:125|469:250|401:356|298:364|243:325|247:320|251:313|200:327|190:371,1,504,2|0,0:0|0:0,0:0:0:0:
206,173,257047,6,0,B|151:80|11:76|-54:189|-12:308|86:339|148:313|146:307|143:300|190:325|190:370,1,504,2|0,0:0|0:0,0:0:0:0:
225,81,259047,37,2,0:0:0:0:
256,192,259109,12,0,263047,1:0:0:0:
67,87,271047,22,0,B|79:82|79:82|84:90|84:90|93:83|93:83|102:89|102:89|110:81|110:81|123:93|123:93|131:85|131:85|138:98|138:98|147:92|147:92|155:101|155:101|166:91|166:91|172:103|172:103|182:102|182:102|188:114|188:114|198:108|198:108|200:120|200:120|206:120|206:120|214:114|214:114|216:120|216:120|229:120|229:120|230:128|230:128|233:131|233:131|242:128|242:128|245:137|245:137|255:134|255:134|260:138|260:138|264:145|264:145|270:147|270:147|272:154,1,288,4|0,1:0|0:0,0:0:0:0:
418,298,271547,38,0,P|440:260|469:228,1,72,10|0,0:0|0:0,0:0:0:0:
333,285,271797,1,2,0:2:0:0:
401,368,271922,1,2,0:2:0:0:
346,267,272047,21,2,3:2:0:0:
245,322,272172,2,0,P|281:334|316:356,1,72,2|2,3:2|0:0,0:0:0:0:
230,242,272422,1,2,3:2:0:0:
178,365,272547,2,0,P|142:353|107:331,1,72,10|0,0:2|0:0,0:0:0:0:
74,264,272797,1,2,0:0:0:0:
1,340,272922,1,2,0:0:0:0:
87,267,273047,22,0,L|56:107,1,144,2|2,3:0|3:2,0:0:0:0:
135,104,273422,1,2,0:2:0:0:
3,72,273547,1,10,0:2:0:0:
78,50,273672,1,2,0:2:0:0:
210,82,273797,1,2,0:2:0:0:
135,104,273922,1,2,0:2:0:0:
218,67,274047,21,2,3:2:0:0:
274,160,274172,2,0,P|286:119|306:87,1,72,2|0,3:2|0:0,0:0:0:0:
175,166,274422,1,2,3:2:0:0:
319,232,274547,2,0,P|375:198|469:176,1,144,10|0,0:2|0:0,0:0:0:0:
512,223,274922,1,2,0:0:0:0:
424,26,275047,22,0,L|390:187,1,144,2|2,3:0|0:2,0:0:0:0:
443,253,275422,1,2,0:0:0:0:
390,188,275547,1,10,0:2:0:0:
325,241,275672,1,2,0:2:0:0:
431,371,275797,1,2,0:2:0:0:
496,318,275922,1,2,0:2:0:0:
378,306,276047,21,2,3:2:0:0:
313,359,276172,2,0,P|268:344|226:336,1,72,2|0,3:2|0:0,0:0:0:0:
134,227,276422,1,2,3:2:0:0:
85,331,276547,2,0,P|175:303|205:241,1,144,10|0,0:2|0:0,0:0:0:0:
262,206,276922,1,2,0:0:0:0:
133,112,277047,22,0,B|93:117|62:102|62:102|54:132|6:164,1,144,2|2,3:0|0:2,0:0:0:0:
190,47,277422,1,2,0:2:0:0:
246,131,277547,1,10,0:2:0:0:
328,94,277672,1,2,0:2:0:0:
403,129,277797,1,2,0:2:0:0:
301,22,277922,1,2,0:2:0:0:
182,185,278047,22,0,L|188:206,1,18,0|0,1:0|0:0,0:0:0:0:
198,235,278297,22,0,L|204:256,1,18,0|0,1:0|0:0,0:0:0:0:
214,285,278547,22,0,L|220:306,1,18,0|0,1:0|0:0,0:0:0:0:
164,358,278797,38,0,L|242:104,1,242.999992584229,0|0,1:0|0:0,0:0:0:0:
182,74,279047,22,0,P|123:95|114:160,1,125.999996154785,4|0,1:0|0:0,0:0:0:0:
329,185,279297,2,0,P|394:162|465:146,1,125.999996154785,0|0,1:0|0:0,0:0:0:0:
13,148,279547,2,0,P|2:209|54:249,1,125.999996154785,0|0,1:0|3:0,0:0:0:0:
86,326,279734,1,0,3:0:0:0:
94,337,279797,6,0,B|158:343|207:307|200:303|195:299|241:258|305:264,1,229.500004377365,0|0,1:0|0:0,0:0:0:0:
365,310,280047,38,0,P|358:354|336:370,1,62.9999980773926,0|0,1:0|0:0,0:0:0:0:
225,254,280172,1,0,3:0:0:0:
219,246,280234,1,0,3:0:0:0:
213,238,280297,2,0,B|218:194|253:155|258:161|263:168|309:115|275:41|203:61,1,229.500004377365,0|0,1:0|0:0,0:0:0:0:
132,148,280547,6,0,P|161:136|191:125,1,62.9999980773926,0|0,1:0|0:0,0:0:0:0:
442,48,280672,1,0,3:0:0:0:
449,43,280734,1,0,3:0:0:0:
456,38,280797,2,0,B|396:6|396:6|387:11|387:11|348:169,1,229.500004377365,0|0,1:0|0:0,0:0:0:0:
422,207,281047,38,0,P|461:199|479:166,1,62.9999980773926,0|0,1:0|0:0,0:0:0:0:
304,263,281172,2,0,P|322:300|332:329,1,62.9999980773926,0|0,3:0|3:0,0:0:0:0:
452,384,281297,6,0,P|355:357|227:336,1,229.500004377365,0|0,1:0|0:0,0:0:0:0:
168,372,281547,37,0,1:0:0:0:
36,136,281672,1,0,3:0:0:0:
33,129,281734,1,0,3:0:0:0:
30,122,281797,2,0,P|116:88|124:201,1,229.500004377365,0|0,1:0|0:0,0:0:0:0:
42,264,282047,6,0,P|49:237|65:200,1,62.9999980773926,0|0,1:0|0:0,0:0:0:0:
76,330,282172,2,0,P|49:337|9:342,1,62.9999980773926,0|0,1:0|0:0,0:0:0:0:
117,268,282297,2,0,P|136:287|160:319,1,62.9999980773926,0|0,1:0|0:0,0:0:0:0:
200,382,282422,2,0,P|218:356|241:334,1,62.9999980773926,0|0,1:3|0:3,0:0:0:0:
427,247,282547,1,0,1:0:0:0:
426,278,282609,1,0,1:0:0:0:
409,304,282672,1,0,1:0:0:0:
381,316,282734,1,0,1:0:0:0:
350,311,282797,38,0,P|316:219|261:94,1,229.500004377365,0|0,1:0|0:0,0:0:0:0:
310,42,283047,6,0,P|343:49|362:75,1,62.9999980773926,0|0,1:0|0:0,0:0:0:0:
214,169,283172,2,0,P|183:157|146:148,1,62.9999980773926,0|0,3:0|3:0,0:0:0:0:
243,280,283297,38,0,P|325:227|462:173,1,229.500004377365,0|0,1:0|0:0,0:0:0:0:
507,218,283547,1,0,1:0:0:0:
283,364,283672,1,0,3:0:0:0:
274,368,283735,1,0,3:0:0:0:
265,372,283797,2,0,B|208:381|167:320|172:316|178:312|136:249|71:273,1,229.500004377365,0|0,1:0|0:0,0:0:0:0:
19,320,284047,6,0,P|26:356|55:375,1,62.9999980773926,0|0,1:0|0:0,0:0:0:0:
204,231,284172,1,0,3:0:0:0:
209,222,284234,1,0,3:0:0:0:
214,213,284297,2,0,B|271:222|312:161|307:157|301:153|343:90|408:114,1,229.500004377365,0|0,1:0|0:0,0:0:0:0:
467,80,284547,38,0,P|444:49|412:43,1,62.9999980773926,2|0,1:2|0:0,0:0:0:0:
387,190,284672,1,2,0:2:0:0:
397,193,284734,1,2,0:2:0:0:
407,196,284797,2,0,P|440:184|479:175,1,62.9999980773926,2|0,1:2|0:0,0:0:0:0:
363,0,284922,2,0,P|324:4|303:29,1,62.9999980773926,2|0,0:2|0:0,0:0:0:0:
199,113,285047,6,0,P|127:92|57:77,1,125.999996154785,2|0,1:2|0:0,0:0:0:0:
9,113,285234,1,2,0:2:0:0:
2,126,285297,2,0,P|20:164|43:172,1,62.9999980773926,2|0,1:2|0:0,0:0:0:0:
235,5,285422,2,0,P|196:17|157:33,1,62.9999980773926,2|0,0:2|0:0,0:0:0:0:
111,165,285547,37,2,1:2:0:0:
121,193,285609,1,2,0:2:0:0:
133,223,285672,1,2,0:2:0:0:
145,252,285734,1,2,0:2:0:0:
155,282,285797,2,0,B|138:281|138:281|35:356|35:356|23:347|23:347|58:300|58:300|78:303,1,229.500004377365,2|0,1:2|0:0,0:0:0:0:
160,363,286047,6,0,B|228:370|271:328|261:322|254:317|302:263|375:274,1,229.500004377365,2|0,1:2|0:0,0:0:0:0:
426,305,286297,38,0,P|425:337|396:366,1,62.9999980773926,0|0,1:0|0:0,0:0:0:0:
422,231,286422,2,0,P|454:232|483:261,1,62.9999980773926,2|0,3:0|0:0,0:0:0:0:
288,257,286547,1,2,1:2:0:0:
283,242,286609,1,2,0:2:0:0:
278,228,286672,1,2,0:2:0:0:
273,213,286734,1,2,0:2:0:0:
268,199,286797,2,0,L|305:62,1,125.999996154785,2|2,1:2|0:2,0:0:0:0:
71,21,287047,5,2,1:2:0:0:
11,67,287130,37,2,0:2:0:0:
29,131,287213,5,2,0:2:0:0:
83,155,287297,37,2,1:2:0:0:
131,154,287380,5,2,0:2:0:0:
170,167,287463,37,2,0:2:0:0:
189,195,287547,5,2,1:2:0:0:
187,208,287609,1,2,0:2:0:0:
185,221,287672,1,2,0:2:0:0:
183,234,287734,1,2,0:2:0:0:
181,247,287797,2,0,L|170:311,3,62.9999980773926,2|2|2|2,1:2|0:2|0:2|0:2,0:0:0:0:
227,365,288047,37,2,1:2:0:0:
258,376,288130,5,2,0:2:0:0:
297,361,288213,37,2,0:2:0:0:
312,312,288297,5,2,1:2:0:0:
354,271,288380,37,2,0:2:0:0:
420,265,288463,5,2,0:2:0:0:
479,312,288547,38,0,L|460:377,1,62.9999980773926,2|0,1:2|0:0,0:0:0:0:
354,271,288672,1,2,0:2:0:0:
348,262,288734,1,2,0:2:0:0:
342,253,288797,2,0,P|353:212|371:199,1,62.9999980773926,2|0,1:2|0:0,0:0:0:0:
406,133,288922,2,0,P|447:144|459:162,1,62.9999980773926,2|0,0:2|0:0,0:0:0:0:
309,38,289047,6,0,P|275:48|243:56,1,62.9999980773926,2|0,1:2|0:0,0:0:0:0:
198,112,289172,2,0,P|164:101|132:94,1,62.9999980773926,2|0,0:2|0:0,0:0:0:0:
22,82,289297,1,2,1:2:0:0:
38,70,289359,2,0,P|84:88|101:169,1,125.999996154785,2|0,0:2|0:0,0:0:0:0:
44,240,289547,37,2,1:2:0:0:
39,233,289609,1,2,0:2:0:0:
34,226,289672,1,2,0:2:0:0:
73,232,289734,1,2,0:2:0:0:
112,238,289797,2,0,P|134:257|140:297,1,62.9999980773926,2|0,1:2|0:0,0:0:0:0:
74,321,289922,2,0,P|68:349|36:374,1,62.9999980773926,2|0,0:2|0:0,0:0:0:0:
215,255,290047,6,0,P|289:268|356:288,1,125.999996154785,2|0,1:2|0:0,0:0:0:0:
366,355,290234,1,2,0:2:0:0:
384,363,290297,2,0,P|423:351|433:322,1,62.9999980773926,2|0,1:2|0:0,0:0:0:0:
486,246,290422,2,0,P|500:282|507:308,1,62.9999980773926,2|0,0:2|0:0,0:0:0:0:
339,196,290547,37,2,1:2:0:0:
326,151,290609,1,2,0:2:0:0:
344,108,290672,1,2,0:2:0:0:
385,86,290734,1,2,0:2:0:0:
430,94,290797,2,0,P|460:114|477:143,1,62.9999980773926,2|0,1:2|0:0,0:0:0:0:
415,181,290922,2,0,P|412:216|396:246,1,62.9999980773926,2|0,0:2|0:0,0:0:0:0:
245,50,291047,6,0,P|315:34|374:11,1,125.999996154785,2|2,1:2|0:2,0:0:0:0:
220,170,291297,2,0,B|168:192|134:143|139:138|143:133|108:85|50:111,1,188.999994232178,2|2,1:2|0:2,0:0:0:0:
5,164,291547,38,0,P|32:198|46:226,1,62.9999980773926,2|0,1:2|0:0,0:0:0:0:
102,321,291672,1,2,0:2:0:0:
90,326,291734,1,2,0:2:0:0:
78,331,291797,2,0,P|93:303|114:279,1,62.9999980773926,2|0,1:2|0:0,0:0:0:0:
197,259,291922,2,0,P|235:270|264:276,1,62.9999980773926,2|0,0:2|0:0,0:0:0:0:
459,266,292047,6,0,P|375:269|335:367,1,188.999994232178,2|0,1:2|0:0,0:0:0:0:
342,376,292297,1,2,1:2:0:0:
495,202,292422,1,2,0:2:0:0:
500,194,292484,1,2,0:2:0:0:
505,186,292547,2,0,P|493:152|478:120,1,62.9999980773926,2|0,1:2|0:0,0:0:0:0:
423,33,292672,2,2,P|410:61|399:91,1,62.9999980773926,2|2,0:2|0:2,0:2:0:0:
334,153,292797,1,2,1:2:0:0:
326,156,292859,1,2,0:2:0:0:
318,159,292922,2,0,P|272:145|242:139,1,62.9999980773926,2|2,0:2|0:2,0:0:0:0:
33,181,293047,37,0,1:0:0:0:
207,79,293172,2,0,B|213:69|213:69|162:11|162:11|149:21|149:21|111:143|111:143|120:156|120:156|102:216,1,306.000005836487,2|0,0:0|1:0,0:0:0:0:
284,310,293547,5,2,0:2:0:0:
196,170,293672,1,2,0:2:0:0:
99,351,293797,37,2,1:2:0:0:
323,240,293922,1,2,0:2:0:0:
27,98,294047,5,10,3:1:0:0:
27,98,294547,37,0,1:0:0:0:
62,84,294609,1,0,1:0:0:0:
99,89,294672,1,0,1:0:0:0:
130,111,294734,1,0,1:0:0:0:
147,144,294797,2,0,P|144:180|116:210,1,76.5000014591217,0|0,1:0|1:0,0:0:0:0:
171,45,294922,2,0,P|215:31|250:22,1,76.5000014591217,0|0,1:0|1:0,0:0:0:0:
446,78,295047,22,0,B|392:67|359:112|367:116|376:121|343:171|283:163,1,188.999994232178,4|0,1:0|0:0,0:0:0:0:
265,160,295297,1,2,1:2:0:0:
450,304,295422,6,0,B|512:271|512:271|490:219,1,125.999996154785,2|0,0:2|1:0,0:0:0:0:
294,85,295672,1,2,0:2:0:0:
155,297,295797,38,0,B|133:348|133:348|195:381,1,125.999996154785,2|0,1:2|0:0,0:0:0:0:
410,235,296047,1,2,1:2:0:0:
171,75,296172,6,0,B|120:95|109:163|109:163|75:138|35:151,1,188.999994232178,2|0,0:2|0:0,0:0:0:0:
62,72,296422,1,2,0:2:0:0:
378,158,296547,2,0,P|392:101|420:31,1,125.999996154785,2|0,1:2|0:0,0:0:0:0:
269,293,296797,2,0,P|308:351|369:346,1,125.999996154785,2|0,1:2|0:0,0:0:0:0:
208,170,297047,38,0,P|118:193|25:228,1,188.999994232178,2|0,1:2|0:0,0:0:0:0:
7,239,297297,1,2,1:2:0:0:
201,50,297422,6,0,B|262:29|262:29|296:91,1,125.999996154785,2|0,0:2|1:0,0:0:0:0:
418,311,297672,1,2,0:2:0:0:
476,127,297797,38,0,B|415:106|415:106|381:168,1,125.999996154785,2|0,1:2|0:0,0:0:0:0:
279,378,298047,1,2,1:2:0:0:
435,310,298172,1,2,0:2:0:0:
231,216,298297,1,2,1:2:0:0:
347,333,298422,5,2,1:2:0:0:
358,303,298484,1,2,1:2:0:0:
371,275,298547,1,2,1:2:0:0:
387,247,298609,1,2,1:2:0:0:
404,221,298672,1,2,1:2:0:0:
407,383,298797,38,0,P|447:366|460:338,1,62.9999980773926,0|0,1:0|0:0,0:0:0:0:
283,278,298922,2,0,P|252:292|218:303,1,62.9999980773926,0|0,1:0|0:0,0:0:0:0:
118,222,299047,5,2,1:2:0:0:
107,215,299109,1,2,0:2:0:0:
98,203,299172,1,2,0:2:0:0:
93,187,299234,1,2,0:2:0:0:
94,169,299297,1,2,1:2:0:0:
102,150,299359,1,2,0:2:0:0:
120,137,299422,1,2,0:2:0:0:
143,130,299484,1,2,0:2:0:0:
166,138,299547,37,2,1:2:0:0:
192,143,299609,1,2,0:2:0:0:
220,137,299672,1,2,0:2:0:0:
246,120,299734,1,2,0:2:0:0:
262,90,299797,1,2,1:2:0:0:
262,54,299859,1,2,0:2:0:0:
244,19,299922,1,2,0:2:0:0:
209,0,299984,1,2,0:2:0:0:
168,11,300047,6,0,P|144:109|129:208,1,188.999994232178,2|0,1:2|0:0,0:0:0:0:
162,262,300297,1,2,1:2:0:0:
0,70,300422,2,0,B|25:13|25:13|83:38,1,125.999996154785,2|0,0:2|1:0,0:0:0:0:
315,171,300672,1,2,0:2:0:0:
178,334,300797,2,0,B|120:358|120:358|94:301,1,125.999996154785,2|0,1:2|0:0,0:0:0:0:
233,118,301047,37,2,1:2:0:0:
476,200,301172,1,2,0:2:0:0:
271,255,301297,1,2,1:2:0:0:
475,72,301422,5,0,0:2:0:0:
392,322,301547,1,0,1:2:0:0:
305,161,301672,2,0,L|379:182,1,62.9999980773926,2|0,0:2|0:0,0:0:0:0:
512,274,301797,2,0,B|476:274|452:295|457:300|462:305|441:331|399:329,1,125.999996154785,2|0,1:2|0:0,0:0:0:0:
225,195,302047,38,0,P|196:121|150:13,1,188.999994232178,2|0,1:2|0:0,0:0:0:0:
128,230,302297,2,0,B|145:258|145:258|180:257,1,62.9999980773926,0|0,1:0|0:0,0:0:0:0:
274,70,302422,2,0,P|240:86|217:102,1,62.9999980773926
51,248,302547,5,2,1:2:0:0:
38,218,302609,1,0,1:0:0:0:
26,189,302672,1,0,1:0:0:0:
14,160,302734,1,0,1:0:0:0:
2,131,302797,2,0,P|57:80|83:165,1,188.999994232178,0|0,1:0|0:0,0:0:0:0:
21,327,303047,38,0,B|24:317|24:317|13:313|13:313|16:304|16:304|7:302|7:302|10:291|10:291|5:289|5:289|8:276|8:276|-7:271|-7:271|-13:263|-13:263|-6:255|-6:255|-16:244|-16:244|-5:248|-5:248|4:242|4:242|18:258|18:258|28:253|28:253|36:257|36:257|46:266|46:266|56:260|56:260|65:271|65:271|75:266|75:266|82:267|82:267|88:279|88:279|95:275|95:275|103:281|103:281|112:276|112:276|122:283|122:283|126:288|126:288|133:283|133:283|141:294|141:294|151:291|151:291|170:302|170:302|175:297|175:297|181:298|181:298|186:307|186:307|194:303|194:303|199:311,1,396.000012084961,4|0,1:2|0:0,0:0:0:0:
319,155,303547,6,0,B|316:148|316:148|324:142|324:142|322:134|322:134|330:125|330:125|327:119|327:119|317:117|317:117|306:129|306:129|300:133|300:133|287:128|287:128|282:131|282:131|274:142|274:142|267:139|267:139|262:146|262:146|255:141|255:141|246:141|246:141|244:152|244:152|238:155|238:155|227:149|227:149|224:159|224:159|211:161,1,198.000006042481,4|0,1:2|0:0,0:0:0:0:
385,365,303797,37,2,0:0:0:0:
429,376,303859,1,2,0:0:0:0:
471,354,303922,1,2,0:0:0:0:
488,312,303984,1,2,0:0:0:0:
472,268,304047,2,0,P|415:255|345:233,1,125.999996154785,6|0,1:2|0:0,0:0:0:0:
422,44,304297,5,2,0:0:0:0:
470,40,304359,1,2,0:0:0:0:
497,79,304422,1,2,0:0:0:0:
368,142,304547,37,6,1:2:0:0:
305,13,304672,1,2,0:0:0:0:
459,144,304797,1,6,1:2:0:0:
265,218,304922,1,2,0:0:0:0:
111,87,305047,5,6,1:2:0:0:
21,266,305172,1,2,0:2:0:0:
198,162,305297,1,2,0:2:0:0:
75,327,305422,37,2,0:2:0:0:
8,133,305547,1,6,1:2:0:0:
143,288,305672,1,2,0:2:0:0:
199,31,305797,5,2,0:2:0:0:
90,224,305922,1,2,0:2:0:0:
13,10,306047,37,6,1:2:0:0:
210,145,306172,2,0,L|273:125,1,62.9999980773926,2|2,0:2|0:2,0:0:0:0:
96,37,306297,1,2,0:2:0:0:
0,239,306422,1,2,0:2:0:0:
292,233,306547,5,6,1:2:0:0:
125,111,306672,1,2,0:2:0:0:
57,329,306797,37,2,1:2:0:0:
196,167,306922,1,2,1:2:0:0:
285,352,307047,5,2,1:2:0:0:
144,230,307172,1,2,1:2:0:0:
127,225,307234,1,2,1:2:0:0:
111,220,307297,2,0,B|60:235|60:235|49:254|49:254|-12:273,1,125.999996154785,0|0,1:2|0:0,0:0:0:0:
137,93,307547,37,2,1:2:0:0:
178,72,307609,1,2,0:2:0:0:
223,80,307672,1,2,1:2:0:0:
254,115,307734,1,2,1:2:0:0:
256,161,307797,1,2,1:2:0:0:
275,204,307859,1,2,0:2:0:0:
315,226,307922,1,2,1:2:0:0:
361,219,307984,1,2,0:2:0:0:
393,185,308047,6,0,P|414:122|441:66,1,125.999996154785,2|0,1:2|1:0,0:0:0:0:
262,283,308297,1,2,1:2:0:0:
232,275,308359,1,2,1:2:0:0:
202,267,308422,1,2,1:2:0:0:
447,240,308547,2,0,P|496:253|509:328,1,125.999996154785,2|0,1:2|0:0,0:0:0:0:
458,366,308734,1,0,1:0:0:0:
442,369,308797,2,0,P|381:345|308:327,1,125.999996154785,2|0,1:2|0:0,0:0:0:0:
122,246,309047,37,2,1:2:0:0:
218,350,309172,1,2,1:2:0:0:
179,183,309297,5,2,1:2:0:0:
28,317,309422,1,2,1:2:0:0:
8,78,309547,37,2,1:2:0:0:
260,203,309672,1,2,1:2:0:0:
32,307,309797,6,0,L|64:172,1,125.999996154785,2|0,1:2|1:0,0:0:0:0:
195,49,310047,37,2,1:2:0:0:
221,39,310109,1,2,0:2:0:0:
251,33,310172,1,2,0:2:0:0:
330,148,310297,5,2,0:2:0:0:
304,138,310359,1,2,0:2:0:0:
274,132,310422,1,2,0:2:0:0:
432,72,310547,37,2,0:2:0:0:
433,69,310609,1,2,0:2:0:0:
434,66,310672,1,2,0:2:0:0:
435,63,310734,1,2,0:2:0:0:
436,60,310797,1,2,0:2:0:0:
447,49,311047,22,0,B|503:23|503:23|510:40|510:40|452:167|452:167|398:204|398:204|403:220|403:220|500:254,1,396.000012084961,4|0,1:2|0:0,0:0:0:0:
351,343,311422,6,0,B|284:369|284:369|259:364|259:364|212:287|212:287|221:275|221:275|359:314|359:314|371:333|371:333|421:346,1,396.000012084961,4|0,1:2|0:0,0:0:0:0:
231,199,311797,38,0,B|166:180|166:180|148:192|148:192|115:321|115:321|91:315|91:315|44:233|44:233|22:229|22:229|0:251,1,396.000012084961,4|0,1:2|0:0,0:0:0:0:
118,40,312172,6,0,B|127:26|127:26|224:10|224:10|233:19|233:19|167:104|167:104|91:77|91:77|74:54|74:54|18:39,1,396.000012084961,4|0,1:2|0:0,0:0:0:0:
241,206,312547,38,0,B|261:135|261:135|275:126|275:126|346:151|346:151|310:167,1,198.000006042481,4|0,1:2|0:0,0:0:0:0:
481,60,312797,2,0,B|416:96|416:96|400:92|400:92|367:24|367:24|404:38,1,198.000006042481,4|0,1:2|0:0,0:0:0:0:
406,245,313047,6,0,B|406:260|406:260|459:279|459:279|484:268|484:268|515:192|515:192|499:178|499:178|423:204|423:204|413:221|413:221|325:257,1,396.000012084961,4|0,1:2|0:0,0:0:0:0:
143,305,313422,38,0,B|207:268|207:268|225:273|225:273|271:353|271:353|285:360|285:360|371:335|371:335|412:375|412:375|470:368,1,396.000012084961,4|0,1:2|0:0,0:0:0:0:
164,188,313797,6,0,B|152:173|152:173|20:138|20:138|4:151|4:151|38:229|38:229|63:239|63:239|138:220|138:220|161:194,1,396.000012084961,4|0,1:2|0:0,0:0:0:0:
416,61,314172,38,0,B|427:50|427:50|497:61|497:61|505:73|505:73|432:165|432:165|401:155|401:155|377:37|377:37|360:14,1,396.000012084961,4|0,1:2|0:0,0:0:0:0:
245,192,314547,6,0,B|307:152|307:152|325:157|325:157|338:222|338:222|395:223,1,198.000006042481,4|0,1:2|0:0,0:0:0:0:
222,16,314797,2,0,B|203:88|203:88|187:96|187:96|132:57|132:57|90:95,1,198.000006042481,4|0,1:2|0:0,0:0:0:0:
84,248,315047,38,0,B|26:253|26:253|2:171|2:171|12:158|12:158|118:211|118:211|123:230|123:230|74:320,1,396.000012084961,4|0,1:2|0:0,0:0:0:0:
354,320,315422,6,0,B|303:337|303:337|297:350|297:350|224:372|224:372|172:291|172:291|180:281|180:281|306:295|306:295|317:312,1,396.000012084961,4|0,1:2|0:0,0:0:0:0:
460,73,315797,38,0,B|428:84|428:84|423:97|423:97|393:111|393:111|331:33|331:33|301:25|301:25|261:169|261:169|300:152,1,396.000012084961,4|0,1:2|0:0,0:0:0:0:
438,319,316172,6,0,B|479:338|479:338|491:332|491:332|520:182|520:182|503:167|503:167|441:194|441:194|433:212|433:212|357:245,1,396.000012084961,4|0,1:2|0:0,0:0:0:0:
256,86,316547,38,0,B|239:77|239:77|222:26|222:26|278:43|278:43|282:55|282:55|340:76,1,198.000006042481,4|0,1:2|0:0,0:0:0:0:
129,195,316797,2,0,B|146:186|146:186|163:135|163:135|107:152|107:152|103:164|103:164|45:185,1,198.000006042481,4|0,1:2|0:0,0:0:0:0:
110,348,317047,6,0,B|169:369|169:369|182:362|182:362|230:272|230:272|246:266|246:266|298:303|298:303|365:287|365:287|436:318,1,396.000012084961,4|0,1:2|0:0,0:0:0:0:
499,56,317422,38,0,B|483:61|483:61|413:33|413:33|400:42|400:42|393:184|393:184|435:205|435:205|501:129,1,396.000012084961,4|0,1:2|0:0,0:0:0:0:
283,34,317797,6,0,B|228:23|228:23|186:131|186:131|106:76|106:76|55:125|55:125|-3:116,1,396.000012084961,4|0,1:2|0:0,0:0:0:0:
147,268,318172,38,0,B|264:328|264:328|318:151|318:151|248:188,1,396.000012084961,4|0,1:2|0:0,0:0:0:0:
345,339,318547,6,0,B|346:353|346:353|407:372|407:372|424:364|424:364|453:310|453:310|504:291,1,198.000006042481,4|0,1:2|0:0,0:0:0:0:
173,194,318797,2,0,B|171:179|171:179|110:160|110:160|93:168|93:168|64:222|64:222|13:241,1,198.000006042481,4|0,1:2|0:0,0:0:0:0:
267,59,319047,38,0,B|309:24|309:24|324:30|324:30|368:175|368:175|400:166|400:166|442:92|442:92|455:88|455:88|508:108,1,396.000012084961,4|0,1:2|0:0,0:0:0:0:
387,300,319422,6,0,B|320:329|320:329|260:253|260:253|303:230|303:230|422:288|422:288|429:298|429:298|460:312,1,396.000012084961,4|0,1:2|0:0,0:0:0:0:
223,133,319797,38,0,B|180:123|180:123|116:181|116:181|81:174|81:174|34:26|34:26|99:63,1,396.000012084961,4|0,1:2|0:0,0:0:0:0:
0,317,320172,6,0,B|14:296|14:296|190:241|190:241|147:365|147:365|83:348,1,396.000012084961,4|0,1:2|0:0,0:0:0:0:
223,133,320547,38,0,B|279:120|279:120|294:128|294:128|310:181|310:181|327:192|327:192|376:180,1,198.000006042481,4|0,1:2|0:0,0:0:0:0:
484,282,320797,2,0,B|428:269|428:269|413:277|413:277|397:330|397:330|380:341|380:341|331:329,1,198.000006042481,4|0,1:2|0:0,0:0:0:0:
489,72,321047,6,0,B|517:53|517:53|494:161|494:161|459:181|459:181|399:51|399:51|332:30,1,396.000012084961,4|0,1:2|0:0,0:0:0:0:
262,318,321422,38,0,B|319:346|319:346|371:190|371:190|364:179|364:179|204:246,1,396.000012084961,4|0,1:2|0:0,0:0:0:0:
69,99,321797,6,0,B|29:33|29:33|45:18|45:18|204:73|204:73|162:146|162:146|120:162,1,396.000012084961,4|0,1:2|0:0,0:0:0:0:
105,328,322172,38,0,B|71:359|71:359|1:243|1:243|88:249|88:249|140:329|140:329|197:305,1,396.000012084961,4|0,1:2|0:0,0:0:0:0:
340,226,322547,6,0,B|320:155|320:155|306:146|306:146|235:171|235:171|271:187,1,198.000006042481,4|0,1:2|0:0,0:0:0:0:
383,314,322797,2,0,B|447:350|447:350|463:346|463:346|496:278|496:278|459:292,1,198.000006042481,4|0,1:2|0:0,0:0:0:0:
436,103,323047,22,0,B|396:105|367:85|372:79|376:73|347:48|293:60,2,144,4|0|8,1:2|0:0|0:0,0:0:0:0:
244,14,323797,1,0,3:0:0:0:
193,108,323922,1,0,3:0:0:0:
118,68,324047,1,0,3:0:0:0:
59,114,324172,22,0,P|88:162|129:244,1,144,0|0,3:0|3:0,0:0:0:0:
103,317,324547,2,0,P|63:297|56:252,1,72,8|0,0:0|0:0,0:0:0:0:
189,185,324797,2,0,P|231:201|268:206,1,72,0|0,3:0|0:0,0:0:0:0:
438,247,325047,38,0,B|476:242|513:209|522:144|521:92|470:76|380:82|340:151|340:204|350:212|361:219|375:258|327:313|259:300|259:300|303:330|312:373,1,576,0|0,1:0|0:0,0:0:0:0:
181,142,326172,21,2,0:1:0:0:
115,191,326297,21,2,0:1:0:0:
246,92,326422,1,2,0:1:0:0:
39,161,326547,21,2,0:1:0:0:
322,122,326672,1,2,0:1:0:0:
28,80,326797,21,2,0:1:0:0:
333,203,326922,1,2,0:1:0:0:
88,335,327047,22,0,P|111:254|145:167,1,153.000002918243,4|2,1:0|0:2,0:0:0:0:
1,323,327297,1,2,1:2:0:0:
162,384,327422,2,0,P|185:371|204:363,1,40.4999987640381,2|0,3:2|0:0,0:0:0:0:
321,277,327547,6,0,P|390:303|447:315,1,125.999996154785,2|2,1:2|0:2,0:0:0:0:
296,211,327734,1,0,3:0:0:0:
280,205,327797,2,0,P|244:215|219:238,1,62.9999980773926,2|0,1:2|0:0,0:0:0:0:
362,384,327922,2,0,P|369:355|381:319,1,62.9999980773926,2|0,3:2|0:0,0:0:0:0:
505,98,328047,38,0,P|484:170|465:249,2,144,2|2|2,1:2|0:2|1:2,0:0:0:0:
285,114,328422,5,2,3:2:0:0:
276,108,328484,1,0,3:0:0:0:
267,102,328547,2,0,P|227:116|197:130,1,62.9999980773926,2|0,1:2|0:0,0:0:0:0:
386,187,328672,2,0,P|406:164|408:133,1,62.9999980773926,2|0,3:2|0:0,0:0:0:0:
157,183,328797,38,0,P|149:224|146:257,1,62.9999980773926,2|0,1:2|0:0,0:0:0:0:
355,78,328922,2,0,P|345:48|319:31,1,62.9999980773926,2|0,3:2|0:0,0:0:0:0:
55,70,329047,6,0,P|134:86|208:106,1,153.000002918243,2|2,1:2|0:2,0:0:0:0:
110,0,329297,1,2,1:2:0:0:
0,140,329422,2,0,P|3:162|26:185,1,40.4999987640381,2|0,3:2|0:0,0:0:0:0:
136,316,329547,38,0,P|119:252|99:188,1,125.999996154785,2|2,1:2|0:2,0:0:0:0:
220,227,329734,1,0,3:0:0:0:
233,236,329797,2,0,P|224:279|208:292,1,62.9999980773926,2|0,1:2|0:0,0:0:0:0:
101,384,329922,2,0,P|58:375|45:359,1,62.9999980773926,2|0,3:2|0:0,0:0:0:0:
92,180,330047,6,0,P|172:156|237:131,2,144,2|2|2,1:2|0:2|1:2,0:0:0:0:
254,4,330422,37,2,1:2:0:0:
257,39,330484,1,0,1:0:0:0:
277,68,330547,1,2,1:2:0:0:
310,82,330609,1,0,1:0:0:0:
345,77,330672,1,2,1:2:0:0:
478,195,330797,6,0,P|453:219|445:260,1,72,2|0,1:2|0:0,0:0:0:0:
404,318,330922,2,0,P|378:293|369:259,1,72,2|0,1:2|0:0,0:0:0:0:
464,373,331047,38,0,P|388:352|302:333,1,153.000002918243,4|0,1:0|0:0,0:0:0:0:
185,248,331297,1,2,1:2:0:0:
296,168,331422,2,0,P|309:193|315:209,1,40.4999987640381,2|0,3:2|0:0,0:0:0:0:
184,327,331547,6,0,B|149:327|124:306|127:303|130:299|98:278|62:285,1,125.999996154785,2|2,1:2|0:2,0:0:0:0:
5,321,331734,1,0,3:0:0:0:
0,330,331797,2,0,P|18:365|44:377,1,62.9999980773926,2|0,1:2|0:0,0:0:0:0:
115,215,331922,2,0,P|126:179|138:150,1,62.9999980773926,2|0,3:2|0:0,0:0:0:0:
228,57,332047,38,0,P|152:36|86:9,2,144,2|2|2,1:2|0:2|1:2,0:0:0:0:
465,110,332422,5,2,3:2:0:0:
460,101,332484,1,0,3:0:0:0:
455,92,332547,2,0,P|416:99|399:118,1,62.9999980773926,2|0,1:2|0:0,0:0:0:0:
495,229,332672,2,0,P|501:199|512:167,1,62.9999980773926,2|0,3:2|0:0,0:0:0:0:
333,76,332797,38,0,P|319:113|327:137,1,62.9999980773926,2|0,1:2|0:0,0:0:0:0:
427,316,332922,2,0,P|456:307|488:300,1,62.9999980773926,2|0,3:2|0:0,0:0:0:0:
345,218,333047,6,0,P|261:198|189:172,1,153.000002918243,2|2,1:2|0:2,0:0:0:0:
90,252,333297,1,2,1:2:0:0:
0,105,333422,2,0,P|12:127|20:144,1,40.4999987640381,2|0,3:2|0:0,0:0:0:0:
195,261,333547,38,0,P|146:308|123:374,1,125.999996154785,2|2,1:2|0:2,0:0:0:0:
259,314,333734,1,0,3:0:0:0:
269,300,333797,2,0,P|280:265|292:237,1,62.9999980773926,2|0,1:2|0:0,0:0:0:0:
88,162,333922,2,0,P|99:191|109:221,1,62.9999980773926,2|0,3:2|0:0,0:0:0:0:
231,89,334047,6,0,B|168:70|168:70|161:58|161:58|98:42|98:42|103:57,2,153.000002918243,2|2|2,1:2|0:2|1:2,0:0:0:0:
431,126,334422,37,2,1:2:0:0:
468,119,334484,1,0,1:0:0:0:
496,94,334547,1,2,1:2:0:0:
506,57,334609,1,0,1:0:0:0:
494,21,334672,1,2,1:2:0:0:
319,74,334797,6,0,L|353:185,1,99.0000030212403,2|0,1:1|0:0,0:0:0:0:
485,319,335047,38,0,P|413:293|326:274,1,153.000002918243,4|0,1:0|0:0,0:0:0:0:
415,376,335297,1,2,1:2:0:0:
492,240,335422,2,0,P|501:221|515:199,1,40.4999987640381,2|0,3:2|0:0,0:0:0:0:
347,168,335547,6,0,B|312:170|287:190|290:194|293:198|271:216|229:217,1,125.999996154785,2|2,1:2|0:2,0:0:0:0:
169,172,335734,1,0,3:0:0:0:
161,155,335797,2,0,P|170:122|186:99,1,62.9999980773926,2|0,1:2|0:0,0:0:0:0:
76,193,335922,2,0,P|95:223|111:254,1,62.9999980773926,2|0,3:2|0:0,0:0:0:0:
168,370,336047,38,0,P|192:297|218:232,2,144,2|2|2,1:2|0:2|1:2,0:0:0:0:
297,205,336422,5,2,3:2:0:0:
295,195,336484,1,0,3:0:0:0:
293,185,336547,2,0,P|266:160|237:153,1,62.9999980773926,2|0,1:2|0:0,0:0:0:0:
414,312,336672,2,0,P|452:294|483:280,1,62.9999980773926,2|0,3:2|0:0,0:0:0:0:
373,229,336797,38,0,P|381:193|372:164,1,62.9999980773926,2|0,1:2|0:0,0:0:0:0:
285,339,336922,2,0,P|324:353|356:365,1,62.9999980773926,2|0,3:2|0:0,0:0:0:0:
184,261,337047,6,0,B|144:261|113:286|116:290|119:296|84:330|38:323,1,153.000002918243,2|2,1:2|0:2,0:0:0:0:
192,371,337297,1,2,1:2:0:0:
61,228,337422,2,0,P|46:202|36:186,1,40.4999987640381,2|0,3:2|0:0,0:0:0:0:
130,57,337547,38,0,B|160:58|191:78|187:81|184:84|216:108|253:107,1,125.999996154785,2|2,1:2|0:2,0:0:0:0:
316,15,337734,1,0,3:0:0:0:
294,0,337797,2,0,P|257:14|242:42,1,62.9999980773926,2|0,1:2|0:0,0:0:0:0:
135,137,337922,2,0,P|149:174|177:189,1,62.9999980773926,2|0,3:2|0:0,0:0:0:0:
304,244,338047,6,0,P|281:174|251:98,2,144,2|2|2,1:2|0:2|1:2,0:0:0:0:
402,24,338422,37,2,1:2:0:0:
436,34,338484,1,0,1:0:0:0:
470,44,338547,1,2,1:2:0:0:
459,78,338609,1,0,1:0:0:0:
449,112,338672,1,2,1:2:0:0:
449,301,338797,6,0,P|474:279|479:235,1,72,2|0,1:2|0:0,0:0:0:0:
367,182,338922,2,0,P|394:204|402:238,1,72,2|0,3:2|0:0,0:0:0:0:
300,335,339047,38,0,P|227:309|150:288,1,153.000002918243,2|2,1:2|0:2,0:0:0:0:
304,244,339297,1,2,1:2:0:0:
96,369,339422,2,0,P|90:347|81:324,1,40.4999987640381,2|0,3:2|0:0,0:0:0:0:
17,147,339547,6,0,P|75:144|124:189,1,125.999996154785,2|2,1:2|0:2,0:0:0:0:
80,251,339734,1,0,3:0:0:0:
66,259,339797,2,0,P|28:247|-1:239,1,62.9999980773926,2|0,1:2|0:0,0:0:0:0:
129,68,339922,2,0,P|114:105|105:130,1,62.9999980773926,2|0,3:2|0:0,0:0:0:0:
198,220,340047,38,0,B|235:224|265:195|261:192|256:188|283:156|328:159,2,144,2|2|2,1:2|0:2|1:2,0:0:0:0:
375,90,340422,5,2,3:2:0:0:
382,92,340484,1,0,3:0:0:0:
389,94,340547,2,0,P|413:119|418:150,1,62.9999980773926,2|0,1:2|0:0,0:0:0:0:
300,69,340672,2,0,P|309:36|321:2,1,62.9999980773926,2|0,3:2|0:0,0:0:0:0:
491,159,340797,38,0,P|481:192|457:212,1,62.9999980773926,2|0,1:2|0:0,0:0:0:0:
255,139,340922,2,0,P|230:114|207:87,1,62.9999980773926,2|0,3:2|0:0,0:0:0:0:
425,24,341047,5,2,1:2:0:0:
282,277,341172,2,0,B|261:256|261:256|346:198|346:198|352:201|352:201|388:298|388:298|430:315,1,288,2|2,3:2|1:2,0:0:0:0:
418,145,341547,37,0,3:0:0:0:
321,342,341672,1,0,3:0:0:0:
492,281,341797,5,0,1:0:0:0:
207,205,341922,1,0,3:0:0:0:
495,30,342047,37,10,3:1:0:0:
485,23,342547,5,2,1:2:0:0:
450,30,342609,1,0,1:0:0:0:
423,54,342672,1,0,1:0:0:0:
412,88,342734,1,0,1:0:0:0:
420,123,342797,2,0,P|446:150|481:153,1,72,0|0,1:0|1:0,0:0:0:0:
343,50,342922,2,0,P|308:36|273:25,1,72,0|0,1:0|1:0,0:0:0:0:
148,184,343047,6,0,P|168:100|193:4,1,161.999995056153,4|0,1:0|0:0,0:0:0:0:
42,163,343234,1,0,3:0:0:0:
35,184,343297,2,0,P|54:221|91:234,1,80.9999975280763,2|0,1:2|0:0,0:0:0:0:
272,122,343422,2,0,P|228:108|191:94,1,80.9999975280763,2|0,3:2|0:0,0:0:0:0:
25,24,343547,21,10,1:2:0:0:
259,194,343672,1,2,0:2:0:0:
92,356,343797,22,0,P|26:339|25:272,1,144,2|2,1:2|3:2,0:0:0:0:
89,233,343984,1,0,3:0:0:0:
101,227,344047,2,0,L|161:244,1,58.4999973220826,2|0,1:2|0:0,0:0:0:0:
224,316,344172,2,0,L|164:333,1,58.4999973220826,2|0,0:2|0:0,0:0:0:0:
292,275,344297,1,2,1:2:0:0:
452,370,344422,1,2,3:2:0:0:
474,88,344547,22,0,P|430:106|417:140,1,76.5000014591217,10|0,1:2|0:0,0:0:0:0:
345,195,344672,2,0,P|361:235|377:276,1,76.5000014591217,2|0,0:2|0:0,0:0:0:0:
259,76,344797,22,0,P|252:123|275:151,1,76.5000014591217,2|0,1:2|0:0,0:0:0:0:
437,221,344922,2,0,P|479:227|523:233,1,76.5000014591217,2|0,0:2|0:0,0:0:0:0:
336,61,345047,22,0,B|292:65|257:43|262:38|267:31|230:-2|185:10,1,161.999995056153,2|0,1:2|0:0,0:0:0:0:
129,58,345234,1,0,3:0:0:0:
117,68,345297,2,0,P|74:55|38:37,1,80.9999975280763,2|0,1:2|0:0,0:0:0:0:
130,185,345422,2,0,P|170:163|179:126,1,80.9999975280763,2|0,3:2|0:0,0:0:0:0:
24,191,345547,21,10,1:2:0:0:
144,337,345672,1,2,0:2:0:0:
175,119,345797,21,2,1:2:0:0:
72,374,345922,1,2,0:2:0:0:
314,217,346047,22,0,P|274:197|234:183,1,80.9999975280763,2|0,1:2|0:0,0:0:0:0:
321,358,346172,1,2,3:2:0:0:
336,364,346234,1,2,3:2:0:0:
351,370,346297,2,0,P|424:339|412:267,1,161.999995056153,2|2,1:2|1:2,0:0:0:0:
417,184,346484,21,0,3:0:0:0:
409,175,346547,5,10,1:2:0:0:
441,133,346609,1,0,1:0:0:0:
492,145,346672,2,0,B|506:154|506:154|504:159|504:159|512:163|512:163|512:173|512:173|519:180|519:180|520:191|520:191|514:196|514:196|517:202|517:202|516:207|516:207|510:213,1,90,2|0,1:2|0:0,0:0:0:0:
362,44,346797,2,0,B|369:48|369:48|379:48|379:48|385:39|385:39|391:40|391:40|399:44|399:44|402:35|402:35|411:39|411:39|415:27|415:27|422:30|422:30|425:22|425:22|425:15,1,90,2|0,1:2|0:0,0:0:0:0:
282,126,346922,2,0,B|282:127|282:127|279:119|279:119|272:122|272:122|268:110|268:110|259:114|259:114|256:105|256:105|248:109|248:109|242:110|242:110|236:101|236:101|226:101|226:101|219:105,1,90,2|0,1:2|0:0,0:0:0:0:
84,33,347047,22,0,P|121:112|154:191,1,161.999995056153,2|0,1:2|0:0,0:0:0:0:
105,248,347234,1,0,3:0:0:0:
87,258,347297,2,0,P|40:247|22:214,1,80.9999975280763,2|0,1:2|0:0,0:0:0:0:
201,259,347422,2,0,P|183:302|169:350,1,80.9999975280763,2|0,3:2|0:0,0:0:0:0:
282,126,347547,21,10,1:2:0:0:
416,299,347672,1,2,0:2:0:0:
485,20,347797,22,0,P|454:89|430:167,1,144,2|2,1:2|3:2,0:0:0:0:
339,56,347984,1,0,3:0:0:0:
344,40,348047,2,0,P|368:20|398:21,1,58.4999973220826,2|0,1:2|0:0,0:0:0:0:
282,126,348172,2,0,P|271:98|252:60,1,58.4999973220826,0|0,3:2|0:0,0:0:0:0:
494,200,348297,21,2,1:2:0:0:
344,319,348422,1,2,0:2:0:0:
454,369,348547,22,0,P|500:358|510:327,1,76.5000014591217,10|0,1:2|0:0,0:0:0:0:
374,225,348672,2,0,P|337:239|295:250,1,76.5000014591217,2|0,1:2|1:0,0:0:0:0:
376,130,348797,22,0,P|422:141|432:172,1,76.5000014591217,2|0,1:2|1:0,0:0:0:0:
253,305,348922,2,0,P|216:291|174:280,1,76.5000014591217,0|0,1:2|1:0,0:0:0:0:
62,199,349047,22,0,P|70:181|89:157,1,40.4999987640381,2|0,1:2|0:0,0:0:0:0:
150,97,349172,2,0,P|77:132|-8:157,1,161.999995056153,2|2,0:2|1:2,0:0:0:0:
134,13,349422,21,2,3:2:0:0:
159,5,349484,1,0,3:0:0:0:
180,22,349547,2,0,B|233:32|253:77|240:123|234:118|228:114|213:135|217:160,1,161.999995056153,10|0,1:2|0:0,0:0:0:0:
263,209,349734,21,0,3:0:0:0:
278,212,349797,2,0,P|314:190|314:144,1,80.9999975280763,2|0,1:2|0:0,0:0:0:0:
168,209,349922,2,0,P|194:252|214:294,1,80.9999975280763,2|2,3:2|3:2,0:0:0:0:
293,341,350047,22,0,P|207:312|124:295,1,161.999995056153,2|0,1:2|0:0,0:0:0:0:
71,324,350234,1,0,3:0:0:0:
63,340,350297,1,2,1:2:0:0:
216,149,350422,1,0,0:0:0:0:
429,259,350547,21,10,1:2:0:0:
468,262,350609,1,0,1:0:0:0:
501,239,350672,1,2,1:2:0:0:
512,201,350734,1,0,1:0:0:0:
496,164,350797,2,0,L|482:124,4,40.4999987640381,2|2|2|0|0,3:1|3:2|3:2|0:0|0:0,0:0:0:0:
302,102,351047,22,0,P|380:75|466:53,1,161.999995056153,4|0,1:0|0:0,0:0:0:0:
285,13,351234,1,0,3:0:0:0:
268,7,351297,2,0,P|239:23|229:69,1,80.9999975280763,2|0,1:2|0:0,0:0:0:0:
367,162,351422,2,0,P|390:125|418:79,1,80.9999975280763,2|0,3:2|0:0,0:0:0:0:
269,236,351547,21,10,1:2:0:0:
482,125,351672,1,2,0:2:0:0:
277,316,351797,22,0,B|235:316|207:298|209:294|212:290|172:272|132:276,1,144,2|2,1:2|0:2,0:0:0:0:
83,321,351984,1,0,3:0:0:0:
74,334,352047,2,0,P|88:364|123:374,1,58.4999973220826,2|0,1:2|0:0,0:0:0:0:
200,205,352172,2,0,P|213:176|231:148,1,58.4999973220826,2|0,3:2|0:0,0:0:0:0:
1,60,352297,21,2,1:2:0:0:
131,263,352422,1,2,0:2:0:0:
228,21,352547,22,0,P|270:29|293:58,1,76.5000014591217,10|0,1:2|0:0,0:0:0:0:
333,202,352672,2,0,P|348:163|369:122,1,76.5000014591217,2|0,0:2|0:0,0:0:0:0:
512,133,352797,22,0,P|470:141|447:170,1,76.5000014591217,2|0,1:2|0:0,0:0:0:0:
352,295,352922,2,0,P|337:256|316:215,1,76.5000014591217,2|0,0:2|0:0,0:0:0:0:
145,131,353047,22,0,P|234:103|307:75,1,161.999995056153,2|0,1:2|0:0,0:0:0:0:
145,43,353234,1,0,3:0:0:0:
124,41,353297,2,0,P|83:57|68:94,1,80.9999975280763,2|0,1:2|0:0,0:0:0:0:
3,166,353422,2,0,P|19:207|56:222,1,80.9999975280763,2|0,3:2|0:0,0:0:0:0:
256,320,353547,21,10,1:2:0:0:
124,205,353672,1,2,0:2:0:0:
324,269,353797,21,2,1:2:0:0:
79,369,353922,1,2,0:2:0:0:
311,153,354047,22,0,P|348:165|390:192,1,80.9999975280763,2|0,1:2|0:0,0:0:0:0:
398,59,354172,1,2,3:2:0:0:
385,45,354234,1,2,3:2:0:0:
372,31,354297,2,0,P|291:27|261:110,1,161.999995056153,2|0,1:2|0:0,0:0:0:0:
171,140,354484,1,0,3:0:0:0:
155,150,354546,5,10,1:2:0:0:
112,118,354609,1,0,1:0:0:0:
119,67,354672,2,0,B|126:60|126:60|134:62|134:62|143:57|143:57|145:49|145:49|151:49|151:49|158:42|158:42|165:45|165:45|172:44|172:44|175:38|175:38|181:41|181:41|189:36,1,90,2|0,1:2|0:0,0:0:0:0:
49,161,354797,2,0,B|43:158|43:158|39:152|39:152|43:143|43:143|40:135|40:135|30:128|30:128|31:122|31:122|27:123|27:123|24:114|24:114|15:113|15:113|16:106|16:106|3:101,1,90,2|0,1:2|0:0,0:0:0:0:
244,200,354922,2,0,B|233:204|233:204|234:211|234:211|225:212|225:212|222:221|222:221|219:219|219:219|220:225|220:225|210:232|210:232|207:240|207:240|210:250|210:250|207:255|207:255|201:258,1,90,2|0,1:2|0:0,0:0:0:0:
36,377,355047,22,0,P|111:353|209:330,1,161.999995056153,2|0,1:2|0:0,0:0:0:0:
106,278,355234,1,0,3:0:0:0:
96,267,355297,2,0,P|54:247|5:234,1,80.9999975280763,2|0,1:2|0:0,0:0:0:0:
256,384,355422,2,0,P|285:373|304:324,1,80.9999975280763,2|0,3:2|0:0,0:0:0:0:
351,189,355547,21,10,1:2:0:0:
203,332,355672,1,2,0:2:0:0:
355,96,355797,22,0,P|420:81|465:149,1,144,2|0,1:2|0:0,0:0:0:0:
292,141,355984,1,0,0:0:0:0:
284,126,356047,2,0,P|269:97|252:67,1,58.4999973220826,2|2,1:2|3:2,0:0:0:0:
431,202,356172,2,0,P|416:227|403:253,1,58.4999973220826,0|0,3:2|0:0,0:0:0:0:
256,384,356297,21,2,1:2:0:0:
473,309,356422,1,2,0:2:0:0:
227,220,356547,22,0,P|183:228|164:263,1,76.5000014591217,10|0,1:2|0:0,0:0:0:0:
116,323,356672,2,0,P|153:330|205:342,1,76.5000014591217,2|0,1:2|1:0,0:0:0:0:
94,142,356797,22,0,P|78:184|99:218,1,76.5000014591217,2|0,1:2|1:0,0:0:0:0:
261,308,356922,2,0,P|296:295|347:279,1,76.5000014591217,0|0,1:2|1:0,0:0:0:0:
178,88,357047,22,0,L|137:76,1,40.4999987640381,0|0,1:0|0:0,0:0:0:0:
24,77,357172,2,0,P|102:52|182:20,1,161.999995056153,8|0,0:0|0:0,0:0:0:0:
458,157,357422,21,0,1:0:0:0:
461,183,357484,1,0,1:0:0:0:
439,198,357547,2,0,B|400:198|364:172|369:169|375:166|336:140|292:141,1,161.999995056153,8|0,0:0|0:0,0:0:0:0:
422,310,357734,21,0,1:0:0:0:
450,326,357797,2,0,P|482:306|485:257,1,80.9999975280763,0|0,1:0|0:0,0:0:0:0:
309,224,357922,2,0,P|271:241|232:253,1,80.9999975280763,0|0,1:0|0:0,0:0:0:0:
112,366,358047,22,2,B|17:340|17:340|12:319|12:319|109:205|109:205|123:209|123:209|145:376,1,432,8|0,0:1|0:0,0:1:0:0:
93,72,358547,21,0,1:0:0:0:
86,69,358609,1,0,1:0:0:0:
80,67,358672,1,0,1:0:0:0:
74,64,358734,1,0,1:0:0:0:
67,62,358797,1,0,1:0:0:0:
61,60,358859,1,0,1:0:0:0:
55,57,358922,1,0,1:0:0:0:
49,55,358984,1,0,1:0:0:0:
42,53,359047,6,0,B|6:69|6:69|16:106,1,76.5000014591217,4|0,1:0|0:0,0:0:0:0:
85,170,359172,2,0,B|128:179|157:146|150:141|143:136|175:102|216:107,1,153.000002918243,2|0,3:2|0:0,0:0:0:0:
293,146,359422,1,2,1:2:0:0:
454,12,359547,38,0,P|405:134|354:302,1,306.000005836487,10|2,0:2|1:2,0:0:0:0:
493,204,359922,1,2,3:2:0:0:
290,359,360047,6,0,B|241:349|241:349|231:334|231:334|168:322,1,116.999994644165,2|0,1:2|0:0,0:0:0:0:
20,258,360297,37,2,1:2:0:0:
123,372,360422,1,2,0:2:0:0:
220,168,360547,5,10,0:2:0:0:
112,297,360672,1,2,0:2:0:0:
24,84,360797,37,2,1:2:0:0:
171,249,360922,1,2,0:2:0:0:
290,34,361047,6,0,B|268:3|268:3|224:17,1,76.5000014591217,2|0,1:2|0:0,0:0:0:0:
302,126,361172,2,0,P|379:88|482:59,1,153.000002918243,2|0,3:2|0:0,0:0:0:0:
508,124,361422,1,2,1:2:0:0:
371,287,361547,38,0,B|291:300|230:238|235:233|240:228|173:162|86:189,1,306.000005836487,10|2,0:2|1:2,0:0:0:0:
0,287,361922,1,2,3:2:0:0:
131,376,362047,6,0,P|194:371|229:332,1,116.999994644165,2|0,1:2|0:0,0:0:0:0:
154,91,362297,37,2,1:2:0:0:
78,292,362422,1,2,0:2:0:0:
221,137,362547,5,10,0:2:0:0:
211,261,362672,1,2,0:2:0:0:
302,143,362797,37,2,1:2:0:0:
330,234,362922,1,2,0:2:0:0:
398,43,363047,6,0,B|378:10|378:10|332:23,1,76.5000014591217,4|0,1:0|0:0,0:0:0:0:
419,194,363172,2,0,B|406:161|435:121|443:126|449:130|475:95|472:55,1,153.000002918243,2|0,3:2|0:0,0:0:0:0:
509,223,363422,1,2,1:2:0:0:
291,370,363547,38,0,B|251:300|251:300|486:356,1,306.000005836487,10|0,0:2|1:2,0:0:0:0:
330,234,363922,1,2,3:2:0:0:
181,360,364047,2,0,B|145:362|126:341|129:337|133:332|107:311|73:320,1,116.999994644165,2|0,1:2|0:0,0:0:0:0:
140,129,364297,5,2,1:2:0:0:
2,250,364422,1,2,0:2:0:0:
227,294,364547,37,10,0:2:0:0:
58,200,364672,1,2,0:2:0:0:
313,99,364797,5,2,1:2:0:0:
129,224,364922,1,2,0:2:0:0:
70,25,365047,38,0,B|92:-8|92:-8|127:2,1,76.5000014591217,2|0,1:2|0:0,0:0:0:0:
179,64,365172,2,0,P|152:135|130:208,1,153.000002918243,2|0,3:2|0:0,0:0:0:0:
12,75,365422,1,2,1:2:0:0:
99,303,365547,6,0,B|192:323|242:264|234:257|226:248|282:178|366:197,1,306.000005836487,10|0,0:2|1:2,0:0:0:0:
512,254,365922,1,2,3:2:0:0:
361,81,366047,2,0,B|328:33|328:33|273:58,1,116.999994644165,2|0,1:2|0:0,0:0:0:0:
376,349,366297,2,0,B|429:373|429:373|462:325,1,116.999994644165,2|0,1:2|0:0,0:0:0:0:
306,174,366547,37,10,0:2:0:0:
262,165,366609,1,2,0:2:0:0:
220,152,366672,1,2,0:2:0:0:
180,136,366734,1,2,0:2:0:0:
141,115,366797,1,2,1:2:0:0:
402,274,366922,1,0,0:0:0:0:
212,341,367047,22,0,B|165:348|137:315|140:311|143:307|108:268|65:286,1,161.999995056153,4|0,1:0|0:0,0:0:0:0:
202,243,367234,1,0,3:0:0:0:
219,236,367297,2,0,P|263:254|272:293,1,80.9999975280763,2|0,1:2|0:0,0:0:0:0:
76,358,367422,2,0,P|36:367|0:384,1,80.9999975280763,2|0,3:2|0:0,0:0:0:0:
13,112,367547,21,8,1:2:0:0:
141,282,367672,1,2,0:2:0:0:
249,16,367797,21,2,1:2:0:0:
52,247,367922,1,2,0:2:0:0:
254,147,368047,22,0,P|292:130|322:123,1,67.5000025749208,2|0,1:2|0:0,0:0:0:0:
126,18,368172,2,0,B|92:14|92:14|79:48,1,67.5000025749208,2|0,3:2|0:0,0:0:0:0:
153,198,368297,2,0,P|177:109|203:43,1,135.000005149842,2|2,1:2|0:2,0:0:0:0:
221,231,368484,21,0,3:0:0:0:
209,254,368547,2,0,P|179:276|141:273,1,76.5000014591217,10|0,1:2|0:0,0:0:0:0:
327,106,368672,2,0,P|346:150|356:184,1,76.5000014591217,2|0,0:2|0:0,0:0:0:0:
501,367,368797,1,2,1:2:0:0:
467,384,368859,1,0,1:0:0:0:
430,378,368922,1,2,1:2:0:0:
403,352,368984,1,0,1:0:0:0:
396,315,369047,22,0,P|415:240|442:160,1,161.999995056153,2|0,1:2|0:0,0:0:0:0:
252,319,369234,1,0,3:0:0:0:
262,336,369297,2,0,B|288:369|288:369|336:361,1,80.9999975280763,2|0,1:2|0:0,0:0:0:0:
512,262,369422,2,0,P|468:248|429:232,1,80.9999975280763,2|0,3:2|0:0,0:0:0:0:
424,50,369547,21,8,1:2:0:0:
327,193,369672,1,2,0:2:0:0:
223,0,369797,21,2,1:2:0:0:
506,111,369922,1,2,3:2:0:0:
263,234,370047,22,0,P|230:238|203:219,1,67.5000025749208,2|0,1:2|0:0,0:0:0:0:
142,264,370172,2,0,P|121:238|125:205,1,67.5000025749208,2|0,3:2|0:0,0:0:0:0:
54,174,370297,2,0,P|66:143|96:130,1,67.5000025749208,2|0,1:2|0:0,0:0:0:0:
295,22,370422,21,2,3:2:0:0:
302,26,370484,1,0,3:0:0:0:
309,30,370547,2,0,L|326:116,1,76.5000014591217,10|0,1:2|0:0,0:0:0:0:
410,201,370672,2,0,L|424:125,1,76.5000014591217,2|0,3:2|0:0,0:0:0:0:
236,71,370797,22,0,L|253:157,1,76.5000014591217,2|0,1:2|0:0,0:0:0:0:
492,186,370922,2,0,L|506:110,1,76.5000014591217,2|0,3:2|0:0,0:0:0:0:
297,333,371047,22,0,P|384:297|463:270,1,161.999995056153,4|0,1:0|0:0,0:0:0:0:
297,244,371234,1,0,3:0:0:0:
284,233,371297,2,0,P|249:218|195:202,1,80.9999975280763,2|0,1:2|0:0,0:0:0:0:
439,365,371422,2,0,P|488:353|503:323,1,80.9999975280763,2|0,3:2|0:0,0:0:0:0:
334,169,371547,21,8,1:2:0:0:
187,348,371672,1,2,0:2:0:0:
272,117,371797,21,2,1:2:0:0:
371,384,371922,1,2,0:2:0:0:
84,107,372047,22,0,P|60:92|20:75,1,67.5000025749208,2|0,1:2|0:0,0:0:0:0:
209,221,372172,2,0,B|242:224|242:224|261:189,1,67.5000025749208,2|0,3:2|0:0,0:0:0:0:
199,40,372297,2,0,P|163:128|147:186,1,135.000005149842,2|2,1:2|0:2,0:0:0:0:
146,267,372484,21,0,3:0:0:0:
126,277,372547,2,0,P|83:262|68:229,1,76.5000014591217,10|0,1:2|0:0,0:0:0:0:
272,117,372672,2,0,P|313:100|350:79,1,76.5000014591217,2|0,0:2|0:0,0:0:0:0:
416,328,372797,1,2,1:2:0:0:
453,326,372859,1,0,1:0:0:0:
485,306,372922,1,2,1:2:0:0:
501,272,372984,1,0,1:0:0:0:
497,234,373047,22,0,P|414:206|326:184,1,161.999995056153,2|0,1:2|0:0,0:0:0:0:
264,223,373234,1,0,3:0:0:0:
263,243,373297,2,0,P|292:280|335:282,1,80.9999975280763,2|0,1:2|0:0,0:0:0:0:
482,92,373422,2,0,P|444:106|404:128,1,80.9999975280763,2|0,3:2|0:0,0:0:0:0:
133,152,373547,22,0,P|96:136|81:100,1,80.9999975280763,8|0,1:2|0:0,0:0:0:0:
148,75,373672,2,0,P|142:35|166:4,1,80.9999975280763,2|0,3:2|0:0,0:0:0:0:
222,48,373797,2,0,P|253:23|292:28,1,80.9999975280763,0|0,1:2|0:0,0:0:0:0:
199,291,373922,21,2,3:2:0:0:
190,295,373984,1,0,3:0:0:0:
181,299,374047,2,0,P|162:257|147:232,1,67.5000025749208,2|0,1:2|3:2,0:0:0:0:
304,324,374172,2,0,P|287:353|274:384,1,67.5000025749208,2|0,1:2|3:2,0:0:0:0:
79,238,374297,22,0,P|37:218|9:208,1,67.5000025749208,2|0,1:2|3:2,0:0:0:0:
376,323,374422,2,0,P|417:303|445:293,1,67.5000025749208,2|0,1:2|3:2,0:0:0:0:
295,45,374547,21,10,1:2:0:0:
287,82,374609,1,0,1:0:0:0:
279,119,374672,1,2,1:2:0:0:
271,157,374734,1,0,1:0:0:0:
263,194,374797,1,2,1:2:0:0:
406,130,374922,1,2,1:2:0:0:
195,3,375047,22,0,B|176:13|176:13|165:11|165:11|144:33|144:33|115:34,1,90,4|0,1:0|0:0,0:0:0:0:
259,170,394859,6,0,B|258:177|258:177|245:180|245:180|243:200|243:200|255:197|255:197|252:193|252:193|252:189|252:189|260:194|260:194|260:190|260:190|257:185|257:185|269:183|269:183|267:203|267:203|254:205|254:205|253:213,1,135.000005149842,0|0,1:0|0:0,0:0:0:0:
351,233,396922,38,0,B|349:240|349:240|336:241|336:241|331:261|331:261|344:260|344:260|341:255|341:255|342:251|342:251|349:257|349:257|350:253|350:253|347:248|347:248|359:247|359:247|354:266|354:266|342:267|342:267|340:275,2,135.000005149842,0|0|0,1:0|1:0|0:0,0:0:0:0:
167,106,398297,6,0,B|165:113|165:113|152:114|152:114|147:134|147:134|160:133|160:133|157:128|157:128|158:124|158:124|165:130|165:130|166:126|166:126|163:121|163:121|175:120|175:120|170:139|170:139|158:140|158:140|156:148,1,135.000005149842,0|0,1:0|0:0,0:0:0:0:
267,319,399172,38,0,B|264:326|264:326|251:325|251:325|244:344|244:344|256:345|256:345|254:339|254:339|256:336|256:336|262:342|262:342|263:339|263:339|261:333|261:333|273:334|273:334|266:353|266:353|254:352|254:352|251:360,1,135.000005149842,0|0,1:0|0:0,0:0:0:0:
260,22,400609,6,0,B|257:29|257:29|244:28|244:28|237:47|237:47|249:48|249:48|247:42|247:42|249:39|249:39|255:45|255:45|256:42|256:42|254:36|254:36|266:37|266:37|259:56|259:56|247:55|247:55|244:63,1,135.000005149842,0|0,1:0|0:0,0:0:0:0:
153,304,401297,38,0,B|149:311|149:311|136:308|136:308|127:326|127:326|139:328|139:328|138:323|138:323|140:319|140:319|145:327|145:327|147:323|147:323|145:318|145:318|157:320|157:320|148:337|148:337|136:335|136:335|132:342,2,135.000005149842,0|0|0,1:0|1:0|0:0,0:0:0:0:
379,41,403047,6,0,B|375:48|375:48|362:45|362:45|353:63|353:63|365:65|365:65|364:60|364:60|366:56|366:56|371:64|371:64|373:60|373:60|371:55|371:55|383:57|383:57|374:74|374:74|362:72|362:72|358:79,1,135.000005149842,0|0,1:0|0:0,0:0:0:0:
59,286,404047,38,0,B|54:292|54:292|42:288|42:288|30:305|30:305|42:308|42:308|41:303|41:303|44:300|44:300|48:307|48:307|50:304|50:304|49:299|49:299|61:302|61:302|50:319|50:319|38:315|38:315|33:322,2,135.000005149842,0|0|0,1:0|1:0|1:0,0:0:0:0:
478,61,405109,6,0,B|473:67|473:67|461:63|461:63|449:80|449:80|461:83|461:83|460:78|460:78|463:75|463:75|467:82|467:82|469:79|469:79|468:74|468:74|480:77|480:77|469:94|469:94|457:90|457:90|452:97,1,135.000005149842,0|0,1:0|1:0,0:0:0:0:
191,162,406234,37,0,1:0:0:0:
180,158,406297,2,0,B|172:156|172:156|165:167|165:167|146:163|146:163|152:152|152:152|155:156|155:156|159:157|159:157|157:149|157:149|161:149|161:149|164:154|164:154|170:143|170:143|151:139|151:139|144:150|144:150|136:148,1,135.000005149842,0|0,1:0|0:0,0:0:0:0:
375,235,406484,6,0,B|367:233|367:233|360:244|360:244|341:240|341:240|347:229|347:229|350:233|350:233|354:234|354:234|352:226|352:226|356:226|356:226|359:231|359:231|365:220|365:220|346:216|346:216|339:227|339:227|331:225,1,135.000005149842,0|0,1:0|0:0,0:0:0:0:
397,22,409297,5,0,1:0:0:0:
397,22,409359,2,0,B|371:27|371:27|364:66|364:66|378:79|378:79|387:123,2,121.500000463486,0|0|0,1:0|1:0|1:0,0:0:0:0:
475,5,409547,21,0,1:0:0:0:
475,5,409609,1,0,1:0:0:0:
495,38,409672,1,0,1:0:0:0:
470,65,409734,1,0,1:0:0:0:
482,87,409797,2,0,L|469:163,2,76.5000014591217,0|0|0,1:0|1:0|1:0,0:0:0:0:
329,102,410047,21,0,1:0:0:0:
357,108,410109,1,0,1:0:0:0:
385,114,410172,1,0,1:0:0:0:
469,234,410297,21,0,1:0:0:0:
479,227,410359,1,0,1:0:0:0:
487,217,410422,1,0,1:0:0:0:
478,189,410484,1,0,1:0:0:0:
469,162,410547,1,0,1:0:0:0:
406,286,410672,1,0,1:0:0:0:
313,182,410797,21,0,1:0:0:0:
326,177,410859,1,0,1:0:0:0:
322,191,410922,2,0,B|330:196|330:196|318:200|318:200|327:207|327:207|337:239,1,67.5000025749208,0|0,1:0|1:0,0:0:0:0:
486,332,411047,22,2,B|471:315|471:315|262:272|262:272|328:296|328:296|336:323,1,323.999990112305,8|0,1:0|1:0,0:1:0:0:
380,373,411297,21,0,1:0:0:0:
387,377,411359,2,0,B|414:363|414:363|418:350|418:350|405:279,1,107.999996704102,0|0,1:0|1:0,0:0:0:0:
479,227,411484,21,0,1:0:0:0:
469,234,411547,2,2,B|446:224|446:224|336:261|336:261|293:360|293:360|271:355,1,270,0|0,1:0|1:0,0:1:0:0:
201,383,411797,21,8,1:3:0:0:
194,346,411859,1,8,1:3:0:0:
187,309,411922,1,8,1:3:0:0:
180,272,411984,1,8,1:3:0:0:
171,288,412047,21,4,1:3:0:0:
176,317,412109,1,4,1:3:0:0:
182,347,412172,1,4,1:3:0:0:
187,376,412234,1,4,1:3:0:0:
111,377,412297,21,0,1:0:0:0:
111,377,412359,2,0,B|102:343|102:343|116:314|116:314|193:296,1,144,0|0,1:0|1:0,0:0:0:0:
264,278,412547,2,0,L|248:208,1,62.9999980773926,0|0,1:0|1:0,0:0:0:0:
145,125,412672,21,0,1:0:0:0:
167,119,412734,1,0,1:0:0:0:
189,113,412797,1,0,1:0:0:0:
193,103,412859,1,0,1:0:0:0:
196,93,412922,22,2,B|214:74|214:74|207:61|207:61|180:56|180:56|162:36|162:36|173:54|173:54|93:35|93:35|81:27|81:27|85:33|85:33|52:25|52:25|44:5,2,270.000010299683,0|0|0,1:0|1:0|1:0,0:1:0:0:
22,175,413297,21,0,1:0:0:0:
13,151,413359,1,0,1:0:0:0:
4,127,413422,1,0,1:0:0:0:
28,118,413484,1,0,1:0:0:0:
52,109,413547,2,2,B|78:121|78:121|82:118|82:118|83:123|83:123|100:133|100:133|111:189|111:189|162:209,1,144,0|0,1:0|0:0,0:1:0:0:
121,201,413697,2,2,B|94:190|94:190|83:134|83:134|66:124|66:124|65:119|65:119|61:122|61:122|35:110,1,144,0|0,1:0|0:0,0:1:0:0:
190,9,413847,22,2,B|154:21|154:21|142:57|142:57|135:48|135:48|141:62|141:62|122:129,1,158.400004833985,0|0,1:0|0:0,0:1:0:0:
131,123,413997,2,2,B|146:69|146:69|140:55|140:55|147:64|147:64|159:28|159:28|195:16,1,158.400004833985,0|0,1:0|0:0,0:1:0:0:
261,51,414172,21,0,1:0:0:0:
272,56,414234,1,0,1:0:0:0:
280,60,414297,21,0,1:0:0:0:
316,54,414359,1,0,1:0:0:0:
353,49,414422,1,0,1:0:0:0:
390,44,414484,1,0,1:0:0:0:
427,39,414547,1,0,1:0:0:0:
286,143,414672,21,0,1:0:0:0:
258,139,414735,1,0,1:0:0:0:
230,135,414797,2,0,B|216:131|216:131|206:99|206:99|188:82,1,67.5000025749208,0|0,1:0|1:0,0:0:0:0:
46,10,414922,22,0,B|93:30|93:30|109:28|109:28|98:32|98:32|128:47|128:47|111:79|111:79|122:129,2,198.000006042481,0|0|0,1:0|1:0|1:0,0:0:0:0:
142,198,415297,21,0,1:0:0:0:
166,218,415359,1,0,1:0:0:0:
147,230,415422,1,0,1:0:0:0:
156,243,415484,1,0,1:0:0:0:
151,252,415547,22,2,B|133:248|113:295|120:310|120:310|134:318|134:318|123:317|123:317|153:354|51:361|45:304|91:230|136:232|154:257,1,297.000009063721,8|0,1:0|1:0,0:1:0:0:
210,303,415797,22,0,B|217:304|217:304|223:300|223:300|221:310|221:310|227:306|227:306|258:311,2,56.25,0|0|0,1:0|1:0|1:0,0:0:0:0:
1,272,415922,1,0,1:0:0:0:
130,343,416047,22,2,B|134:335|120:314|-47:358|-53:400|129:353|148:344,1,225,2|0,1:2|1:0,0:2:0:0:
251,232,416297,21,0,1:0:0:0:
251,232,416422,1,0,1:0:0:0:
331,326,416547,21,0,1:0:0:0:
331,326,416672,1,0,1:0:0:0:
430,156,416797,21,0,1:0:0:0:
437,156,416859,1,0,1:0:0:0:
435,164,416922,2,0,B|434:167|434:167|417:165|417:165|416:168|416:168|448:172|448:172|447:176|447:176|419:172|419:172|419:176|419:176|443:179|443:179|443:182|443:182|422:180|422:180|422:183|422:183|439:185|439:185|438:189|438:189|425:187|425:187|424:190|424:190|435:192|435:192|434:195|434:195|431:195|431:195|428:219,1,225,0|0,1:0|1:0,0:0:0:0:
500,229,417047,22,0,L|507:261,2,33.7500012874604,0|0|0,1:0|1:0|1:0,0:0:0:0:
356,214,417172,2,0,L|341:243,2,33.7500012874604,0|0|0,1:0|1:0|1:0,0:0:0:0:
449,78,417297,21,0,1:0:0:0:
455,70,417359,1,0,1:0:0:0:
454,62,417422,1,0,1:0:0:0:
460,54,417484,1,0,1:0:0:0:
367,108,417609,21,0,1:0:0:0:
357,107,417671,1,0,1:0:0:0:
351,112,417734,1,0,1:0:0:0:
341,111,417796,21,0,1:0:0:0:
323,130,417859,1,0,1:0:0:0:
297,126,417922,1,0,1:0:0:0:
148,8,418047,21,0,1:0:0:0:
187,1,418110,1,0,1:0:0:0:
214,30,418173,1,0,1:0:0:0:
29,132,418297,21,0,1:0:0:0:
22,90,418359,1,0,1:0:0:0:
48,64,418421,1,0,1:0:0:0:
40,34,418484,1,0,1:0:0:0:
56,12,418546,1,0,1:0:0:0:
183,180,418672,21,0,1:0:0:0:
147,145,418734,1,0,1:0:0:0:
160,110,418797,1,0,1:0:0:0:
160,110,418859,1,0,1:0:0:0:
137,85,418922,22,0,B|127:126,1,33.7500012874604,0|0,1:0|1:0,0:0:0:0:
13,207,419047,2,0,B|3:248,1,33.7500012874604,0|0,1:0|1:0,0:0:0:0:
61,347,419172,21,0,1:0:0:0:
48,341,419234,1,0,1:0:0:0:
57,334,419297,1,0,1:0:0:0:
101,330,419359,1,0,1:0:0:0:
139,317,419422,1,0,1:0:0:0:
182,314,419484,1,0,1:0:0:0:
222,300,419547,22,0,B|247:280|247:280|234:227,1,80.9999975280763,0|0,1:0|1:0,0:0:0:0:
129,117,419672,2,0,B|136:84,2,33.7500012874604,0|0|0,1:0|1:0|1:0,0:0:0:0:
13,207,419797,22,0,B|33:196|33:196|137:223|137:223|147:242,1,153.000002918243,0|0,1:0|1:0,0:0:0:0:
182,314,419984,21,0,1:0:0:0:
139,317,420046,1,0,1:0:0:0:
101,330,420109,1,0,1:0:0:0:
57,334,420172,22,0,B|54:325|54:325|59:286|59:286|63:327|63:327|75:290|75:290|68:281,1,139.500001064301,0|0,1:0|1:0,0:0:0:0:
90,193,420297,21,0,1:0:0:0:
242,239,420422,21,0,1:0:0:0:
235,241,420484,1,0,1:0:0:0:
229,239,420547,1,0,1:0:0:0:
226,232,420609,1,0,1:0:0:0:
229,226,420672,1,0,1:0:0:0:
235,223,420734,1,0,1:0:0:0:
242,226,420797,1,0,1:0:0:0:
244,232,420859,1,0,1:0:0:0:
235,232,420922,22,0,B|248:223|248:223|278:227|278:227|283:223|283:223|283:227|283:227|298:230|298:230|319:274|319:274|314:272|314:272|320:276|320:276|338:316|338:316|344:312|344:312|393:319,2,233.999989288331,0|0|0,1:0|1:0|1:0,0:0:0:0:
182,314,421297,21,0,1:0:0:0:
180,322,421359,1,0,1:0:0:0:
189,320,421422,1,0,1:0:0:0:
218,308,421484,1,0,1:0:0:0:
247,326,421547,2,0,L|240:373,1,45,8|0,1:0|1:0,0:0:0:0:
380,221,421672,21,0,1:0:0:0:
351,209,421734,1,0,1:0:0:0:
322,227,421797,2,0,L|329:274,1,45,0|0,1:0|1:0,0:0:0:0:
261,152,421922,21,0,1:0:0:0:
291,118,421984,1,0,1:0:0:0:
276,77,422047,1,0,1:0:0:0:
296,44,422109,1,0,1:0:0:0:
289,19,422172,21,0,1:0:0:0:
279,15,422234,1,0,1:0:0:0:
269,11,422297,1,0,1:0:0:0:
239,14,422359,1,0,1:0:0:0:
209,17,422422,1,0,1:0:0:0:
176,50,422484,21,0,1:0:0:0:
176,50,422547,2,0,L|128:44,2,45,0|0|0,1:0|1:0|1:0,0:0:0:0:
248,72,422734,21,0,1:0:0:0:
276,77,422797,1,0,1:0:0:0:
296,44,422859,1,0,1:0:0:0:
339,33,422922,2,0,L|383:38,1,45,0|0,1:0|1:0,0:0:0:0:
366,112,423047,2,0,L|343:109,1,22.5,0|0,1:0|1:0,0:0:0:0:
188,123,423172,22,0,B|117:136|151:192|92:207,1,135.000005149842,0|0,1:0|1:0,0:0:0:0:
27,254,423359,21,0,1:0:0:0:
24,244,423422,1,0,1:0:0:0:
18,227,423484,1,0,1:0:0:0:
7,205,423547,2,0,P|116:249|163:292,1,153.000002918243,8|0,1:0|1:0,0:0:0:0:
213,241,423734,21,0,1:0:0:0:
213,241,423797,2,0,B|305:257|261:330|338:350,1,175.499991966248,0|0,1:0|1:0,0:0:0:0:
396,301,424047,1,0,1:0:0:0:
396,301,424109,2,0,P|411:285|436:276,1,45,0|0,1:0|1:0,0:0:0:0:
512,270,424234,22,0,P|391:318|339:366,1,202.500007724762,0|0,1:0|1:0,0:0:0:0:
206,323,424547,21,0,1:0:0:0:
484,87,424734,21,0,1:0:0:0:
484,87,424797,2,2,B|472:84|445:70|470:15|458:-49|383:-81|203:31|234:138|285:242|354:278|398:231|476:166|478:78|450:75|463:6|423:-4|333:-2|310:47|293:141|372:168|381:122,1,675,0|0,1:0|0:0,1:0:0:0:
205,345,425859,21,0,1:0:0:0:
205,345,425922,2,2,B|197:326|197:326|189:330|189:330|173:315|173:315|167:319|167:319|149:307|149:307|143:315|143:315|125:312|125:312|121:316|121:316|108:318|108:318|106:313|106:313|95:319|95:319|86:313|86:313|70:307|70:307|60:312|60:312|52:293|52:293|50:285|50:285|32:281|32:281|31:265|31:265|9:256|9:256|2:250|2:250|0:216|0:216|9:214|9:214|6:198|6:198|12:188|12:188|19:169|19:169|39:162|39:162|45:150|45:150|56:137|56:137|68:130|68:130|73:136|73:136|83:131|83:131|93:140|93:140|108:132|108:132|111:143|111:143|122:145|122:145|135:143|135:143|148:158|148:158|152:139|152:139|169:131|169:131|169:115|169:115|176:104|176:104|202:102|202:102|210:86|210:86|221:83|221:83|229:98|229:98|243:87|243:87|260:99|260:99|279:95|279:95|288:103|288:103|288:122|288:122|301:128|301:128|309:144|309:144|306:158|306:158|317:170|317:170|309:186|309:186|317:205|317:205|307:223|307:223|298:221|298:221|292:241|292:241|284:255|284:255|279:254|279:254|277:267|277:267|271:278|271:278|264:271|264:271|260:284|260:284|243:278|243:278|233:282|233:282|234:294|234:294|221:292|221:292|216:300|216:300|218:311|218:311|206:314,1,1079.99996704102,2|2,1:0|1:0,1:0:0:0:
