osu file format v14

[General]
AudioFilename: audio.mp3
AudioLeadIn: 0
PreviewTime: -1
Countdown: 0
SampleSet: Soft
StackLeniency: 0.7
Mode: 3
LetterboxInBreaks: 0
SpecialStyle: 0
WidescreenStoryboard: 0

[Editor]
DistanceSpacing: 0.8
BeatDivisor: 4
GridSize: 16
TimelineZoom: 1.8

[Metadata]
Title:Distorted Lovesong
TitleUnicode:Distorted Lovesong
Artist:t+pazolite feat. Rizna
ArtistUnicode:t+pazolite feat. リズナ
Creator:Captain
Version:Distorted Jacks
Source:
Tags:
BeatmapID:1751180
BeatmapSetID:836201

[Difficulty]
HPDrainRate:9
CircleSize:4
OverallDifficulty:8.5
ApproachRate:5
SliderMultiplier:1.9
SliderTickRate:1

[Events]
//Background and Video events
0,0,"background.jpg",0,0
//Break Periods
//Storyboard Layer 0 (Background)
//Storyboard Layer 1 (Fail)
//Storyboard Layer 2 (Pass)
//Storyboard Layer 3 (Foreground)
//Storyboard Sound Samples

[TimingPoints]
17155,250,4,2,0,100,1,0
17155,-100,4,2,1,60,0,0
33155,-100,4,1,1,70,0,0

[HitObjects]
192,192,17155,128,0,17905:0:0:0:0:
64,192,17155,1,0,0:0:0:0:
320,192,17405,1,0,0:0:0:0:
448,192,17655,1,0,0:0:0:0:
320,192,17905,128,0,18155:0:0:0:0:
192,192,18155,1,0,0:0:0:0:
448,192,18155,1,0,0:0:0:0:
64,192,18405,1,0,0:0:0:0:
448,192,18655,1,0,0:0:0:0:
320,192,18905,1,0,0:0:0:0:
64,192,19155,1,0,0:0:0:0:
192,192,19155,1,0,0:0:0:0:
320,192,19405,1,0,0:0:0:0:
64,192,19655,1,0,0:0:0:0:
192,192,19905,1,0,0:0:0:0:
320,192,20155,1,0,0:0:0:0:
64,192,20155,1,0,0:0:0:0:
192,192,20405,1,0,0:0:0:0:
320,192,20655,1,0,0:0:0:0:
192,192,20905,1,0,0:0:0:0:
448,192,21155,128,0,21905:0:0:0:0:
64,192,21155,1,0,0:0:0:0:
192,192,21405,1,0,0:0:0:0:
320,192,21655,1,0,0:0:0:0:
64,192,21905,128,0,22155:0:0:0:0:
192,192,22155,1,0,0:0:0:0:
320,192,22155,1,0,0:0:0:0:
448,192,22405,1,0,0:0:0:0:
320,192,22655,1,0,0:0:0:0:
192,192,22905,1,0,0:0:0:0:
64,192,23155,1,0,0:0:0:0:
320,192,23155,1,0,0:0:0:0:
192,192,23405,1,0,0:0:0:0:
320,192,23655,1,0,0:0:0:0:
64,192,23905,1,0,0:0:0:0:
192,192,24155,1,0,0:0:0:0:
448,192,24155,1,0,0:0:0:0:
64,192,24405,1,0,0:0:0:0:
192,192,24655,1,0,0:0:0:0:
320,192,24905,1,0,0:0:0:0:
64,192,25155,128,0,25905:0:0:0:0:
448,192,25155,1,0,0:0:0:0:
320,192,25405,1,0,0:0:0:0:
192,192,25655,1,0,0:0:0:0:
320,192,25905,128,0,26155:0:0:0:0:
64,192,26155,1,0,0:0:0:0:
192,192,26155,1,0,0:0:0:0:
320,192,26405,1,0,0:0:0:0:
448,192,26655,1,0,0:0:0:0:
320,192,26905,1,0,0:0:0:0:
192,192,27155,1,0,0:0:0:0:
64,192,27155,1,0,0:0:0:0:
320,192,27405,1,0,0:0:0:0:
192,192,27655,1,0,0:0:0:0:
64,192,27905,1,0,0:0:0:0:
192,192,28155,1,0,0:0:0:0:
320,192,28155,1,0,0:0:0:0:
64,192,28405,1,0,0:0:0:0:
320,192,28655,1,0,0:0:0:0:
448,192,28905,1,0,0:0:0:0:
448,192,29155,128,0,29905:0:0:0:0:
64,192,29155,1,0,0:0:0:0:
192,192,29405,1,0,0:0:0:0:
320,192,29655,1,0,0:0:0:0:
192,192,29905,128,0,30155:0:0:0:0:
320,192,30155,1,0,0:0:0:0:
448,192,30155,1,0,0:0:0:0:
192,192,30405,1,0,0:0:0:0:
64,192,30655,1,0,0:0:0:0:
320,192,30905,1,0,0:0:0:0:
192,192,31155,1,0,0:0:0:0:
448,192,31155,1,0,0:0:0:0:
320,192,31405,1,0,0:0:0:0:
448,192,31655,1,0,0:0:0:0:
320,192,31905,1,0,0:0:0:0:
64,192,32155,1,0,0:0:0:0:
448,192,32155,1,0,0:0:0:0:
192,192,32405,1,0,0:0:0:0:
320,192,32655,1,0,0:0:0:0:
448,192,32905,1,0,0:0:0:0:
64,192,33155,1,0,0:0:0:0:
192,192,33155,1,0,0:0:0:0:
320,192,33155,1,0,0:0:0:0:
448,192,33155,1,0,0:0:0:0:
448,192,33405,1,0,0:0:0:0:
320,192,33405,1,0,0:0:0:0:
192,192,33530,1,0,0:0:0:0:
64,192,33655,1,0,0:0:0:0:
192,192,33655,1,0,0:0:0:0:
64,192,33905,1,0,0:0:0:0:
192,192,33905,1,0,0:0:0:0:
320,192,33905,1,0,0:0:0:0:
64,192,34155,1,0,0:0:0:0:
192,192,34155,1,0,0:0:0:0:
448,192,34155,1,0,0:0:0:0:
320,192,34155,1,0,0:0:0:0:
320,192,34405,1,0,0:0:0:0:
448,192,34405,1,0,0:0:0:0:
192,192,34530,1,0,0:0:0:0:
320,192,34655,1,0,0:0:0:0:
448,192,34655,1,0,0:0:0:0:
448,192,34905,1,0,0:0:0:0:
192,192,34905,1,0,0:0:0:0:
64,192,35155,1,0,0:0:0:0:
192,192,35155,1,0,0:0:0:0:
320,192,35155,1,0,0:0:0:0:
448,192,35405,1,0,0:0:0:0:
320,192,35530,1,0,0:0:0:0:
192,192,35655,1,0,0:0:0:0:
64,192,35655,1,0,0:0:0:0:
448,192,35905,128,0,36155:0:0:0:0:
320,192,36030,128,0,36155:0:0:0:0:
64,192,36155,1,0,0:0:0:0:
192,192,36155,1,0,0:0:0:0:
64,192,36405,1,0,0:0:0:0:
192,192,36405,1,0,0:0:0:0:
320,192,36530,1,0,0:0:0:0:
448,192,36530,1,0,0:0:0:0:
192,192,36655,1,0,0:0:0:0:
64,192,36655,1,0,0:0:0:0:
448,192,36905,1,0,0:0:0:0:
64,192,36905,1,0,0:0:0:0:
64,192,37155,1,0,0:0:0:0:
192,192,37155,1,0,0:0:0:0:
320,192,37155,1,0,0:0:0:0:
448,192,37155,1,0,0:0:0:0:
64,192,37405,1,0,0:0:0:0:
192,192,37405,1,0,0:0:0:0:
320,192,37530,1,0,0:0:0:0:
320,192,37655,1,0,0:0:0:0:
448,192,37655,1,0,0:0:0:0:
192,192,37905,1,0,0:0:0:0:
448,192,37905,1,0,0:0:0:0:
320,192,37905,1,0,0:0:0:0:
192,192,38155,1,0,0:0:0:0:
64,192,38155,1,0,0:0:0:0:
448,192,38155,1,0,0:0:0:0:
320,192,38155,1,0,0:0:0:0:
448,192,38405,1,0,0:0:0:0:
192,192,38405,1,0,0:0:0:0:
320,192,38530,1,0,0:0:0:0:
192,192,38655,1,0,0:0:0:0:
64,192,38655,1,0,0:0:0:0:
64,192,38905,1,0,0:0:0:0:
320,192,38905,1,0,0:0:0:0:
192,192,39155,1,0,0:0:0:0:
448,192,39155,1,0,0:0:0:0:
320,192,39155,1,0,0:0:0:0:
64,192,39405,1,0,0:0:0:0:
192,192,39405,1,0,0:0:0:0:
320,192,39530,1,0,0:0:0:0:
64,192,39655,1,0,0:0:0:0:
192,192,39655,1,0,0:0:0:0:
64,192,39905,128,0,40155:0:0:0:0:
192,192,40030,128,0,40155:0:0:0:0:
320,192,40155,1,0,0:0:0:0:
448,192,40155,1,0,0:0:0:0:
320,192,40405,1,0,0:0:0:0:
448,192,40405,1,0,0:0:0:0:
192,192,40530,1,0,0:0:0:0:
64,192,40530,1,0,0:0:0:0:
320,192,40655,1,0,0:0:0:0:
448,192,40655,1,0,0:0:0:0:
64,192,40905,1,0,0:0:0:0:
192,192,40905,1,0,0:0:0:0:
64,192,41030,1,0,0:0:0:0:
320,192,41030,1,0,0:0:0:0:
64,192,41155,1,0,0:0:0:0:
192,192,41155,1,0,0:0:0:0:
320,192,41155,1,0,0:0:0:0:
448,192,41155,1,0,0:0:0:0:
448,192,41405,1,0,0:0:0:0:
192,192,41405,1,0,0:0:0:0:
320,192,41530,1,0,0:0:0:0:
320,192,41655,1,0,0:0:0:0:
192,192,41655,1,0,0:0:0:0:
64,192,41905,1,0,0:0:0:0:
192,192,41905,1,0,0:0:0:0:
320,192,41905,1,0,0:0:0:0:
64,192,42155,1,0,0:0:0:0:
192,192,42155,1,0,0:0:0:0:
448,192,42155,1,0,0:0:0:0:
320,192,42155,1,0,0:0:0:0:
448,192,42405,1,0,0:0:0:0:
192,192,42405,1,0,0:0:0:0:
64,192,42530,1,0,0:0:0:0:
448,192,42655,1,0,0:0:0:0:
192,192,42655,1,0,0:0:0:0:
320,192,42905,1,0,0:0:0:0:
448,192,42905,1,0,0:0:0:0:
64,192,43155,1,0,0:0:0:0:
192,192,43155,1,0,0:0:0:0:
320,192,43155,1,0,0:0:0:0:
64,192,43405,1,0,0:0:0:0:
192,192,43405,1,0,0:0:0:0:
320,192,43530,1,0,0:0:0:0:
192,192,43655,1,0,0:0:0:0:
448,192,43655,1,0,0:0:0:0:
320,192,43905,128,0,44155:0:0:0:0:
192,192,44030,128,0,44155:0:0:0:0:
64,192,44155,1,0,0:0:0:0:
448,192,44155,1,0,0:0:0:0:
192,192,44405,1,0,0:0:0:0:
320,192,44405,1,0,0:0:0:0:
64,192,44530,1,0,0:0:0:0:
448,192,44530,1,0,0:0:0:0:
192,192,44655,1,0,0:0:0:0:
320,192,44655,1,0,0:0:0:0:
192,192,44905,1,0,0:0:0:0:
320,192,44905,1,0,0:0:0:0:
64,192,45155,1,0,0:0:0:0:
192,192,45155,1,0,0:0:0:0:
320,192,45155,1,0,0:0:0:0:
448,192,45155,1,0,0:0:0:0:
448,192,45405,1,0,0:0:0:0:
192,192,45405,1,0,0:0:0:0:
320,192,45530,1,0,0:0:0:0:
64,192,45655,1,0,0:0:0:0:
320,192,45655,1,0,0:0:0:0:
64,192,45905,1,0,0:0:0:0:
192,192,45905,1,0,0:0:0:0:
320,192,45905,1,0,0:0:0:0:
192,192,46155,1,0,0:0:0:0:
320,192,46155,1,0,0:0:0:0:
448,192,46155,1,0,0:0:0:0:
64,192,46155,1,0,0:0:0:0:
448,192,46405,1,0,0:0:0:0:
320,192,46405,1,0,0:0:0:0:
192,192,46530,1,0,0:0:0:0:
64,192,46655,1,0,0:0:0:0:
320,192,46655,1,0,0:0:0:0:
64,192,46905,1,0,0:0:0:0:
192,192,46905,1,0,0:0:0:0:
192,192,47155,1,0,0:0:0:0:
448,192,47155,1,0,0:0:0:0:
320,192,47155,1,0,0:0:0:0:
64,192,47405,1,0,0:0:0:0:
192,192,47405,1,0,0:0:0:0:
320,192,47530,1,0,0:0:0:0:
192,192,47655,1,0,0:0:0:0:
64,192,47655,1,0,0:0:0:0:
448,192,47905,128,0,48155:0:0:0:0:
320,192,48030,128,0,48155:0:0:0:0:
192,192,48155,1,0,0:0:0:0:
64,192,48155,1,0,0:0:0:0:
64,192,48405,1,0,0:0:0:0:
320,192,48405,1,0,0:0:0:0:
192,192,48530,1,0,0:0:0:0:
448,192,48530,1,0,0:0:0:0:
320,192,48655,1,0,0:0:0:0:
64,192,48655,1,0,0:0:0:0:
64,192,48905,1,0,0:0:0:0:
192,192,48905,1,0,0:0:0:0:
64,192,49155,1,0,0:0:0:0:
192,192,49155,1,0,0:0:0:0:
320,192,49155,1,0,0:0:0:0:
448,192,49155,1,0,0:0:0:0:
320,192,49405,1,0,0:0:0:0:
64,192,49405,1,0,0:0:0:0:
192,192,49530,1,0,0:0:0:0:
192,192,49655,1,0,0:0:0:0:
320,192,49655,1,0,0:0:0:0:
192,192,49905,1,0,0:0:0:0:
320,192,49905,1,0,0:0:0:0:
448,192,49905,1,0,0:0:0:0:
64,192,50155,1,0,0:0:0:0:
192,192,50155,1,0,0:0:0:0:
320,192,50155,1,0,0:0:0:0:
448,192,50155,1,0,0:0:0:0:
64,192,50405,1,0,0:0:0:0:
320,192,50405,1,0,0:0:0:0:
192,192,50530,1,0,0:0:0:0:
64,192,50655,1,0,0:0:0:0:
448,192,50655,1,0,0:0:0:0:
320,192,50905,1,0,0:0:0:0:
448,192,50905,1,0,0:0:0:0:
64,192,51155,1,0,0:0:0:0:
192,192,51155,1,0,0:0:0:0:
320,192,51155,1,0,0:0:0:0:
448,192,51405,1,0,0:0:0:0:
192,192,51405,1,0,0:0:0:0:
320,192,51530,1,0,0:0:0:0:
192,192,51655,1,0,0:0:0:0:
448,192,51655,1,0,0:0:0:0:
64,192,51905,128,0,52155:0:0:0:0:
192,192,52030,128,0,52155:0:0:0:0:
320,192,52155,1,0,0:0:0:0:
448,192,52155,1,0,0:0:0:0:
448,192,52405,1,0,0:0:0:0:
192,192,52405,1,0,0:0:0:0:
64,192,52530,1,0,0:0:0:0:
320,192,52530,1,0,0:0:0:0:
192,192,52655,1,0,0:0:0:0:
448,192,52655,1,0,0:0:0:0:
320,192,52905,1,0,0:0:0:0:
448,192,52905,1,0,0:0:0:0:
64,192,53155,1,0,0:0:0:0:
192,192,53155,1,0,0:0:0:0:
320,192,53155,1,0,0:0:0:0:
448,192,53155,1,0,0:0:0:0:
64,192,53405,1,0,0:0:0:0:
448,192,53405,1,0,0:0:0:0:
192,192,53530,1,0,0:0:0:0:
192,192,53655,1,0,0:0:0:0:
448,192,53655,1,0,0:0:0:0:
64,192,53905,1,0,0:0:0:0:
192,192,53905,1,0,0:0:0:0:
320,192,53905,1,0,0:0:0:0:
64,192,54155,1,0,0:0:0:0:
192,192,54155,1,0,0:0:0:0:
320,192,54155,1,0,0:0:0:0:
448,192,54155,1,0,0:0:0:0:
448,192,54405,1,0,0:0:0:0:
320,192,54405,1,0,0:0:0:0:
192,192,54530,1,0,0:0:0:0:
64,192,54655,1,0,0:0:0:0:
320,192,54655,1,0,0:0:0:0:
64,192,54905,1,0,0:0:0:0:
320,192,54905,1,0,0:0:0:0:
448,192,54905,1,0,0:0:0:0:
64,192,55155,1,0,0:0:0:0:
192,192,55155,1,0,0:0:0:0:
320,192,55155,1,0,0:0:0:0:
448,192,55155,1,0,0:0:0:0:
64,192,55405,1,0,0:0:0:0:
448,192,55405,1,0,0:0:0:0:
192,192,55530,1,0,0:0:0:0:
448,192,55655,1,0,0:0:0:0:
320,192,55655,1,0,0:0:0:0:
64,192,55905,128,0,56155:0:0:0:0:
192,192,56030,128,0,56155:0:0:0:0:
320,192,56155,1,0,0:0:0:0:
448,192,56155,1,0,0:0:0:0:
320,192,56405,1,0,0:0:0:0:
448,192,56405,1,0,0:0:0:0:
192,192,56530,1,0,0:0:0:0:
64,192,56530,1,0,0:0:0:0:
320,192,56655,1,0,0:0:0:0:
448,192,56655,1,0,0:0:0:0:
448,192,56905,1,0,0:0:0:0:
192,192,56905,1,0,0:0:0:0:
64,192,57030,1,0,0:0:0:0:
448,192,57030,1,0,0:0:0:0:
64,192,57155,1,0,0:0:0:0:
192,192,57155,1,0,0:0:0:0:
320,192,57155,1,0,0:0:0:0:
448,192,57155,1,0,0:0:0:0:
64,192,57405,1,0,0:0:0:0:
192,192,57405,1,0,0:0:0:0:
320,192,57530,1,0,0:0:0:0:
320,192,57655,1,0,0:0:0:0:
448,192,57655,1,0,0:0:0:0:
192,192,57905,1,0,0:0:0:0:
64,192,57905,1,0,0:0:0:0:
448,192,57905,1,0,0:0:0:0:
64,192,58155,1,0,0:0:0:0:
192,192,58155,1,0,0:0:0:0:
320,192,58155,1,0,0:0:0:0:
448,192,58155,1,0,0:0:0:0:
192,192,58405,1,0,0:0:0:0:
320,192,58405,1,0,0:0:0:0:
448,192,58530,1,0,0:0:0:0:
320,192,58655,1,0,0:0:0:0:
192,192,58655,1,0,0:0:0:0:
64,192,58905,1,0,0:0:0:0:
192,192,58905,1,0,0:0:0:0:
64,192,59155,1,0,0:0:0:0:
192,192,59155,1,0,0:0:0:0:
320,192,59155,1,0,0:0:0:0:
192,192,59405,1,0,0:0:0:0:
448,192,59405,1,0,0:0:0:0:
320,192,59530,1,0,0:0:0:0:
192,192,59655,1,0,0:0:0:0:
64,192,59655,1,0,0:0:0:0:
64,192,59905,128,0,60155:0:0:0:0:
448,192,60030,128,0,60155:0:0:0:0:
192,192,60155,1,0,0:0:0:0:
320,192,60155,1,0,0:0:0:0:
64,192,60405,1,0,0:0:0:0:
320,192,60405,1,0,0:0:0:0:
320,192,60530,1,0,0:0:0:0:
192,192,60530,1,0,0:0:0:0:
448,192,60655,1,0,0:0:0:0:
192,192,60655,1,0,0:0:0:0:
192,192,60905,1,0,0:0:0:0:
448,192,60905,1,0,0:0:0:0:
64,192,61155,1,0,0:0:0:0:
320,192,61155,1,0,0:0:0:0:
448,192,61155,1,0,0:0:0:0:
192,192,61155,1,0,0:0:0:0:
448,192,61405,1,0,0:0:0:0:
320,192,61405,1,0,0:0:0:0:
192,192,61530,1,0,0:0:0:0:
320,192,61655,1,0,0:0:0:0:
448,192,61655,1,0,0:0:0:0:
192,192,61905,1,0,0:0:0:0:
320,192,61905,1,0,0:0:0:0:
64,192,62155,1,0,0:0:0:0:
192,192,62155,1,0,0:0:0:0:
320,192,62155,1,0,0:0:0:0:
448,192,62155,1,0,0:0:0:0:
64,192,62405,1,0,0:0:0:0:
192,192,62405,1,0,0:0:0:0:
320,192,62530,1,0,0:0:0:0:
192,192,62655,1,0,0:0:0:0:
448,192,62655,1,0,0:0:0:0:
64,192,62905,1,0,0:0:0:0:
448,192,62905,1,0,0:0:0:0:
192,192,63155,1,0,0:0:0:0:
320,192,63155,1,0,0:0:0:0:
448,192,63155,1,0,0:0:0:0:
64,192,63405,1,0,0:0:0:0:
192,192,63405,1,0,0:0:0:0:
320,192,63530,1,0,0:0:0:0:
320,192,63655,1,0,0:0:0:0:
448,192,63655,1,0,0:0:0:0:
192,192,63905,1,0,0:0:0:0:
448,192,63905,1,0,0:0:0:0:
64,192,64155,1,0,0:0:0:0:
192,192,64155,1,0,0:0:0:0:
448,192,64280,1,0,0:0:0:0:
320,192,64342,1,0,0:0:0:0:
192,192,64405,1,0,0:0:0:0:
64,192,64405,1,0,0:0:0:0:
64,192,64530,1,0,0:0:0:0:
320,192,64530,1,0,0:0:0:0:
192,192,64655,1,0,0:0:0:0:
448,192,64655,1,0,0:0:0:0:
320,192,64780,1,0,0:0:0:0:
448,192,64780,1,0,0:0:0:0:
320,192,64905,1,0,0:0:0:0:
192,192,64905,1,0,0:0:0:0:
64,192,65030,1,0,0:0:0:0:
192,192,65030,1,0,0:0:0:0:
320,192,65155,1,0,0:0:0:0:
448,192,65155,1,0,0:0:0:0:
64,192,65155,1,0,0:0:0:0:
192,192,65155,1,0,0:0:0:0:
320,192,65280,1,0,0:0:0:0:
192,192,65405,1,0,0:0:0:0:
64,192,65530,1,0,0:0:0:0:
320,192,65530,1,0,0:0:0:0:
448,192,65530,1,0,0:0:0:0:
192,192,65655,1,0,0:0:0:0:
320,192,65780,1,0,0:0:0:0:
192,192,65905,1,0,0:0:0:0:
448,192,65905,1,0,0:0:0:0:
64,192,65905,1,0,0:0:0:0:
320,192,66030,1,0,0:0:0:0:
192,192,66155,1,0,0:0:0:0:
64,192,66155,1,0,0:0:0:0:
448,192,66280,1,0,0:0:0:0:
320,192,66342,1,0,0:0:0:0:
64,192,66405,1,0,0:0:0:0:
192,192,66405,1,0,0:0:0:0:
64,192,66530,1,0,0:0:0:0:
320,192,66530,1,0,0:0:0:0:
64,192,66655,1,0,0:0:0:0:
192,192,66717,1,0,0:0:0:0:
320,192,66780,1,0,0:0:0:0:
448,192,66780,1,0,0:0:0:0:
64,192,66905,1,0,0:0:0:0:
192,192,66967,1,0,0:0:0:0:
320,192,67030,1,0,0:0:0:0:
448,192,67030,1,0,0:0:0:0:
64,192,67155,1,0,0:0:0:0:
192,192,67155,1,0,0:0:0:0:
448,192,67155,1,0,0:0:0:0:
320,192,67280,1,0,0:0:0:0:
448,192,67405,1,0,0:0:0:0:
448,192,67530,1,0,0:0:0:0:
320,192,67530,1,0,0:0:0:0:
192,192,67530,1,0,0:0:0:0:
320,192,67655,1,0,0:0:0:0:
192,192,67780,1,0,0:0:0:0:
64,192,67905,1,0,0:0:0:0:
192,192,67905,1,0,0:0:0:0:
448,192,67905,1,0,0:0:0:0:
320,192,68030,1,0,0:0:0:0:
192,192,68155,1,0,0:0:0:0:
448,192,68155,1,0,0:0:0:0:
320,192,68280,1,0,0:0:0:0:
192,192,68342,1,0,0:0:0:0:
64,192,68405,1,0,0:0:0:0:
448,192,68405,1,0,0:0:0:0:
320,192,68530,1,0,0:0:0:0:
448,192,68592,1,0,0:0:0:0:
64,192,68655,1,0,0:0:0:0:
192,192,68717,1,0,0:0:0:0:
320,192,68780,1,0,0:0:0:0:
448,192,68842,1,0,0:0:0:0:
192,192,68905,1,0,0:0:0:0:
64,192,68905,1,0,0:0:0:0:
320,192,69030,1,0,0:0:0:0:
448,192,69030,1,0,0:0:0:0:
64,192,69155,1,0,0:0:0:0:
192,192,69155,1,0,0:0:0:0:
320,192,69155,1,0,0:0:0:0:
448,192,69280,1,0,0:0:0:0:
320,192,69405,1,0,0:0:0:0:
448,192,69405,1,0,0:0:0:0:
192,192,69530,1,0,0:0:0:0:
64,192,69530,1,0,0:0:0:0:
320,192,69530,1,0,0:0:0:0:
192,192,69655,1,0,0:0:0:0:
64,192,69780,1,0,0:0:0:0:
320,192,69780,1,0,0:0:0:0:
320,192,69905,1,0,0:0:0:0:
448,192,69905,1,0,0:0:0:0:
192,192,69905,1,0,0:0:0:0:
64,192,70030,1,0,0:0:0:0:
192,192,70155,1,0,0:0:0:0:
448,192,70155,1,0,0:0:0:0:
320,192,70217,1,0,0:0:0:0:
192,192,70280,1,0,0:0:0:0:
64,192,70342,1,0,0:0:0:0:
192,192,70405,1,0,0:0:0:0:
320,192,70405,1,0,0:0:0:0:
64,192,70530,1,0,0:0:0:0:
192,192,70592,1,0,0:0:0:0:
320,192,70655,1,0,0:0:0:0:
448,192,70655,1,0,0:0:0:0:
64,192,70780,1,0,0:0:0:0:
192,192,70842,1,0,0:0:0:0:
320,192,70905,1,0,0:0:0:0:
448,192,70905,1,0,0:0:0:0:
192,192,71030,1,0,0:0:0:0:
448,192,71030,1,0,0:0:0:0:
64,192,71155,1,0,0:0:0:0:
192,192,71155,1,0,0:0:0:0:
320,192,71155,1,0,0:0:0:0:
320,192,71280,1,0,0:0:0:0:
192,192,71405,1,0,0:0:0:0:
448,192,71405,1,0,0:0:0:0:
448,192,71530,1,0,0:0:0:0:
320,192,71530,1,0,0:0:0:0:
64,192,71530,1,0,0:0:0:0:
192,192,71655,1,0,0:0:0:0:
64,192,71780,1,0,0:0:0:0:
192,192,71780,1,0,0:0:0:0:
64,192,71905,1,0,0:0:0:0:
448,192,71905,1,0,0:0:0:0:
320,192,71905,1,0,0:0:0:0:
320,192,72030,1,0,0:0:0:0:
64,192,72155,1,0,0:0:0:0:
192,192,72155,1,0,0:0:0:0:
320,192,72217,1,0,0:0:0:0:
448,192,72280,1,0,0:0:0:0:
64,192,72405,1,0,0:0:0:0:
192,192,72405,1,0,0:0:0:0:
320,192,72467,1,0,0:0:0:0:
448,192,72530,1,0,0:0:0:0:
192,192,72655,1,0,0:0:0:0:
320,192,72655,1,0,0:0:0:0:
64,192,72780,1,0,0:0:0:0:
192,192,72905,1,0,0:0:0:0:
320,192,72905,1,0,0:0:0:0:
192,192,73030,1,0,0:0:0:0:
448,192,73030,1,0,0:0:0:0:
64,192,73155,1,0,0:0:0:0:
192,192,73155,1,0,0:0:0:0:
320,192,73155,1,0,0:0:0:0:
448,192,73155,1,0,0:0:0:0:
192,192,73280,1,0,0:0:0:0:
64,192,73405,1,0,0:0:0:0:
320,192,73405,1,0,0:0:0:0:
448,192,73405,1,0,0:0:0:0:
64,192,73530,1,0,0:0:0:0:
192,192,73530,1,0,0:0:0:0:
448,192,73530,1,0,0:0:0:0:
320,192,73655,1,0,0:0:0:0:
448,192,73780,1,0,0:0:0:0:
192,192,73780,1,0,0:0:0:0:
64,192,73905,1,0,0:0:0:0:
192,192,73905,1,0,0:0:0:0:
320,192,73905,1,0,0:0:0:0:
192,192,74030,1,0,0:0:0:0:
192,192,74155,1,0,0:0:0:0:
320,192,74155,1,0,0:0:0:0:
448,192,74155,1,0,0:0:0:0:
320,192,74280,1,0,0:0:0:0:
448,192,74405,1,0,0:0:0:0:
64,192,74405,1,0,0:0:0:0:
192,192,74405,1,0,0:0:0:0:
192,192,74530,1,0,0:0:0:0:
64,192,74655,1,0,0:0:0:0:
320,192,74655,1,0,0:0:0:0:
448,192,74655,1,0,0:0:0:0:
192,192,74780,1,0,0:0:0:0:
64,192,74905,1,0,0:0:0:0:
320,192,74905,1,0,0:0:0:0:
448,192,74905,1,0,0:0:0:0:
64,192,75030,1,0,0:0:0:0:
320,192,75030,1,0,0:0:0:0:
448,192,75030,1,0,0:0:0:0:
192,192,75155,1,0,0:0:0:0:
320,192,75155,1,0,0:0:0:0:
448,192,75155,1,0,0:0:0:0:
320,192,75280,1,0,0:0:0:0:
448,192,75405,1,0,0:0:0:0:
64,192,75405,1,0,0:0:0:0:
192,192,75405,1,0,0:0:0:0:
320,192,75530,1,0,0:0:0:0:
192,192,75530,1,0,0:0:0:0:
192,192,75655,1,0,0:0:0:0:
320,192,75655,1,0,0:0:0:0:
448,192,75655,1,0,0:0:0:0:
64,192,75780,1,0,0:0:0:0:
192,192,75905,1,0,0:0:0:0:
64,192,75905,1,0,0:0:0:0:
320,192,75905,1,0,0:0:0:0:
320,192,76030,1,0,0:0:0:0:
448,192,76155,1,0,0:0:0:0:
320,192,76155,1,0,0:0:0:0:
64,192,76155,1,0,0:0:0:0:
192,192,76280,1,0,0:0:0:0:
320,192,76342,1,0,0:0:0:0:
192,192,76405,1,0,0:0:0:0:
64,192,76405,1,0,0:0:0:0:
448,192,76405,1,0,0:0:0:0:
320,192,76530,1,0,0:0:0:0:
192,192,76655,1,0,0:0:0:0:
448,192,76655,1,0,0:0:0:0:
320,192,76655,1,0,0:0:0:0:
64,192,76780,1,0,0:0:0:0:
192,192,76905,1,0,0:0:0:0:
320,192,76905,1,0,0:0:0:0:
448,192,76905,1,0,0:0:0:0:
64,192,77030,1,0,0:0:0:0:
192,192,77030,1,0,0:0:0:0:
320,192,77155,1,0,0:0:0:0:
448,192,77155,1,0,0:0:0:0:
64,192,77155,1,0,0:0:0:0:
448,192,77280,1,0,0:0:0:0:
192,192,77405,1,0,0:0:0:0:
64,192,77405,1,0,0:0:0:0:
448,192,77405,1,0,0:0:0:0:
320,192,77530,1,0,0:0:0:0:
192,192,77530,1,0,0:0:0:0:
64,192,77655,1,0,0:0:0:0:
192,192,77655,1,0,0:0:0:0:
320,192,77655,1,0,0:0:0:0:
448,192,77780,1,0,0:0:0:0:
64,192,77905,1,0,0:0:0:0:
192,192,77905,1,0,0:0:0:0:
320,192,77905,1,0,0:0:0:0:
64,192,78030,1,0,0:0:0:0:
320,192,78155,1,0,0:0:0:0:
448,192,78155,1,0,0:0:0:0:
192,192,78155,1,0,0:0:0:0:
448,192,78280,1,0,0:0:0:0:
64,192,78405,1,0,0:0:0:0:
192,192,78405,1,0,0:0:0:0:
320,192,78405,1,0,0:0:0:0:
320,192,78530,1,0,0:0:0:0:
64,192,78655,1,0,0:0:0:0:
192,192,78655,1,0,0:0:0:0:
448,192,78655,1,0,0:0:0:0:
64,192,78780,1,0,0:0:0:0:
192,192,78905,1,0,0:0:0:0:
320,192,78905,1,0,0:0:0:0:
448,192,78905,1,0,0:0:0:0:
320,192,79030,1,0,0:0:0:0:
64,192,79155,1,0,0:0:0:0:
192,192,79155,1,0,0:0:0:0:
64,192,79280,1,0,0:0:0:0:
192,192,79280,1,0,0:0:0:0:
320,192,79405,1,0,0:0:0:0:
448,192,79405,1,0,0:0:0:0:
320,192,79530,1,0,0:0:0:0:
448,192,79530,1,0,0:0:0:0:
64,192,79655,1,0,0:0:0:0:
320,192,79655,1,0,0:0:0:0:
64,192,79780,1,0,0:0:0:0:
320,192,79780,1,0,0:0:0:0:
192,192,79905,1,0,0:0:0:0:
448,192,79905,1,0,0:0:0:0:
192,192,80030,1,0,0:0:0:0:
448,192,80030,1,0,0:0:0:0:
320,192,80155,1,0,0:0:0:0:
448,192,80155,1,0,0:0:0:0:
192,192,80217,1,0,0:0:0:0:
64,192,80280,1,0,0:0:0:0:
448,192,80342,1,0,0:0:0:0:
192,192,80405,1,0,0:0:0:0:
320,192,80405,1,0,0:0:0:0:
64,192,80467,1,0,0:0:0:0:
448,192,80530,1,0,0:0:0:0:
320,192,80592,1,0,0:0:0:0:
192,192,80655,1,0,0:0:0:0:
64,192,80717,1,0,0:0:0:0:
448,192,80780,1,0,0:0:0:0:
320,192,80811,1,0,0:0:0:0:
192,192,80842,1,0,0:0:0:0:
64,192,80873,1,0,0:0:0:0:
320,192,80905,1,0,0:0:0:0:
448,192,80905,1,0,0:0:0:0:
192,192,81030,1,0,0:0:0:0:
64,192,81030,1,0,0:0:0:0:
64,192,81155,1,0,0:0:0:0:
192,192,81155,1,0,0:0:0:0:
320,192,81155,1,0,0:0:0:0:
448,192,81155,1,0,0:0:0:0:
192,192,81280,1,0,0:0:0:0:
320,192,81280,1,0,0:0:0:0:
192,192,81405,1,0,0:0:0:0:
320,192,81530,1,0,0:0:0:0:
448,192,81530,1,0,0:0:0:0:
64,192,81530,1,0,0:0:0:0:
64,192,81655,1,0,0:0:0:0:
192,192,81655,1,0,0:0:0:0:
320,192,81780,1,0,0:0:0:0:
192,192,81905,1,0,0:0:0:0:
448,192,81905,1,0,0:0:0:0:
320,192,82030,1,0,0:0:0:0:
448,192,82030,1,0,0:0:0:0:
64,192,82030,1,0,0:0:0:0:
64,192,82155,1,0,0:0:0:0:
192,192,82155,1,0,0:0:0:0:
448,192,82155,1,0,0:0:0:0:
320,192,82280,1,0,0:0:0:0:
192,192,82405,1,0,0:0:0:0:
320,192,82405,1,0,0:0:0:0:
448,192,82405,1,0,0:0:0:0:
64,192,82530,1,0,0:0:0:0:
64,192,82655,1,0,0:0:0:0:
192,192,82655,1,0,0:0:0:0:
320,192,82655,1,0,0:0:0:0:
192,192,82780,1,0,0:0:0:0:
320,192,82905,1,0,0:0:0:0:
448,192,82905,1,0,0:0:0:0:
64,192,82905,1,0,0:0:0:0:
192,192,83030,1,0,0:0:0:0:
320,192,83030,1,0,0:0:0:0:
64,192,83155,1,0,0:0:0:0:
320,192,83280,1,0,0:0:0:0:
448,192,83280,1,0,0:0:0:0:
192,192,83280,1,0,0:0:0:0:
320,192,83405,1,0,0:0:0:0:
448,192,83405,1,0,0:0:0:0:
64,192,83530,1,0,0:0:0:0:
192,192,83530,1,0,0:0:0:0:
64,192,83655,1,0,0:0:0:0:
320,192,83655,1,0,0:0:0:0:
448,192,83655,1,0,0:0:0:0:
448,192,83780,1,0,0:0:0:0:
192,192,83780,1,0,0:0:0:0:
192,192,83905,1,0,0:0:0:0:
320,192,83905,1,0,0:0:0:0:
64,192,83905,1,0,0:0:0:0:
64,192,84030,1,0,0:0:0:0:
192,192,84155,1,0,0:0:0:0:
320,192,84155,1,0,0:0:0:0:
448,192,84155,1,0,0:0:0:0:
192,192,84280,1,0,0:0:0:0:
320,192,84280,1,0,0:0:0:0:
320,192,84405,1,0,0:0:0:0:
64,192,84405,1,0,0:0:0:0:
64,192,84530,1,0,0:0:0:0:
192,192,84530,1,0,0:0:0:0:
64,192,84655,1,0,0:0:0:0:
192,192,84655,1,0,0:0:0:0:
320,192,84655,1,0,0:0:0:0:
448,192,84655,1,0,0:0:0:0:
320,192,84780,1,0,0:0:0:0:
448,192,84780,1,0,0:0:0:0:
192,192,84905,1,0,0:0:0:0:
64,192,85030,1,0,0:0:0:0:
320,192,85030,1,0,0:0:0:0:
448,192,85030,1,0,0:0:0:0:
192,192,85155,1,0,0:0:0:0:
320,192,85155,1,0,0:0:0:0:
448,192,85280,1,0,0:0:0:0:
320,192,85405,1,0,0:0:0:0:
448,192,85405,1,0,0:0:0:0:
64,192,85405,1,0,0:0:0:0:
192,192,85530,1,0,0:0:0:0:
64,192,85655,1,0,0:0:0:0:
192,192,85655,1,0,0:0:0:0:
320,192,85655,1,0,0:0:0:0:
448,192,85780,1,0,0:0:0:0:
320,192,85905,1,0,0:0:0:0:
448,192,85905,1,0,0:0:0:0:
64,192,85905,1,0,0:0:0:0:
192,192,86030,1,0,0:0:0:0:
192,192,86155,1,0,0:0:0:0:
320,192,86155,1,0,0:0:0:0:
448,192,86155,1,0,0:0:0:0:
64,192,86280,1,0,0:0:0:0:
64,192,86405,1,0,0:0:0:0:
192,192,86405,1,0,0:0:0:0:
320,192,86405,1,0,0:0:0:0:
320,192,86530,1,0,0:0:0:0:
448,192,86530,1,0,0:0:0:0:
192,192,86655,1,0,0:0:0:0:
320,192,86780,1,0,0:0:0:0:
448,192,86780,1,0,0:0:0:0:
192,192,86780,1,0,0:0:0:0:
64,192,86905,1,0,0:0:0:0:
192,192,86905,1,0,0:0:0:0:
320,192,87030,1,0,0:0:0:0:
64,192,87155,1,0,0:0:0:0:
192,192,87155,1,0,0:0:0:0:
448,192,87155,1,0,0:0:0:0:
64,192,87280,1,0,0:0:0:0:
192,192,87405,1,0,0:0:0:0:
320,192,87405,1,0,0:0:0:0:
448,192,87405,1,0,0:0:0:0:
320,192,87530,1,0,0:0:0:0:
64,192,87655,1,0,0:0:0:0:
192,192,87655,1,0,0:0:0:0:
448,192,87717,1,0,0:0:0:0:
320,192,87780,1,0,0:0:0:0:
192,192,87842,1,0,0:0:0:0:
64,192,87905,1,0,0:0:0:0:
320,192,87905,1,0,0:0:0:0:
192,192,88030,1,0,0:0:0:0:
64,192,88030,1,0,0:0:0:0:
448,192,88155,1,0,0:0:0:0:
320,192,88155,1,0,0:0:0:0:
192,192,88280,1,0,0:0:0:0:
64,192,88405,1,0,0:0:0:0:
192,192,88405,1,0,0:0:0:0:
320,192,88405,1,0,0:0:0:0:
320,192,88530,1,0,0:0:0:0:
448,192,88530,1,0,0:0:0:0:
192,192,88655,1,0,0:0:0:0:
64,192,88780,1,0,0:0:0:0:
192,192,88780,1,0,0:0:0:0:
64,192,88905,1,0,0:0:0:0:
320,192,88905,1,0,0:0:0:0:
448,192,88905,1,0,0:0:0:0:
320,192,89030,1,0,0:0:0:0:
192,192,89030,1,0,0:0:0:0:
64,192,89155,1,0,0:0:0:0:
192,192,89155,1,0,0:0:0:0:
448,192,89155,1,0,0:0:0:0:
64,192,89280,1,0,0:0:0:0:
192,192,89405,1,0,0:0:0:0:
320,192,89405,1,0,0:0:0:0:
448,192,89405,1,0,0:0:0:0:
320,192,89530,1,0,0:0:0:0:
320,192,89655,1,0,0:0:0:0:
448,192,89655,1,0,0:0:0:0:
64,192,89655,1,0,0:0:0:0:
192,192,89780,1,0,0:0:0:0:
64,192,89905,1,0,0:0:0:0:
192,192,89905,1,0,0:0:0:0:
320,192,89905,1,0,0:0:0:0:
192,192,90030,1,0,0:0:0:0:
448,192,90030,1,0,0:0:0:0:
320,192,90155,1,0,0:0:0:0:
192,192,90280,1,0,0:0:0:0:
320,192,90280,1,0,0:0:0:0:
448,192,90280,1,0,0:0:0:0:
64,192,90405,1,0,0:0:0:0:
320,192,90405,1,0,0:0:0:0:
192,192,90530,1,0,0:0:0:0:
64,192,90655,1,0,0:0:0:0:
320,192,90655,1,0,0:0:0:0:
448,192,90655,1,0,0:0:0:0:
192,192,90780,1,0,0:0:0:0:
64,192,90905,1,0,0:0:0:0:
448,192,90905,1,0,0:0:0:0:
192,192,90905,1,0,0:0:0:0:
320,192,91030,1,0,0:0:0:0:
64,192,91155,1,0,0:0:0:0:
192,192,91155,1,0,0:0:0:0:
320,192,91155,1,0,0:0:0:0:
64,192,91280,1,0,0:0:0:0:
192,192,91405,1,0,0:0:0:0:
320,192,91405,1,0,0:0:0:0:
448,192,91405,1,0,0:0:0:0:
320,192,91530,1,0,0:0:0:0:
64,192,91655,1,0,0:0:0:0:
192,192,91655,1,0,0:0:0:0:
448,192,91655,1,0,0:0:0:0:
320,192,91780,1,0,0:0:0:0:
192,192,91905,1,0,0:0:0:0:
64,192,92030,1,0,0:0:0:0:
320,192,92030,1,0,0:0:0:0:
448,192,92030,1,0,0:0:0:0:
192,192,92155,1,0,0:0:0:0:
320,192,92280,1,0,0:0:0:0:
448,192,92405,1,0,0:0:0:0:
192,192,92405,1,0,0:0:0:0:
64,192,92405,1,0,0:0:0:0:
320,192,92530,1,0,0:0:0:0:
192,192,92655,1,0,0:0:0:0:
64,192,92780,1,0,0:0:0:0:
320,192,92780,1,0,0:0:0:0:
448,192,92780,1,0,0:0:0:0:
192,192,92905,1,0,0:0:0:0:
320,192,93030,1,0,0:0:0:0:
320,192,93155,1,0,0:0:0:0:
448,192,93155,1,0,0:0:0:0:
64,192,93155,1,0,0:0:0:0:
192,192,93280,1,0,0:0:0:0:
64,192,93405,1,0,0:0:0:0:
64,192,93530,1,0,0:0:0:0:
192,192,93530,1,0,0:0:0:0:
448,192,93530,1,0,0:0:0:0:
320,192,93655,1,0,0:0:0:0:
448,192,93780,1,0,0:0:0:0:
320,192,93905,1,0,0:0:0:0:
448,192,93905,1,0,0:0:0:0:
64,192,93905,1,0,0:0:0:0:
192,192,94030,1,0,0:0:0:0:
64,192,94155,1,0,0:0:0:0:
320,192,94155,1,0,0:0:0:0:
192,192,94280,1,0,0:0:0:0:
64,192,94280,1,0,0:0:0:0:
64,192,94405,1,0,0:0:0:0:
320,192,94405,1,0,0:0:0:0:
192,192,94530,1,0,0:0:0:0:
64,192,94530,1,0,0:0:0:0:
448,192,94780,1,0,0:0:0:0:
320,192,94842,1,0,0:0:0:0:
192,192,94905,1,0,0:0:0:0:
64,192,94905,1,0,0:0:0:0:
320,192,95030,1,0,0:0:0:0:
192,192,95155,1,0,0:0:0:0:
320,192,95155,1,0,0:0:0:0:
448,192,95155,1,0,0:0:0:0:
64,192,95280,1,0,0:0:0:0:
192,192,95280,1,0,0:0:0:0:
320,192,95405,1,0,0:0:0:0:
192,192,95530,1,0,0:0:0:0:
448,192,95530,1,0,0:0:0:0:
64,192,95530,1,0,0:0:0:0:
320,192,95655,1,0,0:0:0:0:
64,192,95655,1,0,0:0:0:0:
192,192,95780,1,0,0:0:0:0:
64,192,95905,1,0,0:0:0:0:
192,192,95905,1,0,0:0:0:0:
320,192,95905,1,0,0:0:0:0:
448,192,96030,1,0,0:0:0:0:
192,192,96155,1,0,0:0:0:0:
448,192,96155,1,0,0:0:0:0:
320,192,96155,1,0,0:0:0:0:
192,192,96280,1,0,0:0:0:0:
64,192,96405,1,0,0:0:0:0:
320,192,96405,1,0,0:0:0:0:
448,192,96405,1,0,0:0:0:0:
320,192,96530,1,0,0:0:0:0:
64,192,96655,1,0,0:0:0:0:
192,192,96655,1,0,0:0:0:0:
448,192,96655,1,0,0:0:0:0:
192,192,96780,1,0,0:0:0:0:
320,192,96905,1,0,0:0:0:0:
64,192,96905,1,0,0:0:0:0:
448,192,96905,1,0,0:0:0:0:
64,192,97030,1,0,0:0:0:0:
320,192,97155,1,0,0:0:0:0:
192,192,97155,1,0,0:0:0:0:
448,192,97155,1,0,0:0:0:0:
64,192,97280,1,0,0:0:0:0:
192,192,97280,1,0,0:0:0:0:
448,192,97405,1,0,0:0:0:0:
320,192,97530,1,0,0:0:0:0:
448,192,97530,1,0,0:0:0:0:
64,192,97530,1,0,0:0:0:0:
192,192,97655,1,0,0:0:0:0:
320,192,97655,1,0,0:0:0:0:
64,192,97780,1,0,0:0:0:0:
64,192,97905,1,0,0:0:0:0:
192,192,97905,1,0,0:0:0:0:
320,192,97905,1,0,0:0:0:0:
320,192,98030,1,0,0:0:0:0:
448,192,98030,1,0,0:0:0:0:
64,192,98155,1,0,0:0:0:0:
192,192,98155,1,0,0:0:0:0:
320,192,98155,1,0,0:0:0:0:
192,192,98280,1,0,0:0:0:0:
64,192,98405,1,0,0:0:0:0:
320,192,98405,1,0,0:0:0:0:
448,192,98405,1,0,0:0:0:0:
192,192,98530,1,0,0:0:0:0:
64,192,98655,1,0,0:0:0:0:
192,192,98655,1,0,0:0:0:0:
320,192,98655,1,0,0:0:0:0:
192,192,98780,1,0,0:0:0:0:
448,192,98780,1,0,0:0:0:0:
64,192,98905,1,0,0:0:0:0:
320,192,98905,1,0,0:0:0:0:
448,192,98905,1,0,0:0:0:0:
192,192,99030,1,0,0:0:0:0:
320,192,99030,1,0,0:0:0:0:
64,192,99155,1,0,0:0:0:0:
192,192,99155,1,0,0:0:0:0:
320,192,99155,1,0,0:0:0:0:
448,192,99155,1,0,0:0:0:0:
448,192,99280,1,0,0:0:0:0:
64,192,99280,1,0,0:0:0:0:
192,192,99405,1,0,0:0:0:0:
64,192,99530,1,0,0:0:0:0:
320,192,99530,1,0,0:0:0:0:
192,192,99530,1,0,0:0:0:0:
448,192,99655,1,0,0:0:0:0:
320,192,99655,1,0,0:0:0:0:
192,192,99780,1,0,0:0:0:0:
192,192,99905,1,0,0:0:0:0:
320,192,99905,1,0,0:0:0:0:
448,192,99905,1,0,0:0:0:0:
64,192,100030,1,0,0:0:0:0:
448,192,100030,1,0,0:0:0:0:
64,192,100155,1,0,0:0:0:0:
192,192,100155,1,0,0:0:0:0:
320,192,100155,1,0,0:0:0:0:
192,192,100280,1,0,0:0:0:0:
64,192,100405,1,0,0:0:0:0:
320,192,100405,1,0,0:0:0:0:
448,192,100405,1,0,0:0:0:0:
320,192,100530,1,0,0:0:0:0:
64,192,100655,1,0,0:0:0:0:
192,192,100655,1,0,0:0:0:0:
448,192,100655,1,0,0:0:0:0:
192,192,100780,1,0,0:0:0:0:
64,192,100905,1,0,0:0:0:0:
320,192,100905,1,0,0:0:0:0:
448,192,100905,1,0,0:0:0:0:
192,192,101030,1,0,0:0:0:0:
192,192,101155,1,0,0:0:0:0:
320,192,101155,1,0,0:0:0:0:
448,192,101155,1,0,0:0:0:0:
64,192,101280,1,0,0:0:0:0:
320,192,101280,1,0,0:0:0:0:
192,192,101405,1,0,0:0:0:0:
64,192,101530,1,0,0:0:0:0:
192,192,101530,1,0,0:0:0:0:
320,192,101530,1,0,0:0:0:0:
320,192,101655,1,0,0:0:0:0:
448,192,101655,1,0,0:0:0:0:
192,192,101780,1,0,0:0:0:0:
192,192,101905,1,0,0:0:0:0:
320,192,101905,1,0,0:0:0:0:
448,192,101905,1,0,0:0:0:0:
64,192,102030,1,0,0:0:0:0:
320,192,102030,1,0,0:0:0:0:
192,192,102155,1,0,0:0:0:0:
448,192,102155,1,0,0:0:0:0:
64,192,102155,1,0,0:0:0:0:
320,192,102280,1,0,0:0:0:0:
64,192,102405,1,0,0:0:0:0:
192,192,102405,1,0,0:0:0:0:
448,192,102405,1,0,0:0:0:0:
320,192,102530,1,0,0:0:0:0:
64,192,102655,1,0,0:0:0:0:
448,192,102655,1,0,0:0:0:0:
192,192,102717,1,0,0:0:0:0:
320,192,102780,1,0,0:0:0:0:
448,192,102842,1,0,0:0:0:0:
192,192,102905,1,0,0:0:0:0:
64,192,102905,1,0,0:0:0:0:
320,192,103030,1,0,0:0:0:0:
448,192,103030,1,0,0:0:0:0:
64,192,103155,1,0,0:0:0:0:
320,192,103155,1,0,0:0:0:0:
192,192,103155,1,0,0:0:0:0:
448,192,103155,1,0,0:0:0:0:
192,192,103280,1,0,0:0:0:0:
64,192,103280,1,0,0:0:0:0:
320,192,103405,1,0,0:0:0:0:
192,192,103530,1,0,0:0:0:0:
64,192,103530,1,0,0:0:0:0:
320,192,103530,1,0,0:0:0:0:
448,192,103655,1,0,0:0:0:0:
192,192,103655,1,0,0:0:0:0:
320,192,103780,1,0,0:0:0:0:
64,192,103905,1,0,0:0:0:0:
320,192,103905,1,0,0:0:0:0:
448,192,103905,1,0,0:0:0:0:
192,192,104030,1,0,0:0:0:0:
64,192,104030,1,0,0:0:0:0:
192,192,104155,1,0,0:0:0:0:
320,192,104155,1,0,0:0:0:0:
448,192,104155,1,0,0:0:0:0:
320,192,104280,1,0,0:0:0:0:
64,192,104405,1,0,0:0:0:0:
192,192,104405,1,0,0:0:0:0:
448,192,104405,1,0,0:0:0:0:
192,192,104530,1,0,0:0:0:0:
64,192,104655,1,0,0:0:0:0:
320,192,104655,1,0,0:0:0:0:
448,192,104655,1,0,0:0:0:0:
448,192,104780,1,0,0:0:0:0:
64,192,104905,1,0,0:0:0:0:
192,192,104905,1,0,0:0:0:0:
320,192,104905,1,0,0:0:0:0:
64,192,105030,1,0,0:0:0:0:
192,192,105155,1,0,0:0:0:0:
320,192,105155,1,0,0:0:0:0:
448,192,105155,1,0,0:0:0:0:
64,192,105280,1,0,0:0:0:0:
192,192,105280,1,0,0:0:0:0:
320,192,105405,1,0,0:0:0:0:
64,192,105530,1,0,0:0:0:0:
192,192,105530,1,0,0:0:0:0:
320,192,105530,1,0,0:0:0:0:
448,192,105655,1,0,0:0:0:0:
192,192,105655,1,0,0:0:0:0:
320,192,105780,1,0,0:0:0:0:
320,192,105905,1,0,0:0:0:0:
448,192,105905,1,0,0:0:0:0:
64,192,105905,1,0,0:0:0:0:
64,192,106030,1,0,0:0:0:0:
192,192,106030,1,0,0:0:0:0:
192,192,106155,1,0,0:0:0:0:
320,192,106155,1,0,0:0:0:0:
448,192,106155,1,0,0:0:0:0:
64,192,106280,1,0,0:0:0:0:
192,192,106405,1,0,0:0:0:0:
64,192,106405,1,0,0:0:0:0:
448,192,106405,1,0,0:0:0:0:
192,192,106530,1,0,0:0:0:0:
320,192,106655,1,0,0:0:0:0:
448,192,106655,1,0,0:0:0:0:
64,192,106655,1,0,0:0:0:0:
448,192,106780,1,0,0:0:0:0:
192,192,106905,1,0,0:0:0:0:
64,192,106905,1,0,0:0:0:0:
320,192,106905,1,0,0:0:0:0:
320,192,107030,1,0,0:0:0:0:
64,192,107155,1,0,0:0:0:0:
192,192,107155,1,0,0:0:0:0:
320,192,107155,1,0,0:0:0:0:
448,192,107155,1,0,0:0:0:0:
64,192,107280,1,0,0:0:0:0:
448,192,107280,1,0,0:0:0:0:
192,192,107405,1,0,0:0:0:0:
64,192,107530,1,0,0:0:0:0:
320,192,107530,1,0,0:0:0:0:
448,192,107530,1,0,0:0:0:0:
192,192,107655,1,0,0:0:0:0:
64,192,107655,1,0,0:0:0:0:
320,192,107780,1,0,0:0:0:0:
192,192,107905,1,0,0:0:0:0:
448,192,107905,1,0,0:0:0:0:
320,192,107905,1,0,0:0:0:0:
192,192,108030,1,0,0:0:0:0:
320,192,108155,1,0,0:0:0:0:
448,192,108155,1,0,0:0:0:0:
64,192,108155,1,0,0:0:0:0:
320,192,108280,1,0,0:0:0:0:
64,192,108405,1,0,0:0:0:0:
192,192,108405,1,0,0:0:0:0:
448,192,108405,1,0,0:0:0:0:
192,192,108530,1,0,0:0:0:0:
320,192,108655,1,0,0:0:0:0:
448,192,108655,1,0,0:0:0:0:
64,192,108655,1,0,0:0:0:0:
448,192,108780,1,0,0:0:0:0:
64,192,108905,1,0,0:0:0:0:
192,192,108905,1,0,0:0:0:0:
320,192,108905,1,0,0:0:0:0:
64,192,109030,1,0,0:0:0:0:
192,192,109155,1,0,0:0:0:0:
320,192,109155,1,0,0:0:0:0:
448,192,109155,1,0,0:0:0:0:
448,192,109280,1,0,0:0:0:0:
64,192,109280,1,0,0:0:0:0:
320,192,109405,1,0,0:0:0:0:
192,192,109530,1,0,0:0:0:0:
64,192,109530,1,0,0:0:0:0:
320,192,109530,1,0,0:0:0:0:
448,192,109655,1,0,0:0:0:0:
192,192,109655,1,0,0:0:0:0:
64,192,109780,1,0,0:0:0:0:
192,192,109905,1,0,0:0:0:0:
320,192,109905,1,0,0:0:0:0:
448,192,109905,1,0,0:0:0:0:
192,192,110030,1,0,0:0:0:0:
64,192,110030,1,0,0:0:0:0:
320,192,110155,1,0,0:0:0:0:
448,192,110155,1,0,0:0:0:0:
192,192,110155,1,0,0:0:0:0:
64,192,110280,1,0,0:0:0:0:
192,192,110405,1,0,0:0:0:0:
320,192,110405,1,0,0:0:0:0:
448,192,110405,1,0,0:0:0:0:
320,192,110530,1,0,0:0:0:0:
64,192,110655,1,0,0:0:0:0:
192,192,110655,1,0,0:0:0:0:
320,192,110717,1,0,0:0:0:0:
448,192,110780,1,0,0:0:0:0:
64,192,110842,1,0,0:0:0:0:
192,192,110905,1,0,0:0:0:0:
320,192,110905,1,0,0:0:0:0:
448,192,110905,1,0,0:0:0:0:
64,192,111030,1,0,0:0:0:0:
192,192,111030,1,0,0:0:0:0:
64,192,111155,1,0,0:0:0:0:
192,192,111155,1,0,0:0:0:0:
320,192,111155,1,0,0:0:0:0:
448,192,111155,1,0,0:0:0:0:
320,192,111280,1,0,0:0:0:0:
448,192,111280,1,0,0:0:0:0:
64,192,111405,1,0,0:0:0:0:
192,192,111405,1,0,0:0:0:0:
192,192,111530,1,0,0:0:0:0:
320,192,111530,1,0,0:0:0:0:
448,192,111530,1,0,0:0:0:0:
64,192,111655,1,0,0:0:0:0:
320,192,111655,1,0,0:0:0:0:
192,192,111780,1,0,0:0:0:0:
448,192,111780,1,0,0:0:0:0:
64,192,111905,1,0,0:0:0:0:
192,192,111905,1,0,0:0:0:0:
320,192,111905,1,0,0:0:0:0:
320,192,112030,1,0,0:0:0:0:
448,192,112030,1,0,0:0:0:0:
64,192,112155,1,0,0:0:0:0:
192,192,112155,1,0,0:0:0:0:
320,192,112155,1,0,0:0:0:0:
64,192,112280,1,0,0:0:0:0:
448,192,112280,1,0,0:0:0:0:
320,192,112280,1,0,0:0:0:0:
320,192,112405,1,0,0:0:0:0:
64,192,112405,1,0,0:0:0:0:
192,192,112405,1,0,0:0:0:0:
192,192,112530,1,0,0:0:0:0:
448,192,112530,1,0,0:0:0:0:
448,192,112655,1,0,0:0:0:0:
320,192,112655,1,0,0:0:0:0:
64,192,112655,1,0,0:0:0:0:
192,192,112780,1,0,0:0:0:0:
320,192,112780,1,0,0:0:0:0:
64,192,112905,1,0,0:0:0:0:
192,192,112905,1,0,0:0:0:0:
448,192,112905,1,0,0:0:0:0:
320,192,113030,1,0,0:0:0:0:
448,192,113030,1,0,0:0:0:0:
192,192,113155,1,0,0:0:0:0:
64,192,113155,1,0,0:0:0:0:
320,192,113155,1,0,0:0:0:0:
448,192,113280,1,0,0:0:0:0:
192,192,113280,1,0,0:0:0:0:
320,192,113405,1,0,0:0:0:0:
448,192,113405,1,0,0:0:0:0:
64,192,113530,1,0,0:0:0:0:
192,192,113530,1,0,0:0:0:0:
320,192,113530,1,0,0:0:0:0:
192,192,113655,1,0,0:0:0:0:
64,192,113655,1,0,0:0:0:0:
320,192,113780,1,0,0:0:0:0:
192,192,113780,1,0,0:0:0:0:
64,192,113905,1,0,0:0:0:0:
320,192,113905,1,0,0:0:0:0:
448,192,113905,1,0,0:0:0:0:
192,192,114030,1,0,0:0:0:0:
64,192,114030,1,0,0:0:0:0:
448,192,114030,1,0,0:0:0:0:
320,192,114155,1,0,0:0:0:0:
448,192,114155,1,0,0:0:0:0:
64,192,114155,1,0,0:0:0:0:
192,192,114280,1,0,0:0:0:0:
320,192,114280,1,0,0:0:0:0:
192,192,114405,1,0,0:0:0:0:
64,192,114405,1,0,0:0:0:0:
448,192,114405,1,0,0:0:0:0:
320,192,114530,1,0,0:0:0:0:
448,192,114530,1,0,0:0:0:0:
64,192,114655,1,0,0:0:0:0:
192,192,114655,1,0,0:0:0:0:
320,192,114655,1,0,0:0:0:0:
448,192,114780,1,0,0:0:0:0:
192,192,114780,1,0,0:0:0:0:
320,192,114905,1,0,0:0:0:0:
448,192,114905,1,0,0:0:0:0:
64,192,114905,1,0,0:0:0:0:
192,192,115030,1,0,0:0:0:0:
64,192,115030,1,0,0:0:0:0:
64,192,115155,1,0,0:0:0:0:
192,192,115155,1,0,0:0:0:0:
320,192,115155,1,0,0:0:0:0:
448,192,115155,1,0,0:0:0:0:
320,192,115280,1,0,0:0:0:0:
448,192,115280,1,0,0:0:0:0:
320,192,115405,1,0,0:0:0:0:
64,192,115405,1,0,0:0:0:0:
64,192,115530,1,0,0:0:0:0:
192,192,115530,1,0,0:0:0:0:
448,192,115530,1,0,0:0:0:0:
64,192,115655,1,0,0:0:0:0:
320,192,115655,1,0,0:0:0:0:
64,192,115780,1,0,0:0:0:0:
448,192,115780,1,0,0:0:0:0:
192,192,115905,1,0,0:0:0:0:
320,192,115905,1,0,0:0:0:0:
448,192,115905,1,0,0:0:0:0:
64,192,116030,1,0,0:0:0:0:
320,192,116030,1,0,0:0:0:0:
64,192,116155,1,0,0:0:0:0:
192,192,116155,1,0,0:0:0:0:
448,192,116155,1,0,0:0:0:0:
320,192,116280,1,0,0:0:0:0:
448,192,116280,1,0,0:0:0:0:
64,192,116280,1,0,0:0:0:0:
64,192,116405,1,0,0:0:0:0:
192,192,116405,1,0,0:0:0:0:
448,192,116405,1,0,0:0:0:0:
320,192,116530,1,0,0:0:0:0:
448,192,116530,1,0,0:0:0:0:
64,192,116655,1,0,0:0:0:0:
192,192,116655,1,0,0:0:0:0:
320,192,116655,1,0,0:0:0:0:
192,192,116780,1,0,0:0:0:0:
448,192,116780,1,0,0:0:0:0:
320,192,116905,1,0,0:0:0:0:
192,192,116905,1,0,0:0:0:0:
64,192,116905,1,0,0:0:0:0:
320,192,117030,1,0,0:0:0:0:
448,192,117030,1,0,0:0:0:0:
64,192,117155,1,0,0:0:0:0:
192,192,117155,1,0,0:0:0:0:
448,192,117155,1,0,0:0:0:0:
320,192,117280,1,0,0:0:0:0:
64,192,117280,1,0,0:0:0:0:
192,192,117405,1,0,0:0:0:0:
64,192,117405,1,0,0:0:0:0:
320,192,117530,1,0,0:0:0:0:
448,192,117530,1,0,0:0:0:0:
320,192,117655,1,0,0:0:0:0:
64,192,117655,1,0,0:0:0:0:
192,192,117655,1,0,0:0:0:0:
192,192,117780,1,0,0:0:0:0:
320,192,117780,1,0,0:0:0:0:
64,192,117780,1,0,0:0:0:0:
192,192,117905,1,0,0:0:0:0:
320,192,117905,1,0,0:0:0:0:
448,192,117905,1,0,0:0:0:0:
192,192,118030,1,0,0:0:0:0:
320,192,118030,1,0,0:0:0:0:
448,192,118030,1,0,0:0:0:0:
64,192,118155,1,0,0:0:0:0:
192,192,118155,1,0,0:0:0:0:
448,192,118155,1,0,0:0:0:0:
64,192,118280,1,0,0:0:0:0:
192,192,118280,1,0,0:0:0:0:
320,192,118342,1,0,0:0:0:0:
64,192,118405,1,0,0:0:0:0:
192,192,118405,1,0,0:0:0:0:
448,192,118405,1,0,0:0:0:0:
64,192,118530,1,0,0:0:0:0:
192,192,118530,1,0,0:0:0:0:
448,192,118530,1,0,0:0:0:0:
320,192,118655,1,0,0:0:0:0:
448,192,118655,1,0,0:0:0:0:
192,192,118717,1,0,0:0:0:0:
64,192,118780,1,0,0:0:0:0:
448,192,118780,1,0,0:0:0:0:
320,192,118842,1,0,0:0:0:0:
192,192,118905,1,0,0:0:0:0:
64,192,118905,1,0,0:0:0:0:
448,192,118905,1,0,0:0:0:0:
320,192,119030,1,0,0:0:0:0:
64,192,119030,1,0,0:0:0:0:
64,192,119155,1,0,0:0:0:0:
192,192,119155,1,0,0:0:0:0:
320,192,119155,1,0,0:0:0:0:
448,192,119155,1,0,0:0:0:0:
192,192,119280,1,0,0:0:0:0:
448,192,119280,1,0,0:0:0:0:
320,192,119405,1,0,0:0:0:0:
448,192,119405,1,0,0:0:0:0:
64,192,119530,1,0,0:0:0:0:
192,192,119530,1,0,0:0:0:0:
320,192,119530,1,0,0:0:0:0:
448,192,119655,1,0,0:0:0:0:
64,192,119655,1,0,0:0:0:0:
320,192,119780,1,0,0:0:0:0:
64,192,119780,1,0,0:0:0:0:
192,192,119905,1,0,0:0:0:0:
448,192,119905,1,0,0:0:0:0:
320,192,119905,1,0,0:0:0:0:
64,192,120030,1,0,0:0:0:0:
192,192,120030,1,0,0:0:0:0:
320,192,120155,1,0,0:0:0:0:
448,192,120155,1,0,0:0:0:0:
64,192,120155,1,0,0:0:0:0:
64,192,120280,1,0,0:0:0:0:
192,192,120280,1,0,0:0:0:0:
448,192,120280,1,0,0:0:0:0:
320,192,120405,1,0,0:0:0:0:
448,192,120405,1,0,0:0:0:0:
64,192,120405,1,0,0:0:0:0:
192,192,120530,1,0,0:0:0:0:
320,192,120530,1,0,0:0:0:0:
64,192,120655,1,0,0:0:0:0:
448,192,120655,1,0,0:0:0:0:
192,192,120655,1,0,0:0:0:0:
320,192,120780,1,0,0:0:0:0:
448,192,120780,1,0,0:0:0:0:
320,192,120905,1,0,0:0:0:0:
64,192,120905,1,0,0:0:0:0:
192,192,120905,1,0,0:0:0:0:
64,192,121030,1,0,0:0:0:0:
448,192,121030,1,0,0:0:0:0:
192,192,121155,1,0,0:0:0:0:
320,192,121155,1,0,0:0:0:0:
448,192,121155,1,0,0:0:0:0:
64,192,121280,1,0,0:0:0:0:
192,192,121280,1,0,0:0:0:0:
320,192,121405,1,0,0:0:0:0:
448,192,121405,1,0,0:0:0:0:
64,192,121530,1,0,0:0:0:0:
192,192,121530,1,0,0:0:0:0:
320,192,121530,1,0,0:0:0:0:
448,192,121655,1,0,0:0:0:0:
192,192,121655,1,0,0:0:0:0:
64,192,121780,1,0,0:0:0:0:
320,192,121780,1,0,0:0:0:0:
192,192,121905,1,0,0:0:0:0:
448,192,121905,1,0,0:0:0:0:
64,192,121905,1,0,0:0:0:0:
320,192,122030,1,0,0:0:0:0:
448,192,122030,1,0,0:0:0:0:
64,192,122030,1,0,0:0:0:0:
64,192,122155,1,0,0:0:0:0:
192,192,122155,1,0,0:0:0:0:
320,192,122155,1,0,0:0:0:0:
64,192,122280,1,0,0:0:0:0:
320,192,122280,1,0,0:0:0:0:
192,192,122280,1,0,0:0:0:0:
64,192,122405,1,0,0:0:0:0:
192,192,122405,1,0,0:0:0:0:
320,192,122405,1,0,0:0:0:0:
192,192,122530,1,0,0:0:0:0:
448,192,122530,1,0,0:0:0:0:
64,192,122655,1,0,0:0:0:0:
320,192,122655,1,0,0:0:0:0:
448,192,122655,1,0,0:0:0:0:
64,192,122780,1,0,0:0:0:0:
320,192,122780,1,0,0:0:0:0:
448,192,122780,1,0,0:0:0:0:
192,192,122905,1,0,0:0:0:0:
320,192,122905,1,0,0:0:0:0:
64,192,122905,1,0,0:0:0:0:
192,192,123030,1,0,0:0:0:0:
320,192,123030,1,0,0:0:0:0:
64,192,123030,1,0,0:0:0:0:
64,192,123155,1,0,0:0:0:0:
192,192,123155,1,0,0:0:0:0:
320,192,123155,1,0,0:0:0:0:
448,192,123155,1,0,0:0:0:0:
448,192,123280,1,0,0:0:0:0:
192,192,123280,1,0,0:0:0:0:
64,192,123405,1,0,0:0:0:0:
320,192,123405,1,0,0:0:0:0:
192,192,123530,1,0,0:0:0:0:
448,192,123530,1,0,0:0:0:0:
64,192,123530,1,0,0:0:0:0:
64,192,123655,1,0,0:0:0:0:
448,192,123655,1,0,0:0:0:0:
320,192,123655,1,0,0:0:0:0:
192,192,123780,1,0,0:0:0:0:
320,192,123780,1,0,0:0:0:0:
64,192,123905,1,0,0:0:0:0:
192,192,123905,1,0,0:0:0:0:
448,192,123905,1,0,0:0:0:0:
320,192,124030,1,0,0:0:0:0:
64,192,124030,1,0,0:0:0:0:
192,192,124155,1,0,0:0:0:0:
320,192,124155,1,0,0:0:0:0:
448,192,124155,1,0,0:0:0:0:
192,192,124280,1,0,0:0:0:0:
64,192,124280,1,0,0:0:0:0:
320,192,124280,1,0,0:0:0:0:
192,192,124405,1,0,0:0:0:0:
320,192,124405,1,0,0:0:0:0:
448,192,124405,1,0,0:0:0:0:
64,192,124530,1,0,0:0:0:0:
448,192,124530,1,0,0:0:0:0:
192,192,124655,1,0,0:0:0:0:
320,192,124655,1,0,0:0:0:0:
64,192,124655,1,0,0:0:0:0:
192,192,124780,1,0,0:0:0:0:
448,192,124780,1,0,0:0:0:0:
320,192,124905,1,0,0:0:0:0:
192,192,124905,1,0,0:0:0:0:
64,192,124905,1,0,0:0:0:0:
320,192,125030,1,0,0:0:0:0:
448,192,125030,1,0,0:0:0:0:
64,192,125155,1,0,0:0:0:0:
192,192,125155,1,0,0:0:0:0:
448,192,125155,1,0,0:0:0:0:
320,192,125280,1,0,0:0:0:0:
64,192,125280,1,0,0:0:0:0:
192,192,125405,1,0,0:0:0:0:
448,192,125405,1,0,0:0:0:0:
192,192,125530,1,0,0:0:0:0:
64,192,125530,1,0,0:0:0:0:
320,192,125530,1,0,0:0:0:0:
448,192,125655,1,0,0:0:0:0:
64,192,125655,1,0,0:0:0:0:
320,192,125655,1,0,0:0:0:0:
64,192,125780,1,0,0:0:0:0:
192,192,125780,1,0,0:0:0:0:
448,192,125780,1,0,0:0:0:0:
320,192,125905,1,0,0:0:0:0:
448,192,125905,1,0,0:0:0:0:
64,192,125905,1,0,0:0:0:0:
192,192,126030,1,0,0:0:0:0:
320,192,126030,1,0,0:0:0:0:
448,192,126030,1,0,0:0:0:0:
64,192,126155,1,0,0:0:0:0:
192,192,126155,1,0,0:0:0:0:
320,192,126155,1,0,0:0:0:0:
64,192,126280,1,0,0:0:0:0:
192,192,126280,1,0,0:0:0:0:
320,192,126280,1,0,0:0:0:0:
192,192,126405,1,0,0:0:0:0:
320,192,126405,1,0,0:0:0:0:
448,192,126405,1,0,0:0:0:0:
192,192,126530,1,0,0:0:0:0:
320,192,126530,1,0,0:0:0:0:
448,192,126530,1,0,0:0:0:0:
64,192,126655,1,0,0:0:0:0:
448,192,126655,1,0,0:0:0:0:
192,192,126717,1,0,0:0:0:0:
320,192,126780,1,0,0:0:0:0:
448,192,126842,1,0,0:0:0:0:
64,192,126905,1,0,0:0:0:0:
192,192,126905,1,0,0:0:0:0:
320,192,126905,1,0,0:0:0:0:
320,192,127030,1,0,0:0:0:0:
448,192,127030,1,0,0:0:0:0:
192,192,127155,1,0,0:0:0:0:
320,192,127155,1,0,0:0:0:0:
448,192,127155,1,0,0:0:0:0:
64,192,127155,128,0,128155:0:0:0:0:
