osu file format v14

[General]
AudioFilename: audio.mp3
AudioLeadIn: 0
PreviewTime: 87220
Countdown: 0
SampleSet: Normal
StackLeniency: 0.7
Mode: 1
LetterboxInBreaks: 0
WidescreenStoryboard: 1

[Editor]
Bookmarks: 26470,38320,58120,77020,103495,112720,115195,144445
DistanceSpacing: 0.9
BeatDivisor: 4
GridSize: 32
TimelineZoom: 3.499999

[Metadata]
Title:Buzy Lake
TitleUnicode:Buzy Lake
Artist:t+pazolite feat. Rizna
ArtistUnicode:t+pazolite feat. リズナ
Creator:Suzux
Version:Muzukashii
Source:絢爛喧騒オリエント
Tags:Kenran Kensou Orient Japanese Electronic c.h.s chs-0015
BeatmapID:2052901
BeatmapSetID:980094

[Difficulty]
HPDrainRate:6
CircleSize:5
OverallDifficulty:5
ApproachRate:5
SliderMultiplier:1.4
SliderTickRate:1

[Events]
//Background and Video events
0,0,"BG.jpg",0,31
//Break Periods
//Storyboard Layer 0 (Background)
//Storyboard Layer 1 (Fail)
//Storyboard Layer 2 (Pass)
//Storyboard Layer 3 (Foreground)
//Storyboard Layer 4 (Overlay)
//Storyboard Sound Samples

[TimingPoints]
-80,300,4,1,0,100,1,0
1120,-100,4,1,0,75,0,0
10720,-100,4,1,0,85,0,0
20320,-100,4,1,0,95,0,0
58120,-149.253731343284,4,1,0,75,0,0
77845,-133.333333333333,4,1,0,80,0,0
79045,-120.481927710843,4,1,0,85,0,0
80245,-111.111111111111,4,1,0,90,0,0
81445,-100,4,1,0,95,0,0
87520,-100,4,1,0,100,0,1
106720,-100,4,1,0,95,0,0
154720,-100,4,1,0,80,0,0
164020,-100,4,1,0,90,0,0
164320,-100,4,1,0,100,0,1
182320,-100,4,1,0,100,0,0
182395,-100,4,1,0,100,0,0
183520,-100,4,1,0,100,0,1
202720,-100,4,1,0,95,0,0

[HitObjects]
256,192,1120,5,8,0:0:0:0:
256,192,1420,1,0,0:0:0:0:
64,64,1570,1,0,0:0:0:0:
64,64,2020,1,0,0:0:0:0:
256,192,2320,1,8,0:0:0:0:
256,192,2620,1,0,0:0:0:0:
64,64,2770,1,0,0:0:0:0:
64,64,3220,1,0,0:0:0:0:
256,192,3520,1,8,0:0:0:0:
256,192,3820,1,0,0:0:0:0:
64,64,3970,1,0,0:0:0:0:
64,64,4420,1,0,0:0:0:0:
256,192,4720,1,8,0:0:0:0:
256,192,5020,1,0,0:0:0:0:
64,64,5170,1,0,0:0:0:0:
64,64,5620,1,0,0:0:0:0:
256,192,5920,1,8,0:0:0:0:
256,192,6220,1,0,0:0:0:0:
64,64,6370,1,0,0:0:0:0:
64,64,6820,1,0,0:0:0:0:
256,192,7120,1,8,0:0:0:0:
256,192,7420,1,0,0:0:0:0:
64,64,7570,1,0,0:0:0:0:
64,64,8020,1,0,0:0:0:0:
256,192,8320,1,8,0:0:0:0:
256,192,8620,1,0,0:0:0:0:
64,64,8770,1,0,0:0:0:0:
448,64,8920,1,8,0:0:0:0:
256,192,9220,1,0,0:0:0:0:
256,192,9520,1,8,0:0:0:0:
448,64,9670,1,8,0:0:0:0:
256,192,9820,1,8,0:0:0:0:
448,64,10120,1,8,0:0:0:0:
256,192,10720,5,8,0:0:0:0:
64,64,11020,1,0,0:0:0:0:
64,64,11170,1,0,0:0:0:0:
256,192,11470,1,0,0:0:0:0:
256,192,11620,1,0,0:0:0:0:
256,192,11920,1,8,0:0:0:0:
64,64,12220,1,0,0:0:0:0:
64,64,12370,1,0,0:0:0:0:
256,192,12670,1,0,0:0:0:0:
256,192,12820,1,0,0:0:0:0:
256,192,13120,1,8,0:0:0:0:
64,64,13420,1,0,0:0:0:0:
64,64,13570,1,0,0:0:0:0:
256,192,13870,1,0,0:0:0:0:
256,192,14020,1,0,0:0:0:0:
256,192,14320,1,8,0:0:0:0:
64,64,14620,1,0,0:0:0:0:
64,64,14770,1,0,0:0:0:0:
448,64,14920,1,8,0:0:0:0:
64,64,15070,1,0,0:0:0:0:
256,192,15520,1,8,0:0:0:0:
64,64,15820,1,0,0:0:0:0:
64,64,15970,1,0,0:0:0:0:
448,64,16120,1,8,0:0:0:0:
256,192,16270,1,0,0:0:0:0:
448,64,16420,1,8,0:0:0:0:
256,192,16720,1,8,0:0:0:0:
64,64,17020,1,0,0:0:0:0:
64,64,17170,1,0,0:0:0:0:
448,64,17320,1,8,0:0:0:0:
256,192,17470,1,0,0:0:0:0:
448,64,17620,1,8,0:0:0:0:
256,192,18670,1,0,0:0:0:0:
256,192,18820,1,8,0:0:0:0:
256,192,19120,1,8,0:0:0:0:
256,192,19420,1,0,0:0:0:0:
64,64,19570,1,0,0:0:0:0:
448,64,19720,1,8,0:0:0:0:
256,192,19870,1,0,0:0:0:0:
256,192,20320,5,4,0:0:0:0:
256,192,20620,1,0,0:0:0:0:
256,192,20770,1,8,0:0:0:0:
256,192,20920,1,0,0:0:0:0:
256,192,21070,1,8,0:0:0:0:
256,192,21220,1,0,0:0:0:0:
256,192,21520,1,0,0:0:0:0:
256,192,21820,1,0,0:0:0:0:
256,192,21970,1,8,0:0:0:0:
256,192,22120,1,0,0:0:0:0:
256,192,22420,1,8,0:0:0:0:
256,192,22720,1,0,0:0:0:0:
256,192,23020,1,0,0:0:0:0:
256,192,23170,1,8,0:0:0:0:
256,192,23320,1,0,0:0:0:0:
448,64,23470,1,8,0:0:0:0:
64,64,23620,1,0,0:0:0:0:
256,192,23920,1,0,0:0:0:0:
256,192,24220,1,0,0:0:0:0:
256,192,24370,1,8,0:0:0:0:
64,64,24520,1,0,0:0:0:0:
448,64,24670,1,8,0:0:0:0:
256,192,24820,1,8,0:0:0:0:
256,192,25120,1,0,0:0:0:0:
256,192,25420,1,0,0:0:0:0:
256,192,25570,1,8,0:0:0:0:
256,192,25720,1,0,0:0:0:0:
256,192,25870,1,8,0:0:0:0:
256,192,26020,1,0,0:0:0:0:
256,192,26320,1,0,0:0:0:0:
256,192,26620,1,0,0:0:0:0:
256,192,26770,1,8,0:0:0:0:
256,192,26920,1,0,0:0:0:0:
256,192,27220,1,8,0:0:0:0:
256,192,27520,1,0,0:0:0:0:
256,192,27820,1,0,0:0:0:0:
256,192,27970,1,8,0:0:0:0:
256,192,28120,1,0,0:0:0:0:
448,64,28270,1,8,0:0:0:0:
256,192,28420,1,8,0:0:0:0:
256,192,28570,1,8,0:0:0:0:
256,192,28720,1,0,0:0:0:0:
256,192,29920,5,4,0:0:0:0:
256,192,30220,1,0,0:0:0:0:
256,192,30370,1,8,0:0:0:0:
256,192,30520,1,0,0:0:0:0:
256,192,30820,1,0,0:0:0:0:
256,192,30970,1,8,0:0:0:0:
256,192,31120,1,0,0:0:0:0:
256,192,31420,1,0,0:0:0:0:
256,192,31570,1,8,0:0:0:0:
256,192,31720,1,8,0:0:0:0:
256,192,32020,1,8,0:0:0:0:
256,192,32170,1,8,0:0:0:0:
256,192,32320,1,0,0:0:0:0:
256,192,32620,1,0,0:0:0:0:
256,192,32770,1,8,0:0:0:0:
256,192,32920,1,0,0:0:0:0:
256,192,33220,1,0,0:0:0:0:
256,192,33370,1,8,0:0:0:0:
256,192,33520,1,0,0:0:0:0:
256,192,33820,1,0,0:0:0:0:
256,192,33970,1,8,0:0:0:0:
256,192,34120,1,8,0:0:0:0:
256,192,34420,1,8,0:0:0:0:
256,192,34570,1,8,0:0:0:0:
256,192,34720,5,4,0:0:0:0:
256,192,35170,1,4,0:0:0:0:
256,192,35620,1,4,0:0:0:0:
256,192,36070,1,4,0:0:0:0:
256,192,36520,1,4,0:0:0:0:
256,192,36820,1,8,0:0:0:0:
256,192,37120,1,4,0:0:0:0:
256,192,37570,1,4,0:0:0:0:
256,192,38020,1,4,0:0:0:0:
256,192,38920,1,0,0:0:0:0:
64,64,39070,1,0,0:0:0:0:
256,192,39220,1,8,0:0:0:0:
256,192,39370,1,8,0:0:0:0:
256,192,39520,5,0,0:0:0:0:
256,192,39820,1,0,0:0:0:0:
448,64,39970,1,8,0:0:0:0:
256,192,40120,1,0,0:0:0:0:
256,192,40420,1,0,0:0:0:0:
448,64,40720,1,8,0:0:0:0:
256,192,41020,1,0,0:0:0:0:
256,192,41170,1,8,0:0:0:0:
256,192,41320,1,8,0:0:0:0:
256,192,41620,1,8,0:0:0:0:
256,192,41920,1,0,0:0:0:0:
256,192,42220,1,0,0:0:0:0:
256,192,42370,1,8,0:0:0:0:
256,192,42520,1,0,0:0:0:0:
256,192,42820,1,0,0:0:0:0:
448,64,43120,1,8,0:0:0:0:
256,192,43420,1,0,0:0:0:0:
64,64,43570,1,0,0:0:0:0:
256,192,43720,1,8,0:0:0:0:
448,64,43870,1,8,0:0:0:0:
256,192,44020,1,8,0:0:0:0:
256,192,44320,5,0,0:0:0:0:
256,192,44620,1,0,0:0:0:0:
256,192,44770,1,8,0:0:0:0:
256,192,44920,1,0,0:0:0:0:
256,192,45220,1,0,0:0:0:0:
448,64,45520,1,8,0:0:0:0:
256,192,45820,1,0,0:0:0:0:
256,192,45970,1,8,0:0:0:0:
256,192,46120,1,8,0:0:0:0:
256,192,46420,1,8,0:0:0:0:
256,192,46720,1,0,0:0:0:0:
256,192,47020,1,0,0:0:0:0:
256,192,47170,1,8,0:0:0:0:
64,64,47320,1,0,0:0:0:0:
256,192,47470,1,8,0:0:0:0:
448,64,47620,1,8,0:0:0:0:
256,192,47770,1,8,0:0:0:0:
256,192,47920,1,4,0:0:0:0:
256,192,49120,5,0,0:0:0:0:
256,192,49420,1,0,0:0:0:0:
256,192,49570,1,8,0:0:0:0:
256,192,49720,1,0,0:0:0:0:
64,64,50020,1,0,0:0:0:0:
448,64,50320,1,8,0:0:0:0:
256,192,50620,1,0,0:0:0:0:
256,192,50770,1,8,0:0:0:0:
256,192,50845,1,8,0:0:0:0:
256,192,50920,1,8,0:0:0:0:
256,192,51070,1,0,0:0:0:0:
256,192,51220,1,8,0:0:0:0:
256,192,51520,1,0,0:0:0:0:
256,192,51820,1,0,0:0:0:0:
256,192,51970,1,8,0:0:0:0:
256,192,52120,1,0,0:0:0:0:
256,192,52420,1,0,0:0:0:0:
448,64,52720,1,8,0:0:0:0:
256,192,53020,1,0,0:0:0:0:
256,192,53170,1,8,0:0:0:0:
256,192,53245,1,8,0:0:0:0:
256,192,53320,1,8,0:0:0:0:
256,192,53470,1,0,0:0:0:0:
256,192,53620,1,8,0:0:0:0:
256,192,53770,1,8,0:0:0:0:
256,192,53920,1,0,0:0:0:0:
256,192,54220,5,0,0:0:0:0:
256,192,54370,1,8,0:0:0:0:
256,192,54520,1,0,0:0:0:0:
256,192,54820,1,0,0:0:0:0:
448,64,55120,1,8,0:0:0:0:
256,192,55420,1,0,0:0:0:0:
256,192,55570,1,8,0:0:0:0:
256,192,55645,1,8,0:0:0:0:
256,192,55720,1,8,0:0:0:0:
256,192,55870,1,0,0:0:0:0:
256,192,56020,1,8,0:0:0:0:
256,192,56320,1,0,0:0:0:0:
64,64,56395,1,0,0:0:0:0:
256,192,56470,1,0,0:0:0:0:
256,192,56620,1,0,0:0:0:0:
256,192,56770,1,0,0:0:0:0:
256,192,56920,1,0,0:0:0:0:
64,64,56995,1,0,0:0:0:0:
64,64,57070,1,0,0:0:0:0:
256,192,57220,1,0,0:0:0:0:
256,192,57520,1,4,0:0:0:0:
256,192,57820,1,4,0:0:0:0:
256,192,58720,5,0,0:0:0:0:
256,192,59020,1,8,0:0:0:0:
64,64,59320,1,0,0:0:0:0:
64,64,59620,1,0,0:0:0:0:
448,64,59770,1,8,0:0:0:0:
256,192,60070,1,8,0:0:0:0:
256,192,60220,1,8,0:0:0:0:
256,192,60520,1,0,0:0:0:0:
256,192,60970,1,0,0:0:0:0:
256,192,61120,1,0,0:0:0:0:
256,192,61420,1,8,0:0:0:0:
256,192,61720,1,8,0:0:0:0:
256,192,61870,1,8,0:0:0:0:
256,192,62170,1,8,0:0:0:0:
256,192,63220,1,8,0:0:0:0:
64,64,63520,1,0,0:0:0:0:
256,192,64270,1,0,0:0:0:0:
256,192,64420,1,0,0:0:0:0:
256,192,64570,1,8,0:0:0:0:
256,192,64720,1,8,0:0:0:0:
256,192,65620,1,0,0:0:0:0:
256,192,65920,1,8,0:0:0:0:
256,192,66220,1,0,0:0:0:0:
256,192,66520,1,8,0:0:0:0:
256,192,66670,1,8,0:0:0:0:
64,64,66820,1,0,0:0:0:0:
256,192,66970,1,8,0:0:0:0:
256,192,68020,1,8,0:0:0:0:
256,192,68320,1,8,0:0:0:0:
256,192,68470,1,0,0:0:0:0:
256,192,68620,1,8,0:0:0:0:
256,192,68920,1,0,0:0:0:0:
64,64,69370,1,0,0:0:0:0:
256,192,69520,1,8,0:0:0:0:
64,64,69820,1,0,0:0:0:0:
64,64,69970,1,0,0:0:0:0:
448,64,70120,1,8,0:0:0:0:
256,192,70720,1,0,0:0:0:0:
256,192,71020,1,8,0:0:0:0:
256,192,71320,1,8,0:0:0:0:
256,192,71470,1,8,0:0:0:0:
256,192,71770,1,8,0:0:0:0:
256,192,72820,1,8,0:0:0:0:
448,64,73120,1,8,0:0:0:0:
256,192,73420,1,8,0:0:0:0:
256,192,73570,1,0,0:0:0:0:
256,192,73870,1,8,0:0:0:0:
64,64,74020,1,0,0:0:0:0:
256,192,74170,1,8,0:0:0:0:
256,192,74320,1,8,0:0:0:0:
256,192,74620,1,8,0:0:0:0:
256,192,75220,1,0,0:0:0:0:
256,192,75520,1,8,0:0:0:0:
256,192,75820,1,0,0:0:0:0:
256,192,75970,1,8,0:0:0:0:
256,192,76420,1,8,0:0:0:0:
256,192,76720,1,0,0:0:0:0:
256,192,77020,1,0,0:0:0:0:
256,192,77320,1,8,0:0:0:0:
256,192,77920,1,4,0:0:0:0:
256,192,78220,1,8,0:0:0:0:
256,192,78370,1,8,0:0:0:0:
256,192,78670,1,8,0:0:0:0:
256,192,78820,1,8,0:0:0:0:
256,192,79120,1,4,0:0:0:0:
256,192,79420,1,8,0:0:0:0:
256,192,79570,1,8,0:0:0:0:
256,192,79870,1,8,0:0:0:0:
256,192,80020,1,8,0:0:0:0:
256,192,80320,1,4,0:0:0:0:
256,192,80620,1,8,0:0:0:0:
256,192,80770,1,8,0:0:0:0:
256,192,81070,1,8,0:0:0:0:
256,192,81220,1,8,0:0:0:0:
256,192,81520,1,4,0:0:0:0:
256,192,81820,1,8,0:0:0:0:
256,192,81970,1,8,0:0:0:0:
256,192,82120,1,8,0:0:0:0:
256,192,82270,1,8,0:0:0:0:
256,192,82720,1,4,0:0:0:0:
256,192,83320,1,4,0:0:0:0:
256,192,83920,1,4,0:0:0:0:
256,192,84520,1,4,0:0:0:0:
256,192,85120,1,4,0:0:0:0:
256,192,85420,1,4,0:0:0:0:
256,192,85720,1,4,0:0:0:0:
256,192,86020,1,4,0:0:0:0:
256,192,86320,1,12,0:0:0:0:
256,192,86620,1,12,0:0:0:0:
256,192,87220,5,0,0:0:0:0:
256,192,87370,1,8,0:0:0:0:
256,192,87520,1,0,0:0:0:0:
256,192,87595,1,0,0:0:0:0:
256,192,87670,1,0,0:0:0:0:
256,192,87820,1,8,0:0:0:0:
256,192,88120,1,0,0:0:0:0:
256,192,88420,1,0,0:0:0:0:
256,192,88570,1,8,0:0:0:0:
256,192,88645,1,8,0:0:0:0:
256,192,88720,1,8,0:0:0:0:
256,192,88870,1,0,0:0:0:0:
256,192,89020,1,8,0:0:0:0:
256,192,89320,1,0,0:0:0:0:
448,64,89770,1,8,0:0:0:0:
448,64,89920,1,8,0:0:0:0:
64,64,90220,1,0,0:0:0:0:
448,64,90520,1,8,0:0:0:0:
256,192,90670,1,8,0:0:0:0:
64,64,90820,1,0,0:0:0:0:
256,192,90970,1,8,0:0:0:0:
256,192,91120,1,0,0:0:0:0:
256,192,91270,1,8,0:0:0:0:
256,192,91420,1,0,0:0:0:0:
256,192,91495,1,0,0:0:0:0:
256,192,91570,1,0,0:0:0:0:
256,192,91720,1,8,0:0:0:0:
256,192,92020,1,0,0:0:0:0:
256,192,92170,1,8,0:0:0:0:
256,192,92320,1,0,0:0:0:0:
256,192,92470,1,0,0:0:0:0:
256,192,92620,1,8,0:0:0:0:
64,64,92920,1,0,0:0:0:0:
256,192,93070,1,8,0:0:0:0:
256,192,93220,1,8,0:0:0:0:
64,64,93370,1,0,0:0:0:0:
448,64,93520,1,8,0:0:0:0:
64,64,93820,1,0,0:0:0:0:
256,192,94420,1,8,0:0:0:0:
256,192,94720,1,0,0:0:0:0:
256,192,94870,1,8,0:0:0:0:
64,64,95020,1,0,0:0:0:0:
256,192,95320,1,0,0:0:0:0:
256,192,95470,1,0,0:0:0:0:
256,192,95770,1,8,0:0:0:0:
256,192,96070,1,8,0:0:0:0:
256,192,96145,1,8,0:0:0:0:
256,192,96220,1,8,0:0:0:0:
256,192,96370,1,8,0:0:0:0:
256,192,96520,1,8,0:0:0:0:
256,192,96670,1,8,0:0:0:0:
448,64,96820,1,8,0:0:0:0:
256,192,97120,5,0,0:0:0:0:
64,64,97420,1,0,0:0:0:0:
64,64,97495,1,0,0:0:0:0:
64,64,97570,1,0,0:0:0:0:
448,64,97720,1,8,0:0:0:0:
256,192,98020,1,0,0:0:0:0:
256,192,98170,1,8,0:0:0:0:
256,192,98245,1,8,0:0:0:0:
256,192,98320,1,8,0:0:0:0:
256,192,98470,1,0,0:0:0:0:
256,192,98620,1,8,0:0:0:0:
256,192,98920,1,0,0:0:0:0:
256,192,99370,1,8,0:0:0:0:
256,192,99520,1,8,0:0:0:0:
64,64,99820,1,0,0:0:0:0:
448,64,99970,1,8,0:0:0:0:
256,192,100120,1,0,0:0:0:0:
448,64,100270,1,8,0:0:0:0:
256,192,100570,1,8,0:0:0:0:
64,64,100720,1,0,0:0:0:0:
256,192,100870,1,8,0:0:0:0:
64,64,101020,1,0,0:0:0:0:
64,64,101095,1,0,0:0:0:0:
256,192,101170,1,0,0:0:0:0:
256,192,101320,1,8,0:0:0:0:
256,192,101620,1,0,0:0:0:0:
256,192,101770,1,8,0:0:0:0:
256,192,101920,1,0,0:0:0:0:
64,64,101995,1,0,0:0:0:0:
256,192,102070,1,0,0:0:0:0:
256,192,102220,1,8,0:0:0:0:
64,64,102520,1,0,0:0:0:0:
256,192,102670,1,8,0:0:0:0:
448,64,102745,1,8,0:0:0:0:
256,192,102820,1,8,0:0:0:0:
64,64,102970,1,0,0:0:0:0:
448,64,103120,1,8,0:0:0:0:
256,192,103420,1,0,0:0:0:0:
256,192,104020,1,0,0:0:0:0:
256,192,104320,1,0,0:0:0:0:
256,192,104770,1,0,0:0:0:0:
256,192,105220,1,0,0:0:0:0:
256,192,105520,1,0,0:0:0:0:
256,192,105820,1,8,0:0:0:0:
256,192,106120,1,8,0:0:0:0:
256,192,106270,1,8,0:0:0:0:
256,192,106420,1,0,0:0:0:0:
256,192,106720,5,8,0:0:0:0:
256,192,107020,1,0,0:0:0:0:
256,192,107320,1,8,0:0:0:0:
256,192,107470,1,8,0:0:0:0:
256,192,107620,1,0,0:0:0:0:
256,192,107920,1,0,0:0:0:0:
256,192,108220,1,0,0:0:0:0:
256,192,108520,1,0,0:0:0:0:
256,192,108670,1,8,0:0:0:0:
256,192,108820,1,0,0:0:0:0:
64,64,109120,1,0,0:0:0:0:
448,64,109420,1,8,0:0:0:0:
256,192,109720,1,0,0:0:0:0:
256,192,109870,1,8,0:0:0:0:
256,192,110020,1,8,0:0:0:0:
256,192,110320,1,0,0:0:0:0:
256,192,110620,1,8,0:0:0:0:
256,192,110770,1,0,0:0:0:0:
256,192,110920,1,8,0:0:0:0:
256,192,111520,1,0,0:0:0:0:
256,192,111820,1,8,0:0:0:0:
448,64,111970,1,8,0:0:0:0:
256,192,112120,1,0,0:0:0:0:
256,192,112420,1,8,0:0:0:0:
256,192,112720,1,0,0:0:0:0:
256,192,113020,1,8,0:0:0:0:
256,192,113170,1,0,0:0:0:0:
256,192,113320,1,8,0:0:0:0:
448,64,113620,1,8,0:0:0:0:
256,192,113920,1,0,0:0:0:0:
256,192,114220,1,8,0:0:0:0:
256,192,114370,1,0,0:0:0:0:
256,192,114520,1,8,0:0:0:0:
256,192,114820,1,0,0:0:0:0:
256,192,114970,1,8,0:0:0:0:
256,192,115120,1,0,0:0:0:0:
256,192,115420,1,12,0:0:0:0:
256,192,115720,1,12,0:0:0:0:
256,192,116020,1,12,0:0:0:0:
256,192,116320,1,0,0:0:0:0:
256,192,116620,1,0,0:0:0:0:
64,64,116770,1,0,0:0:0:0:
448,64,116920,1,8,0:0:0:0:
256,192,117220,1,0,0:0:0:0:
256,192,117520,1,0,0:0:0:0:
64,64,117820,1,0,0:0:0:0:
64,64,117970,1,0,0:0:0:0:
256,192,118120,1,8,0:0:0:0:
256,192,118420,1,0,0:0:0:0:
256,192,118570,1,8,0:0:0:0:
256,192,118720,1,0,0:0:0:0:
256,192,119020,1,0,0:0:0:0:
448,64,119320,1,8,0:0:0:0:
256,192,119620,1,0,0:0:0:0:
256,192,119770,1,8,0:0:0:0:
256,192,119920,1,0,0:0:0:0:
448,64,120070,1,8,0:0:0:0:
256,192,120220,1,8,0:0:0:0:
448,64,120370,1,8,0:0:0:0:
256,192,120520,1,0,0:0:0:0:
256,192,121120,1,12,0:0:0:0:
64,64,121420,1,0,0:0:0:0:
256,192,121570,1,0,0:0:0:0:
256,192,121720,1,8,0:0:0:0:
256,192,122020,1,0,0:0:0:0:
256,192,122320,1,12,0:0:0:0:
256,192,122620,1,8,0:0:0:0:
256,192,122770,1,0,0:0:0:0:
256,192,122920,1,8,0:0:0:0:
64,64,123220,1,0,0:0:0:0:
256,192,123520,1,12,0:0:0:0:
256,192,123820,1,0,0:0:0:0:
64,64,123970,1,0,0:0:0:0:
256,192,124120,1,8,0:0:0:0:
256,192,124270,1,0,0:0:0:0:
256,192,124420,1,8,0:0:0:0:
448,64,124570,1,8,0:0:0:0:
256,192,124720,1,0,0:0:0:0:
256,192,125920,5,4,0:0:0:0:
256,192,126220,1,8,0:0:0:0:
256,192,126370,1,0,0:0:0:0:
256,192,126670,1,0,0:0:0:0:
256,192,126820,1,0,0:0:0:0:
256,192,126970,1,0,0:0:0:0:
256,192,127120,1,8,0:0:0:0:
256,192,127270,1,0,0:0:0:0:
256,192,127570,1,8,0:0:0:0:
256,192,127720,1,8,0:0:0:0:
256,192,128020,1,8,0:0:0:0:
256,192,128320,1,0,0:0:0:0:
256,192,128620,1,8,0:0:0:0:
256,192,128770,1,0,0:0:0:0:
256,192,129070,1,0,0:0:0:0:
256,192,129220,1,0,0:0:0:0:
256,192,129370,1,0,0:0:0:0:
256,192,129520,1,8,0:0:0:0:
256,192,129670,1,0,0:0:0:0:
256,192,129970,1,8,0:0:0:0:
256,192,130120,1,8,0:0:0:0:
256,192,130420,1,8,0:0:0:0:
256,192,130720,1,0,0:0:0:0:
256,192,131020,1,8,0:0:0:0:
256,192,131170,1,0,0:0:0:0:
256,192,131470,1,0,0:0:0:0:
256,192,131620,1,0,0:0:0:0:
256,192,131770,1,0,0:0:0:0:
256,192,131920,1,8,0:0:0:0:
256,192,132070,1,0,0:0:0:0:
256,192,132370,1,8,0:0:0:0:
256,192,132520,1,8,0:0:0:0:
256,192,132820,1,8,0:0:0:0:
256,192,133120,1,0,0:0:0:0:
448,64,133270,1,8,0:0:0:0:
64,64,133420,1,0,0:0:0:0:
256,192,133570,1,0,0:0:0:0:
256,192,133870,1,0,0:0:0:0:
256,192,134020,1,0,0:0:0:0:
256,192,134170,1,8,0:0:0:0:
256,192,134320,1,12,0:0:0:0:
256,192,135520,5,4,0:0:0:0:
256,192,135820,1,8,0:0:0:0:
256,192,135970,1,0,0:0:0:0:
256,192,136270,1,0,0:0:0:0:
256,192,136345,1,0,0:0:0:0:
256,192,136420,1,0,0:0:0:0:
256,192,136570,1,0,0:0:0:0:
256,192,136720,1,8,0:0:0:0:
256,192,136870,1,0,0:0:0:0:
256,192,137170,1,8,0:0:0:0:
256,192,137320,1,8,0:0:0:0:
256,192,137620,1,8,0:0:0:0:
256,192,137920,1,0,0:0:0:0:
256,192,138220,1,8,0:0:0:0:
256,192,138370,1,0,0:0:0:0:
256,192,138670,1,0,0:0:0:0:
256,192,138745,1,0,0:0:0:0:
256,192,138820,1,0,0:0:0:0:
256,192,138970,1,0,0:0:0:0:
256,192,139120,1,8,0:0:0:0:
256,192,139270,1,0,0:0:0:0:
256,192,139570,1,8,0:0:0:0:
256,192,139720,1,8,0:0:0:0:
256,192,140020,1,8,0:0:0:0:
256,192,140320,1,0,0:0:0:0:
256,192,140620,1,8,0:0:0:0:
256,192,140770,1,0,0:0:0:0:
256,192,141070,1,0,0:0:0:0:
256,192,141145,1,0,0:0:0:0:
256,192,141220,1,0,0:0:0:0:
256,192,141370,1,0,0:0:0:0:
256,192,141520,1,8,0:0:0:0:
256,192,141670,1,0,0:0:0:0:
256,192,141970,1,8,0:0:0:0:
256,192,142120,1,8,0:0:0:0:
256,192,142420,1,8,0:0:0:0:
256,192,142720,1,0,0:0:0:0:
256,192,142870,1,0,0:0:0:0:
256,192,143020,1,0,0:0:0:0:
256,192,143170,1,0,0:0:0:0:
256,192,143320,1,0,0:0:0:0:
256,192,143395,1,0,0:0:0:0:
256,192,143470,1,0,0:0:0:0:
256,192,143620,1,0,0:0:0:0:
256,192,143770,1,0,0:0:0:0:
256,192,143920,1,4,0:0:0:0:
256,192,144220,1,4,0:0:0:0:
256,192,145120,5,8,0:0:0:0:
256,192,145420,1,0,0:0:0:0:
64,64,145570,1,0,0:0:0:0:
256,192,145720,1,0,0:0:0:0:
448,64,146320,1,8,0:0:0:0:
256,192,146620,1,8,0:0:0:0:
448,64,146770,1,8,0:0:0:0:
64,64,146920,1,0,0:0:0:0:
448,64,147370,1,8,0:0:0:0:
448,64,147520,1,8,0:0:0:0:
256,192,147820,1,0,0:0:0:0:
256,192,148120,1,0,0:0:0:0:
448,64,148270,1,8,0:0:0:0:
448,64,148570,1,8,0:0:0:0:
256,192,148720,1,0,0:0:0:0:
256,192,149020,1,8,0:0:0:0:
256,192,149170,1,0,0:0:0:0:
256,192,149320,1,8,0:0:0:0:
256,192,149920,1,0,0:0:0:0:
256,192,150220,1,8,0:0:0:0:
256,192,150370,1,8,0:0:0:0:
256,192,150670,1,0,0:0:0:0:
256,192,150820,1,0,0:0:0:0:
256,192,151120,1,8,0:0:0:0:
256,192,151420,1,0,0:0:0:0:
256,192,151570,1,0,0:0:0:0:
256,192,151870,1,0,0:0:0:0:
256,192,152020,1,0,0:0:0:0:
256,192,152320,1,8,0:0:0:0:
256,192,152620,1,0,0:0:0:0:
256,192,152770,1,0,0:0:0:0:
256,192,153070,1,0,0:0:0:0:
256,192,153220,1,0,0:0:0:0:
256,192,153520,1,8,0:0:0:0:
256,192,153820,1,0,0:0:0:0:
256,192,153970,1,0,0:0:0:0:
256,192,154120,1,8,0:0:0:0:
256,192,154720,1,12,0:0:0:0:
256,192,155020,1,0,0:0:0:0:
256,192,155170,1,0,0:0:0:0:
448,64,155320,1,8,0:0:0:0:
64,64,155620,1,0,0:0:0:0:
256,192,155920,1,8,0:0:0:0:
448,64,156220,1,8,0:0:0:0:
256,192,156370,1,0,0:0:0:0:
448,64,156520,1,8,0:0:0:0:
64,64,156820,1,0,0:0:0:0:
256,192,157120,1,8,0:0:0:0:
256,192,157420,1,0,0:0:0:0:
64,64,157570,1,0,0:0:0:0:
256,192,157720,1,8,0:0:0:0:
64,64,157870,1,0,0:0:0:0:
448,64,158170,1,8,0:0:0:0:
64,64,158320,1,0,0:0:0:0:
256,192,158620,1,0,0:0:0:0:
256,192,158770,1,0,0:0:0:0:
256,192,158920,1,0,0:0:0:0:
64,64,159220,1,0,0:0:0:0:
256,192,159520,1,8,0:0:0:0:
256,192,159820,1,8,0:0:0:0:
256,192,159970,1,8,0:0:0:0:
256,192,160270,1,8,0:0:0:0:
256,192,160420,1,8,0:0:0:0:
256,192,160720,1,8,0:0:0:0:
256,192,161020,1,8,0:0:0:0:
256,192,161170,1,8,0:0:0:0:
256,192,161470,1,8,0:0:0:0:
256,192,161620,1,8,0:0:0:0:
256,192,161920,1,4,0:0:0:0:
256,192,162370,1,4,0:0:0:0:
256,192,162820,1,4,0:0:0:0:
256,192,163120,1,4,0:0:0:0:
256,192,164020,5,12,0:0:0:0:
256,192,164320,1,0,0:0:0:0:
256,192,164620,1,0,0:0:0:0:
256,192,164695,1,0,0:0:0:0:
256,192,164770,1,0,0:0:0:0:
256,192,164920,1,8,0:0:0:0:
256,192,165070,1,8,0:0:0:0:
256,192,165220,1,0,0:0:0:0:
256,192,165520,1,8,0:0:0:0:
256,192,165595,1,8,0:0:0:0:
256,192,165670,1,8,0:0:0:0:
256,192,165820,1,0,0:0:0:0:
256,192,165970,1,8,0:0:0:0:
256,192,166120,1,0,0:0:0:0:
256,192,166420,1,0,0:0:0:0:
256,192,166570,1,0,0:0:0:0:
256,192,166720,1,8,0:0:0:0:
256,192,167020,1,0,0:0:0:0:
256,192,167170,1,8,0:0:0:0:
256,192,167320,1,0,0:0:0:0:
256,192,167620,1,8,0:0:0:0:
256,192,167770,1,8,0:0:0:0:
256,192,167920,1,0,0:0:0:0:
256,192,168220,1,8,0:0:0:0:
256,192,168370,1,0,0:0:0:0:
256,192,168520,1,8,0:0:0:0:
256,192,169120,1,0,0:0:0:0:
256,192,169195,1,0,0:0:0:0:
256,192,169270,1,0,0:0:0:0:
256,192,169420,1,8,0:0:0:0:
256,192,169570,1,0,0:0:0:0:
256,192,169720,1,8,0:0:0:0:
256,192,170020,1,8,0:0:0:0:
256,192,170095,1,8,0:0:0:0:
256,192,170170,1,8,0:0:0:0:
256,192,170320,1,0,0:0:0:0:
256,192,170470,1,8,0:0:0:0:
256,192,170620,1,0,0:0:0:0:
64,64,170920,1,0,0:0:0:0:
64,64,171070,1,0,0:0:0:0:
448,64,171220,1,8,0:0:0:0:
64,64,171520,1,0,0:0:0:0:
256,192,171820,1,8,0:0:0:0:
64,64,171970,1,0,0:0:0:0:
448,64,172120,1,8,0:0:0:0:
448,64,172195,1,8,0:0:0:0:
448,64,172270,1,8,0:0:0:0:
64,64,172420,1,0,0:0:0:0:
448,64,172570,1,8,0:0:0:0:
64,64,172720,1,0,0:0:0:0:
448,64,173020,1,8,0:0:0:0:
448,64,173320,1,8,0:0:0:0:
448,64,173620,1,8,0:0:0:0:
256,192,173920,1,0,0:0:0:0:
256,192,174220,1,0,0:0:0:0:
64,64,174370,1,0,0:0:0:0:
256,192,174520,1,8,0:0:0:0:
256,192,174820,1,0,0:0:0:0:
256,192,175120,1,0,0:0:0:0:
256,192,175420,1,0,0:0:0:0:
64,64,175570,1,0,0:0:0:0:
256,192,175720,1,8,0:0:0:0:
64,64,176020,1,0,0:0:0:0:
256,192,176320,1,0,0:0:0:0:
256,192,176470,1,8,0:0:0:0:
256,192,176620,1,8,0:0:0:0:
256,192,176770,1,8,0:0:0:0:
64,64,176920,1,0,0:0:0:0:
256,192,177220,1,8,0:0:0:0:
256,192,177370,1,8,0:0:0:0:
256,192,177520,1,8,0:0:0:0:
256,192,177820,1,8,0:0:0:0:
256,192,177970,1,8,0:0:0:0:
256,192,178120,1,8,0:0:0:0:
256,192,178720,1,0,0:0:0:0:
64,64,178870,1,0,0:0:0:0:
448,64,179020,1,8,0:0:0:0:
64,64,179170,1,0,0:0:0:0:
256,192,179320,1,8,0:0:0:0:
448,64,179470,1,8,0:0:0:0:
256,192,179620,1,0,0:0:0:0:
256,192,179920,1,8,0:0:0:0:
64,64,180070,1,0,0:0:0:0:
256,192,180220,1,8,0:0:0:0:
448,64,180370,1,8,0:0:0:0:
256,192,180520,1,0,0:0:0:0:
64,64,180670,1,0,0:0:0:0:
256,192,180820,1,8,0:0:0:0:
256,192,181120,1,8,0:0:0:0:
64,64,181270,1,0,0:0:0:0:
256,192,181420,1,8,0:0:0:0:
256,192,181570,1,8,0:0:0:0:
256,192,181720,1,0,0:0:0:0:
256,192,181870,1,0,0:0:0:0:
256,192,181945,1,0,0:0:0:0:
256,192,182020,1,0,0:0:0:0:
256,192,182170,1,0,0:0:0:0:
256,192,182245,1,0,0:0:0:0:
256,192,182320,1,0,0:0:0:0:
256,192,183220,5,0,0:0:0:0:
256,192,183370,1,8,0:0:0:0:
256,192,183520,1,0,0:0:0:0:
256,192,183595,1,0,0:0:0:0:
256,192,183670,1,0,0:0:0:0:
256,192,183820,1,8,0:0:0:0:
256,192,184120,1,0,0:0:0:0:
256,192,184420,1,0,0:0:0:0:
256,192,184570,1,8,0:0:0:0:
256,192,184645,1,8,0:0:0:0:
256,192,184720,1,8,0:0:0:0:
256,192,184870,1,0,0:0:0:0:
256,192,185020,1,8,0:0:0:0:
256,192,185320,1,0,0:0:0:0:
256,192,185770,1,8,0:0:0:0:
256,192,185920,1,8,0:0:0:0:
256,192,186220,1,8,0:0:0:0:
448,64,186370,1,8,0:0:0:0:
256,192,186520,1,0,0:0:0:0:
256,192,186670,1,8,0:0:0:0:
256,192,186970,1,8,0:0:0:0:
256,192,187120,1,0,0:0:0:0:
256,192,187270,1,8,0:0:0:0:
256,192,187420,1,0,0:0:0:0:
256,192,187495,1,0,0:0:0:0:
256,192,187570,1,0,0:0:0:0:
256,192,187720,1,8,0:0:0:0:
256,192,188020,1,0,0:0:0:0:
256,192,188170,1,8,0:0:0:0:
256,192,188320,1,0,0:0:0:0:
64,64,188395,1,0,0:0:0:0:
256,192,188470,1,0,0:0:0:0:
256,192,188620,1,8,0:0:0:0:
64,64,188920,1,0,0:0:0:0:
256,192,189070,1,8,0:0:0:0:
256,192,189145,1,8,0:0:0:0:
256,192,189220,1,8,0:0:0:0:
64,64,189370,1,0,0:0:0:0:
448,64,189520,1,8,0:0:0:0:
256,192,189820,1,0,0:0:0:0:
256,192,190420,1,8,0:0:0:0:
256,192,190720,1,0,0:0:0:0:
256,192,190870,1,8,0:0:0:0:
64,64,191020,1,0,0:0:0:0:
256,192,191320,1,0,0:0:0:0:
256,192,191470,1,0,0:0:0:0:
256,192,191770,1,8,0:0:0:0:
256,192,192070,1,8,0:0:0:0:
256,192,192145,1,8,0:0:0:0:
256,192,192220,1,8,0:0:0:0:
256,192,192370,1,8,0:0:0:0:
256,192,192520,1,8,0:0:0:0:
256,192,192670,1,8,0:0:0:0:
256,192,192820,1,8,0:0:0:0:
256,192,193120,5,0,0:0:0:0:
448,64,193270,1,8,0:0:0:0:
64,64,193420,1,0,0:0:0:0:
64,64,193495,1,0,0:0:0:0:
64,64,193570,1,0,0:0:0:0:
448,64,193720,1,8,0:0:0:0:
256,192,194020,1,0,0:0:0:0:
256,192,194170,1,8,0:0:0:0:
256,192,194245,1,8,0:0:0:0:
256,192,194320,1,8,0:0:0:0:
256,192,194470,1,0,0:0:0:0:
256,192,194620,1,8,0:0:0:0:
256,192,194920,1,0,0:0:0:0:
256,192,195370,1,8,0:0:0:0:
256,192,195520,1,8,0:0:0:0:
256,192,195820,1,8,0:0:0:0:
448,64,195970,1,8,0:0:0:0:
256,192,196120,1,0,0:0:0:0:
256,192,196270,1,8,0:0:0:0:
256,192,196570,1,8,0:0:0:0:
256,192,196720,1,0,0:0:0:0:
256,192,196870,1,8,0:0:0:0:
256,192,197020,1,0,0:0:0:0:
256,192,197095,1,0,0:0:0:0:
256,192,197170,1,0,0:0:0:0:
256,192,197320,1,8,0:0:0:0:
256,192,197620,1,0,0:0:0:0:
256,192,197770,1,8,0:0:0:0:
256,192,197920,1,0,0:0:0:0:
256,192,197995,1,0,0:0:0:0:
256,192,198070,1,0,0:0:0:0:
256,192,198220,1,8,0:0:0:0:
64,64,198520,1,0,0:0:0:0:
256,192,198670,1,8,0:0:0:0:
256,192,198745,1,8,0:0:0:0:
256,192,198820,1,8,0:0:0:0:
64,64,198970,1,0,0:0:0:0:
448,64,199120,1,8,0:0:0:0:
256,192,199420,1,0,0:0:0:0:
256,192,200020,1,0,0:0:0:0:
256,192,200320,1,0,0:0:0:0:
64,64,200770,1,0,0:0:0:0:
64,64,201220,1,0,0:0:0:0:
256,192,201520,1,0,0:0:0:0:
256,192,201820,1,8,0:0:0:0:
256,192,202120,1,8,0:0:0:0:
448,64,202270,1,8,0:0:0:0:
256,192,202420,1,0,0:0:0:0:
256,192,202720,5,4,0:0:0:0:
256,192,203020,1,0,0:0:0:0:
256,192,203170,1,0,0:0:0:0:
256,192,203470,1,0,0:0:0:0:
256,192,203620,1,0,0:0:0:0:
256,192,203920,1,0,0:0:0:0:
256,192,204220,1,8,0:0:0:0:
256,192,204370,1,0,0:0:0:0:
256,192,204820,1,8,0:0:0:0:
256,192,204970,1,8,0:0:0:0:
256,192,205120,1,0,0:0:0:0:
256,192,205420,1,0,0:0:0:0:
256,192,205570,1,0,0:0:0:0:
256,192,205870,1,0,0:0:0:0:
256,192,206020,1,0,0:0:0:0:
256,192,206320,1,0,0:0:0:0:
448,64,206620,1,8,0:0:0:0:
256,192,206770,1,0,0:0:0:0:
64,64,207070,1,0,0:0:0:0:
256,192,207220,1,8,0:0:0:0:
256,192,207370,1,8,0:0:0:0:
256,192,207520,1,0,0:0:0:0:
256,192,207820,1,0,0:0:0:0:
256,192,207970,1,0,0:0:0:0:
256,192,208270,1,0,0:0:0:0:
256,192,208420,1,0,0:0:0:0:
256,192,208720,1,0,0:0:0:0:
448,64,209020,1,8,0:0:0:0:
256,192,209170,1,0,0:0:0:0:
256,192,209620,1,8,0:0:0:0:
256,192,209770,1,8,0:0:0:0:
256,192,209920,1,0,0:0:0:0:
256,192,210220,1,0,0:0:0:0:
256,192,210370,1,0,0:0:0:0:
256,192,210670,1,0,0:0:0:0:
256,192,210820,1,8,0:0:0:0:
256,192,210970,1,8,0:0:0:0:
64,64,211120,1,0,0:0:0:0:
256,192,212320,1,0,0:0:0:0:
256,192,212620,1,0,0:0:0:0:
256,192,212770,1,0,0:0:0:0:
256,192,213070,1,0,0:0:0:0:
256,192,213220,1,0,0:0:0:0:
256,192,213520,1,0,0:0:0:0:
256,192,213820,1,8,0:0:0:0:
256,192,213970,1,0,0:0:0:0:
256,192,214120,1,8,0:0:0:0:
256,192,214420,1,8,0:0:0:0:
448,64,214570,1,8,0:0:0:0:
256,192,214720,1,0,0:0:0:0:
256,192,215020,1,0,0:0:0:0:
256,192,215170,1,0,0:0:0:0:
256,192,215470,1,0,0:0:0:0:
256,192,215620,1,0,0:0:0:0:
256,192,215920,1,0,0:0:0:0:
256,192,216220,1,8,0:0:0:0:
256,192,216370,1,0,0:0:0:0:
256,192,216520,1,8,0:0:0:0:
256,192,216820,1,8,0:0:0:0:
448,64,216970,1,8,0:0:0:0:
256,192,217120,1,0,0:0:0:0:
256,192,217570,1,4,0:0:0:0:
256,192,218020,1,4,0:0:0:0:
256,192,218470,1,4,0:0:0:0:
256,192,218920,1,4,0:0:0:0:
256,192,219220,1,8,0:0:0:0:
256,192,219370,1,8,0:0:0:0:
256,192,219520,1,4,0:0:0:0:
256,192,219970,1,4,0:0:0:0:
256,192,220420,1,4,0:0:0:0:
256,192,221020,1,8,0:0:0:0:
256,192,221320,1,0,0:0:0:0:
256,192,221620,1,0,0:0:0:0:
256,192,221920,1,0,0:0:0:0:
