osu file format v14

[General]
AudioFilename: audio.mp3
AudioLeadIn: 0
PreviewTime: 87220
Countdown: 0
SampleSet: Normal
StackLeniency: 0.7
Mode: 1
LetterboxInBreaks: 0
WidescreenStoryboard: 1

[Editor]
Bookmarks: 26470,38320,58120,77020,103495,112720,115195,144445
DistanceSpacing: 0.9
BeatDivisor: 4
GridSize: 32
TimelineZoom: 3.399998

[Metadata]
Title:Buzy Lake
TitleUnicode:Buzy Lake
Artist:t+pazolite feat. Rizna
ArtistUnicode:t+pazolite feat. リズナ
Creator:Suzux
Version:Hectic
Source:絢爛喧騒オリエント
Tags:Kenran Kensou Orient Japanese Electronic c.h.s chs-0015
BeatmapID:2051116
BeatmapSetID:980094

[Difficulty]
HPDrainRate:4.5
CircleSize:5
OverallDifficulty:6.5
ApproachRate:5
SliderMultiplier:1.4
SliderTickRate:1

[Events]
//Background and Video events
0,0,"BG.jpg",0,31
//Break Periods
//Storyboard Layer 0 (Background)
//Storyboard Layer 1 (Fail)
//Storyboard Layer 2 (Pass)
//Storyboard Layer 3 (Foreground)
//Storyboard Layer 4 (Overlay)
//Storyboard Sound Samples

[TimingPoints]
-80,300,4,1,0,100,1,0
1120,-100,4,1,0,75,0,0
10720,-100,4,1,0,85,0,0
20320,-100,4,1,0,95,0,0
58120,-149.253731343284,4,1,0,75,0,0
77845,-133.333333333333,4,1,0,80,0,0
79045,-120.481927710843,4,1,0,85,0,0
80245,-111.111111111111,4,1,0,90,0,0
81445,-100,4,1,0,95,0,0
87520,-100,4,1,0,100,0,1
106720,-100,4,1,0,95,0,0
154720,-100,4,1,0,80,0,0
161920,-105.263157894737,4,1,0,80,0,0
162370,-111.111111111111,4,1,0,80,0,0
162820,-114.285714285714,4,1,0,80,0,0
163120,-117.647058823529,4,1,0,80,0,0
164020,-50,4,1,0,90,0,0
164320,-90.9090909090909,4,1,0,100,0,1
178720,-83.3333333333333,4,1,0,100,0,1
181120,-83.3333333333333,4,1,0,100,0,1
182320,-83.3333333333333,4,1,0,100,0,0
182395,-90.9090909090909,4,1,0,100,0,0
183520,-90.9090909090909,4,1,0,100,0,1
202720,-100,4,1,0,95,0,0

[HitObjects]
256,192,1120,5,8,0:0:0:0:
256,192,1420,1,0,0:0:0:0:
256,192,1570,1,0,0:0:0:0:
256,192,1870,1,0,0:0:0:0:
256,192,2020,1,0,0:0:0:0:
256,192,2320,1,8,0:0:0:0:
256,192,2620,1,0,0:0:0:0:
256,192,2770,1,0,0:0:0:0:
256,192,3070,1,0,0:0:0:0:
256,192,3220,1,0,0:0:0:0:
256,192,3520,1,8,0:0:0:0:
64,64,3820,1,0,0:0:0:0:
64,64,3970,1,0,0:0:0:0:
64,64,4270,1,0,0:0:0:0:
256,192,4420,1,0,0:0:0:0:
256,192,4720,1,8,0:0:0:0:
64,64,5020,1,0,0:0:0:0:
64,64,5170,1,0,0:0:0:0:
64,64,5470,1,0,0:0:0:0:
256,192,5620,1,0,0:0:0:0:
256,192,5920,1,8,0:0:0:0:
64,64,6220,1,0,0:0:0:0:
64,64,6370,1,0,0:0:0:0:
64,64,6670,1,0,0:0:0:0:
256,192,6820,1,0,0:0:0:0:
256,192,7120,1,8,0:0:0:0:
64,64,7420,1,0,0:0:0:0:
64,64,7570,1,0,0:0:0:0:
64,64,7870,1,0,0:0:0:0:
256,192,8020,1,0,0:0:0:0:
256,192,8320,1,8,0:0:0:0:
64,64,8620,1,0,0:0:0:0:
64,64,8770,1,0,0:0:0:0:
448,64,8920,1,8,0:0:0:0:
64,64,9070,1,0,0:0:0:0:
256,192,9220,1,0,0:0:0:0:
256,192,9520,1,8,0:0:0:0:
256,192,9595,1,8,0:0:0:0:
256,192,9670,1,0,0:0:0:0:
256,192,9820,1,8,0:0:0:0:
256,192,9970,1,0,0:0:0:0:
256,192,10120,1,8,0:0:0:0:
256,192,10420,1,0,0:0:0:0:
256,192,10720,5,8,0:0:0:0:
448,64,10945,1,8,0:0:0:0:
64,64,11020,1,0,0:0:0:0:
448,64,11170,1,8,0:0:0:0:
256,192,11320,1,0,0:0:0:0:
64,64,11470,1,0,0:0:0:0:
64,64,11545,1,0,0:0:0:0:
448,64,11620,1,8,0:0:0:0:
64,64,11770,1,0,0:0:0:0:
256,192,11920,1,8,0:0:0:0:
448,64,12145,1,8,0:0:0:0:
64,64,12220,1,0,0:0:0:0:
256,192,12370,1,8,0:0:0:0:
256,192,12520,1,0,0:0:0:0:
64,64,12670,1,0,0:0:0:0:
64,64,12745,1,0,0:0:0:0:
448,64,12820,1,8,0:0:0:0:
64,64,12970,1,0,0:0:0:0:
256,192,13120,1,8,0:0:0:0:
448,64,13345,1,8,0:0:0:0:
64,64,13420,1,0,0:0:0:0:
256,192,13570,1,8,0:0:0:0:
256,192,13720,1,0,0:0:0:0:
64,64,13870,1,0,0:0:0:0:
64,64,13945,1,0,0:0:0:0:
448,64,14020,1,8,0:0:0:0:
64,64,14170,1,0,0:0:0:0:
256,192,14320,1,8,0:0:0:0:
448,64,14545,1,8,0:0:0:0:
64,64,14620,1,0,0:0:0:0:
256,192,14770,1,8,0:0:0:0:
256,192,14920,1,0,0:0:0:0:
448,64,14995,1,8,0:0:0:0:
64,64,15070,1,0,0:0:0:0:
64,64,15145,1,0,0:0:0:0:
448,64,15220,1,8,0:0:0:0:
64,64,15370,1,0,0:0:0:0:
256,192,15520,1,8,0:0:0:0:
64,64,15670,1,0,0:0:0:0:
448,64,15745,1,8,0:0:0:0:
64,64,15820,1,0,0:0:0:0:
256,192,15970,1,8,0:0:0:0:
256,192,16120,1,0,0:0:0:0:
256,192,16270,1,0,0:0:0:0:
64,64,16345,1,0,0:0:0:0:
448,64,16420,1,8,0:0:0:0:
256,192,16570,1,0,0:0:0:0:
256,192,16720,1,8,0:0:0:0:
64,64,16870,1,0,0:0:0:0:
448,64,16945,1,8,0:0:0:0:
64,64,17020,1,0,0:0:0:0:
256,192,17170,1,8,0:0:0:0:
256,192,17320,1,0,0:0:0:0:
256,192,17470,1,0,0:0:0:0:
64,64,17545,1,0,0:0:0:0:
448,64,17620,1,8,0:0:0:0:
64,64,17770,1,0,0:0:0:0:
64,64,17920,1,0,0:0:0:0:
448,64,18220,1,8,0:0:0:0:
64,64,18370,1,0,0:0:0:0:
64,64,18670,1,0,0:0:0:0:
448,64,18820,1,8,0:0:0:0:
64,64,18970,1,0,0:0:0:0:
256,192,19120,5,8,0:0:0:0:
256,192,19195,1,8,0:0:0:0:
256,192,19270,1,8,0:0:0:0:
256,192,19420,1,0,0:0:0:0:
448,64,19570,1,8,0:0:0:0:
256,192,19720,1,8,0:0:0:0:
64,64,19795,1,0,0:0:0:0:
448,64,19870,1,8,0:0:0:0:
448,64,20020,1,8,0:0:0:0:
256,192,20320,5,4,0:0:0:0:
256,192,20620,1,0,0:0:0:0:
256,192,20770,1,8,0:0:0:0:
256,192,20845,1,8,0:0:0:0:
256,192,20920,1,0,0:0:0:0:
256,192,21070,1,8,0:0:0:0:
256,192,21145,1,8,0:0:0:0:
256,192,21220,1,0,0:0:0:0:
256,192,21370,1,8,0:0:0:0:
256,192,21520,1,0,0:0:0:0:
256,192,21820,1,0,0:0:0:0:
256,192,21970,1,8,0:0:0:0:
256,192,22045,1,8,0:0:0:0:
256,192,22120,1,0,0:0:0:0:
256,192,22270,1,8,0:0:0:0:
256,192,22345,1,8,0:0:0:0:
256,192,22420,1,8,0:0:0:0:
256,192,22570,1,8,0:0:0:0:
256,192,22720,1,0,0:0:0:0:
256,192,23020,1,0,0:0:0:0:
256,192,23170,1,8,0:0:0:0:
256,192,23245,1,8,0:0:0:0:
256,192,23320,1,0,0:0:0:0:
256,192,23470,1,8,0:0:0:0:
256,192,23545,1,8,0:0:0:0:
256,192,23620,1,0,0:0:0:0:
256,192,23770,1,8,0:0:0:0:
256,192,23920,1,0,0:0:0:0:
256,192,23995,1,8,0:0:0:0:
256,192,24145,1,8,0:0:0:0:
256,192,24220,1,0,0:0:0:0:
256,192,24370,1,8,0:0:0:0:
256,192,24445,1,8,0:0:0:0:
256,192,24520,1,0,0:0:0:0:
256,192,24670,1,8,0:0:0:0:
256,192,24745,1,8,0:0:0:0:
256,192,24820,1,8,0:0:0:0:
256,192,24970,1,8,0:0:0:0:
256,192,25120,1,0,0:0:0:0:
256,192,25420,1,0,0:0:0:0:
256,192,25570,1,8,0:0:0:0:
256,192,25645,1,8,0:0:0:0:
256,192,25720,1,0,0:0:0:0:
256,192,25870,1,8,0:0:0:0:
256,192,25945,1,8,0:0:0:0:
256,192,26020,1,0,0:0:0:0:
256,192,26170,1,8,0:0:0:0:
256,192,26320,1,0,0:0:0:0:
256,192,26620,1,0,0:0:0:0:
256,192,26770,1,8,0:0:0:0:
256,192,26845,1,8,0:0:0:0:
256,192,26920,1,0,0:0:0:0:
256,192,27070,1,8,0:0:0:0:
256,192,27145,1,8,0:0:0:0:
256,192,27220,1,8,0:0:0:0:
256,192,27370,1,8,0:0:0:0:
256,192,27520,1,0,0:0:0:0:
256,192,27820,1,0,0:0:0:0:
256,192,27970,1,8,0:0:0:0:
256,192,28045,1,8,0:0:0:0:
256,192,28120,1,0,0:0:0:0:
256,192,28270,1,8,0:0:0:0:
256,192,28345,1,0,0:0:0:0:
256,192,28420,1,8,0:0:0:0:
256,192,28570,1,8,0:0:0:0:
256,192,28720,1,8,0:0:0:0:
256,192,29020,1,8,0:0:0:0:
256,192,29170,1,8,0:0:0:0:
256,192,29320,1,0,0:0:0:0:
256,192,29395,1,0,0:0:0:0:
256,192,29470,1,8,0:0:0:0:
256,192,29620,1,0,0:0:0:0:
256,192,29770,1,8,0:0:0:0:
256,192,29920,5,4,0:0:0:0:
256,192,30220,1,0,0:0:0:0:
256,192,30370,1,8,0:0:0:0:
256,192,30520,1,0,0:0:0:0:
256,192,30670,1,8,0:0:0:0:
256,192,30820,1,0,0:0:0:0:
256,192,30970,1,8,0:0:0:0:
256,192,31120,1,0,0:0:0:0:
256,192,31420,1,0,0:0:0:0:
256,192,31570,1,8,0:0:0:0:
256,192,31645,1,8,0:0:0:0:
256,192,31720,1,8,0:0:0:0:
256,192,31795,1,8,0:0:0:0:
256,192,31870,1,0,0:0:0:0:
256,192,31945,1,0,0:0:0:0:
256,192,32020,1,8,0:0:0:0:
256,192,32170,1,8,0:0:0:0:
256,192,32320,1,0,0:0:0:0:
256,192,32620,1,0,0:0:0:0:
256,192,32770,1,8,0:0:0:0:
256,192,32920,1,0,0:0:0:0:
256,192,33070,1,8,0:0:0:0:
256,192,33220,1,0,0:0:0:0:
256,192,33370,1,8,0:0:0:0:
256,192,33520,1,0,0:0:0:0:
256,192,33820,1,0,0:0:0:0:
256,192,33970,1,8,0:0:0:0:
256,192,34045,1,8,0:0:0:0:
256,192,34120,1,8,0:0:0:0:
256,192,34195,1,8,0:0:0:0:
256,192,34270,1,0,0:0:0:0:
256,192,34345,1,0,0:0:0:0:
256,192,34420,1,8,0:0:0:0:
256,192,34570,1,8,0:0:0:0:
256,192,34720,5,4,0:0:0:0:
256,192,35170,1,4,0:0:0:0:
256,192,35620,1,4,0:0:0:0:
256,192,36070,1,4,0:0:0:0:
256,192,36520,1,4,0:0:0:0:
256,192,36820,1,8,0:0:0:0:
256,192,36970,1,8,0:0:0:0:
256,192,37120,1,4,0:0:0:0:
256,192,37570,1,4,0:0:0:0:
256,192,38020,1,4,0:0:0:0:
256,192,38920,1,0,0:0:0:0:
256,192,39070,1,8,0:0:0:0:
256,192,39220,1,8,0:0:0:0:
256,192,39295,1,8,0:0:0:0:
256,192,39370,1,8,0:0:0:0:
256,192,39420,1,8,0:0:0:0:
256,192,39470,1,8,0:0:0:0:
256,192,39520,5,0,0:0:0:0:
256,192,39820,1,0,0:0:0:0:
256,192,39970,1,8,0:0:0:0:
256,192,40045,1,8,0:0:0:0:
256,192,40120,1,0,0:0:0:0:
256,192,40195,1,8,0:0:0:0:
256,192,40270,1,8,0:0:0:0:
256,192,40345,1,8,0:0:0:0:
256,192,40420,1,0,0:0:0:0:
256,192,40570,1,8,0:0:0:0:
256,192,40720,1,0,0:0:0:0:
256,192,40870,1,8,0:0:0:0:
256,192,41020,1,0,0:0:0:0:
256,192,41170,1,0,0:0:0:0:
256,192,41245,1,0,0:0:0:0:
256,192,41320,1,8,0:0:0:0:
256,192,41395,1,0,0:0:0:0:
256,192,41470,1,8,0:0:0:0:
256,192,41620,1,8,0:0:0:0:
256,192,41770,1,8,0:0:0:0:
256,192,41845,1,8,0:0:0:0:
256,192,41920,1,0,0:0:0:0:
256,192,42070,1,8,0:0:0:0:
256,192,42220,1,0,0:0:0:0:
256,192,42370,1,8,0:0:0:0:
256,192,42445,1,8,0:0:0:0:
256,192,42520,1,0,0:0:0:0:
256,192,42595,1,8,0:0:0:0:
256,192,42670,1,8,0:0:0:0:
256,192,42745,1,8,0:0:0:0:
256,192,42820,1,0,0:0:0:0:
256,192,42970,1,8,0:0:0:0:
256,192,43120,1,0,0:0:0:0:
256,192,43270,1,8,0:0:0:0:
256,192,43420,1,0,0:0:0:0:
256,192,43570,1,0,0:0:0:0:
256,192,43645,1,0,0:0:0:0:
256,192,43720,1,8,0:0:0:0:
256,192,43795,1,0,0:0:0:0:
256,192,43870,1,8,0:0:0:0:
256,192,44020,1,8,0:0:0:0:
256,192,44170,1,8,0:0:0:0:
256,192,44245,1,8,0:0:0:0:
256,192,44320,5,0,0:0:0:0:
256,192,44470,1,8,0:0:0:0:
256,192,44620,1,0,0:0:0:0:
256,192,44770,1,8,0:0:0:0:
256,192,44845,1,8,0:0:0:0:
256,192,44920,1,0,0:0:0:0:
256,192,44995,1,8,0:0:0:0:
256,192,45070,1,8,0:0:0:0:
256,192,45145,1,8,0:0:0:0:
256,192,45220,1,0,0:0:0:0:
256,192,45370,1,8,0:0:0:0:
256,192,45520,1,0,0:0:0:0:
256,192,45670,1,8,0:0:0:0:
256,192,45820,1,0,0:0:0:0:
256,192,45970,1,0,0:0:0:0:
256,192,46045,1,0,0:0:0:0:
256,192,46120,1,8,0:0:0:0:
256,192,46195,1,0,0:0:0:0:
256,192,46270,1,8,0:0:0:0:
256,192,46420,1,8,0:0:0:0:
256,192,46570,1,8,0:0:0:0:
256,192,46645,1,8,0:0:0:0:
256,192,46720,1,0,0:0:0:0:
256,192,46870,1,8,0:0:0:0:
256,192,47020,1,0,0:0:0:0:
256,192,47170,1,8,0:0:0:0:
256,192,47245,1,8,0:0:0:0:
256,192,47320,1,0,0:0:0:0:
256,192,47395,1,8,0:0:0:0:
256,192,47470,1,0,0:0:0:0:
256,192,47545,1,0,0:0:0:0:
256,192,47620,1,8,0:0:0:0:
256,192,47695,1,0,0:0:0:0:
256,192,47770,1,8,0:0:0:0:
256,192,47920,1,4,0:0:0:0:
256,192,48520,1,8,0:0:0:0:
256,192,48820,1,8,0:0:0:0:
256,192,49120,5,4,0:0:0:0:
256,192,49420,1,0,0:0:0:0:
256,192,49570,1,8,0:0:0:0:
256,192,49645,1,8,0:0:0:0:
256,192,49720,1,0,0:0:0:0:
256,192,49795,1,8,0:0:0:0:
256,192,49870,1,8,0:0:0:0:
256,192,49945,1,8,0:0:0:0:
256,192,50020,1,0,0:0:0:0:
256,192,50170,1,8,0:0:0:0:
256,192,50320,1,0,0:0:0:0:
256,192,50470,1,0,0:0:0:0:
256,192,50620,1,0,0:0:0:0:
256,192,50770,1,8,0:0:0:0:
256,192,50845,1,8,0:0:0:0:
256,192,50920,1,0,0:0:0:0:
256,192,50995,1,0,0:0:0:0:
256,192,51070,1,8,0:0:0:0:
256,192,51145,1,8,0:0:0:0:
256,192,51220,1,0,0:0:0:0:
256,192,51370,1,8,0:0:0:0:
256,192,51445,1,8,0:0:0:0:
256,192,51520,1,0,0:0:0:0:
256,192,51670,1,8,0:0:0:0:
256,192,51820,1,0,0:0:0:0:
256,192,51970,1,8,0:0:0:0:
256,192,52045,1,8,0:0:0:0:
256,192,52120,1,0,0:0:0:0:
256,192,52195,1,8,0:0:0:0:
256,192,52270,1,8,0:0:0:0:
256,192,52345,1,8,0:0:0:0:
256,192,52420,1,0,0:0:0:0:
256,192,52570,1,8,0:0:0:0:
256,192,52720,1,0,0:0:0:0:
256,192,52870,1,0,0:0:0:0:
256,192,53020,1,0,0:0:0:0:
256,192,53170,1,8,0:0:0:0:
256,192,53245,1,8,0:0:0:0:
256,192,53320,1,0,0:0:0:0:
256,192,53395,1,0,0:0:0:0:
256,192,53470,1,8,0:0:0:0:
256,192,53545,1,8,0:0:0:0:
256,192,53620,1,0,0:0:0:0:
256,192,53770,1,8,0:0:0:0:
256,192,53845,1,8,0:0:0:0:
256,192,53920,1,0,0:0:0:0:
256,192,54070,1,8,0:0:0:0:
256,192,54220,5,0,0:0:0:0:
256,192,54370,1,8,0:0:0:0:
256,192,54445,1,8,0:0:0:0:
256,192,54520,1,0,0:0:0:0:
256,192,54595,1,8,0:0:0:0:
256,192,54670,1,8,0:0:0:0:
256,192,54745,1,8,0:0:0:0:
256,192,54820,1,0,0:0:0:0:
256,192,54970,1,8,0:0:0:0:
256,192,55120,1,0,0:0:0:0:
256,192,55270,1,0,0:0:0:0:
256,192,55420,1,0,0:0:0:0:
256,192,55570,1,8,0:0:0:0:
256,192,55645,1,8,0:0:0:0:
256,192,55720,1,0,0:0:0:0:
256,192,55795,1,0,0:0:0:0:
256,192,55870,1,8,0:0:0:0:
256,192,55945,1,8,0:0:0:0:
256,192,56020,1,0,0:0:0:0:
256,192,56170,1,8,0:0:0:0:
256,192,56245,1,8,0:0:0:0:
256,192,56320,1,0,0:0:0:0:
256,192,56470,1,0,0:0:0:0:
256,192,56620,1,0,0:0:0:0:
256,192,56770,1,0,0:0:0:0:
256,192,56920,1,0,0:0:0:0:
256,192,56995,1,8,0:0:0:0:
256,192,57070,1,8,0:0:0:0:
256,192,57145,1,8,0:0:0:0:
256,192,57220,1,0,0:0:0:0:
256,192,57295,1,0,0:0:0:0:
256,192,57370,1,8,0:0:0:0:
256,192,57445,1,8,0:0:0:0:
256,192,57520,1,0,0:0:0:0:
256,192,57820,1,0,0:0:0:0:
256,192,58720,5,0,0:0:0:0:
256,192,59020,1,8,0:0:0:0:
256,192,59170,1,8,0:0:0:0:
256,192,59320,1,0,0:0:0:0:
256,192,59620,1,0,0:0:0:0:
256,192,59770,1,8,0:0:0:0:
256,192,60070,1,8,0:0:0:0:
256,192,60220,1,0,0:0:0:0:
256,192,60520,1,8,0:0:0:0:
256,192,60970,1,8,0:0:0:0:
256,192,61120,1,0,0:0:0:0:
256,192,61420,1,8,0:0:0:0:
256,192,61720,1,0,0:0:0:0:
256,192,61870,1,0,0:0:0:0:
256,192,62170,1,8,0:0:0:0:
256,192,63220,1,8,0:0:0:0:
256,192,63520,1,0,0:0:0:0:
256,192,63820,1,8,0:0:0:0:
256,192,63970,1,0,0:0:0:0:
256,192,64270,1,0,0:0:0:0:
256,192,64420,1,0,0:0:0:0:
256,192,64570,1,8,0:0:0:0:
256,192,64720,1,8,0:0:0:0:
256,192,65620,1,0,0:0:0:0:
256,192,65920,1,8,0:0:0:0:
256,192,66220,1,0,0:0:0:0:
256,192,66520,1,8,0:0:0:0:
256,192,66670,1,8,0:0:0:0:
256,192,66820,1,0,0:0:0:0:
256,192,66970,1,8,0:0:0:0:
256,192,68020,1,8,0:0:0:0:
256,192,68320,1,8,0:0:0:0:
256,192,68470,1,0,0:0:0:0:
256,192,68620,1,8,0:0:0:0:
256,192,68770,1,8,0:0:0:0:
256,192,68920,1,0,0:0:0:0:
256,192,69220,1,0,0:0:0:0:
256,192,69370,1,0,0:0:0:0:
256,192,69520,1,8,0:0:0:0:
256,192,69820,1,8,0:0:0:0:
256,192,69970,1,0,0:0:0:0:
256,192,70120,1,8,0:0:0:0:
256,192,70420,1,0,0:0:0:0:
256,192,70570,1,8,0:0:0:0:
256,192,70720,1,0,0:0:0:0:
256,192,71020,1,8,0:0:0:0:
256,192,71170,1,8,0:0:0:0:
256,192,71320,1,0,0:0:0:0:
256,192,71470,1,8,0:0:0:0:
256,192,71770,1,8,0:0:0:0:
256,192,71920,1,8,0:0:0:0:
256,192,72220,1,0,0:0:0:0:
256,192,72520,1,8,0:0:0:0:
256,192,72820,1,8,0:0:0:0:
256,192,72970,1,8,0:0:0:0:
256,192,73120,1,0,0:0:0:0:
256,192,73420,1,8,0:0:0:0:
256,192,73570,1,0,0:0:0:0:
256,192,73870,1,8,0:0:0:0:
256,192,74020,1,0,0:0:0:0:
256,192,74170,1,8,0:0:0:0:
256,192,74320,1,8,0:0:0:0:
256,192,74620,1,0,0:0:0:0:
256,192,74920,1,8,0:0:0:0:
256,192,75220,1,0,0:0:0:0:
256,192,75520,1,8,0:0:0:0:
256,192,75820,1,0,0:0:0:0:
256,192,75970,1,8,0:0:0:0:
256,192,76420,1,8,0:0:0:0:
256,192,76720,1,0,0:0:0:0:
256,192,77020,1,0,0:0:0:0:
256,192,77320,1,8,0:0:0:0:
256,192,77620,1,0,0:0:0:0:
256,192,77920,1,4,0:0:0:0:
256,192,78220,1,8,0:0:0:0:
256,192,78370,1,8,0:0:0:0:
256,192,78670,1,8,0:0:0:0:
256,192,78820,1,8,0:0:0:0:
256,192,79120,1,4,0:0:0:0:
256,192,79420,1,8,0:0:0:0:
256,192,79570,1,8,0:0:0:0:
256,192,79870,1,8,0:0:0:0:
256,192,80020,1,8,0:0:0:0:
256,192,80320,1,4,0:0:0:0:
256,192,80620,1,8,0:0:0:0:
256,192,80770,1,8,0:0:0:0:
256,192,81070,1,8,0:0:0:0:
256,192,81220,1,8,0:0:0:0:
256,192,81520,1,4,0:0:0:0:
256,192,81820,1,8,0:0:0:0:
256,192,81970,1,8,0:0:0:0:
256,192,82120,1,8,0:0:0:0:
256,192,82270,1,8,0:0:0:0:
256,192,82420,1,8,0:0:0:0:
256,192,82720,1,4,0:0:0:0:
256,192,83020,1,8,0:0:0:0:
256,192,83170,1,8,0:0:0:0:
256,192,83320,1,4,0:0:0:0:
256,192,83620,1,8,0:0:0:0:
256,192,83770,1,8,0:0:0:0:
256,192,83920,1,4,0:0:0:0:
256,192,84070,1,8,0:0:0:0:
256,192,84370,1,8,0:0:0:0:
256,192,84520,1,4,0:0:0:0:
256,192,84670,1,8,0:0:0:0:
256,192,84820,1,8,0:0:0:0:
256,192,84970,1,8,0:0:0:0:
256,192,85120,1,4,0:0:0:0:
256,192,85420,1,4,0:0:0:0:
256,192,85720,1,4,0:0:0:0:
256,192,86020,1,4,0:0:0:0:
256,192,86320,1,12,0:0:0:0:
256,192,86620,1,12,0:0:0:0:
256,192,87220,5,0,0:0:0:0:
256,192,87370,1,8,0:0:0:0:
256,192,87520,1,0,0:0:0:0:
256,192,87595,1,0,0:0:0:0:
256,192,87670,1,8,0:0:0:0:
256,192,87820,1,8,0:0:0:0:
256,192,87895,1,8,0:0:0:0:
256,192,87970,1,0,0:0:0:0:
256,192,88120,1,8,0:0:0:0:
256,192,88270,1,8,0:0:0:0:
256,192,88420,1,0,0:0:0:0:
256,192,88495,1,0,0:0:0:0:
256,192,88570,1,8,0:0:0:0:
256,192,88645,1,8,0:0:0:0:
256,192,88720,1,0,0:0:0:0:
256,192,88795,1,0,0:0:0:0:
256,192,88870,1,8,0:0:0:0:
256,192,88945,1,8,0:0:0:0:
256,192,89020,1,0,0:0:0:0:
256,192,89170,1,8,0:0:0:0:
256,192,89320,1,0,0:0:0:0:
256,192,89620,1,0,0:0:0:0:
256,192,89770,1,0,0:0:0:0:
256,192,89845,1,8,0:0:0:0:
256,192,89920,1,8,0:0:0:0:
256,192,90070,1,8,0:0:0:0:
256,192,90145,1,0,0:0:0:0:
256,192,90220,1,0,0:0:0:0:
256,192,90295,1,0,0:0:0:0:
256,192,90370,1,8,0:0:0:0:
256,192,90445,1,8,0:0:0:0:
256,192,90520,1,0,0:0:0:0:
256,192,90670,1,8,0:0:0:0:
256,192,90745,1,0,0:0:0:0:
256,192,90820,1,8,0:0:0:0:
256,192,90970,1,8,0:0:0:0:
256,192,91045,1,8,0:0:0:0:
256,192,91120,1,0,0:0:0:0:
256,192,91270,1,0,0:0:0:0:
256,192,91345,1,8,0:0:0:0:
256,192,91420,1,0,0:0:0:0:
256,192,91495,1,0,0:0:0:0:
256,192,91570,1,8,0:0:0:0:
256,192,91645,1,8,0:0:0:0:
256,192,91720,1,0,0:0:0:0:
256,192,92020,1,0,0:0:0:0:
256,192,92170,1,8,0:0:0:0:
256,192,92320,1,0,0:0:0:0:
256,192,92395,1,0,0:0:0:0:
256,192,92470,1,0,0:0:0:0:
256,192,92545,1,8,0:0:0:0:
256,192,92620,1,0,0:0:0:0:
256,192,92695,1,0,0:0:0:0:
256,192,92770,1,8,0:0:0:0:
256,192,92845,1,8,0:0:0:0:
256,192,92920,1,0,0:0:0:0:
256,192,93070,1,0,0:0:0:0:
256,192,93145,1,8,0:0:0:0:
256,192,93220,1,0,0:0:0:0:
256,192,93295,1,0,0:0:0:0:
256,192,93370,1,8,0:0:0:0:
256,192,93520,1,0,0:0:0:0:
256,192,93670,1,8,0:0:0:0:
256,192,93745,1,8,0:0:0:0:
256,192,93820,1,0,0:0:0:0:
256,192,93970,1,8,0:0:0:0:
256,192,94120,1,0,0:0:0:0:
256,192,94195,1,0,0:0:0:0:
256,192,94270,1,8,0:0:0:0:
256,192,94420,1,0,0:0:0:0:
256,192,94495,1,8,0:0:0:0:
256,192,94570,1,8,0:0:0:0:
256,192,94645,1,8,0:0:0:0:
256,192,94720,1,0,0:0:0:0:
256,192,94870,1,8,0:0:0:0:
256,192,94945,1,8,0:0:0:0:
256,192,95020,1,0,0:0:0:0:
256,192,95095,1,0,0:0:0:0:
256,192,95170,1,8,0:0:0:0:
256,192,95320,1,0,0:0:0:0:
256,192,95470,1,0,0:0:0:0:
256,192,95770,1,8,0:0:0:0:
256,192,96070,1,0,0:0:0:0:
256,192,96220,1,8,0:0:0:0:
256,192,96370,1,0,0:0:0:0:
256,192,96520,1,8,0:0:0:0:
256,192,96670,1,8,0:0:0:0:
256,192,96820,1,0,0:0:0:0:
256,192,96970,1,8,0:0:0:0:
256,192,97120,1,0,0:0:0:0:
256,192,97270,1,0,0:0:0:0:
256,192,97420,1,0,0:0:0:0:
256,192,97495,1,8,0:0:0:0:
256,192,97570,1,8,0:0:0:0:
256,192,97645,1,8,0:0:0:0:
256,192,97720,1,0,0:0:0:0:
256,192,97870,1,8,0:0:0:0:
256,192,98020,1,0,0:0:0:0:
256,192,98170,1,8,0:0:0:0:
256,192,98245,1,8,0:0:0:0:
256,192,98320,1,0,0:0:0:0:
256,192,98395,1,8,0:0:0:0:
256,192,98470,1,8,0:0:0:0:
256,192,98620,1,8,0:0:0:0:
256,192,98695,1,8,0:0:0:0:
256,192,98770,1,0,0:0:0:0:
256,192,98920,1,0,0:0:0:0:
256,192,98995,1,8,0:0:0:0:
256,192,99145,1,8,0:0:0:0:
256,192,99220,1,0,0:0:0:0:
256,192,99370,1,0,0:0:0:0:
256,192,99445,1,8,0:0:0:0:
256,192,99520,1,8,0:0:0:0:
256,192,99670,1,8,0:0:0:0:
256,192,99745,1,0,0:0:0:0:
256,192,99820,1,0,0:0:0:0:
256,192,99895,1,0,0:0:0:0:
256,192,99970,1,8,0:0:0:0:
256,192,100045,1,8,0:0:0:0:
256,192,100120,1,0,0:0:0:0:
256,192,100270,1,8,0:0:0:0:
256,192,100345,1,0,0:0:0:0:
256,192,100420,1,8,0:0:0:0:
256,192,100570,1,8,0:0:0:0:
256,192,100645,1,8,0:0:0:0:
256,192,100720,1,0,0:0:0:0:
256,192,100870,1,0,0:0:0:0:
256,192,100945,1,8,0:0:0:0:
256,192,101020,1,0,0:0:0:0:
256,192,101095,1,0,0:0:0:0:
256,192,101170,1,8,0:0:0:0:
256,192,101245,1,8,0:0:0:0:
256,192,101320,1,0,0:0:0:0:
256,192,101620,1,0,0:0:0:0:
256,192,101770,1,8,0:0:0:0:
256,192,101920,1,0,0:0:0:0:
256,192,101995,1,0,0:0:0:0:
256,192,102070,1,0,0:0:0:0:
256,192,102145,1,8,0:0:0:0:
256,192,102220,1,0,0:0:0:0:
256,192,102295,1,0,0:0:0:0:
256,192,102370,1,8,0:0:0:0:
256,192,102445,1,8,0:0:0:0:
256,192,102520,1,0,0:0:0:0:
256,192,102670,1,8,0:0:0:0:
256,192,102745,1,8,0:0:0:0:
256,192,102820,1,0,0:0:0:0:
256,192,102895,1,8,0:0:0:0:
256,192,102970,1,0,0:0:0:0:
256,192,103045,1,0,0:0:0:0:
256,192,103120,1,8,0:0:0:0:
256,192,103270,1,8,0:0:0:0:
256,192,103345,1,8,0:0:0:0:
256,192,103420,1,0,0:0:0:0:
256,192,103570,1,8,0:0:0:0:
256,192,103720,1,0,0:0:0:0:
256,192,104020,1,0,0:0:0:0:
256,192,104245,1,8,0:0:0:0:
256,192,104320,1,0,0:0:0:0:
256,192,104470,1,8,0:0:0:0:
256,192,104545,1,8,0:0:0:0:
256,192,104620,1,8,0:0:0:0:
256,192,104695,1,8,0:0:0:0:
256,192,104770,1,0,0:0:0:0:
256,192,104920,1,8,0:0:0:0:
256,192,105070,1,8,0:0:0:0:
256,192,105145,1,8,0:0:0:0:
256,192,105220,1,0,0:0:0:0:
256,192,105295,1,8,0:0:0:0:
256,192,105370,1,8,0:0:0:0:
256,192,105520,1,0,0:0:0:0:
256,192,105820,1,8,0:0:0:0:
256,192,106120,1,8,0:0:0:0:
256,192,106420,1,0,0:0:0:0:
256,192,106570,1,8,0:0:0:0:
256,192,106720,1,8,0:0:0:0:
256,192,106795,1,8,0:0:0:0:
256,192,106870,1,8,0:0:0:0:
256,192,106945,1,8,0:0:0:0:
256,192,107020,1,0,0:0:0:0:
256,192,107170,1,8,0:0:0:0:
256,192,107245,1,8,0:0:0:0:
256,192,107320,1,0,0:0:0:0:
256,192,107470,1,8,0:0:0:0:
256,192,107620,1,0,0:0:0:0:
256,192,107770,1,8,0:0:0:0:
256,192,107920,1,0,0:0:0:0:
256,192,108070,1,8,0:0:0:0:
256,192,108145,1,8,0:0:0:0:
256,192,108220,1,0,0:0:0:0:
256,192,108370,1,8,0:0:0:0:
256,192,108445,1,8,0:0:0:0:
256,192,108520,1,0,0:0:0:0:
256,192,108595,1,8,0:0:0:0:
256,192,108670,1,0,0:0:0:0:
256,192,108820,1,0,0:0:0:0:
256,192,108895,1,8,0:0:0:0:
256,192,108970,1,8,0:0:0:0:
256,192,109045,1,8,0:0:0:0:
256,192,109120,1,0,0:0:0:0:
256,192,109270,1,8,0:0:0:0:
256,192,109345,1,8,0:0:0:0:
256,192,109420,1,0,0:0:0:0:
256,192,109570,1,8,0:0:0:0:
256,192,109720,1,0,0:0:0:0:
256,192,109795,1,8,0:0:0:0:
256,192,109945,1,8,0:0:0:0:
256,192,110020,1,0,0:0:0:0:
256,192,110095,1,8,0:0:0:0:
256,192,110170,1,8,0:0:0:0:
256,192,110320,1,0,0:0:0:0:
256,192,110395,1,8,0:0:0:0:
256,192,110470,1,8,0:0:0:0:
256,192,110545,1,8,0:0:0:0:
256,192,110620,1,0,0:0:0:0:
256,192,110695,1,8,0:0:0:0:
256,192,110770,1,0,0:0:0:0:
256,192,110845,1,8,0:0:0:0:
256,192,110920,1,0,0:0:0:0:
256,192,111070,1,8,0:0:0:0:
256,192,111220,1,0,0:0:0:0:
256,192,111295,1,8,0:0:0:0:
256,192,111370,1,8,0:0:0:0:
256,192,111520,1,0,0:0:0:0:
256,192,111595,1,8,0:0:0:0:
256,192,111745,1,8,0:0:0:0:
256,192,111820,1,0,0:0:0:0:
256,192,111970,1,8,0:0:0:0:
256,192,112045,1,8,0:0:0:0:
256,192,112120,1,0,0:0:0:0:
256,192,112195,1,8,0:0:0:0:
256,192,112270,1,8,0:0:0:0:
256,192,112345,1,8,0:0:0:0:
256,192,112420,1,0,0:0:0:0:
256,192,112570,1,8,0:0:0:0:
256,192,112720,1,0,0:0:0:0:
256,192,112795,1,8,0:0:0:0:
256,192,112945,1,8,0:0:0:0:
256,192,113020,1,0,0:0:0:0:
256,192,113170,1,8,0:0:0:0:
256,192,113245,1,8,0:0:0:0:
256,192,113320,1,0,0:0:0:0:
256,192,113395,1,8,0:0:0:0:
256,192,113470,1,8,0:0:0:0:
256,192,113545,1,8,0:0:0:0:
256,192,113620,1,0,0:0:0:0:
256,192,113770,1,8,0:0:0:0:
256,192,113920,1,0,0:0:0:0:
256,192,113995,1,8,0:0:0:0:
256,192,114145,1,8,0:0:0:0:
256,192,114220,1,0,0:0:0:0:
256,192,114295,1,8,0:0:0:0:
256,192,114370,1,8,0:0:0:0:
256,192,114445,1,8,0:0:0:0:
256,192,114520,1,0,0:0:0:0:
256,192,114595,1,8,0:0:0:0:
256,192,114670,1,0,0:0:0:0:
256,192,114745,1,0,0:0:0:0:
256,192,114820,1,8,0:0:0:0:
256,192,114895,1,8,0:0:0:0:
256,192,114970,1,8,0:0:0:0:
256,192,115045,1,8,0:0:0:0:
256,192,115120,1,0,0:0:0:0:
256,192,115270,1,8,0:0:0:0:
256,192,115345,1,8,0:0:0:0:
256,192,115420,1,0,0:0:0:0:
256,192,115570,1,0,0:0:0:0:
256,192,115720,1,8,0:0:0:0:
256,192,115870,1,0,0:0:0:0:
256,192,116020,1,8,0:0:0:0:
256,192,116320,1,0,0:0:0:0:
256,192,116470,1,8,0:0:0:0:
256,192,116545,1,8,0:0:0:0:
256,192,116620,1,0,0:0:0:0:
256,192,116770,1,8,0:0:0:0:
256,192,116845,1,8,0:0:0:0:
256,192,116920,1,0,0:0:0:0:
256,192,117070,1,8,0:0:0:0:
256,192,117220,1,0,0:0:0:0:
256,192,117370,1,8,0:0:0:0:
256,192,117520,1,0,0:0:0:0:
256,192,117595,1,8,0:0:0:0:
256,192,117670,1,0,0:0:0:0:
256,192,117820,1,0,0:0:0:0:
256,192,117970,1,8,0:0:0:0:
256,192,118045,1,8,0:0:0:0:
256,192,118120,1,0,0:0:0:0:
256,192,118195,1,8,0:0:0:0:
256,192,118270,1,0,0:0:0:0:
256,192,118345,1,8,0:0:0:0:
256,192,118420,1,0,0:0:0:0:
256,192,118570,1,8,0:0:0:0:
256,192,118720,1,0,0:0:0:0:
256,192,118795,1,8,0:0:0:0:
256,192,118870,1,8,0:0:0:0:
256,192,118945,1,8,0:0:0:0:
256,192,119020,1,0,0:0:0:0:
256,192,119095,1,0,0:0:0:0:
256,192,119170,1,8,0:0:0:0:
256,192,119245,1,8,0:0:0:0:
256,192,119320,1,0,0:0:0:0:
256,192,119470,1,8,0:0:0:0:
256,192,119545,1,8,0:0:0:0:
256,192,119620,1,0,0:0:0:0:
256,192,119770,1,8,0:0:0:0:
256,192,119920,1,0,0:0:0:0:
256,192,120070,1,8,0:0:0:0:
256,192,120145,1,8,0:0:0:0:
256,192,120220,1,0,0:0:0:0:
256,192,120295,1,0,0:0:0:0:
256,192,120370,1,8,0:0:0:0:
256,192,120520,1,0,0:0:0:0:
256,192,120670,1,8,0:0:0:0:
256,192,120745,1,0,0:0:0:0:
256,192,120820,1,8,0:0:0:0:
256,192,120970,1,0,0:0:0:0:
256,192,121120,1,8,0:0:0:0:
256,192,121270,1,0,0:0:0:0:
256,192,121420,1,8,0:0:0:0:
256,192,121570,1,8,0:0:0:0:
256,192,121720,1,0,0:0:0:0:
256,192,122020,1,0,0:0:0:0:
256,192,122170,1,0,0:0:0:0:
256,192,122320,1,8,0:0:0:0:
256,192,122470,1,0,0:0:0:0:
256,192,122620,1,8,0:0:0:0:
256,192,122770,1,0,0:0:0:0:
256,192,122845,1,0,0:0:0:0:
256,192,122920,1,8,0:0:0:0:
256,192,123070,1,0,0:0:0:0:
256,192,123220,1,8,0:0:0:0:
256,192,123295,1,8,0:0:0:0:
256,192,123370,1,0,0:0:0:0:
256,192,123520,1,8,0:0:0:0:
256,192,123670,1,0,0:0:0:0:
256,192,123745,1,0,0:0:0:0:
256,192,123820,1,8,0:0:0:0:
256,192,123970,1,0,0:0:0:0:
256,192,124045,1,0,0:0:0:0:
256,192,124120,1,8,0:0:0:0:
256,192,124195,1,8,0:0:0:0:
256,192,124270,1,0,0:0:0:0:
256,192,124345,1,0,0:0:0:0:
256,192,124420,1,8,0:0:0:0:
256,192,124495,1,8,0:0:0:0:
256,192,124570,1,8,0:0:0:0:
256,192,124645,1,0,0:0:0:0:
256,192,124720,1,8,0:0:0:0:
256,192,125020,1,8,0:0:0:0:
256,192,125320,1,8,0:0:0:0:
256,192,125620,1,8,0:0:0:0:
256,192,125920,5,4,0:0:0:0:
256,192,126070,1,0,0:0:0:0:
256,192,126220,1,8,0:0:0:0:
256,192,126370,1,0,0:0:0:0:
256,192,126520,1,8,0:0:0:0:
256,192,126670,1,0,0:0:0:0:
256,192,126820,1,0,0:0:0:0:
256,192,126970,1,0,0:0:0:0:
256,192,127045,1,0,0:0:0:0:
256,192,127120,1,8,0:0:0:0:
256,192,127195,1,8,0:0:0:0:
256,192,127270,1,0,0:0:0:0:
256,192,127420,1,0,0:0:0:0:
256,192,127570,1,8,0:0:0:0:
256,192,127645,1,8,0:0:0:0:
448,64,127720,1,8,0:0:0:0:
448,64,127795,1,8,0:0:0:0:
256,192,127870,1,0,0:0:0:0:
448,64,128020,1,8,0:0:0:0:
256,192,128170,1,8,0:0:0:0:
448,64,128245,1,8,0:0:0:0:
64,64,128320,1,0,0:0:0:0:
256,192,128470,1,0,0:0:0:0:
448,64,128620,1,8,0:0:0:0:
64,64,128770,1,0,0:0:0:0:
256,192,128920,1,0,0:0:0:0:
256,192,129070,1,8,0:0:0:0:
256,192,129220,1,0,0:0:0:0:
256,192,129370,1,8,0:0:0:0:
256,192,129445,1,0,0:0:0:0:
256,192,129520,1,8,0:0:0:0:
256,192,129595,1,8,0:0:0:0:
256,192,129670,1,0,0:0:0:0:
256,192,129820,1,0,0:0:0:0:
448,64,129970,1,8,0:0:0:0:
448,64,130045,1,8,0:0:0:0:
448,64,130120,1,8,0:0:0:0:
448,64,130195,1,8,0:0:0:0:
64,64,130270,1,0,0:0:0:0:
448,64,130420,1,8,0:0:0:0:
448,64,130570,1,8,0:0:0:0:
256,192,130645,1,8,0:0:0:0:
256,192,130720,1,0,0:0:0:0:
256,192,130870,1,0,0:0:0:0:
448,64,131020,1,8,0:0:0:0:
64,64,131170,1,0,0:0:0:0:
256,192,131320,1,0,0:0:0:0:
256,192,131395,1,0,0:0:0:0:
256,192,131470,1,8,0:0:0:0:
256,192,131620,1,0,0:0:0:0:
256,192,131770,1,0,0:0:0:0:
256,192,131845,1,0,0:0:0:0:
256,192,131920,1,8,0:0:0:0:
256,192,131995,1,8,0:0:0:0:
256,192,132070,1,0,0:0:0:0:
256,192,132220,1,0,0:0:0:0:
256,192,132370,1,8,0:0:0:0:
256,192,132445,1,8,0:0:0:0:
448,64,132520,1,8,0:0:0:0:
448,64,132595,1,8,0:0:0:0:
256,192,132670,1,0,0:0:0:0:
256,192,132820,1,0,0:0:0:0:
256,192,132970,1,8,0:0:0:0:
448,64,133045,1,8,0:0:0:0:
64,64,133120,1,0,0:0:0:0:
256,192,133270,1,0,0:0:0:0:
256,192,133420,1,0,0:0:0:0:
256,192,133570,1,8,0:0:0:0:
256,192,133720,1,0,0:0:0:0:
448,64,133870,1,8,0:0:0:0:
256,192,134020,1,0,0:0:0:0:
256,192,134170,1,8,0:0:0:0:
256,192,134320,1,8,0:0:0:0:
256,192,135520,5,4,0:0:0:0:
256,192,135670,1,0,0:0:0:0:
256,192,135820,1,8,0:0:0:0:
256,192,135970,1,0,0:0:0:0:
256,192,136120,1,8,0:0:0:0:
256,192,136270,1,0,0:0:0:0:
256,192,136420,1,0,0:0:0:0:
256,192,136570,1,0,0:0:0:0:
256,192,136645,1,0,0:0:0:0:
256,192,136720,1,8,0:0:0:0:
256,192,136795,1,8,0:0:0:0:
256,192,136870,1,0,0:0:0:0:
256,192,137020,1,0,0:0:0:0:
256,192,137170,1,8,0:0:0:0:
256,192,137245,1,8,0:0:0:0:
448,64,137320,1,8,0:0:0:0:
448,64,137395,1,8,0:0:0:0:
256,192,137470,1,0,0:0:0:0:
64,64,137545,1,0,0:0:0:0:
448,64,137620,1,8,0:0:0:0:
64,64,137695,1,0,0:0:0:0:
256,192,137770,1,8,0:0:0:0:
448,64,137845,1,8,0:0:0:0:
64,64,137920,1,0,0:0:0:0:
256,192,138070,1,0,0:0:0:0:
256,192,138220,1,0,0:0:0:0:
256,192,138370,1,8,0:0:0:0:
256,192,138520,1,0,0:0:0:0:
256,192,138670,1,8,0:0:0:0:
256,192,138820,1,0,0:0:0:0:
256,192,138970,1,8,0:0:0:0:
256,192,139045,1,0,0:0:0:0:
256,192,139120,1,8,0:0:0:0:
256,192,139195,1,8,0:0:0:0:
256,192,139270,1,0,0:0:0:0:
256,192,139420,1,0,0:0:0:0:
448,64,139570,1,8,0:0:0:0:
448,64,139645,1,8,0:0:0:0:
448,64,139720,1,8,0:0:0:0:
448,64,139795,1,8,0:0:0:0:
64,64,139870,1,0,0:0:0:0:
64,64,139945,1,0,0:0:0:0:
448,64,140020,1,8,0:0:0:0:
64,64,140095,1,0,0:0:0:0:
448,64,140170,1,8,0:0:0:0:
256,192,140245,1,8,0:0:0:0:
256,192,140320,1,0,0:0:0:0:
256,192,140470,1,0,0:0:0:0:
256,192,140620,1,0,0:0:0:0:
256,192,140770,1,8,0:0:0:0:
256,192,140920,1,0,0:0:0:0:
256,192,140995,1,0,0:0:0:0:
256,192,141070,1,8,0:0:0:0:
256,192,141220,1,0,0:0:0:0:
256,192,141370,1,0,0:0:0:0:
256,192,141445,1,0,0:0:0:0:
256,192,141520,1,8,0:0:0:0:
256,192,141595,1,8,0:0:0:0:
256,192,141670,1,0,0:0:0:0:
256,192,141820,1,0,0:0:0:0:
256,192,141970,1,8,0:0:0:0:
256,192,142045,1,8,0:0:0:0:
448,64,142120,1,8,0:0:0:0:
448,64,142195,1,8,0:0:0:0:
256,192,142270,1,0,0:0:0:0:
64,64,142345,1,0,0:0:0:0:
448,64,142420,1,8,0:0:0:0:
64,64,142495,1,0,0:0:0:0:
256,192,142570,1,8,0:0:0:0:
448,64,142645,1,8,0:0:0:0:
64,64,142720,1,0,0:0:0:0:
256,192,142870,1,0,0:0:0:0:
256,192,142945,1,8,0:0:0:0:
256,192,143020,1,0,0:0:0:0:
256,192,143095,1,0,0:0:0:0:
256,192,143170,1,8,0:0:0:0:
256,192,143245,1,8,0:0:0:0:
256,192,143320,1,0,0:0:0:0:
256,192,143395,1,0,0:0:0:0:
256,192,143470,1,8,0:0:0:0:
256,192,143545,1,8,0:0:0:0:
256,192,143620,1,0,0:0:0:0:
256,192,143695,1,0,0:0:0:0:
256,192,143770,1,8,0:0:0:0:
256,192,143920,1,4,0:0:0:0:
256,192,144220,1,4,0:0:0:0:
256,192,145120,5,8,0:0:0:0:
256,192,145420,1,0,0:0:0:0:
256,192,145570,1,0,0:0:0:0:
256,192,145870,1,0,0:0:0:0:
256,192,146020,1,0,0:0:0:0:
256,192,146320,1,8,0:0:0:0:
256,192,146620,1,0,0:0:0:0:
256,192,146770,1,0,0:0:0:0:
256,192,147070,1,0,0:0:0:0:
256,192,147220,1,0,0:0:0:0:
256,192,147520,1,8,0:0:0:0:
256,192,147820,1,0,0:0:0:0:
256,192,147970,1,0,0:0:0:0:
256,192,148270,1,0,0:0:0:0:
256,192,148420,1,0,0:0:0:0:
256,192,148720,1,8,0:0:0:0:
256,192,149020,1,0,0:0:0:0:
256,192,149170,1,0,0:0:0:0:
256,192,149470,1,0,0:0:0:0:
256,192,149620,1,8,0:0:0:0:
256,192,149920,1,8,0:0:0:0:
256,192,150220,1,0,0:0:0:0:
256,192,150370,1,8,0:0:0:0:
256,192,150670,1,0,0:0:0:0:
256,192,150820,1,0,0:0:0:0:
256,192,151120,1,8,0:0:0:0:
256,192,151420,1,0,0:0:0:0:
256,192,151570,1,8,0:0:0:0:
256,192,151870,1,0,0:0:0:0:
256,192,152020,1,0,0:0:0:0:
256,192,152320,1,8,0:0:0:0:
256,192,152620,1,0,0:0:0:0:
256,192,152770,1,8,0:0:0:0:
256,192,153070,1,8,0:0:0:0:
256,192,153220,1,0,0:0:0:0:
256,192,153520,1,8,0:0:0:0:
256,192,153820,1,0,0:0:0:0:
256,192,153970,1,0,0:0:0:0:
256,192,154120,1,8,0:0:0:0:
256,192,154270,1,0,0:0:0:0:
256,192,154420,1,0,0:0:0:0:
256,192,154720,1,12,0:0:0:0:
256,192,155020,1,0,0:0:0:0:
256,192,155170,1,0,0:0:0:0:
256,192,155470,1,0,0:0:0:0:
256,192,155620,1,0,0:0:0:0:
256,192,155920,1,8,0:0:0:0:
256,192,156220,1,0,0:0:0:0:
256,192,156370,1,8,0:0:0:0:
256,192,156670,1,0,0:0:0:0:
256,192,156820,1,0,0:0:0:0:
256,192,156970,1,0,0:0:0:0:
256,192,157120,1,8,0:0:0:0:
256,192,157420,1,0,0:0:0:0:
256,192,157570,1,0,0:0:0:0:
256,192,157720,1,8,0:0:0:0:
256,192,157870,1,0,0:0:0:0:
256,192,158020,1,8,0:0:0:0:
256,192,158170,1,0,0:0:0:0:
256,192,158320,1,8,0:0:0:0:
256,192,158620,1,0,0:0:0:0:
256,192,158770,1,0,0:0:0:0:
256,192,158920,1,0,0:0:0:0:
256,192,159070,1,8,0:0:0:0:
256,192,159220,1,0,0:0:0:0:
256,192,159520,1,8,0:0:0:0:
448,64,159820,1,8,0:0:0:0:
256,192,159970,1,8,0:0:0:0:
256,192,160270,1,8,0:0:0:0:
256,192,160420,1,8,0:0:0:0:
256,192,160720,1,8,0:0:0:0:
448,64,161020,1,8,0:0:0:0:
256,192,161170,1,8,0:0:0:0:
256,192,161470,1,8,0:0:0:0:
256,192,161620,1,8,0:0:0:0:
256,192,161920,1,4,0:0:0:0:
256,192,162370,1,4,0:0:0:0:
256,192,162820,1,4,0:0:0:0:
256,192,163120,1,4,0:0:0:0:
256,192,163420,1,8,0:0:0:0:
256,192,163720,1,8,0:0:0:0:
256,192,164020,5,12,0:0:0:0:
256,192,164320,1,0,0:0:0:0:
256,192,164620,1,0,0:0:0:0:
256,192,164695,1,8,0:0:0:0:
256,192,164770,1,8,0:0:0:0:
256,192,164845,1,0,0:0:0:0:
256,192,164920,1,8,0:0:0:0:
256,192,165070,1,8,0:0:0:0:
256,192,165220,1,0,0:0:0:0:
256,192,165295,1,0,0:0:0:0:
256,192,165370,1,8,0:0:0:0:
256,192,165520,1,8,0:0:0:0:
256,192,165595,1,8,0:0:0:0:
256,192,165670,1,8,0:0:0:0:
256,192,165745,1,8,0:0:0:0:
256,192,165820,1,0,0:0:0:0:
256,192,165970,1,0,0:0:0:0:
256,192,166120,1,0,0:0:0:0:
256,192,166195,1,8,0:0:0:0:
256,192,166270,1,8,0:0:0:0:
256,192,166345,1,0,0:0:0:0:
256,192,166420,1,8,0:0:0:0:
256,192,166570,1,8,0:0:0:0:
256,192,166720,1,0,0:0:0:0:
256,192,166795,1,0,0:0:0:0:
256,192,166870,1,8,0:0:0:0:
256,192,166945,1,0,0:0:0:0:
256,192,167020,1,8,0:0:0:0:
256,192,167095,1,8,0:0:0:0:
256,192,167170,1,0,0:0:0:0:
256,192,167245,1,0,0:0:0:0:
256,192,167320,1,8,0:0:0:0:
256,192,167470,1,8,0:0:0:0:
256,192,167620,1,0,0:0:0:0:
256,192,167770,1,8,0:0:0:0:
256,192,167845,1,8,0:0:0:0:
256,192,167920,1,0,0:0:0:0:
256,192,167995,1,8,0:0:0:0:
256,192,168070,1,0,0:0:0:0:
256,192,168220,1,0,0:0:0:0:
256,192,168370,1,8,0:0:0:0:
256,192,168445,1,0,0:0:0:0:
256,192,168520,1,8,0:0:0:0:
256,192,168595,1,8,0:0:0:0:
256,192,168670,1,0,0:0:0:0:
256,192,168820,1,0,0:0:0:0:
256,192,168970,1,8,0:0:0:0:
256,192,169045,1,0,0:0:0:0:
256,192,169120,1,8,0:0:0:0:
256,192,169270,1,8,0:0:0:0:
256,192,169420,1,8,0:0:0:0:
256,192,169495,1,8,0:0:0:0:
256,192,169570,1,0,0:0:0:0:
256,192,169645,1,8,0:0:0:0:
256,192,169720,1,0,0:0:0:0:
256,192,169870,1,0,0:0:0:0:
256,192,170020,1,0,0:0:0:0:
256,192,170095,1,0,0:0:0:0:
256,192,170170,1,8,0:0:0:0:
256,192,170320,1,8,0:0:0:0:
256,192,170395,1,0,0:0:0:0:
256,192,170470,1,8,0:0:0:0:
256,192,170545,1,8,0:0:0:0:
256,192,170620,1,0,0:0:0:0:
256,192,170695,1,8,0:0:0:0:
256,192,170770,1,0,0:0:0:0:
256,192,170920,1,0,0:0:0:0:
256,192,171070,1,8,0:0:0:0:
256,192,171145,1,8,0:0:0:0:
256,192,171220,1,0,0:0:0:0:
256,192,171295,1,8,0:0:0:0:
256,192,171370,1,0,0:0:0:0:
256,192,171520,1,8,0:0:0:0:
256,192,171595,1,0,0:0:0:0:
256,192,171670,1,8,0:0:0:0:
256,192,171820,1,0,0:0:0:0:
256,192,171895,1,8,0:0:0:0:
256,192,171970,1,0,0:0:0:0:
256,192,172045,1,8,0:0:0:0:
256,192,172120,1,0,0:0:0:0:
256,192,172195,1,0,0:0:0:0:
256,192,172270,1,8,0:0:0:0:
256,192,172345,1,0,0:0:0:0:
256,192,172420,1,0,0:0:0:0:
256,192,172570,1,0,0:0:0:0:
256,192,172720,1,8,0:0:0:0:
256,192,172795,1,8,0:0:0:0:
256,192,172870,1,0,0:0:0:0:
256,192,173020,1,8,0:0:0:0:
256,192,173170,1,0,0:0:0:0:
256,192,173245,1,0,0:0:0:0:
256,192,173320,1,8,0:0:0:0:
256,192,173395,1,0,0:0:0:0:
256,192,173470,1,0,0:0:0:0:
256,192,173620,1,8,0:0:0:0:
256,192,173920,1,0,0:0:0:0:
64,64,174070,1,0,0:0:0:0:
256,192,174220,1,0,0:0:0:0:
64,64,174295,1,0,0:0:0:0:
64,64,174370,1,0,0:0:0:0:
64,64,174445,1,0,0:0:0:0:
256,192,174520,1,8,0:0:0:0:
64,64,174595,1,0,0:0:0:0:
64,64,174670,1,0,0:0:0:0:
64,64,174745,1,0,0:0:0:0:
448,64,174820,1,8,0:0:0:0:
448,64,174895,1,8,0:0:0:0:
64,64,174970,1,0,0:0:0:0:
64,64,175045,1,0,0:0:0:0:
256,192,175120,1,8,0:0:0:0:
64,64,175195,1,0,0:0:0:0:
64,64,175270,1,0,0:0:0:0:
64,64,175345,1,0,0:0:0:0:
448,64,175420,1,8,0:0:0:0:
64,64,175495,1,0,0:0:0:0:
64,64,175570,1,0,0:0:0:0:
64,64,175645,1,0,0:0:0:0:
448,64,175720,1,8,0:0:0:0:
448,64,175795,1,8,0:0:0:0:
448,64,175870,1,8,0:0:0:0:
64,64,175945,1,0,0:0:0:0:
256,192,176020,1,8,0:0:0:0:
448,64,176170,1,8,0:0:0:0:
256,192,176320,1,0,0:0:0:0:
64,64,176395,1,0,0:0:0:0:
256,192,176470,1,8,0:0:0:0:
64,64,176545,1,0,0:0:0:0:
256,192,176620,1,8,0:0:0:0:
448,64,176695,1,8,0:0:0:0:
256,192,176770,1,0,0:0:0:0:
64,64,176845,1,0,0:0:0:0:
256,192,176920,1,8,0:0:0:0:
64,64,177070,1,0,0:0:0:0:
256,192,177220,1,8,0:0:0:0:
64,64,177295,1,0,0:0:0:0:
256,192,177370,1,8,0:0:0:0:
256,192,177445,1,8,0:0:0:0:
256,192,177520,1,8,0:0:0:0:
64,64,177595,1,0,0:0:0:0:
64,64,177670,1,0,0:0:0:0:
256,192,177745,1,8,0:0:0:0:
256,192,177820,1,8,0:0:0:0:
256,192,177970,1,8,0:0:0:0:
256,192,178120,1,0,0:0:0:0:
256,192,178270,1,8,0:0:0:0:
256,192,178420,1,0,0:0:0:0:
256,192,178720,1,0,0:0:0:0:
64,64,178870,1,0,0:0:0:0:
64,64,178945,1,0,0:0:0:0:
256,192,179020,1,8,0:0:0:0:
64,64,179095,1,0,0:0:0:0:
64,64,179170,1,0,0:0:0:0:
64,64,179245,1,0,0:0:0:0:
256,192,179320,1,8,0:0:0:0:
448,64,179395,1,8,0:0:0:0:
64,64,179470,1,0,0:0:0:0:
64,64,179545,1,0,0:0:0:0:
448,64,179620,1,8,0:0:0:0:
64,64,179695,1,0,0:0:0:0:
64,64,179770,1,0,0:0:0:0:
64,64,179845,1,0,0:0:0:0:
256,192,179920,1,8,0:0:0:0:
448,64,179995,1,8,0:0:0:0:
64,64,180070,1,0,0:0:0:0:
64,64,180145,1,0,0:0:0:0:
448,64,180220,1,8,0:0:0:0:
448,64,180295,1,8,0:0:0:0:
64,64,180370,1,0,0:0:0:0:
64,64,180445,1,0,0:0:0:0:
256,192,180520,1,8,0:0:0:0:
64,64,180595,1,0,0:0:0:0:
64,64,180670,1,0,0:0:0:0:
64,64,180745,1,0,0:0:0:0:
256,192,180820,1,8,0:0:0:0:
64,64,180970,1,0,0:0:0:0:
256,192,181120,1,8,0:0:0:0:
448,64,181195,1,8,0:0:0:0:
256,192,181270,1,0,0:0:0:0:
64,64,181345,1,0,0:0:0:0:
256,192,181420,1,8,0:0:0:0:
64,64,181495,1,0,0:0:0:0:
256,192,181570,1,8,0:0:0:0:
64,64,181645,1,0,0:0:0:0:
256,192,181720,1,8,0:0:0:0:
256,192,181795,1,8,0:0:0:0:
256,192,181870,1,0,0:0:0:0:
256,192,181945,1,0,0:0:0:0:
256,192,182020,1,8,0:0:0:0:
256,192,182070,1,8,0:0:0:0:
256,192,182120,1,8,0:0:0:0:
256,192,182170,1,0,0:0:0:0:
256,192,182245,1,8,0:0:0:0:
256,192,182320,1,0,0:0:0:0:
256,192,182470,1,8,0:0:0:0:
256,192,182620,1,8,0:0:0:0:
256,192,182920,1,8,0:0:0:0:
256,192,183220,5,0,0:0:0:0:
256,192,183370,1,8,0:0:0:0:
256,192,183520,1,0,0:0:0:0:
256,192,183595,1,0,0:0:0:0:
256,192,183670,1,8,0:0:0:0:
256,192,183820,1,8,0:0:0:0:
256,192,183895,1,8,0:0:0:0:
256,192,183970,1,0,0:0:0:0:
256,192,184120,1,8,0:0:0:0:
256,192,184270,1,8,0:0:0:0:
256,192,184420,1,0,0:0:0:0:
256,192,184495,1,0,0:0:0:0:
256,192,184570,1,8,0:0:0:0:
256,192,184645,1,8,0:0:0:0:
256,192,184720,1,0,0:0:0:0:
256,192,184795,1,0,0:0:0:0:
256,192,184870,1,8,0:0:0:0:
256,192,184945,1,8,0:0:0:0:
256,192,185020,1,0,0:0:0:0:
256,192,185170,1,8,0:0:0:0:
256,192,185320,1,0,0:0:0:0:
256,192,185620,1,0,0:0:0:0:
256,192,185770,1,0,0:0:0:0:
256,192,185845,1,8,0:0:0:0:
256,192,185920,1,8,0:0:0:0:
256,192,186070,1,8,0:0:0:0:
256,192,186145,1,0,0:0:0:0:
256,192,186220,1,0,0:0:0:0:
256,192,186295,1,0,0:0:0:0:
256,192,186370,1,8,0:0:0:0:
256,192,186445,1,8,0:0:0:0:
256,192,186520,1,0,0:0:0:0:
256,192,186670,1,8,0:0:0:0:
256,192,186745,1,0,0:0:0:0:
256,192,186820,1,8,0:0:0:0:
256,192,186970,1,8,0:0:0:0:
256,192,187045,1,8,0:0:0:0:
256,192,187120,1,0,0:0:0:0:
256,192,187270,1,0,0:0:0:0:
256,192,187345,1,8,0:0:0:0:
256,192,187420,1,0,0:0:0:0:
256,192,187495,1,0,0:0:0:0:
256,192,187570,1,8,0:0:0:0:
256,192,187645,1,8,0:0:0:0:
256,192,187720,1,0,0:0:0:0:
256,192,188020,1,0,0:0:0:0:
256,192,188170,1,8,0:0:0:0:
256,192,188320,1,0,0:0:0:0:
256,192,188395,1,0,0:0:0:0:
256,192,188470,1,0,0:0:0:0:
256,192,188545,1,8,0:0:0:0:
256,192,188620,1,0,0:0:0:0:
256,192,188695,1,0,0:0:0:0:
256,192,188770,1,8,0:0:0:0:
256,192,188845,1,8,0:0:0:0:
256,192,188920,1,0,0:0:0:0:
256,192,189070,1,0,0:0:0:0:
256,192,189145,1,8,0:0:0:0:
256,192,189220,1,0,0:0:0:0:
256,192,189295,1,0,0:0:0:0:
256,192,189370,1,8,0:0:0:0:
256,192,189445,1,8,0:0:0:0:
256,192,189520,1,0,0:0:0:0:
256,192,189670,1,8,0:0:0:0:
256,192,189745,1,8,0:0:0:0:
256,192,189820,1,0,0:0:0:0:
256,192,189970,1,8,0:0:0:0:
256,192,190120,1,0,0:0:0:0:
256,192,190195,1,0,0:0:0:0:
256,192,190270,1,8,0:0:0:0:
256,192,190420,1,0,0:0:0:0:
256,192,190495,1,8,0:0:0:0:
256,192,190570,1,8,0:0:0:0:
256,192,190645,1,8,0:0:0:0:
256,192,190720,1,0,0:0:0:0:
256,192,190870,1,8,0:0:0:0:
256,192,190945,1,8,0:0:0:0:
256,192,191020,1,0,0:0:0:0:
256,192,191095,1,0,0:0:0:0:
256,192,191170,1,8,0:0:0:0:
256,192,191320,1,0,0:0:0:0:
256,192,191470,1,0,0:0:0:0:
256,192,191770,1,8,0:0:0:0:
256,192,192070,1,0,0:0:0:0:
256,192,192220,1,8,0:0:0:0:
256,192,192370,1,0,0:0:0:0:
256,192,192520,1,8,0:0:0:0:
256,192,192670,1,8,0:0:0:0:
256,192,192820,1,0,0:0:0:0:
256,192,192970,1,8,0:0:0:0:
256,192,193120,1,0,0:0:0:0:
256,192,193270,1,0,0:0:0:0:
256,192,193420,1,0,0:0:0:0:
256,192,193495,1,8,0:0:0:0:
256,192,193570,1,8,0:0:0:0:
256,192,193645,1,8,0:0:0:0:
256,192,193720,1,0,0:0:0:0:
256,192,193870,1,8,0:0:0:0:
256,192,194020,1,0,0:0:0:0:
256,192,194170,1,8,0:0:0:0:
256,192,194245,1,8,0:0:0:0:
256,192,194320,1,0,0:0:0:0:
256,192,194395,1,8,0:0:0:0:
256,192,194470,1,8,0:0:0:0:
256,192,194620,1,8,0:0:0:0:
256,192,194695,1,8,0:0:0:0:
256,192,194770,1,0,0:0:0:0:
256,192,194920,1,0,0:0:0:0:
256,192,194995,1,8,0:0:0:0:
256,192,195145,1,8,0:0:0:0:
256,192,195220,1,0,0:0:0:0:
256,192,195370,1,0,0:0:0:0:
256,192,195445,1,8,0:0:0:0:
256,192,195520,1,8,0:0:0:0:
256,192,195670,1,8,0:0:0:0:
256,192,195745,1,0,0:0:0:0:
256,192,195820,1,0,0:0:0:0:
256,192,195895,1,0,0:0:0:0:
256,192,195970,1,8,0:0:0:0:
256,192,196045,1,8,0:0:0:0:
256,192,196120,1,0,0:0:0:0:
256,192,196270,1,8,0:0:0:0:
256,192,196345,1,0,0:0:0:0:
256,192,196420,1,8,0:0:0:0:
256,192,196570,1,8,0:0:0:0:
256,192,196645,1,8,0:0:0:0:
256,192,196720,1,0,0:0:0:0:
256,192,196870,1,0,0:0:0:0:
256,192,196945,1,8,0:0:0:0:
256,192,197020,1,0,0:0:0:0:
256,192,197095,1,0,0:0:0:0:
256,192,197170,1,8,0:0:0:0:
256,192,197245,1,8,0:0:0:0:
256,192,197320,1,0,0:0:0:0:
256,192,197620,1,0,0:0:0:0:
256,192,197770,1,8,0:0:0:0:
256,192,197920,1,0,0:0:0:0:
256,192,197995,1,0,0:0:0:0:
256,192,198070,1,0,0:0:0:0:
256,192,198145,1,8,0:0:0:0:
256,192,198220,1,0,0:0:0:0:
256,192,198295,1,0,0:0:0:0:
256,192,198370,1,8,0:0:0:0:
256,192,198445,1,8,0:0:0:0:
256,192,198520,1,0,0:0:0:0:
256,192,198670,1,8,0:0:0:0:
256,192,198745,1,8,0:0:0:0:
256,192,198820,1,0,0:0:0:0:
256,192,198895,1,8,0:0:0:0:
256,192,198970,1,0,0:0:0:0:
256,192,199045,1,0,0:0:0:0:
256,192,199120,1,8,0:0:0:0:
256,192,199270,1,8,0:0:0:0:
256,192,199345,1,8,0:0:0:0:
256,192,199420,1,0,0:0:0:0:
256,192,199570,1,8,0:0:0:0:
256,192,199645,1,8,0:0:0:0:
256,192,199720,1,0,0:0:0:0:
256,192,199870,1,8,0:0:0:0:
256,192,200020,1,0,0:0:0:0:
256,192,200245,1,8,0:0:0:0:
256,192,200320,1,0,0:0:0:0:
256,192,200470,1,8,0:0:0:0:
256,192,200545,1,8,0:0:0:0:
256,192,200620,1,8,0:0:0:0:
256,192,200695,1,8,0:0:0:0:
256,192,200770,1,0,0:0:0:0:
256,192,200920,1,8,0:0:0:0:
256,192,201070,1,8,0:0:0:0:
256,192,201145,1,8,0:0:0:0:
256,192,201220,1,0,0:0:0:0:
256,192,201295,1,8,0:0:0:0:
256,192,201370,1,8,0:0:0:0:
256,192,201520,1,0,0:0:0:0:
256,192,201820,1,8,0:0:0:0:
256,192,202120,1,8,0:0:0:0:
256,192,202420,1,0,0:0:0:0:
256,192,202570,1,8,0:0:0:0:
256,192,202720,1,4,0:0:0:0:
256,192,203020,1,8,0:0:0:0:
256,192,203170,1,0,0:0:0:0:
256,192,203470,1,0,0:0:0:0:
256,192,203545,1,8,0:0:0:0:
256,192,203620,1,8,0:0:0:0:
256,192,203770,1,8,0:0:0:0:
256,192,203845,1,8,0:0:0:0:
256,192,203920,1,0,0:0:0:0:
256,192,204070,1,0,0:0:0:0:
256,192,204220,1,8,0:0:0:0:
256,192,204370,1,0,0:0:0:0:
256,192,204670,1,0,0:0:0:0:
256,192,204820,1,8,0:0:0:0:
256,192,204895,1,8,0:0:0:0:
256,192,204970,1,8,0:0:0:0:
256,192,205120,1,0,0:0:0:0:
256,192,205270,1,0,0:0:0:0:
256,192,205420,1,8,0:0:0:0:
256,192,205570,1,0,0:0:0:0:
256,192,205870,1,0,0:0:0:0:
256,192,206020,1,8,0:0:0:0:
256,192,206170,1,8,0:0:0:0:
256,192,206320,1,0,0:0:0:0:
256,192,206620,1,8,0:0:0:0:
256,192,206770,1,0,0:0:0:0:
256,192,207070,1,0,0:0:0:0:
256,192,207220,1,8,0:0:0:0:
256,192,207295,1,8,0:0:0:0:
256,192,207370,1,8,0:0:0:0:
256,192,207520,1,0,0:0:0:0:
256,192,207670,1,0,0:0:0:0:
256,192,207820,1,8,0:0:0:0:
256,192,207970,1,0,0:0:0:0:
256,192,208270,1,0,0:0:0:0:
256,192,208420,1,8,0:0:0:0:
256,192,208570,1,8,0:0:0:0:
256,192,208720,1,0,0:0:0:0:
256,192,209020,1,8,0:0:0:0:
256,192,209170,1,0,0:0:0:0:
256,192,209470,1,0,0:0:0:0:
256,192,209620,1,8,0:0:0:0:
256,192,209770,1,8,0:0:0:0:
256,192,209845,1,8,0:0:0:0:
256,192,209920,1,0,0:0:0:0:
256,192,210220,1,8,0:0:0:0:
256,192,210370,1,0,0:0:0:0:
256,192,210595,1,0,0:0:0:0:
256,192,210670,1,8,0:0:0:0:
256,192,210820,1,8,0:0:0:0:
256,192,210895,1,0,0:0:0:0:
256,192,210970,1,8,0:0:0:0:
256,192,211120,1,8,0:0:0:0:
256,192,211420,1,8,0:0:0:0:
256,192,211570,1,8,0:0:0:0:
256,192,211645,1,0,0:0:0:0:
256,192,211720,1,8,0:0:0:0:
256,192,211870,1,0,0:0:0:0:
256,192,212020,1,8,0:0:0:0:
256,192,212170,1,8,0:0:0:0:
256,192,212320,1,0,0:0:0:0:
256,192,212620,1,8,0:0:0:0:
256,192,212770,1,0,0:0:0:0:
256,192,213070,1,0,0:0:0:0:
256,192,213220,1,8,0:0:0:0:
256,192,213370,1,8,0:0:0:0:
256,192,213520,1,0,0:0:0:0:
256,192,213820,1,8,0:0:0:0:
256,192,213970,1,0,0:0:0:0:
256,192,214120,1,8,0:0:0:0:
256,192,214270,1,8,0:0:0:0:
256,192,214345,1,8,0:0:0:0:
256,192,214420,1,0,0:0:0:0:
256,192,214495,1,8,0:0:0:0:
256,192,214570,1,8,0:0:0:0:
256,192,214645,1,8,0:0:0:0:
256,192,214720,1,0,0:0:0:0:
256,192,215020,1,8,0:0:0:0:
256,192,215170,1,0,0:0:0:0:
256,192,215470,1,0,0:0:0:0:
256,192,215620,1,8,0:0:0:0:
256,192,215770,1,8,0:0:0:0:
256,192,215920,1,0,0:0:0:0:
256,192,216220,1,8,0:0:0:0:
256,192,216370,1,0,0:0:0:0:
256,192,216520,1,8,0:0:0:0:
256,192,216670,1,0,0:0:0:0:
256,192,216745,1,8,0:0:0:0:
256,192,216820,1,0,0:0:0:0:
256,192,216895,1,8,0:0:0:0:
256,192,216970,1,8,0:0:0:0:
256,192,217045,1,8,0:0:0:0:
256,192,217120,1,0,0:0:0:0:
256,192,217570,1,4,0:0:0:0:
256,192,218020,1,4,0:0:0:0:
256,192,218470,1,4,0:0:0:0:
256,192,218920,1,4,0:0:0:0:
256,192,219220,1,8,0:0:0:0:
256,192,219370,1,8,0:0:0:0:
256,192,219520,1,4,0:0:0:0:
256,192,219970,1,4,0:0:0:0:
256,192,220420,1,4,0:0:0:0:
256,192,221020,1,8,0:0:0:0:
256,192,221320,1,0,0:0:0:0:
256,192,221620,1,0,0:0:0:0:
256,192,221920,1,0,0:0:0:0:
