osu file format v14

[General]
AudioFilename: boomer.mp3
AudioLeadIn: 0
PreviewTime: 208530
Countdown: 0
SampleSet: Soft
StackLeniency: 0.4
Mode: 0
LetterboxInBreaks: 0
WidescreenStoryboard: 0

[Editor]
Bookmarks: 4518,6918,8289,9661,11032,16518,22003,23469,26118,27489,31603,32975,37089,38461,43946,53546,54918,60061,60403,65889,71375,74118,76861,82346,87832,98803,109775,120746,126232,131718,135832,137203,142689,148175,153661,159146,164632,175603,186575,190689,192061,196175,197546,201661,203032,208518,218803,219489,224975,230461,241432,249661,252403
DistanceSpacing: 1.7
BeatDivisor: 4
GridSize: 8
TimelineZoom: 1.8

[Metadata]
Title:Boom Boom Taoismic
TitleUnicode:Boom Boom Taoismic
Artist:t+pazolite feat. Rizna
ArtistUnicode:t+pazolite feat. リズナ
Creator:Okoratu
Version:Lunatic
Source:東方神霊廟 ~ Ten Desires.
Tags:Electronic Japanese Video Game Pop ALiCE'S EMOTiON Ghost Region Remix Seiga Kaku リズナ 古きユアンシェン 東方神霊廟 RHYTHM_SPOON MINAMOTRANCE C.H.S CHS Old Distant Hermit Gu Yuan Xian Miruyuana Danmaku C81 Comiket 81 Okorin Yauxo Nozhomi eiri- Ayyri Onicorn snowball112 Touhou Shinreibyou
BeatmapID:442206
BeatmapSetID:104867

[Difficulty]
HPDrainRate:6
CircleSize:4.3
OverallDifficulty:8
ApproachRate:9.1
SliderMultiplier:1.8
SliderTickRate:2

[Events]
//Background and Video events
0,0,"bg1.png",0,0
//Break Periods
2,110116,119618
2,208859,217503
//Storyboard Layer 0 (Background)
//Storyboard Layer 1 (Fail)
//Storyboard Layer 2 (Pass)
//Storyboard Layer 3 (Foreground)
//Storyboard Layer 4 (Overlay)
//Storyboard Sound Samples

[TimingPoints]
202,342.857142857143,4,2,1,80,1,0
4487,-100,4,2,1,50,0,0
4830,-100,4,2,0,50,0,0
4873,-100,4,2,1,60,0,0
5173,-100,4,2,0,50,0,0
5216,-100,4,2,1,60,0,0
5687,-100,4,2,2,80,0,0
6202,-100,4,2,2,50,0,0
7144,-100,4,2,0,20,0,0
7316,-100,4,2,2,80,0,0
7659,-100,4,2,0,20,0,0
7744,-100,4,2,1,50,0,0
8516,-100,4,2,0,20,0,0
8687,-100,4,2,2,80,0,0
9030,-100,4,2,0,20,0,0
9116,-100,4,2,1,60,0,0
9887,-100,4,2,0,20,0,0
10059,-100,4,2,1,80,0,0
10316,-100,4,2,1,80,0,0
10402,-100,4,2,0,20,0,0
10487,-100,4,2,1,80,0,0
11173,-100,4,2,1,80,0,0
11259,-100,4,2,2,80,0,0
16659,-100,4,2,1,90,0,0
17002,-100,4,2,2,90,0,0
19744,-100,4,2,2,90,0,0
21802,-71.4285714285714,4,2,1,80,0,0
22144,-100,4,2,1,80,0,0
42716,-62.5,4,2,2,80,0,0
43059,-66.6666666666667,4,2,2,80,0,0
43402,-71.4285714285714,4,2,2,80,0,0
43744,-76.9230769230769,4,2,2,80,0,0
44087,-133.333333333333,4,2,2,60,0,0
44173,-133.333333333333,4,2,2,40,0,0
45459,-133.333333333333,4,2,2,60,0,0
45544,-133.333333333333,4,2,2,40,0,0
46830,-133.333333333333,4,2,2,60,0,0
46916,-133.333333333333,4,2,2,40,0,0
48202,-133.333333333333,4,2,2,60,0,0
48287,-133.333333333333,4,2,2,40,0,0
49573,-133.333333333333,4,2,2,60,0,0
49659,-133.333333333333,4,2,2,40,0,0
50944,-133.333333333333,4,2,2,60,0,0
51030,-133.333333333333,4,2,2,50,0,0
52316,-133.333333333333,4,2,2,60,0,0
52402,-133.333333333333,4,2,2,60,0,0
53687,-133.333333333333,4,2,2,70,0,0
55059,-100,4,2,3,30,0,0
55144,-100,4,2,1,60,0,0
56430,-100,4,2,1,80,0,0
56516,-100,4,2,1,60,0,0
60202,-71.4285714285714,4,2,1,80,0,0
60544,-100,4,2,2,80,0,0
66030,-100,4,2,1,60,0,0
70830,-50,4,2,1,80,0,0
71173,-71.4285714285714,4,2,1,80,0,0
71516,-100,4,2,2,80,0,0
77002,-100,4,2,1,80,0,0
82144,-100,4,2,3,80,0,0
82230,-100,4,2,1,80,0,0
87373,-100,4,2,3,80,0,0
87716,-100,4,2,1,80,0,0
87973,-100,4,2,1,60,0,0
88059,-100,4,2,2,80,0,0
98344,-100,4,2,3,80,0,0
98602,-71.4285714285714,4,2,1,80,0,0
98944,-100,4,2,2,90,0,1
102887,-66.6666666666667,4,2,2,90,0,1
103059,-100,4,2,2,90,0,1
107087,-100,4,2,2,90,0,1
108544,-62.5,4,2,2,90,0,1
108887,-66.6666666666667,4,2,2,90,0,1
109230,-71.4285714285714,4,2,2,90,0,1
109573,-76.9230769230769,4,2,2,90,0,1
109916,-100,4,2,1,80,0,0
120887,-100,4,2,2,40,0,0
120973,-100,4,2,2,60,0,0
122259,-100,4,2,2,80,0,0
122344,-100,4,2,2,60,0,0
126030,-71.4285714285714,4,2,1,80,0,0
126373,-100,4,2,2,80,0,0
131859,-100,4,2,2,60,0,0
136659,-50,4,2,1,80,0,0
137002,-71.4285714285714,4,2,1,80,0,0
137344,-100,4,2,2,80,0,0
142830,-100,4,2,1,80,0,0
147973,-100,4,2,3,80,0,0
148059,-100,4,2,1,80,0,0
153202,-100,4,2,3,80,0,0
153544,-100,4,2,2,80,0,0
164173,-100,4,2,3,80,0,0
164430,-71.4285714285714,4,2,3,80,0,0
164773,-100,4,2,1,80,0,0
166144,-62.5,4,2,2,80,0,0
166487,-66.6666666666667,4,2,2,80,0,0
166830,-71.4285714285714,4,2,2,80,0,0
167173,-76.9230769230769,4,2,2,80,0,0
167516,-100,4,2,1,80,0,0
168887,-62.5,4,2,2,80,0,0
169230,-66.6666666666667,4,2,2,80,0,0
169573,-71.4285714285714,4,2,2,80,0,0
169916,-76.9230769230769,4,2,2,80,0,0
170259,-100,4,2,1,80,0,0
171630,-62.5,4,2,2,80,0,0
171973,-66.6666666666667,4,2,2,80,0,0
172316,-71.4285714285714,4,2,2,80,0,0
172659,-76.9230769230769,4,2,2,80,0,0
173002,-100,4,2,1,80,0,0
174373,-55.5555555555556,4,2,2,80,0,0
174716,-58.8235294117647,4,2,2,80,0,0
175059,-62.5,4,2,2,80,0,0
175402,-66.6666666666667,4,2,2,80,0,0
175744,-100,4,2,1,80,0,0
175830,-100,4,2,3,80,0,0
186373,-71.4285714285714,4,2,1,80,0,0
186716,-100,4,2,1,80,0,0
207287,-62.5,4,2,2,80,0,0
207630,-66.6666666666667,4,2,2,80,0,0
207973,-71.4285714285714,4,2,2,80,0,0
208316,-76.9230769230769,4,2,2,80,0,0
208659,-133.333333333333,4,2,1,45,0,0
208744,-133.333333333333,4,2,1,30,0,0
210030,-133.333333333333,4,2,1,45,0,0
210116,-133.333333333333,4,2,1,30,0,0
211402,-133.333333333333,4,2,1,45,0,0
211487,-133.333333333333,4,2,1,30,0,0
212773,-133.333333333333,4,2,1,45,0,0
212859,-133.333333333333,4,2,1,30,0,0
214144,-133.333333333333,4,2,1,45,0,0
214230,-133.333333333333,4,2,1,30,0,0
215516,-133.333333333333,4,2,1,45,0,0
215602,-133.333333333333,4,2,1,30,0,0
216887,-133.333333333333,4,2,1,45,0,0
216973,-133.333333333333,4,2,1,30,0,0
218259,-133.333333333333,4,2,1,45,0,0
218944,-71.4285714285714,4,2,1,80,0,0
219630,-100,4,2,1,80,0,0
224773,-100,4,2,3,80,0,0
224859,-100,4,2,2,80,0,0
230002,-100,4,2,3,80,0,0
230344,-100,4,2,2,80,0,0
240973,-100,4,2,3,80,0,0
241230,-71.4285714285714,4,2,3,80,0,0
241573,-100,4,2,2,90,0,1
245516,-66.6666666666667,4,2,2,90,0,1
245687,-100,4,2,2,90,0,1
249802,-83.3333333333333,4,2,2,80,0,0
251173,-62.5,4,2,2,80,0,0
251516,-66.6666666666667,4,2,2,80,0,0
251859,-71.4285714285714,4,2,2,80,0,0
252202,-76.9230769230769,4,2,2,80,0,0
252544,-100,4,2,2,90,0,1
256487,-66.6666666666667,4,2,2,90,0,1
256659,-100,4,2,2,90,0,1
260773,-100,4,2,2,90,0,1
262144,-62.5,4,2,2,80,0,0
262487,-66.6666666666667,4,2,2,80,0,0
262830,-71.4285714285714,4,2,2,80,0,0
263173,-62.5,4,2,2,80,0,0
263516,-100,4,2,1,90,0,1
263602,-100,4,2,1,80,0,0
264887,-100,4,2,1,50,0,0

[Colours]
Combo1 : 141,29,63
Combo2 : 57,83,172
Combo3 : 12,101,190
Combo4 : 57,31,184
Combo5 : 62,153,202
Combo6 : 141,46,29
Combo7 : 191,62,23

[HitObjects]
115,50,4659,5,0,0:0:0:0:
133,325,5002,1,0,0:0:0:0:
316,105,5344,2,0,P|364:77|416:83,1,90
474,95,5602,1,0,0:0:0:0:
474,95,5687,6,0,P|440:166|339:180,1,180,10|8,0:2|0:3,0:0:0:0:
115,50,6373,1,0,0:0:0:0:
209,262,6630,1,0,0:3:0:0:
212,20,6887,1,0,0:0:0:0:
375,79,7059,6,0,P|318:48|270:55,1,90,2|0,0:0|0:0,0:0:0:0:
209,262,7402,2,0,B|230:229|230:229|244:241|244:241|284:228|297:165,1,135,2|0,0:3|0:0,0:0:0:0:
304,145,7744,1,0,0:0:0:0:
44,143,8002,1,0,0:3:0:0:
194,58,8259,1,0,0:0:0:0:
96,282,8430,6,0,P|132:231|141:184,1,90,10|0,0:0|0:0,0:0:0:0:
8,296,8773,2,0,P|24:338|119:362,1,135,8|0,0:3|0:0,0:0:0:0:
141,353,9116,1,0,0:0:0:0:
206,68,9373,1,0,0:3:0:0:
424,127,9630,1,2,0:0:0:0:
314,205,9802,6,0,P|312:158|339:113,1,90
395,253,10144,2,0,P|347:294|256:284,1,135
239,280,10487,1,0,0:3:0:0:
206,68,10659,1,0,0:3:0:0:
206,68,10744,1,0,0:0:0:0:
206,68,10830,1,0,0:3:0:0:
56,269,11002,1,0,0:3:0:0:
56,269,11087,1,0,0:0:0:0:
56,269,11173,5,14,0:0:0:0:
60,224,11259,1,0,0:0:0:0:
44,183,11344,1,0,0:0:0:0:
30,140,11430,1,0,0:0:0:0:
37,97,11516,2,0,P|60:58|126:40,1,90,14|0,0:3|0:0,0:0:0:0:
117,121,11773,2,0,L|195:192,1,90
231,251,12030,2,0,P|180:266|122:240,1,90,2|2,0:3|0:0,0:0:0:0:
60,224,12287,1,0,0:0:0:0:
60,224,12373,1,0,0:0:0:0:
376,82,12544,6,0,P|342:54|298:53,1,90
331,164,12802,2,0,P|386:174|431:152,1,90,2|0,0:3|0:0,0:0:0:0:
237,126,13059,2,0,P|229:172|247:222,1,90,2|2,0:0|0:3,0:0:0:0:
286,291,13402,1,2,0:3:0:0:
222,49,13573,1,2,0:0:0:0:
23,116,13744,1,0,0:0:0:0:
9,139,13830,1,0,0:0:0:0:
2,165,13916,6,0,L|0:216,1,45,8|0,0:0|0:0,0:0:0:0:
148,335,14173,1,0,0:0:0:0:
148,335,14259,2,0,P|200:310|217:280,1,90,10|0,0:3|0:0,0:0:0:0:
251,126,14602,1,2,0:3:0:0:
285,97,14687,1,0,0:0:0:0:
329,93,14773,1,0,0:0:0:0:
485,126,14944,1,0,0:0:0:0:
459,163,15030,1,0,0:0:0:0:
455,208,15116,1,2,0:0:0:0:
452,252,15202,1,0,0:0:0:0:
438,295,15287,6,0,P|409:337|354:361,1,90,2|0,0:0|0:0,0:0:0:0:
272,373,15544,2,0,P|277:315|303:268,1,90,2|0,0:0|0:0,0:0:0:0:
357,224,15802,2,0,P|325:202|304:196,1,45
212,216,15973,1,2,0:3:0:0:
392,138,16144,1,2,0:3:0:0:
253,293,16316,1,2,0:0:0:0:
210,306,16402,1,0,0:0:0:0:
168,295,16487,1,0,0:0:0:0:
106,160,16659,5,8,0:0:0:0:
133,124,16744,1,4,0:3:0:0:
171,101,16830,1,2,0:3:0:0:
206,81,16916,1,0,0:0:0:0:
209,36,17002,2,0,P|159:17|113:33,1,90,10|0,0:3|0:0,0:0:0:0:
70,82,17259,2,0,P|47:43|48:-3,1,90,2|0,0:0|0:0,0:0:0:0:
133,124,17516,2,0,P|154:168|133:227,1,90,0|2,0:3|0:0,0:0:0:0:
89,273,17773,1,0,0:0:0:0:
89,273,17859,1,0,0:0:0:0:
125,25,18030,5,10,0:3:0:0:
244,202,18202,1,0,0:0:0:0:
244,202,18287,2,0,P|280:163|295:121,1,90
331,40,18544,2,0,P|366:66|377:97,1,45
401,143,18716,1,2,0:3:0:0:
196,93,18887,1,2,0:3:0:0:
283,307,19059,1,2,0:0:0:0:
272,89,19230,1,0,0:0:0:0:
266,62,19316,1,0,0:0:0:0:
251,40,19402,6,0,P|230:29|197:14,1,45,8|0,0:0|0:0,0:0:0:0:
106,15,19573,2,0,L|128:64,1,45
161,144,19744,2,0,P|112:156|53:120,1,90,8|0,0:3|0:0,0:0:0:0:
343,36,20087,1,2,0:3:0:0:
343,36,20173,1,0,0:0:0:0:
343,36,20259,1,0,0:0:0:0:
304,184,20430,1,2,0:0:0:0:
261,196,20516,1,0,0:0:0:0:
233,230,20602,1,0,0:0:0:0:
203,263,20687,1,0,0:0:0:0:
160,276,20773,6,0,P|113:276|79:234,1,90
91,148,21030,2,0,P|80:102|39:73,1,90,2|0,0:3|0:0,0:0:0:0:
2,153,21287,2,0,L|-1:205,1,45,2|0,0:3|0:0,0:0:0:0:
3,285,21459,1,2,0:3:0:0:
157,83,21630,1,2,0:3:0:0:
203,263,21802,6,2,B|241:302|247:377|247:377|277:363|295:296,1,188.999994232178,4|0,0:0|0:0,0:3:0:0:
302,229,22144,6,0,P|309:177|421:178,1,180,14|8,0:0|0:0,0:0:0:0:
396,273,22659,1,0,0:0:0:0:
482,83,22830,1,10,0:0:0:0:
346,55,23002,1,0,0:0:0:0:
302,65,23087,1,2,0:3:0:0:
264,88,23173,1,8,0:0:0:0:
490,180,23344,1,2,0:3:0:0:
490,180,23430,1,0,0:0:0:0:
490,180,23516,6,0,B|509:233|509:233|502:282|456:336|412:338,1,180,10|8,0:0|0:3,0:0:0:0:
310,185,24030,2,0,P|324:134|357:104,1,90,0|10,0:0|0:0,0:0:0:0:
316,297,24373,1,0,0:0:0:0:
271,291,24459,1,0,0:0:0:0:
235,265,24544,1,8,0:0:0:0:
104,138,24716,1,2,0:3:0:0:
104,138,24802,1,0,0:0:0:0:
104,138,24887,6,0,B|94:170|66:176|66:176|76:211|48:249|120:307,1,180,10|8,0:0|0:3,0:0:0:0:
231,149,25402,1,0,0:0:0:0:
231,149,25487,1,0,0:0:0:0:
231,149,25573,2,0,P|225:93|206:58,1,90,10|0,0:0|0:0,0:0:0:0:
83,53,25830,1,2,0:3:0:0:
83,53,25916,2,0,P|89:109|107:143,1,90,8|0,0:0|0:0,0:0:0:0:
270,245,26259,5,10,0:0:0:0:
306,219,26344,1,0,0:0:0:0:
325,179,26430,1,0,0:0:0:0:
324,134,26516,1,0,0:0:0:0:
301,96,26602,2,0,P|283:56|306:-6,1,90,10|0,0:2|0:0,0:0:0:0:
394,64,26859,1,2,0:0:0:0:
394,64,26944,2,0,P|404:114|397:130,1,45,8|0,0:3|0:0,0:0:0:0:
312,186,27116,2,0,L|199:150,1,90,2|10,0:0|0:3,0:0:0:0:
183,89,27373,1,0,0:0:0:0:
183,89,27459,1,6,0:3:0:0:
57,183,27630,6,0,B|41:240|32:269|32:269|67:306|141:275,1,180,14|8,0:0|0:3,0:0:0:0:
202,157,28144,1,0,0:0:0:0:
299,52,28316,1,10,0:0:0:0:
394,192,28487,1,0,0:0:0:0:
230,258,28659,1,8,0:0:0:0:
320,319,28830,1,2,0:3:0:0:
320,319,28916,1,0,0:0:0:0:
320,319,29002,6,0,P|303:248|337:144,1,180,10|8,0:0|0:3,0:0:0:0:
464,50,29516,1,0,0:0:0:0:
446,202,29687,1,10,0:0:0:0:
287,93,29859,1,0,0:0:0:0:
258,58,29944,1,2,0:3:0:0:
245,16,30030,1,8,0:0:0:0:
57,58,30202,1,2,0:3:0:0:
57,58,30287,1,0,0:0:0:0:
57,58,30373,6,0,B|53:120|22:138|22:138|21:187|59:221,1,180,10|8,0:0|0:3,0:0:0:0:
150,303,30887,1,0,0:0:0:0:
152,130,31059,1,10,0:0:0:0:
39,290,31230,1,0,0:0:0:0:
39,290,31316,1,2,0:3:0:0:
39,290,31402,1,8,0:0:0:0:
168,187,31573,1,2,0:3:0:0:
257,383,31744,6,0,P|298:366|326:331,1,90,10|0,0:0|0:0,0:0:0:0:
239,279,32002,1,2,0:0:0:0:
239,279,32087,2,0,P|224:231|232:205,1,45,8|0,0:3|0:0,0:0:0:0:
275,133,32259,2,0,P|217:112|177:122,1,90,2|10,0:0|0:0,0:0:0:0:
52,167,32602,1,2,0:3:0:0:
232,31,32773,2,8,P|280:35|305:52,1,45,10|8,0:3|0:0,0:0:0:0:
360,99,32944,1,4,0:3:0:0:
360,99,33030,1,0,0:0:0:0:
360,99,33116,6,2,P|374:145|288:230,1,180,14|14,0:2|0:3,0:3:0:0:
222,102,33630,1,2,0:3:0:0:
115,225,33802,1,8,0:0:0:0:
144,40,33973,1,2,0:3:0:0:
172,18,34059,1,0,0:0:0:0:
205,6,34144,1,8,0:0:0:0:
389,10,34316,1,2,0:3:0:0:
424,37,34402,1,2,0:3:0:0:
446,77,34487,6,2,P|440:140|336:185,1,180,8|8,0:0|0:3,0:3:0:0:
233,23,35002,1,2,0:3:0:0:
115,225,35173,2,0,P|159:252|213:228,1,90,8|2,0:0|0:3,0:0:0:0:
175,139,35430,1,0,0:0:0:0:
175,139,35516,2,0,P|123:114|85:125,1,90,8|2,0:0|0:3,0:0:0:0:
12,198,35773,1,0,0:0:0:0:
12,198,35859,6,2,P|9:255|92:337,1,180,8|8,0:0|0:3,0:3:0:0:
93,120,36373,1,2,0:3:0:0:
248,30,36544,1,8,0:0:0:0:
323,216,36716,1,2,0:3:0:0:
288,243,36802,1,2,0:3:0:0:
244,246,36887,1,8,0:0:0:0:
359,68,37059,1,2,0:3:0:0:
417,278,37230,5,10,0:3:0:0:
390,314,37316,1,2,0:3:0:0:
354,340,37402,1,0,0:0:0:0:
312,356,37487,1,2,0:3:0:0:
267,358,37573,2,2,P|218:360|171:324,1,90,10|0,0:0|0:0,0:3:0:0:
153,250,37830,1,2,0:0:0:0:
153,250,37916,2,0,P|111:279|100:305,1,45,10|0,0:3|0:0,0:0:0:0:
17,369,38087,2,0,L|16:292,1,45,2|0,0:0|0:0,0:0:0:0:
25,186,38259,1,10,0:3:0:0:
37,207,38344,1,0,0:0:0:0:
31,231,38430,1,6,0:3:0:0:
153,63,38602,6,0,P|206:37|259:36,1,90,12|8,0:0|0:0,0:0:0:0:
337,71,38944,1,8,0:3:0:0:
387,167,39116,1,8,0:0:0:0:
349,268,39287,1,8,0:3:0:0:
276,187,39459,1,8,0:0:0:0:
391,171,39630,1,8,0:3:0:0:
476,248,39802,1,8,0:0:0:0:
418,351,39973,6,0,P|364:377|307:368,1,90,8|8,0:3|0:0,0:0:0:0:
217,293,40316,1,8,0:3:0:0:
143,143,40487,1,8,0:0:0:0:
289,70,40659,1,8,0:3:0:0:
361,224,40830,1,8,0:0:0:0:
221,297,41002,1,8,0:3:0:0:
293,74,41173,1,8,0:0:0:0:
422,138,41344,5,8,0:3:0:0:
454,168,41430,1,8,0:0:0:0:
471,209,41516,1,8,0:0:0:0:
469,253,41602,1,8,0:0:0:0:
447,292,41687,1,8,0:3:0:0:
412,264,41773,1,8,0:0:0:0:
370,249,41859,1,8,0:0:0:0:
325,250,41944,1,8,0:0:0:0:
284,267,42030,5,8,0:3:0:0:
243,285,42116,1,8,0:0:0:0:
199,292,42202,1,8,0:0:0:0:
154,286,42287,1,8,0:0:0:0:
113,268,42373,1,8,0:3:0:0:
81,237,42459,1,8,0:0:0:0:
65,195,42544,1,8,0:0:0:0:
69,151,42630,1,8,0:0:0:0:
92,112,42716,6,2,B|137:72|137:72|221:70|221:70|299:12,1,216,0|0,0:1|0:0,0:3:0:0:
281,136,43059,2,2,P|203:123|152:18,1,202.500007724762,2|0,0:1|0:0,0:1:0:0:
278,27,43402,2,2,P|367:48|386:155,1,188.999994232178,2|0,0:1|0:0,0:1:0:0:
319,226,43744,2,0,B|358:259|406:244|406:244|416:304|479:318,1,175.499991966248,2|0,0:1|0:0,0:1:0:0:
500,188,44087,6,0,P|459:137|377:141,1,135.000005149842
319,233,44602,1,0,0:0:0:0:
270,130,44773,2,0,P|288:77|315:51,1,67.5000025749208
248,260,45116,1,0,0:0:0:0:
248,260,45287,1,0,0:0:0:0:
248,260,45459,6,0,P|206:263|99:236,1,135.000005149842
69,142,45973,1,0,0:0:0:0:
69,142,46144,2,0,P|110:143|151:171,1,67.5000025749208
41,306,46487,2,0,P|1:261|-4:232,1,67.5000025749208
143,239,46830,6,0,P|153:296|121:389,1,135.000005149842
261,225,47344,1,0,0:0:0:0:
261,225,47516,2,0,P|313:249|338:311,2,101.250003862381
136,94,48202,6,0,P|141:145|119:241,1,135.000005149842
312,352,48716,1,0,0:0:0:0:
312,352,48887,2,0,P|316:319|332:289,1,67.5000025749208
255,137,49230,2,0,P|251:170|235:200,1,67.5000025749208
148,315,49573,6,0,P|120:245|155:175,1,135.000005149842
255,137,50087,1,0,0:0:0:0:
311,224,50259,2,0,P|357:230|418:207,2,101.250003862381
406,100,50944,6,0,P|464:111|517:186,1,135.000005149842
447,309,51459,1,0,0:0:0:0:
332,156,51630,1,0,0:0:0:0:
332,156,51802,1,0,0:0:0:0:
454,229,51973,1,0,0:0:0:0:
454,229,52144,1,0,0:0:0:0:
331,354,52316,6,0,P|309:296|315:207,1,135.000005149842
370,50,52830,1,0,0:0:0:0:
378,178,53002,2,0,P|331:181|280:140,2,101.250003862381
245,21,53687,5,0,0:0:0:0:
231,30,53859,1,0,0:0:0:0:
83,118,54030,1,0,0:0:0:0:
97,127,54202,1,0,0:0:0:0:
257,222,54373,1,0,0:0:0:0:
252,239,54544,1,0,0:0:0:0:
74,308,54716,1,0,0:0:0:0:
79,291,54887,1,0,0:0:0:0:
84,274,55059,6,0,B|97:227|141:209|141:209|187:190|202:119,1,180,4|0,0:0|0:0,0:0:0:0:
150,50,55573,1,0,0:0:0:0:
51,79,55744,2,0,P|80:116|142:136,1,90,0|0,0:3|0:0,0:0:0:0:
345,131,56087,1,0,0:0:0:0:
345,131,56259,1,0,0:0:0:0:
290,183,56430,6,0,P|271:134|274:83,1,90,2|0,0:0|0:0,0:0:0:0:
426,117,56773,1,0,0:0:0:0:
380,236,56944,1,0,0:0:0:0:
380,236,57116,2,0,P|343:267|195:250,1,180
121,222,57630,1,0,0:0:0:0:
121,222,57802,6,0,L|163:127,1,90,2|0,0:0|0:0,0:0:0:0:
317,33,58144,2,0,P|334:81|320:131,1,90
295,328,58487,2,0,P|254:297|237:248,1,90
181,56,58830,2,0,P|221:86|238:135,1,90,2|0,0:0|0:0,0:0:0:0:
115,346,59173,6,0,P|122:291|162:252,1,90,2|0,0:3|0:0,0:0:0:0:
216,194,59516,1,0,0:0:0:0:
317,206,59687,1,0,0:0:0:0:
388,108,59859,1,0,0:0:0:0:
287,96,60030,1,0,0:0:0:0:
462,204,60202,6,2,B|433:122|387:108|387:108|372:145|385:184,1,188.999994232178,2|0,0:1|0:0,0:3:0:0:
391,273,60544,6,0,P|348:307|231:265,1,180,12|0,0:0|0:0,0:0:0:0:
181,135,61059,1,8,0:0:0:0:
271,10,61230,2,0,P|331:54|297:158,1,180,10|0,0:3|0:0,0:0:0:0:
164,223,61744,1,8,0:0:0:0:
164,223,61830,1,8,0:0:0:0:
164,223,61916,6,0,L|183:122,1,90,8|0,0:0|0:0,0:0:0:0:
147,17,62259,2,0,P|99:42|73:82,1,90,8|0,0:0|0:0,0:0:0:0:
88,171,62516,1,0,0:0:0:0:
88,171,62602,2,0,P|37:171|3:139,1,90,10|0,0:3|0:0,0:0:0:0:
213,90,62944,1,0,0:0:0:0:
309,173,63116,1,0,0:0:0:0:
406,87,63287,6,0,L|434:-4,1,90
429,210,63630,1,8,0:0:0:0:
429,210,63802,1,8,0:0:0:0:
398,320,63973,2,0,B|331:324|331:324|285:303|285:303|217:307,1,180,10|0,0:3|0:0,0:0:0:0:
31,313,64487,1,8,0:0:0:0:
31,313,64573,1,8,0:0:0:0:
31,313,64659,6,0,P|1:262|4:209,1,90,8|0,0:0|0:0,0:0:0:0:
64,109,65002,2,0,L|162:78,1,90,8|0,0:0|0:0,0:0:0:0:
284,92,65344,2,0,P|274:151|162:203,1,180,10|0,0:3|0:0,0:0:0:0:
227,18,65859,1,0,0:0:0:0:
362,36,66030,6,0,P|383:94|371:139,1,90
322,222,66373,1,0,0:0:0:0:
177,110,66544,1,0,0:0:0:0:
177,110,66630,1,0,0:0:0:0:
177,110,66716,2,0,P|123:115|83:141,1,90,2|0,0:3|0:0,0:0:0:0:
71,257,67059,1,0,0:0:0:0:
17,76,67230,1,0,0:0:0:0:
30,58,67316,1,0,0:0:0:0:
44,40,67402,5,2,0:3:0:0:
177,110,67573,1,0,0:0:0:0:
179,264,67744,2,0,P|161:322|118:354,1,90
98,331,68002,1,0,0:0:0:0:
98,331,68087,2,0,P|79:282|81:246,1,90,2|0,0:3|0:0,0:0:0:0:
177,110,68430,1,0,0:0:0:0:
177,110,68516,1,2,0:3:0:0:
238,181,68687,1,0,0:0:0:0:
238,181,68773,6,0,P|194:206|150:200,1,90,2|0,0:0|0:0,0:0:0:0:
49,18,69116,2,0,L|158:29,1,90,2|0,0:0|0:0,0:0:0:0:
177,109,69373,1,0,0:0:0:0:
177,109,69459,2,0,P|224:82|242:40,1,90,2|0,0:3|0:0,0:0:0:0:
433,28,69802,2,0,P|457:77|448:127,1,90,2|0,0:0|0:0,0:0:0:0:
425,199,70059,1,0,0:0:0:0:
425,199,70144,6,0,L|348:149,1,90
315,134,70402,1,0,0:0:0:0:
298,155,70487,1,0,0:0:0:0:
286,179,70573,1,0,0:0:0:0:
280,205,70659,1,0,0:0:0:0:
279,232,70744,1,0,0:0:0:0:
285,258,70830,2,0,P|300:287|320:302,4,45,2|2|2|2|2,0:3|0:3|0:3|0:3|0:3,0:0:0:0:
200,257,71087,1,0,0:0:0:0:
200,257,71173,6,2,B|149:289|82:294|82:294|80:264|111:218,1,188.999994232178,0|0,0:0|0:0,0:3:0:0:
134,152,71516,6,0,P|69:150|15:256,1,180,12|10,0:0|0:3,0:0:0:0:
179,23,72202,1,0,0:0:0:0:
179,23,72373,1,8,0:0:0:0:
277,130,72544,2,0,P|278:188|242:233,1,90,8|0,0:3|0:0,0:0:0:0:
183,157,72887,5,8,0:0:0:0:
353,193,73059,1,0,0:0:0:0:
328,25,73230,2,0,P|356:71|353:127,1,90,10|0,0:3|0:0,0:0:0:0:
255,308,73573,2,0,L|259:196,2,90,0|8|10,0:0|0:0|0:3,0:0:0:0:
278,128,74087,1,8,0:0:0:0:
90,332,74259,6,0,P|76:280|90:229,1,90,12|0,0:0|0:0,0:0:0:0:
11,209,74602,2,0,P|29:158|70:124,1,90
13,68,74944,2,0,P|57:37|109:32,1,90,2|2,0:3|0:2,0:0:0:0:
314,164,75287,2,0,P|269:194|217:199,1,90,8|0,0:3|0:0,0:0:0:0:
309,29,75630,5,8,0:0:0:0:
342,26,75716,1,8,0:0:0:0:
375,34,75802,1,8,0:0:0:0:
403,52,75887,1,8,0:0:0:0:
423,78,75973,1,8,0:0:0:0:
441,119,76059,1,8,0:0:0:0:
442,164,76144,1,8,0:0:0:0:
444,209,76230,1,8,0:0:0:0:
463,249,76316,1,12,0:0:0:0:
309,29,76659,1,0,0:0:0:0:
309,29,76830,1,0,0:0:0:0:
251,141,77002,6,0,P|222:188|163:217,1,90,14|0,0:0|0:0,0:0:0:0:
95,78,77344,1,8,0:3:0:0:
25,254,77516,1,0,0:0:0:0:
99,82,77687,1,10,0:0:0:0:
135,56,77773,1,0,0:0:0:0:
159,19,77859,1,2,0:0:0:0:
204,22,77944,1,2,0:0:0:0:
237,52,78030,1,8,0:3:0:0:
51,2,78202,1,0,0:0:0:0:
120,174,78373,6,0,P|181:149|208:108,1,90,10|0,0:0|0:0,0:0:0:0:
0,157,78716,2,0,P|-2:211|30:260,1,90,10|2,0:3|0:0,0:0:0:0:
80,337,79059,2,0,L|87:262,1,45,2|2,0:0|0:0,0:0:0:0:
161,242,79230,2,0,L|171:313,1,45,0|2,0:0|0:0,0:0:0:0:
159,368,79402,1,8,0:3:0:0:
247,243,79573,1,0,0:0:0:0:
67,141,79744,6,0,P|88:122|167:105,1,90,8|0,0:0|0:0,0:0:0:0:
304,190,80087,2,0,P|343:232|403:237,1,90,8|0,0:3|0:0,0:0:0:0:
423,93,80430,1,8,0:0:0:0:
433,61,80516,1,2,0:0:0:0:
452,33,80602,1,0,0:0:0:0:
478,12,80687,1,2,0:0:0:0:
509,0,80773,1,10,0:3:0:0:
505,152,80944,5,10,0:0:0:0:
458,263,81116,1,8,0:3:0:0:
267,177,81287,1,8,0:0:0:0:
371,134,81459,1,10,0:3:0:0:
339,306,81630,1,8,0:3:0:0:
110,217,81802,1,0,0:0:0:0:
147,242,81887,1,2,0:0:0:0:
190,253,81973,1,0,0:0:0:0:
235,247,82059,1,2,0:0:0:0:
262,283,82144,1,4,0:0:0:0:
131,57,82487,6,0,P|183:69|231:120,1,90,12|0,0:0|0:0,0:0:0:0:
299,185,82830,1,8,0:3:0:0:
429,80,83002,1,0,0:0:0:0:
393,268,83173,1,10,0:0:0:0:
355,292,83259,1,0,0:0:0:0:
333,330,83344,1,2,0:0:0:0:
290,316,83430,1,2,0:0:0:0:
262,283,83516,1,8,0:3:0:0:
433,192,83687,1,2,0:0:0:0:
304,64,83859,6,0,P|246:72|202:120,1,90,10|0,0:0|0:0,0:0:0:0:
138,334,84202,2,0,P|183:301|204:256,1,90,8|0,0:3|0:0,0:0:0:0:
70,16,84544,2,0,L|89:87,1,45,10|2,0:0|0:0,0:0:0:0:
63,191,84716,2,0,P|84:150|95:136,1,45,0|2,0:0|0:0,0:0:0:0:
163,131,84887,1,8,0:3:0:0:
163,131,85059,1,8,0:0:0:0:
58,298,85230,6,0,P|99:327|156:332,1,90,10|0,0:0|0:0,0:0:0:0:
335,219,85573,2,0,P|293:189|236:184,1,90,8|0,0:3|0:0,0:0:0:0:
302,351,85916,1,10,0:0:0:0:
347,116,86087,1,2,0:0:0:0:
325,92,86173,1,2,0:0:0:0:
304,69,86259,1,8,0:0:0:0:
447,227,86430,6,0,L|474:340,1,90,12|0,0:3|0:0,0:0:0:0:
291,161,86773,1,8,0:0:0:0:
95,224,86944,1,12,0:3:0:0:
295,165,87116,1,2,0:0:0:0:
203,361,87287,1,10,0:0:0:0:
194,171,87459,1,4,0:0:0:0:
194,171,87630,1,4,0:0:0:0:
22,355,87973,6,2,P|81:351|135:326,1,90,12|0,0:0|0:0,0:3:0:0:
194,171,88316,1,8,0:3:0:0:
41,115,88487,1,2,0:0:0:0:
154,60,88659,1,10,0:0:0:0:
82,219,88830,1,2,0:0:0:0:
245,257,89002,2,0,P|284:213|284:159,1,90,8|2,0:3|0:3,0:0:0:0:
266,91,89259,1,0,0:0:0:0:
266,91,89344,6,2,L|358:50,1,90,10|0,0:0|0:0,0:3:0:0:
468,128,89687,2,0,P|468:185|432:239,1,90,8|2,0:3|0:0,0:3:0:0:
328,311,90030,1,10,0:0:0:0:
317,278,90116,1,2,0:0:0:0:
314,245,90202,1,2,0:3:0:0:
318,211,90287,1,2,0:0:0:0:
330,180,90373,1,10,0:3:0:0:
202,24,90544,1,2,0:3:0:0:
202,24,90630,1,0,0:0:0:0:
202,24,90716,6,2,P|172:67|176:122,1,90,10|0,0:0|0:0,0:3:0:0:
216,262,91059,2,0,P|191:303|139:324,1,90,10|2,0:3|0:3,0:0:0:0:
0,246,91402,2,0,P|25:205|77:184,1,90,8|0,0:0|0:0,0:0:0:0:
61,186,91659,1,2,0:0:0:0:
61,186,91744,1,8,0:3:0:0:
97,55,91916,1,2,0:3:0:0:
256,93,92087,6,2,L|318:193,1,90,8|0,0:0|0:0,0:3:0:0:
181,345,92430,2,2,L|219:253,1,90,8|0,0:0|0:0,0:3:0:0:
405,293,92773,2,2,L|301:310,1,90,8|0,0:0|0:0,0:3:0:0:
316,307,93030,1,0,0:0:0:0:
316,307,93116,1,2,0:3:0:0:
454,224,93287,1,2,0:3:0:0:
256,93,93459,6,2,P|214:124|196:164,1,90,8|0,0:0|0:0,0:3:0:0:
159,326,93802,2,0,P|106:306|64:251,1,90,10|2,0:3|0:3,0:0:0:0:
83,102,94144,1,8,0:0:0:0:
95,71,94230,1,2,0:0:0:0:
114,43,94316,1,2,0:0:0:0:
137,18,94402,1,2,0:0:0:0:
165,0,94487,1,8,0:3:0:0:
198,156,94659,1,2,0:3:0:0:
159,326,94830,6,2,P|117:344|73:348,1,90,10|0,0:0|0:0,0:3:0:0:
21,276,95087,1,0,0:0:0:0:
21,276,95173,2,0,P|37:234|66:200,1,90,8|2,0:3|0:0,0:0:0:0:
198,156,95516,1,10,0:0:0:0:
215,184,95602,1,2,0:0:0:0:
241,205,95687,1,0,0:0:0:0:
273,216,95773,1,2,0:0:0:0:
307,216,95859,2,0,L|359:137,1,90,10|2,0:3|0:0,0:0:0:0:
292,42,96202,5,8,0:0:0:0:
198,156,96373,1,10,0:0:0:0:
133,28,96544,1,8,0:0:0:0:
205,176,96716,1,10,0:0:0:0:
124,8,96887,1,8,0:3:0:0:
176,166,97059,1,8,0:0:0:0:
304,28,97230,1,8,0:3:0:0:
107,229,97402,2,0,P|170:201|197:176,1,90,14|0,0:3|0:0,0:0:0:0:
394,127,97744,5,12,0:0:0:0:
189,354,98002,1,14,0:3:0:0:
142,46,98259,1,8,0:0:0:0:
239,179,98430,1,4,0:0:0:0:
239,179,98602,6,2,B|211:232|150:275|150:275|139:211,1,188.999994232178,12|0,0:0|0:0,0:3:0:0:
167,124,98944,6,0,P|192:94|271:93,1,90,14|0,0:1|0:0,0:0:0:0:
291,269,99287,2,0,P|248:285|183:262,1,90,8|0,0:0|0:0,0:0:0:0:
318,105,99630,1,10,0:1:0:0:
348,112,99716,1,0,0:0:0:0:
379,260,99887,1,2,0:1:0:0:
397,285,99973,1,0,0:0:0:0:
481,116,100144,1,2,0:1:0:0:
481,116,100230,1,0,0:0:0:0:
481,116,100316,6,0,P|456:77|405:32,1,90,10|2,0:0|0:3,0:0:0:0:
397,31,100573,1,0,0:0:0:0:
381,58,100659,1,10,0:0:0:0:
365,85,100744,1,0,0:0:0:0:
349,112,100830,1,2,0:0:0:0:
333,139,100916,1,2,0:0:0:0:
317,167,101002,2,0,P|272:191|213:188,1,90,10|0,0:1|0:0,0:0:0:0:
160,132,101259,1,0,0:0:0:0:
160,132,101344,2,0,P|182:104|204:46,1,90,10|0,0:1|0:0,0:0:0:0:
99,15,101602,1,0,0:0:0:0:
99,15,101687,6,0,P|77:43|55:101,1,90,10|0,0:1|0:0,0:0:0:0:
48,124,101944,1,0,0:0:0:0:
72,143,102030,2,0,L|96:193,1,45,8|2,0:0|0:0,0:0:0:0:
226,250,102202,2,0,B|172:255,1,45,2|0,0:0|0:0,0:0:0:0:
94,264,102374,1,10,0:1:0:0:
94,264,102459,1,0,0:0:0:0:
231,102,102630,1,2,0:1:0:0:
231,102,102716,1,0,0:0:0:0:
426,292,102887,6,2,B|427:270|461:264|461:264|479:242|474:211|474:211|461:169|461:169,1,135.000005149842,2|8,0:1|0:0,0:1:0:0:
257,253,103230,5,8,0:0:0:0:
214,267,103316,1,0,0:0:0:0:
170,263,103402,2,0,P|113:233|88:184,1,90,10|0,0:0|0:0,0:0:0:0:
184,168,103659,1,2,0:0:0:0:
184,168,103744,2,0,P|162:125|111:98,1,90,10|2,0:1|0:3,0:0:0:0:
385,41,104087,2,0,P|362:87|361:130,1,90,10|2,0:1|0:3,0:0:0:0:
57,22,104430,6,0,P|44:78|63:130,1,90,10|0,0:1|0:0,0:0:0:0:
72,131,104687,1,0,0:0:0:0:
101,120,104773,1,10,0:0:0:0:
131,110,104859,1,2,0:0:0:0:
161,99,104944,1,2,0:0:0:0:
190,89,105030,1,2,0:0:0:0:
220,78,105116,2,0,P|253:82|281:100,1,45,10|0,0:1|0:0,0:0:0:0:
318,251,105373,1,2,0:1:0:0:
287,259,105459,1,0,0:0:0:0:
350,120,105630,1,2,0:1:0:0:
350,120,105716,1,2,0:0:0:0:
350,120,105802,6,0,P|388:135|423:186,1,90,10|0,0:3|0:0,0:0:0:0:
421,218,106059,1,0,0:0:0:0:
410,260,106144,1,10,0:0:0:0:
435,296,106230,1,0,0:0:0:0:
478,300,106316,1,2,0:0:0:0:
510,270,106402,1,2,0:0:0:0:
508,227,106487,2,0,P|487:186|487:142,1,90,10|2,0:1|0:3,0:0:0:0:
390,37,106830,2,0,P|342:40|304:17,1,90,10|2,0:1|0:3,0:0:0:0:
170,24,107173,5,10,0:1:0:0:
69,161,107344,1,8,0:0:0:0:
196,261,107516,1,10,0:1:0:0:
297,124,107687,1,8,0:0:0:0:
56,166,107859,1,10,0:1:0:0:
167,7,108030,1,8,0:0:0:0:
197,245,108202,1,10,0:1:0:0:
162,273,108287,1,8,0:0:0:0:
119,288,108373,1,8,0:0:0:0:
75,288,108459,1,8,0:0:0:0:
32,274,108544,6,2,B|38:200|38:200|100:157|100:157|110:72,1,216,10|0,0:1|0:0,0:3:0:0:
24,116,108887,2,2,P|69:170|187:125,1,202.500007724762,10|0,0:1|0:0,0:1:0:0:
108,91,109230,2,2,P|98:162|199:219,1,188.999994232178,10|0,0:1|0:0,0:3:0:0:
262,182,109573,2,2,P|263:258|151:299,1,175.499991966248,10|0,0:1|0:0,0:1:0:0:
75,288,109916,5,6,0:0:0:0:
196,179,120202,6,0,B|210:239|210:239|183:307,2,135,8|8|8,0:0|0:0|0:0,0:0:0:0:
80,75,120887,6,0,P|75:134|139:243,1,180,4|0,0:0|0:0,0:0:0:0:
103,334,121402,1,0,0:0:0:0:
103,334,121573,2,0,P|156:308|218:317,1,90
300,332,121916,1,0,0:0:0:0:
300,332,122087,1,0,0:0:0:0:
279,218,122259,6,0,P|275:165|287:115,1,90,2|0,0:0|0:0,0:0:0:0:
367,165,122602,1,0,0:0:0:0:
417,249,122773,1,0,0:0:0:0:
417,249,122944,2,0,P|388:179|469:88,1,180
93,211,123630,6,0,P|52:264|49:302,1,90,2|0,0:0|0:0,0:0:0:0:
188,360,123973,2,0,P|228:307|232:268,1,90
309,24,124316,2,0,P|261:71|252:108,1,90
310,318,124659,2,0,P|357:271|366:233,1,90,2|0,0:0|0:0,0:0:0:0:
376,144,125002,5,0,0:0:0:0:
345,61,125173,1,0,0:0:0:0:
427,28,125344,1,0,0:0:0:0:
458,111,125516,1,0,0:0:0:0:
230,0,125687,1,0,0:0:0:0:
196,141,125859,1,0,0:0:0:0:
310,321,126030,6,2,B|332:259|316:197|316:197|279:212|253:252,1,188.999994232178,2|0,0:0|0:0,0:3:0:0:
201,296,126373,6,0,P|100:281|48:221,1,180,8|0,0:0|0:0,0:0:0:0:
118,42,126887,1,8,0:0:0:0:
209,198,127059,2,0,P|153:213|177:115,1,180,10|0,0:3|0:0,0:0:0:0:
330,51,127573,1,10,0:3:0:0:
330,51,127659,1,8,0:0:0:0:
330,51,127744,6,0,L|441:19,1,90,8|0,0:0|0:0,0:0:0:0:
429,212,128087,2,0,B|435:268|411:320,1,90,8|0,0:0|0:0,0:0:0:0:
314,350,128344,1,0,0:0:0:0:
314,350,128430,2,0,B|308:293|332:241,1,90,10|0,0:3|0:0,0:0:0:0:
362,137,128773,1,0,0:0:0:0:
243,45,128944,1,0,0:0:0:0:
147,148,129116,6,0,L|93:60,1,90
207,273,129459,1,8,0:0:0:0:
207,273,129630,1,8,0:0:0:0:
314,350,129802,2,0,B|339:297|339:297|325:238|325:238|354:179,1,180,10|0,0:3|0:0,0:0:0:0:
435,40,130316,1,10,0:3:0:0:
435,40,130402,1,8,0:0:0:0:
435,40,130487,6,0,P|451:92|444:153,1,90,8|0,0:0|0:0,0:0:0:0:
409,260,130830,2,0,P|365:250|331:208,1,90,8|0,0:0|0:0,0:0:0:0:
208,126,131173,2,0,B|145:239|145:239|220:223,1,180,10|0,0:3|0:0,0:0:0:0:
327,107,131687,1,0,0:0:0:0:
227,28,131859,6,0,P|167:34|104:130,1,180
139,292,132373,1,0,0:0:0:0:
151,311,132459,1,0,0:0:0:0:
169,325,132544,2,0,P|216:346|268:325,1,90,2|0,0:3|0:0,0:0:0:0:
401,204,132887,2,0,P|425:239|436:307,1,90
409,368,133144,1,2,0:3:0:0:
409,368,133230,6,0,L|314:318,1,90,0|2,0:0|0:3,0:0:0:0:
244,166,133573,2,0,P|272:130|328:117,1,90
317,196,133830,1,0,0:0:0:0:
317,196,133916,2,0,L|274:278,1,90,2|0,0:3|0:0,0:0:0:0:
158,317,134259,2,0,P|133:291|119:266,1,45
158,165,134430,1,0,0:0:0:0:
142,181,134516,1,2,0:3:0:0:
131,200,134602,6,0,P|90:214|39:193,1,90
116,37,134944,1,0,0:0:0:0:
250,74,135116,1,0,0:0:0:0:
272,96,135202,1,0,0:0:0:0:
282,125,135287,2,0,B|298:174|265:209|265:209|232:242|243:295,1,180,2|0,0:3|0:0,0:0:0:0:
399,292,135802,1,0,0:0:0:0:
399,292,135887,1,2,0:3:0:0:
399,292,135973,6,0,P|432:250|440:202,1,90
437,170,136230,1,0,0:0:0:0:
394,160,136316,1,0,0:0:0:0:
374,121,136402,1,0,0:0:0:0:
390,80,136487,1,0,0:0:0:0:
431,66,136573,1,0,0:0:0:0:
469,88,136659,2,0,P|478:120|472:150,4,45,2|2|2|2|2,0:3|0:3|0:3|0:3|0:3,0:0:0:0:
386,7,136916,1,2,0:3:0:0:
386,7,137002,6,2,B|331:0|262:34|262:34|325:74,1,188.999994232178,0|0,0:3|0:0,0:3:0:0:
308,156,137344,6,0,P|262:142|230:87,1,90,12|0,0:0|0:0,0:0:0:0:
194,28,137602,1,0,0:0:0:0:
194,28,137687,2,0,B|147:62|143:102|143:102|161:160|110:200,1,180,10|0,0:3|0:0,0:0:0:0:
28,23,138202,1,8,0:0:0:0:
0,176,138373,2,0,P|36:143|91:126,1,90,10|0,0:3|0:0,0:0:0:0:
299,118,138716,5,8,0:0:0:0:
302,246,138887,1,8,0:0:0:0:
343,34,139059,2,0,P|290:29|239:50,1,90,10|0,0:3|0:0,0:0:0:0:
164,200,139402,1,0,0:0:0:0:
273,336,139573,1,8,0:0:0:0:
247,186,139744,2,0,P|267:141|315:114,1,90,10|8,0:3|0:0,0:0:0:0:
384,97,140087,6,0,P|360:54|299:33,1,90,8|0,0:0|0:0,0:0:0:0:
246,68,140430,2,0,P|198:54|141:82,1,90
132,147,140773,2,0,P|89:170|68:231,1,90,2|0,0:3|0:0,0:0:0:0:
335,234,141116,2,0,P|377:210|398:149,1,90,2|0,0:3|0:0,0:0:0:0:
203,241,141459,5,8,0:0:0:0:
206,274,141544,1,8,0:0:0:0:
219,306,141630,1,8,0:0:0:0:
239,332,141716,1,8,0:0:0:0:
266,352,141802,1,8,0:0:0:0:
310,346,141887,1,8,0:0:0:0:
349,324,141973,1,8,0:0:0:0:
389,304,142059,1,8,0:0:0:0:
434,298,142144,1,14,0:3:0:0:
203,241,142487,1,0,0:0:0:0:
203,241,142659,1,0,0:0:0:0:
111,347,142830,6,0,P|62:371|24:369,1,90,12|0,0:0|0:0,0:0:0:0:
0,160,143173,1,8,0:3:0:0:
124,264,143344,1,2,0:0:0:0:
246,87,143516,2,0,L|283:129,1,45,0|2,0:0|0:0,0:0:0:0:
246,228,143687,2,0,L|176:248,1,45,0|2,0:0|0:0,0:0:0:0:
157,149,143859,1,10,0:3:0:0:
321,194,144030,1,2,0:0:0:0:
321,356,144202,6,0,P|358:312|363:266,1,90,8|0,0:0|0:0,0:0:0:0:
395,134,144544,2,0,P|429:179|473:195,1,90,8|0,0:3|0:0,0:0:0:0:
388,27,144887,2,0,L|326:33,1,45,10|0,0:0|0:0,0:0:0:0:
264,102,145059,1,2,0:0:0:0:
263,147,145144,1,2,0:0:0:0:
283,187,145230,1,8,0:3:0:0:
108,195,145402,1,2,0:3:0:0:
144,31,145573,6,0,P|130:87|144:142,1,90,8|0,0:0|0:0,0:0:0:0:
79,291,145916,2,0,P|134:274|175:234,1,90,8|0,0:3|0:0,0:0:0:0:
239,108,146259,1,10,0:0:0:0:
268,74,146344,1,2,0:0:0:0:
309,56,146430,1,0,0:0:0:0:
353,59,146516,1,2,0:0:0:0:
392,81,146602,1,10,0:3:0:0:
330,210,146773,5,12,0:0:0:0:
464,152,146944,1,8,0:3:0:0:
313,124,147116,1,10,0:0:0:0:
423,235,147287,1,8,0:3:0:0:
405,69,147459,1,10,0:0:0:0:
227,315,147630,1,8,0:0:0:0:
251,279,147716,1,2,0:0:0:0:
259,234,147802,1,0,0:0:0:0:
246,192,147887,1,2,0:0:0:0:
217,158,147973,1,4,0:0:0:0:
217,158,148316,6,0,L|102:143,1,90,12|0,0:0|0:0,0:0:0:0:
145,248,148659,1,8,0:3:0:0:
230,77,148830,1,2,0:0:0:0:
106,35,149002,2,0,L|115:94,1,45
58,174,149173,2,0,L|67:242,1,45
79,295,149344,1,8,0:3:0:0:
235,215,149516,1,2,0:3:0:0:
15,111,149687,6,0,P|11:73|38:16,1,90,8|0,0:0|0:0,0:0:0:0:
151,266,150030,2,0,P|154:304|128:361,1,90,8|0,0:3|0:0,0:0:0:0:
139,106,150373,1,8,0:0:0:0:
172,102,150459,1,2,0:0:0:0:
206,98,150544,1,2,0:0:0:0:
239,94,150630,1,2,0:3:0:0:
273,90,150716,1,8,0:3:0:0:
451,62,150887,1,2,0:0:0:0:
428,220,151059,6,0,P|383:214|349:186,1,90,8|0,0:0|0:0,0:0:0:0:
217,92,151402,2,0,P|182:119|168:161,1,90,8|0,0:3|0:0,0:0:0:0:
279,302,151744,1,10,0:0:0:0:
328,111,151916,1,0,0:0:0:0:
326,67,152002,1,2,0:0:0:0:
300,30,152087,1,8,0:3:0:0:
129,50,152259,6,0,L|103:153,1,90,8|0,0:3|0:0,0:0:0:0:
135,19,152602,1,8,0:0:0:0:
96,180,152773,1,8,0:3:0:0:
198,81,152944,1,0,0:0:0:0:
177,293,153116,1,8,0:0:0:0:
0,186,153287,1,4,0:0:0:0:
0,186,153459,1,4,0:0:0:0:
201,4,153802,6,2,P|256:23|279:58,1,90,8|0,0:0|0:0,0:3:0:0:
309,206,154144,1,8,0:3:0:0:
177,293,154316,1,0,0:0:0:0:
198,94,154487,1,10,0:0:0:0:
309,206,154659,1,2,0:0:0:0:
304,239,154744,1,2,0:0:0:0:
286,267,154830,1,8,0:3:0:0:
201,4,155002,1,0,0:0:0:0:
62,90,155173,6,2,L|30:191,1,90,8|0,0:0|0:0,0:3:0:0:
31,279,155430,1,0,0:0:0:0:
31,279,155516,2,0,P|96:258|125:222,1,90,8|2,0:3|0:0,0:0:0:0:
214,164,155859,1,10,0:0:0:0:
241,200,155944,1,0,0:0:0:0:
282,218,156030,1,2,0:3:0:0:
284,261,156116,1,2,0:3:0:0:
266,302,156202,1,8,0:3:0:0:
291,133,156373,1,2,0:0:0:0:
388,38,156544,6,2,L|398:149,1,90,8|2,0:0|0:0,0:3:0:0:
405,278,156887,2,0,P|351:269|320:212,1,90,8|0,0:3|0:0,0:0:0:0:
127,98,157230,1,10,0:0:0:0:
104,137,157316,1,2,0:0:0:0:
100,181,157402,1,0,0:0:0:0:
116,222,157487,1,2,0:0:0:0:
150,252,157573,1,10,0:3:0:0:
96,26,157744,1,2,0:3:0:0:
2,205,157916,6,2,P|39:261|84:299,1,90,8|0,0:0|0:0,0:3:0:0:
286,222,158259,2,0,P|263:184|232:151,1,90,10|2,0:1|0:0,0:3:0:0:
116,336,158602,2,0,P|136:285|138:249,1,60,10|0,0:1|0:0,0:0:0:0:
119,203,158830,1,2,0:0:0:0:
119,203,158944,2,0,P|193:223|213:250,1,90,8|2,0:3|0:3,0:0:0:0:
332,336,159287,6,2,P|287:333|238:302,1,90,8|0,0:0|0:0,0:3:0:0:
277,116,159630,2,0,P|321:118|362:138,1,90,8|0,0:3|0:0,0:0:0:0:
326,209,159887,1,2,0:0:0:0:
326,209,159973,2,0,L|271:213,1,45,2|0,0:0|0:0,0:0:0:0:
193,210,160144,2,0,P|200:264|200:285,1,45,2|2,0:0|0:0,0:0:0:0:
230,333,160316,1,8,0:3:0:0:
230,333,160487,1,2,0:3:0:0:
129,134,160659,6,2,P|83:151|51:189,1,90,8|0,0:0|0:0,0:3:0:0:
345,195,161002,2,0,P|391:178|423:140,1,90,8|2,0:3|0:0,0:0:0:0:
193,210,161344,1,8,0:0:0:0:
203,254,161430,1,2,0:0:0:0:
228,291,161516,1,2,0:0:0:0:
264,317,161602,1,2,0:0:0:0:
308,328,161687,2,0,P|363:324|419:285,1,90,8|2,0:3|0:3,0:0:0:0:
460,163,162030,5,10,0:0:0:0:
393,77,162202,1,8,0:0:0:0:
169,66,162373,1,10,0:0:0:0:
236,152,162544,1,8,0:0:0:0:
365,159,162716,1,10,0:3:0:0:
288,65,162887,1,8,0:3:0:0:
131,166,163059,1,10,0:3:0:0:
208,260,163230,2,0,P|266:277|315:268,1,90,14|0,0:3|0:0,0:0:0:0:
401,235,163573,5,12,0:0:0:0:
173,17,163830,1,14,0:3:0:0:
79,315,164087,1,8,0:0:0:0:
211,186,164259,1,4,0:0:0:0:
211,186,164430,6,2,B|249:128|247:68|247:68|196:82|182:100,1,188.999994232178,4|0,0:0|0:0,0:3:0:0:
132,171,164773,5,6,0:0:0:0:
132,171,164859,1,0,0:0:0:0:
132,171,164944,1,0,0:0:0:0:
132,171,165030,1,0,0:0:0:0:
132,171,165116,1,2,0:0:0:0:
178,284,165287,1,0,0:0:0:0:
178,284,165373,1,2,0:0:0:0:
311,317,165544,1,0,0:0:0:0:
311,317,165630,1,2,0:0:0:0:
431,253,165802,1,2,0:3:0:0:
431,253,165973,1,2,0:0:0:0:
390,7,166144,6,0,P|455:46|434:201,1,216,2|0,0:1|0:0,0:3:0:0:
431,253,166487,2,0,B|376:234|370:172|370:172|324:190|272:164,1,202.500007724762,2|0,0:1|0:0,0:0:0:0:
216,95,166830,2,0,P|181:166|245:255,1,188.999994232178,2|0,0:1|0:0,0:0:0:0:
278,167,167173,2,0,P|306:83|248:3,1,175.499991966248,2|0,0:1|0:0,0:0:0:0:
179,17,167516,5,2,0:0:0:0:
101,102,167687,1,0,0:0:0:0:
101,102,167773,1,2,0:0:0:0:
116,235,167944,1,2,0:0:0:0:
116,235,168030,1,0,0:0:0:0:
0,129,168202,1,2,0:0:0:0:
14,237,168373,1,2,0:3:0:0:
14,25,168544,1,2,0:3:0:0:
40,25,168630,1,0,0:0:0:0:
66,33,168716,2,0,P|96:57|103:73,1,45,2|2,0:0|0:0,0:0:0:0:
100,153,168887,6,0,P|180:178|283:74,1,216,2|0,0:1|0:0,0:0:0:0:
178,73,169230,2,0,P|174:162|223:292,1,202.500007724762,2|0,0:1|0:0,0:0:0:0:
251,352,169573,2,0,B|297:312|297:312|361:313|361:313|416:253,1,188.999994232178,2|0,0:1|0:0,0:0:0:0:
440,182,169916,2,0,B|388:163|388:163|389:130|352:97|309:111|294:148,1,175.499991966248,2|0,0:1|0:0,0:0:0:0:
283,225,170259,5,2,0:0:0:0:
180,36,170430,1,2,0:3:0:0:
147,44,170516,1,2,0:0:0:0:
121,67,170602,2,0,P|96:104|106:156,1,90,2|2,0:0|0:0,0:0:0:0:
255,286,170944,1,2,0:3:0:0:
273,257,171030,1,0,0:0:0:0:
283,225,171116,1,2,0:0:0:0:
338,116,171287,1,0,0:0:0:0:
338,116,171373,1,2,0:0:0:0:
338,116,171459,1,0,0:0:0:0:
338,116,171544,1,2,0:0:0:0:
338,116,171630,6,0,P|383:181|416:76,1,216,2|0,0:1|0:0,0:0:0:0:
356,39,171973,2,0,P|284:43|276:162,1,202.500007724762,2|0,0:1|0:0,0:0:0:0:
289,230,172316,2,0,B|229:247|229:247|168:225|168:225|101:245,1,188.999994232178,2|0,0:1|0:0,0:0:0:0:
149,318,172659,2,0,P|191:275|144:162,1,175.499991966248,2|0,0:1|0:0,0:0:0:0:
80,128,173002,6,0,L|33:218,1,90,2|0,0:0|0:0,0:0:0:0:
35,292,173259,2,0,P|83:282|121:226,1,90,2|2,0:0|0:0,0:0:0:0:
163,172,173516,2,0,L|177:114,1,45,2|0,0:0|0:0,0:0:0:0:
187,22,173687,1,2,0:3:0:0:
304,224,173859,1,2,0:3:0:0:
371,50,174030,1,2,0:3:0:0:
407,24,174116,1,2,0:0:0:0:
451,15,174202,1,2,0:0:0:0:
448,141,174373,6,2,B|460:192|441:256|441:256|372:192|302:239,1,242.999992584229,2|0,0:0|0:0,0:1:0:0:
278,298,174716,2,2,B|225:256|245:191|245:191|270:110|190:72,1,229.500004377365,2|0,0:1|0:0,0:1:0:0:
156,150,175059,2,2,P|233:175|307:76,1,216,2|0,0:1|0:0,0:3:0:0:
248,9,175402,2,2,B|176:-7|140:58|140:58|67:79,1,202.500007724762,2|0,0:1|0:0,0:1:0:0:
0,148,175744,5,12,0:0:0:0:
31,179,175830,1,2,0:0:0:0:
75,187,175916,1,0,0:0:0:0:
118,199,176002,1,0,0:0:0:0:
144,234,176087,2,0,P|153:282|109:346,1,90,8|2,0:0|0:0,0:0:0:0:
75,187,176344,2,0,P|117:151|182:163,1,90,8|0,0:0|0:0,0:0:0:0:
228,192,176602,2,0,P|265:165|282:101,1,90,10|10,0:0|0:0,0:0:0:0:
229,50,176859,1,2,0:0:0:0:
229,50,176944,1,0,0:0:0:0:
1,22,177116,6,0,L|21:111,1,90,10|0,0:0|0:0,0:0:0:0:
6,207,177373,2,0,P|57:195|101:147,1,90,10|2,0:0|0:0,0:0:0:0:
140,100,177630,2,0,P|167:137|173:178,1,45,10|0,0:0|0:0,0:0:0:0:
194,226,177802,1,8,0:0:0:0:
296,94,177973,1,2,0:3:0:0:
379,221,178144,1,10,0:0:0:0:
390,246,178230,1,0,0:0:0:0:
393,272,178316,2,0,L|369:325,1,45,2|2,0:0|0:0,0:0:0:0:
303,368,178487,6,0,P|287:322|303:262,1,90,8|0,0:0|0:0,0:0:0:0:
313,194,178744,1,0,0:0:0:0:
313,194,178830,1,8,0:0:0:0:
385,44,179002,1,2,0:0:0:0:
501,186,179173,1,8,0:0:0:0:
489,214,179259,1,2,0:0:0:0:
466,235,179344,1,2,0:0:0:0:
279,112,179516,1,8,0:0:0:0:
322,103,179602,1,2,0:0:0:0:
365,116,179687,1,2,0:0:0:0:
409,125,179773,1,2,0:0:0:0:
450,110,179859,6,0,P|469:65|441:8,1,90,10|0,0:0|0:0,0:0:0:0:
365,116,180116,2,0,L|337:220,1,90,10|2,0:0|0:0,0:0:0:0:
335,291,180373,2,0,P|312:289|293:278,1,45,10|0,0:0|0:0,0:0:0:0:
240,201,180544,1,10,0:0:0:0:
415,251,180716,1,2,0:3:0:0:
249,77,180887,1,12,0:0:0:0:
204,81,180973,1,0,0:0:0:0:
165,104,181059,1,2,0:0:0:0:
179,287,181230,5,8,0:0:0:0:
212,258,181316,1,2,0:3:0:0:
232,218,181402,1,2,0:0:0:0:
254,179,181487,1,2,0:3:0:0:
290,153,181573,2,0,P|333:148|378:176,1,90,8|2,0:0|0:3,0:0:0:0:
314,236,181830,2,0,P|271:241|226:213,1,90,10|2,0:0|0:0,0:0:0:0:
170,143,182087,2,0,L|194:37,1,90,10|10,0:0|0:0,0:0:0:0:
136,9,182344,1,2,0:0:0:0:
136,9,182430,1,0,0:0:0:0:
116,240,182602,6,0,P|105:292|70:326,1,90,8|2,0:0|0:0,0:0:0:0:
31,235,182859,2,0,L|17:126,1,90,10|2,0:0|0:0,0:0:0:0:
76,93,183116,2,0,P|97:129|103:160,1,45,10|2,0:0|0:3,0:0:0:0:
214,215,183287,1,10,0:0:0:0:
326,107,183459,1,2,0:0:0:0:
385,253,183630,1,14,0:0:0:0:
361,274,183716,1,0,0:0:0:0:
347,301,183802,2,0,L|333:374,1,45,2|2,0:0|0:0,0:0:0:0:
265,249,183973,6,0,P|221:234|173:249,1,90,10|2,0:0|0:3,0:0:0:0:
114,314,184230,1,0,0:0:0:0:
114,314,184316,1,10,0:0:0:0:
141,159,184487,2,0,P|144:108|121:63,1,90,2|10,0:3|0:0,0:0:0:0:
59,28,184744,1,2,0:0:0:0:
59,28,184830,1,2,0:3:0:0:
110,262,185002,1,10,0:0:0:0:
131,238,185087,1,2,0:0:0:0:
158,223,185173,1,2,0:3:0:0:
189,218,185259,1,2,0:0:0:0:
220,222,185344,5,0,0:0:0:0:
307,294,185516,1,0,0:0:0:0:
307,294,185602,1,2,0:3:0:0:
308,147,185773,1,2,0:3:0:0:
308,147,185859,1,0,0:0:0:0:
308,147,185944,1,0,0:0:0:0:
308,147,186030,1,2,0:0:0:0:
449,253,186202,1,2,0:0:0:0:
383,99,186373,6,2,B|335:71|262:71|262:71|264:116|300:133,1,188.999994232178,0|0,0:0|0:0,0:3:0:0:
280,222,186716,6,0,P|221:193|172:69,1,180,14|8,0:0|0:0,0:0:0:0:
176,269,187230,1,0,0:0:0:0:
75,173,187402,1,10,0:0:0:0:
274,309,187573,1,0,0:0:0:0:
246,344,187659,1,2,0:3:0:0:
205,360,187744,1,10,0:0:0:0:
186,180,187916,1,0,0:0:0:0:
346,103,188087,6,0,P|373:191|298:239,1,180,10|8,0:0|0:0,0:0:0:0:
248,30,188602,1,0,0:0:0:0:
298,161,188773,1,8,0:0:0:0:
98,43,188944,1,0,0:0:0:0:
56,28,189030,1,2,0:3:0:0:
12,33,189116,1,8,0:0:0:0:
83,195,189287,1,2,0:3:0:0:
197,105,189459,6,0,B|241:60|270:59|270:59|303:116|375:99,1,180,10|8,0:0|0:0,0:0:0:0:
496,222,189973,1,0,0:0:0:0:
310,195,190144,1,10,0:0:0:0:
436,0,190316,1,0,0:0:0:0:
440,45,190402,1,2,0:3:0:0:
426,87,190487,1,8,0:0:0:0:
268,60,190659,1,2,0:3:0:0:
189,281,190830,5,10,0:0:0:0:
164,317,190916,1,2,0:0:0:0:
125,338,191002,1,0,0:0:0:0:
80,340,191087,1,2,0:0:0:0:
39,322,191173,2,0,B|38:292|38:292|19:269|19:269|16:215,1,90,10|2,0:0|0:3,0:0:0:0:
33,142,191430,1,2,0:0:0:0:
33,142,191516,2,0,P|76:168|84:188,1,45,10|0,0:3|0:0,0:0:0:0:
206,219,191687,2,0,P|177:182|173:114,1,90,2|10,0:0|0:3,0:0:0:0:
203,70,191944,1,2,0:0:0:0:
203,70,192030,1,0,0:0:0:0:
402,209,192202,6,0,P|404:261|291:319,1,180,10|8,0:0|0:0,0:0:0:0:
170,138,192716,1,0,0:0:0:0:
166,270,192887,1,8,0:0:0:0:
116,28,193059,1,0,0:0:0:0:
86,61,193144,1,2,0:3:0:0:
65,101,193230,1,10,0:0:0:0:
287,186,193402,1,0,0:0:0:0:
201,25,193573,6,0,P|196:95|106:166,1,180,10|8,0:0|0:0,0:0:0:0:
31,29,194087,1,0,0:0:0:0:
50,220,194259,1,10,0:0:0:0:
284,199,194430,1,0,0:0:0:0:
283,154,194516,1,2,0:3:0:0:
265,113,194602,1,8,0:0:0:0:
224,282,194773,1,2,0:3:0:0:
114,180,194944,6,0,B|171:140|171:140|179:84|179:84|244:35,1,180,10|8,0:0|0:0,0:0:0:0:
381,144,195459,2,0,P|381:196|360:246,1,90,0|8,0:0|0:0,0:0:0:0:
262,332,195802,1,0,0:0:0:0:
262,332,195887,1,2,0:3:0:0:
262,332,195973,1,10,0:0:0:0:
99,249,196144,1,2,0:3:0:0:
239,221,196316,6,0,P|270:183|282:134,1,90,10|2,0:0|0:3,0:0:0:0:
276,55,196573,1,2,0:0:0:0:
276,55,196659,2,0,P|311:65|330:80,1,45,10|0,0:3|0:0,0:0:0:0:
367,170,196830,1,2,0:0:0:0:
125,65,197002,1,8,0:0:0:0:
203,20,197173,1,2,0:3:0:0:
139,181,197344,1,10,0:0:0:0:
136,212,197430,1,0,0:0:0:0:
140,243,197516,2,0,L|154:290,1,45,2|2,0:3|0:0,0:0:0:0:
155,363,197687,6,2,P|213:343|231:289,1,90,0|0,0:0|0:0,0:3:0:0:
226,320,197944,1,0,0:0:0:0:
226,320,198030,1,0,0:0:0:0:
320,165,198202,1,0,0:0:0:0:
327,285,198373,1,10,0:0:0:0:
144,155,198544,1,2,0:3:0:0:
177,184,198630,1,0,0:0:0:0:
219,199,198716,1,8,0:0:0:0:
114,52,198887,1,2,0:3:0:0:
10,206,199059,6,2,P|18:254|158:275,1,180,10|8,0:0|0:0,0:3:0:0:
395,289,199573,1,2,0:3:0:0:
244,260,199744,1,8,0:0:0:0:
336,93,199916,1,2,0:3:0:0:
336,93,200002,1,2,0:0:0:0:
336,93,200087,1,8,0:0:0:0:
458,212,200259,1,2,0:3:0:0:
374,24,200430,6,2,P|412:68|415:124,1,90,10|0,0:0|0:0,0:3:0:0:
418,98,200687,1,2,0:3:0:0:
418,98,200773,1,0,0:0:0:0:
199,121,200944,1,2,0:3:0:0:
304,12,201116,1,8,0:0:0:0:
260,231,201287,1,0,0:0:0:0:
224,205,201373,1,2,0:0:0:0:
206,165,201459,1,8,0:0:0:0:
218,43,201630,1,2,0:3:0:0:
281,316,201802,5,10,0:0:0:0:
236,314,201887,1,2,0:0:0:0:
199,290,201973,1,2,0:3:0:0:
165,261,202059,1,2,0:0:0:0:
121,254,202144,2,0,P|94:289|104:349,1,90,8|2,0:0|0:3,0:0:0:0:
227,226,202402,1,2,0:0:0:0:
227,226,202487,2,0,P|246:191|247:172,1,45,10|0,0:3|0:0,0:0:0:0:
190,123,202659,2,0,P|233:105|289:116,1,90,2|10,0:3|0:3,0:0:0:0:
333,174,202916,1,2,0:0:0:0:
333,174,203002,1,0,0:0:0:0:
409,27,203173,6,0,P|431:65|433:110,1,90,12|8,0:0|0:0,0:0:0:0:
426,258,203516,1,8,0:3:0:0:
333,174,203687,1,8,0:0:0:0:
240,90,203859,1,8,0:3:0:0:
270,271,204030,1,8,0:0:0:0:
317,13,204202,1,8,0:3:0:0:
138,104,204373,1,8,0:0:0:0:
158,301,204544,6,0,L|193:209,1,90,8|8,0:3|0:0,0:0:0:0:
240,90,204887,1,8,0:3:0:0:
73,157,205059,1,8,0:0:0:0:
119,37,205230,1,8,0:3:0:0:
194,210,205402,1,8,0:0:0:0:
321,31,205573,1,8,0:3:0:0:
416,204,205744,1,8,0:0:0:0:
278,348,205916,5,8,0:3:0:0:
235,361,206002,1,8,0:0:0:0:
190,358,206087,1,8,0:0:0:0:
149,341,206173,1,8,0:0:0:0:
116,310,206259,1,8,0:3:0:0:
144,275,206344,1,8,0:0:0:0:
161,234,206430,1,8,0:0:0:0:
167,190,206516,1,8,0:0:0:0:
161,145,206602,5,8,0:3:0:0:
147,103,206687,1,8,0:0:0:0:
115,72,206773,1,8,0:0:0:0:
73,59,206859,1,8,0:0:0:0:
29,67,206944,1,8,0:3:0:0:
9,108,207030,1,8,0:0:0:0:
7,152,207116,1,8,0:0:0:0:
24,193,207202,1,8,0:0:0:0:
57,224,207287,6,2,B|112:176|112:176|192:171|192:171|256:114,1,216,10|0,0:1|0:0,0:3:0:0:
295,28,207630,2,0,P|343:76|322:208,1,202.500007724762,10|0,0:1|0:0,0:0:0:0:
255,292,207973,2,2,B|297:326|361:316|361:316|450:271,1,188.999994232178,10|0,0:1|0:0,0:3:0:0:
416,179,208316,2,2,P|369:127|253:159,1,175.499991966248,10|0,0:1|0:0,0:3:0:0:
256,292,208659,5,0,0:0:0:0:
256,192,218087,12,4,218944,0:0:0:0:
330,32,219630,6,0,P|277:27|231:52,1,90,12|0,0:0|0:0,0:0:0:0:
221,234,219973,1,8,0:3:0:0:
294,111,220144,1,0,0:0:0:0:
160,88,220316,2,0,L|98:87,1,45,10|0,0:0|0:0,0:0:0:0:
22,55,220487,2,0,L|37:132,1,45,2|2,0:0|0:0,0:0:0:0:
94,175,220659,1,8,0:3:0:0:
125,11,220830,1,2,0:3:0:0:
330,32,221002,6,0,P|361:79|368:116,1,90,8|0,0:0|0:0,0:0:0:0:
353,326,221344,2,0,P|302:310|263:272,1,90,8|0,0:3|0:0,0:0:0:0:
198,59,221687,1,10,0:0:0:0:
155,74,221773,1,2,0:0:0:0:
123,104,221859,1,0,0:0:0:0:
105,145,221944,1,2,0:0:0:0:
105,190,222030,1,10,0:3:0:0:
215,159,222202,1,2,0:0:0:0:
68,46,222373,6,0,P|42:88|31:140,1,90,10|0,0:0|0:0,0:0:0:0:
249,287,222716,1,8,0:3:0:0:
215,159,222887,1,0,0:0:0:0:
172,336,223059,1,10,0:0:0:0:
123,104,223230,1,2,0:0:0:0:
155,74,223316,1,2,0:0:0:0:
198,59,223402,1,8,0:3:0:0:
350,96,223573,6,0,L|401:113,1,45,10|0,0:0|0:0,0:0:0:0:
414,247,223744,2,0,L|387:308,1,45,8|0,0:3|0:0,0:0:0:0:
322,170,223916,2,0,L|250:148,1,45,10|0,0:0|0:0,0:0:0:0:
185,153,224087,2,0,L|194:226,1,45,8|0,0:3|0:0,0:0:0:0:
254,316,224259,2,0,L|266:237,1,45,10|0,0:3|0:0,0:0:0:0:
228,38,224430,1,8,0:0:0:0:
194,67,224516,1,2,0:0:0:0:
151,79,224602,1,0,0:0:0:0:
108,70,224687,1,2,0:0:0:0:
77,103,224773,1,4,0:0:0:0:
77,103,225116,6,0,P|114:147|119:204,1,90,8|0,0:0|0:0,0:0:0:0:
131,324,225459,1,8,0:3:0:0:
31,183,225630,1,0,0:0:0:0:
189,259,225802,1,10,0:0:0:0:
223,265,225887,1,2,0:0:0:0:
256,271,225973,1,0,0:0:0:0:
289,277,226059,1,2,0:0:0:0:
322,284,226144,1,8,0:3:0:0:
426,207,226316,1,2,0:3:0:0:
331,60,226487,6,0,P|278:67|227:108,1,90,8|0,0:0|0:0,0:0:0:0:
402,287,226830,2,0,P|441:308|485:313,1,90,8|0,0:3|0:0,0:0:0:0:
281,177,227173,2,0,L|234:189,1,45,10|2,0:0|0:0,0:0:0:0:
230,268,227344,2,0,L|172:284,1,45,0|2,0:0|0:0,0:0:0:0:
138,351,227516,1,10,0:3:0:0:
138,351,227687,1,2,0:0:0:0:
39,118,227859,6,0,P|87:125|123:163,1,90,8|0,0:0|0:0,0:0:0:0:
341,313,228202,2,0,P|293:306|257:268,1,90,10|0,0:3|0:0,0:0:0:0:
206,95,228544,1,10,0:0:0:0:
179,269,228716,1,0,0:0:0:0:
174,313,228802,1,0,0:0:0:0:
185,356,228887,1,8,0:0:0:0:
133,123,229059,6,0,P|106:83|74:45,1,90,10|0,0:3|0:0,0:0:0:0:
49,29,229402,1,8,0:0:0:0:
56,208,229573,2,0,P|83:248|115:286,1,90,10|0,0:3|0:0,0:0:0:0:
395,243,229916,1,8,0:0:0:0:
285,141,230087,1,4,0:0:0:0:
285,141,230259,1,4,0:0:0:0:
106,40,230602,6,2,L|2:54,1,90,8|0,0:0|0:0,0:3:0:0:
16,52,230859,1,2,0:3:0:0:
16,52,230944,1,8,0:3:0:0:
211,29,231116,1,0,0:0:0:0:
264,254,231287,1,10,0:0:0:0:
308,254,231373,1,2,0:0:0:0:
349,236,231459,1,0,0:0:0:0:
380,204,231544,1,2,0:0:0:0:
395,162,231630,1,10,0:3:0:0:
277,156,231802,1,2,0:3:0:0:
408,24,231973,6,2,P|457:44|489:98,1,90,8|0,0:0|0:0,0:3:0:0:
439,267,232316,1,8,0:3:0:0:
439,267,232402,1,0,0:0:0:0:
439,267,232487,1,0,0:0:0:0:
303,147,232659,2,0,L|220:155,1,45,2|0,0:0|0:0,0:0:0:0:
165,277,232830,1,2,0:0:0:0:
210,279,232916,1,2,0:0:0:0:
253,266,233002,1,8,0:3:0:0:
268,78,233173,1,2,0:3:0:0:
133,190,233344,6,2,L|12:202,1,90,8|0,0:0|0:0,0:3:0:0:
129,364,233687,2,0,P|161:323|171:262,1,90,8|0,0:3|0:0,0:0:0:0:
170,32,234030,2,0,P|140:74|134:136,1,90,10|2,0:0|0:0,0:0:0:0:
262,263,234373,1,10,0:3:0:0:
147,207,234544,1,2,0:3:0:0:
378,67,234716,6,2,L|333:145,1,90,8|0,0:0|0:0,0:3:0:0:
218,351,235059,2,2,L|305:329,1,90,8|0,0:0|0:0,0:3:0:0:
503,324,235402,2,2,L|438:262,1,90,8|0,0:0|0:0,0:3:0:0:
437,261,235659,1,2,0:3:0:0:
437,261,235744,1,8,0:0:0:0:
463,94,235916,1,2,0:3:0:0:
210,120,236087,6,2,P|202:170|210:221,1,90,8|0,0:0|0:0,0:3:0:0:
361,240,236430,2,0,P|388:197|401:147,1,90,8|0,0:3|0:0,0:0:0:0:
268,26,236773,1,10,0:0:0:0:
227,43,236859,1,2,0:0:0:0:
183,35,236944,1,2,0:0:0:0:
138,29,237030,1,2,0:0:0:0:
96,41,237116,2,0,P|52:66|25:130,1,90,8|2,0:3|0:3,0:0:0:0:
181,334,237459,6,2,P|225:309|252:245,1,90,8|0,0:0|0:0,0:3:0:0:
48,177,237802,1,8,0:3:0:0:
118,271,237973,1,2,0:3:0:0:
259,40,238144,1,10,0:0:0:0:
301,53,238230,1,2,0:0:0:0:
331,85,238316,1,0,0:0:0:0:
341,129,238402,1,2,0:0:0:0:
327,171,238487,2,0,P|302:212|244:246,1,90,10|0,0:3|0:0,0:0:0:0:
133,273,238830,5,8,0:0:0:0:
76,153,239002,1,8,0:0:0:0:
137,277,239173,1,8,0:0:0:0:
121,60,239344,1,8,0:0:0:0:
142,280,239516,1,8,0:3:0:0:
227,54,239687,1,8,0:0:0:0:
408,122,239859,1,8,0:3:0:0:
314,341,240030,2,0,B|289:290|283:249|282:249,1,90,14|0,0:3|0:0,0:0:0:0:
348,30,240373,5,12,0:0:0:0:
408,318,240630,1,12,0:3:0:0:
85,176,240887,1,12,0:3:0:0:
248,155,241059,1,4,0:0:0:0:
248,155,241230,6,2,B|322:153|371:188|371:188|316:225,1,188.999994232178,4|0,0:0|0:0,0:3:0:0:
262,289,241573,6,0,P|206:286|163:262,1,90,6|0,0:1|0:0,0:0:0:0:
145,251,241830,1,0,0:0:0:0:
158,218,241916,1,10,0:0:0:0:
163,182,242002,1,2,0:0:0:0:
161,147,242087,1,0,0:0:0:0:
159,111,242173,1,2,0:0:0:0:
168,76,242259,2,0,P|216:38|264:38,1,90,10|2,0:1|0:0,0:0:0:0:
312,149,242516,2,0,P|264:187|216:187,1,90,2|0,0:1|0:1,0:0:0:0:
304,73,242773,2,0,L|350:45,1,45,2|0,0:1|0:0,0:0:0:0:
421,121,242944,6,0,P|409:174|418:223,1,90,10|2,0:0|0:0,0:0:0:0:
391,244,243202,1,2,0:0:0:0:
365,275,243287,1,8,0:0:0:0:
330,296,243373,1,2,0:0:0:0:
294,314,243459,1,0,0:0:0:0:
254,323,243544,1,2,0:0:0:0:
214,321,243630,2,0,P|171:285|161:244,1,90,10|2,0:1|0:3,0:0:0:0:
376,49,243973,2,0,P|325:62|291:92,1,90,10|2,0:1|0:3,0:0:0:0:
251,169,244230,1,2,0:0:0:0:
251,169,244316,6,0,P|200:156|166:126,1,90,10|0,0:1|0:0,0:0:0:0:
151,98,244573,1,0,0:0:0:0:
124,68,244659,2,0,L|54:74,1,45,10|2,0:0|0:0,0:0:0:0:
100,175,244830,2,0,L|97:245,1,45,2|2,0:3|0:0,0:0:0:0:
195,290,245002,1,10,0:1:0:0:
206,329,245087,1,0,0:0:0:0:
251,169,245259,1,2,0:1:0:0:
262,130,245344,1,0,0:0:0:0:
410,19,245516,6,0,B|418:56|450:70|450:70|433:113|452:151,1,135.000005149842,2|8,0:1|0:0,0:0:0:0:
432,332,245859,5,2,0:0:0:0:
391,330,245944,1,2,0:0:0:0:
353,317,246030,1,10,0:0:0:0:
320,293,246116,1,0,0:0:0:0:
293,263,246202,1,2,0:0:0:0:
264,235,246287,1,2,0:0:0:0:
229,215,246373,2,0,P|172:203|111:233,1,90,10|2,0:1|0:3,0:0:0:0:
114,332,246630,1,0,0:0:0:0:
114,332,246716,2,0,P|164:302|188:238,1,90,10|2,0:1|0:3,0:0:0:0:
251,151,246973,1,0,0:0:0:0:
251,151,247059,6,0,P|288:120|360:125,1,90,10|0,0:1|0:0,0:0:0:0:
367,127,247316,1,2,0:3:0:0:
394,156,247402,1,8,0:0:0:0:
410,193,247487,1,0,0:0:0:0:
413,233,247573,1,2,0:3:0:0:
401,271,247659,1,0,0:0:0:0:
376,303,247744,2,0,P|361:316|317:328,1,45,10|0,0:1|0:0,0:0:0:0:
229,200,248002,1,2,0:1:0:0:
209,165,248087,1,0,0:0:0:0:
120,351,248259,1,2,0:1:0:0:
120,351,248344,1,0,0:0:0:0:
120,351,248430,6,0,P|177:353|220:337,1,90,10|0,0:0|0:0,0:0:0:0:
244,324,248687,1,2,0:0:0:0:
274,297,248773,1,8,0:0:0:0:
296,263,248859,1,2,0:0:0:0:
307,224,248944,1,2,0:0:0:0:
308,184,249030,1,2,0:0:0:0:
298,145,249116,2,0,P|265:95|239:79,1,90,10|2,0:1|0:3,0:0:0:0:
144,48,249373,1,0,0:0:0:0:
144,48,249459,2,0,P|132:101|142:140,1,90,10|2,0:1|0:3,0:0:0:0:
179,233,249716,1,0,0:0:0:0:
179,233,249802,6,0,P|154:286|42:317,1,161.999995056153,10|0,0:1|0:0,0:0:0:0:
7,242,250144,2,0,B|25:197|25:197|84:168|84:168|110:104,1,161.999995056153,10|0,0:1|0:0,0:0:0:0:
144,48,250487,2,0,P|202:67|245:152,1,161.999995056153,10|0,0:1|0:0,0:0:0:0:
245,239,250830,2,0,B|290:238|312:207|312:207|356:230|411:199,1,161.999995056153,10|0,0:1|0:0,0:0:0:0:
441,143,251173,6,2,P|348:144|342:269,1,216,10|0,0:1|0:0,0:3:0:0:
362,323,251516,2,2,B|434:292|457:234|457:234|377:201,1,202.500007724762,10|0,0:1|0:0,0:3:0:0:
284,174,251859,2,0,P|244:178|200:319,1,188.999994232178,10|0,0:1|0:0,0:0:0:0:
244,367,252202,2,0,P|304:335|240:259,1,175.499991966248,10|0,0:1|0:0,0:0:0:0:
189,298,252544,6,0,P|159:319|87:329,1,90,14|0,0:1|0:0,0:0:0:0:
65,316,252802,1,2,0:3:0:0:
41,274,252887,2,0,L|53:214,1,45,10|0,0:0|0:0,0:0:0:0:
130,114,253059,2,0,L|144:184,1,45,2|2,0:0|0:0,0:0:0:0:
201,229,253230,1,10,0:1:0:0:
201,229,253316,1,0,0:0:0:0:
298,58,253487,1,2,0:1:0:0:
298,58,253573,1,0,0:0:0:0:
356,253,253744,1,2,0:1:0:0:
356,253,253830,1,2,0:0:0:0:
356,253,253916,6,0,P|321:291|258:307,1,90,10|2,0:0|0:3,0:0:0:0:
241,305,254173,1,2,0:0:0:0:
196,303,254259,1,8,0:0:0:0:
159,278,254344,1,2,0:0:0:0:
141,238,254430,1,2,0:0:0:0:
164,199,254516,1,2,0:0:0:0:
174,156,254602,2,0,P|171:105|153:62,1,90,10|2,0:1|0:3,0:0:0:0:
3,226,254944,2,0,P|46:256|101:250,1,90,10|2,0:1|0:3,0:0:0:0:
164,199,255202,1,0,0:0:0:0:
164,199,255287,6,0,P|216:205|252:246,1,90,10|0,0:1|0:0,0:0:0:0:
264,264,255544,1,2,0:3:0:0:
285,297,255630,1,10,0:0:0:0:
319,319,255716,1,0,0:0:0:0:
359,324,255802,1,2,0:0:0:0:
397,311,255887,1,2,0:0:0:0:
426,283,255973,1,10,0:1:0:0:
426,283,256059,2,0,P|441:259|445:216,1,45
349,108,256230,1,2,0:1:0:0:
349,108,256316,2,0,P|355:129|368:147,1,45
482,130,256487,6,0,B|441:120|429:87|429:87|453:45|435:2,1,135.000005149842,2|8,0:1|0:0,0:0:0:0:
315,254,256830,5,8,0:0:0:0:
276,249,256916,1,0,0:0:0:0:
241,229,257002,1,8,0:0:0:0:
217,197,257087,1,2,0:0:0:0:
236,162,257173,1,0,0:0:0:0:
238,121,257259,1,2,0:0:0:0:
222,84,257344,2,0,P|195:50|134:45,1,90,10|2,0:1|0:3,0:0:0:0:
67,134,257602,1,0,0:0:0:0:
67,134,257687,2,0,P|119:130|161:102,1,90,10|2,0:1|0:3,0:0:0:0:
266,362,258030,6,0,P|214:358|172:330,1,90,10|0,0:1|0:0,0:0:0:0:
152,312,258287,1,0,0:0:0:0:
126,280,258373,1,8,0:0:0:0:
114,242,258459,1,2,0:0:0:0:
115,202,258544,1,0,0:0:0:0:
154,194,258630,1,2,0:0:0:0:
187,171,258716,2,0,L|236:183,1,45,10|0,0:1|0:0,0:0:0:0:
424,272,258973,1,2,0:1:0:0:
389,293,259059,1,8,0:0:0:0:
359,111,259230,1,2,0:1:0:0:
359,111,259316,1,0,0:0:0:0:
359,111,259402,6,0,P|389:70|444:52,1,90,10|2,0:0|0:3,0:0:0:0:
465,53,259659,1,2,0:0:0:0:
491,83,259744,1,10,0:0:0:0:
505,120,259830,1,0,0:0:0:0:
504,161,259916,1,2,0:0:0:0:
489,198,260002,1,2,0:0:0:0:
461,227,260087,2,0,P|416:232|362:217,1,90,10|2,0:1|0:3,0:0:0:0:
284,164,260344,1,0,0:0:0:0:
284,164,260430,2,0,P|263:214|264:273,1,90,10|2,0:1|0:3,0:0:0:0:
354,353,260773,5,10,0:1:0:0:
406,150,260944,1,8,0:0:0:0:
205,97,261116,1,10,0:1:0:0:
153,300,261287,1,8,0:0:0:0:
392,158,261459,1,10,0:1:0:0:
342,342,261630,1,8,0:0:0:0:
213,113,261802,1,10,0:1:0:0:
167,292,261973,1,8,0:0:0:0:
285,60,262144,6,12,P|234:17|114:104,1,216,10|0,0:1|0:0,0:0:0:0:
104,184,262487,2,0,B|166:164|166:164|237:169|237:169|319:142,1,202.500007724762,10|0,0:1|0:0,0:0:0:0:
411,89,262830,2,0,B|439:97|467:123|476:163|454:201|454:201|462:229|462:229|456:258,1,188.999994232178,10|0,0:1|0:0,0:0:0:0:
475,343,263173,2,2,B|400:350|367:292|367:292|362:225|296:199,1,216,10|0,0:1|0:0,0:1:0:0:
229,159,263516,5,4,0:0:0:0:
256,192,263602,12,2,264887,0:0:0:0:
