osu file format v14

[General]
AudioFilename: boomer.mp3
AudioLeadIn: 0
PreviewTime:208530
Countdown: 0
SampleSet: Soft
StackLeniency: 0.5
Mode: 0
LetterboxInBreaks: 0
WidescreenStoryboard: 1

[Editor]
Bookmarks: 186587
DistanceSpacing: 1.1
BeatDivisor: 4
GridSize: 4
TimelineZoom: 1

[Metadata]
Title:Boom Boom Taoismic
TitleUnicode:Boom Boom Taoismic
Artist:t+pazolite feat. Rizna
ArtistUnicode:t+pazolite feat. リズナ
Creator:Okoratu
Version:Easy
Source:東方神霊廟 ~ Ten Desires.
Tags:Electronic Japanese Video Game Pop ALiCE'S EMOTiON Ghost Region Remix Seiga Kaku リズナ 古きユアンシェン 東方神霊廟 RHYTHM_SPOON MINAMOTRANCE C.H.S CHS Old Distant Hermit Gu Yuan Xian Miruyuana Danmaku C81 Comiket 81 Okorin Yauxo Nozhomi eiri- Ayyri Onicorn snowball112 Touhou Shinreibyou
BeatmapID:2423554
BeatmapSetID:104867

[Difficulty]
HPDrainRate:3
CircleSize:3
OverallDifficulty:3
ApproachRate:5
SliderMultiplier:1
SliderTickRate:1

[Events]
//Background and Video events
0,0,"bg1.png",0,0
//Break Periods
2,44287,53859
2,110116,119687
2,208859,217744
//Storyboard Layer 0 (Background)
//Storyboard Layer 1 (Fail)
//Storyboard Layer 2 (Pass)
//Storyboard Layer 3 (Foreground)
//Storyboard Layer 4 (Overlay)
//Storyboard Sound Samples

[TimingPoints]
202,342.857142857143,4,2,1,80,1,0
4830,-100,4,2,0,50,0,0
4873,-100,4,2,1,80,0,0
5173,-100,4,2,0,50,0,0
5216,-100,4,2,1,80,0,0
5687,-100,4,2,2,80,0,0
5773,-100,4,2,0,20,0,0
5944,-100,4,2,2,50,0,0
7144,-100,4,2,0,20,0,0
7316,-100,4,2,2,50,0,0
7487,-100,4,2,0,20,0,0
7744,-100,4,2,1,80,0,0
8516,-100,4,2,0,20,0,0
8687,-100,4,2,2,80,0,0
8859,-100,4,2,0,20,0,0
9116,-100,4,2,1,50,0,0
9887,-100,4,2,0,20,0,0
10059,-100,4,2,1,80,0,0
10230,-100,4,2,0,20,0,0
10402,-100,4,2,1,80,0,0
11259,-100,4,2,2,80,0,0
16659,-100,4,2,1,90,0,0
17002,-100,4,2,2,90,0,0
21802,-100,4,2,1,80,0,0
21973,-100,4,2,1,80,0,0
22316,-100,4,2,1,80,0,0
26173,-100,4,2,2,80,0,0
27630,-100,4,2,1,80,0,0
31659,-100,4,2,2,80,0,0
33116,-100,4,2,1,80,0,0
37230,-100,4,2,2,80,0,0
38516,-100,4,2,1,80,0,0
42716,-100,4,2,2,80,0,0
44087,-100,4,2,2,60,0,0
44173,-100,4,2,2,40,0,0
45459,-100,4,2,2,60,0,0
45544,-100,4,2,2,40,0,0
46830,-100,4,2,2,60,0,0
46916,-100,4,2,2,40,0,0
48202,-100,4,2,2,60,0,0
48287,-100,4,2,2,40,0,0
49573,-100,4,2,2,60,0,0
49659,-100,4,2,2,40,0,0
50944,-100,4,2,2,60,0,0
51030,-100,4,2,2,40,0,0
52316,-100,4,2,2,60,0,0
52402,-100,4,2,2,40,0,0
53687,-100,4,2,2,60,0,0
55059,-100,4,2,3,30,0,0
55144,-100,4,2,1,60,0,0
56430,-100,4,2,1,80,0,0
56516,-100,4,2,1,60,0,0
60202,-100,4,2,1,80,0,0
60544,-100,4,2,2,80,0,0
66030,-100,4,2,1,60,0,0
70830,-100,4,2,1,80,0,0
71516,-100,4,2,2,80,0,0
77002,-100,4,2,1,80,0,0
82144,-100,4,2,3,80,0,0
82230,-100,4,2,1,80,0,0
87373,-100,4,2,3,80,0,0
87716,-100,4,2,1,80,0,0
87973,-100,4,2,1,60,0,0
88059,-100,4,2,2,80,0,0
98344,-100,4,2,3,80,0,0
98602,-100,4,2,1,80,0,0
98944,-100,4,2,2,90,0,1
109744,-100,4,2,2,90,0,1
109916,-100,4,2,1,80,0,0
110087,-100,4,2,1,80,0,0
120887,-100,4,2,2,40,0,0
120973,-100,4,2,2,60,0,0
122259,-100,4,2,2,80,0,0
122344,-100,4,2,2,60,0,0
126030,-100,4,2,1,80,0,0
126373,-100,4,2,2,80,0,0
131859,-100,4,2,2,60,0,0
136659,-100,4,2,1,80,0,0
137344,-100,4,2,2,80,0,0
142830,-100,4,2,1,80,0,0
147973,-100,4,2,3,80,0,0
148059,-100,4,2,1,80,0,0
153202,-100,4,2,3,80,0,0
153544,-100,4,2,2,80,0,0
164173,-100,4,2,3,80,0,0
164773,-100,4,2,1,80,0,0
166144,-100,4,2,2,80,0,0
167516,-100,4,2,1,80,0,0
168887,-100,4,2,2,80,0,0
170259,-100,4,2,1,80,0,0
171630,-100,4,2,2,80,0,0
173002,-100,4,2,1,80,0,0
174373,-100,4,2,2,80,0,0
175744,-100,4,2,1,80,0,0
175830,-100,4,2,3,80,0,0
186373,-100,4,2,1,80,0,0
190744,-100,4,2,2,80,0,0
192116,-100,4,2,1,80,0,0
196230,-100,4,2,2,80,0,0
197602,-100,4,2,1,80,0,0
201716,-100,4,2,2,80,0,0
203087,-100,4,2,1,80,0,0
207287,-100,4,2,2,80,0,0
208659,-100,4,2,1,45,0,0
208744,-100,4,2,1,30,0,0
210030,-100,4,2,1,45,0,0
210116,-100,4,2,1,30,0,0
211402,-100,4,2,1,45,0,0
211487,-100,4,2,1,30,0,0
212773,-100,4,2,1,45,0,0
212859,-100,4,2,1,30,0,0
214144,-100,4,2,1,45,0,0
214230,-100,4,2,1,30,0,0
215516,-100,4,2,1,45,0,0
215602,-100,4,2,1,30,0,0
216887,-100,4,2,1,45,0,0
216973,-100,4,2,1,30,0,0
218259,-100,4,2,1,45,0,0
218944,-100,4,2,1,80,0,0
224773,-100,4,2,3,80,0,0
224859,-100,4,2,2,80,0,0
230002,-100,4,2,3,80,0,0
230344,-100,4,2,2,80,0,0
240973,-100,4,2,3,80,0,0
241573,-100,4,2,2,90,0,1
249802,-100,4,2,2,80,0,0
252544,-100,4,2,2,90,0,1
262144,-100,4,2,2,80,0,0
263516,-100,4,2,1,90,0,1
263602,-100,4,2,1,80,0,0
264887,-100,4,2,1,50,0,0

[Colours]
Combo1 : 141,29,63
Combo2 : 57,83,172
Combo3 : 12,101,190
Combo4 : 57,31,184
Combo5 : 62,153,202
Combo6 : 141,46,29
Combo7 : 191,62,23

[HitObjects]
144,67,5687,6,0,P|107:111|211:304,1,300,10|0,0:2|0:0,0:0:0:0:
282,234,7059,1,2,0:0:0:0:
341,326,7402,1,2,0:3:0:0:
495,34,8430,6,0,B|311:-12|370:127|194:73,1,300,10|0,0:0|0:0,0:0:0:0:
106,42,9802,1,0,0:0:0:0:
60,141,10144,2,0,P|51:182|59:258,2,100,0|0|0,0:0|0:3|0:3,0:0:0:0:
106,42,11173,5,14,0:0:0:0:
177,125,11516,2,0,P|237:149|371:110,1,200,14|2,0:3|0:0,0:0:0:0:
460,63,12544,2,0,B|477:138|477:138|464:196|464:196|480:264,1,200,0|2,0:0|0:3,0:0:0:0:
430,357,13573,1,2,0:0:0:0:
329,311,13916,6,0,L|116:307,1,200,8|2,0:0|0:3,0:0:0:0:
22,333,14944,1,0,0:0:0:0:
6,223,15287,2,0,P|11:151|204:123,1,300,2|2,0:0|0:0,0:0:0:0:
271,199,16659,6,0,B|357:211|357:211|369:242|369:242|462:253,2,200,8|0|10,0:0|0:0|0:3,0:0:0:0:
177,257,18373,1,0,0:0:0:0:
82,200,18716,2,0,P|47:151|48:97,1,100,2|2,0:3|0:0,0:0:0:0:
256,192,19402,12,14,22144,0:0:0:0:
120,70,23516,6,0,B|136:128|136:128|123:171,1,100,10|8,0:0|0:3,0:0:0:0:
96,272,24202,2,0,L|205:253,1,100,10|8,0:0|0:0,0:0:0:0:
276,181,24887,2,0,P|344:199|389:196,1,100,10|8,0:0|0:3,0:0:0:0:
473,244,25573,2,0,L|462:132,1,100,10|8,0:0|0:0,0:0:0:0:
447,35,26259,5,10,0:1:0:0:
344,74,26602,1,10,0:1:0:0:
242,114,26944,1,10,0:1:0:0:
140,156,27287,1,10,0:1:0:0:
54,225,27630,6,0,P|31:168|74:33,1,200,14|10,0:0|0:0,0:0:0:0:
177,43,28659,1,8,0:0:0:0:
247,127,29002,2,0,P|270:184|227:319,1,200,10|10,0:0|0:0,0:0:0:0:
126,336,30030,1,8,0:0:0:0:
104,228,30373,6,0,L|121:110,1,100,10|8,0:0|0:3,0:0:0:0:
205,60,31059,2,0,L|309:84,1,100,10|8,0:0|0:0,0:0:0:0:
402,36,31744,5,10,0:1:0:0:
461,128,32087,1,10,0:1:0:0:
433,234,32430,1,10,0:1:0:0:
355,311,32773,1,10,0:1:0:0:
260,253,33116,6,2,L|142:265,1,100,14|14,0:2|0:3,0:3:0:0:
100,170,33802,2,0,L|218:158,1,100,8|8,0:0|0:0,0:0:0:0:
295,106,34487,2,2,L|284:6,1,100,8|8,0:0|0:3,0:3:0:0:
177,36,35173,2,0,P|147:62|85:73,1,100,8|8,0:0|0:0,0:0:0:0:
47,175,35859,6,2,B|76:216|76:216|68:275,1,100,8|8,0:0|0:3,0:3:0:0:
145,344,36544,2,0,B|153:295|153:295|198:264,1,100,8|8,0:0|0:0,0:0:0:0:
289,321,37230,5,10,0:1:0:0:
397,303,37573,1,10,0:1:0:0:
453,208,37916,1,10,0:1:0:0:
409,107,38259,1,10,0:1:0:0:
312,159,38602,5,12,0:0:0:0:
256,192,38687,12,0,42716,0:1:0:0:
251,189,44087,5,0,0:0:0:0:
98,93,55059,6,0,P|146:61|279:106,1,200,4|0,0:0|0:3,0:0:0:0:
338,186,56087,1,0,0:0:0:0:
445,210,56430,2,0,P|476:147|470:9,2,200,2|0|2,0:0|0:0|0:0,0:0:0:0:
402,311,58144,6,0,L|279:315,1,100
199,355,58830,1,2,0:0:0:0:
203,245,59173,2,0,P|195:169|8:132,1,300,2|2,0:3|0:1,0:0:0:0:
20,241,60544,5,12,0:0:0:0:
202,363,61230,1,10,0:3:0:0:
234,145,61916,1,8,0:0:0:0:
297,55,62259,1,8,0:0:0:0:
401,90,62602,1,10,0:3:0:0:
462,327,63630,6,0,L|342:315,1,100,8|0,0:0|0:0,0:0:0:0:
143,341,64659,1,8,0:0:0:0:
175,235,65002,1,8,0:0:0:0:
120,139,65344,1,10,0:3:0:0:
316,40,66030,6,0,P|306:142|302:253,2,200,0|2|2,0:0|0:3|0:3,0:0:0:0:
463,203,68087,2,0,P|465:256|460:303,1,100,2|0,0:3|0:0,0:0:0:0:
361,352,68773,2,0,L|244:344,1,100,2|2,0:0|0:0,0:0:0:0:
151,353,69459,2,0,L|156:253,1,100,2|2,0:3|0:0,0:0:0:0:
88,166,70144,6,0,B|243:103|252:228|395:185,1,300
470,130,71516,5,12,0:0:0:0:
382,63,71859,1,10,0:3:0:0:
374,282,72544,1,0,0:0:0:0:
277,228,72887,2,0,P|226:227|175:246,1,100,8|10,0:0|0:3,0:0:0:0:
55,61,73916,1,10,0:3:0:0:
160,29,74259,6,0,L|263:22,1,100,12|0,0:0|0:0,0:0:0:0:
281,130,74944,2,0,L|395:153,1,100,2|8,0:3|0:3,0:0:0:0:
478,102,75630,2,0,P|436:158|421:303,1,200,8|12,0:0|0:0,0:0:0:0:
206,350,77002,6,0,P|193:320|211:247,1,100,14|8,0:0|0:3,0:0:0:0:
293,190,77687,2,0,P|308:132|286:83,1,100,10|8,0:0|0:3,0:0:0:0:
207,29,78373,1,10,0:0:0:0:
140,117,78716,1,10,0:3:0:0:
147,226,79059,2,0,L|158:345,1,100,2|8,0:0|0:3,0:0:0:0:
54,366,79744,6,0,P|35:294|57:61,1,300,8|10,0:0|0:3,0:0:0:0:
155,31,81116,5,8,0:3:0:0:
207,127,81459,1,10,0:3:0:0:
310,85,81802,2,0,L|425:96,1,100,0|4,0:0|0:0,0:0:0:0:
486,172,82487,6,0,P|471:284|470:378,1,200,12|10,0:0|0:0,0:0:0:0:
359,361,83516,1,8,0:3:0:0:
311,261,83859,2,0,P|263:251|198:264,1,100,10|8,0:0|0:3,0:0:0:0:
107,226,84544,2,0,P|63:286|61:330,1,100,10|8,0:0|0:3,0:0:0:0:
150,372,85230,1,0,0:0:0:0:
254,338,85573,1,8,0:3:0:0:
207,238,85916,6,0,P|194:188|192:84,2,150,10|12|12,0:0|0:3|0:3,0:0:0:0:
314,261,87287,1,10,0:0:0:0:
296,152,87630,1,4,0:0:0:0:
342,52,87973,6,2,P|398:65|451:70,1,100,12|8,0:0|0:3,0:3:0:0:
481,172,88659,2,0,P|473:208|472:276,1,100,10|8,0:0|0:3,0:0:0:0:
400,354,89344,1,10,0:1:0:0:
335,264,89687,1,8,0:3:0:0:
235,311,90030,2,0,P|185:326|81:313,2,150,10|2|10,0:0|0:3|0:3,0:0:0:0:
266,205,91402,2,0,P|268:139|263:105,1,100,8|8,0:0|0:3,0:0:0:0:
201,14,92087,5,8,0:0:0:0:
109,74,92430,1,8,0:0:0:0:
148,176,92773,1,8,0:0:0:0:
61,242,93116,1,2,0:3:0:0:
144,313,93459,6,0,P|183:303|364:304,1,200,8|8,0:0|0:0,0:3:0:0:
440,347,94487,1,8,0:3:0:0:
487,247,94830,2,0,P|494:196|473:139,1,100,10|8,0:0|0:3,0:3:0:0:
486,40,95516,2,0,L|372:57,1,100,10|10,0:0|0:3,0:0:0:0:
256,192,96030,12,14,97402,0:3:0:0:
76,118,98944,6,0,P|116:83|180:75,1,100,14|8,0:1|0:0,0:0:0:0:
260,120,99630,2,0,P|343:119|414:109,2,150,10|2|10,0:1|0:1|0:0,0:0:0:0:
158,164,101002,1,10,0:1:0:0:
158,273,101344,1,10,0:1:0:0:
266,251,101687,6,0,P|308:236|383:238,1,100,10|8,0:1|0:0,0:0:0:0:
471,253,102373,2,0,L|486:86,2,150,10|2|10,0:1|0:1|0:0,0:0:0:0:
398,335,103744,1,10,0:1:0:0:
295,295,104087,1,10,0:1:0:0:
195,341,104430,6,0,P|130:353|76:344,1,100,10|10,0:1|0:0,0:0:0:0:
49,249,105116,2,0,P|64:172|73:94,2,150,10|2|10,0:1|0:1|0:0,0:0:0:0:
153,284,106487,1,10,0:1:0:0:
204,186,106830,1,10,0:1:0:0:
156,86,107173,6,0,P|185:26|235:16,1,100,10|10,0:1|0:1,0:0:0:0:
318,48,107859,2,0,L|336:148,1,100,10|10,0:1|0:1,0:0:0:0:
390,242,108544,1,10,0:1:0:0:
286,280,108887,1,10,0:1:0:0:
187,230,109230,1,10,0:1:0:0:
103,301,109573,1,10,0:1:0:0:
196,358,109916,5,14,0:0:0:0:
346,94,120887,6,0,P|381:162|370:293,1,200,4|0,0:0|0:0,0:0:0:0:
280,339,121916,1,0,0:0:0:0:
171,354,122259,2,0,L|173:147,1,200,2|0,0:0|0:0,0:0:0:0:
391,180,123630,6,0,P|370:104|338:84,1,100,2|0,0:0|0:0,0:0:0:0:
252,54,124316,2,0,L|144:67,1,100
194,170,125002,2,0,P|199:227|-3:322,1,300,0|2,0:0|0:1,0:0:0:0:
10,222,126373,5,8,0:0:0:0:
124,33,127059,1,10,0:3:0:0:
277,190,127744,1,8,0:0:0:0:
311,85,128087,1,8,0:0:0:0:
418,62,128430,1,10,0:3:0:0:
446,318,129459,6,0,P|390:315|332:320,1,100,8|0,0:0|0:0,0:0:0:0:
127,338,130487,1,8,0:0:0:0:
74,241,130830,1,8,0:0:0:0:
161,174,131173,1,10,0:3:0:0:
3,20,131859,6,0,P|25:93|29:219,2,200,0|2|0,0:0|0:3|0:0,0:0:0:0:
187,140,133916,1,2,0:3:0:0:
392,62,134602,6,0,P|418:88|436:158,1,100
474,250,135287,2,0,L|367:245,1,100,2|0,0:3|0:0,0:0:0:0:
341,350,135973,2,0,P|271:326|213:117,1,300,0|2,0:0|0:1,0:0:0:0:
232,20,137344,5,12,0:0:0:0:
122,31,137687,2,0,P|47:87|44:196,1,200,10|10,0:3|0:3,0:0:0:0:
44,297,138716,2,0,P|93:291|154:308,1,100,8|10,0:0|0:3,0:0:0:0:
358,343,139744,1,10,0:3:0:0:
422,254,140087,2,0,P|438:217|423:140,1,100,8|0,0:0|0:0,0:0:0:0:
369,67,140773,2,0,L|255:79,1,100,2|2,0:3|0:3,0:0:0:0:
164,42,141459,6,0,B|195:154|146:129|173:258,1,200,8|14,0:0|0:3,0:0:0:0:
379,305,142830,6,0,P|379:254|334:206,1,100,12|8,0:0|0:3,0:0:0:0:
290,123,143516,2,0,P|304:59|344:25,1,100,0|10,0:0|0:3,0:0:0:0:
429,75,144202,1,8,0:0:0:0:
476,173,144544,1,8,0:3:0:0:
477,283,144887,2,0,L|366:290,1,100,10|8,0:0|0:3,0:0:0:0:
277,336,145573,6,0,P|267:226|102:154,1,300,8|10,0:0|0:3,0:0:0:0:
38,236,146944,5,8,0:3:0:0:
96,328,147287,1,8,0:3:0:0:
185,263,147630,1,8,0:0:0:0:
251,351,147973,1,4,0:0:0:0:
341,288,148316,6,0,P|352:224|273:112,1,200,12|0,0:0|0:0,0:0:0:0:
189,56,149344,1,8,0:3:0:0:
132,150,149687,2,0,P|76:179|20:177,2,100,8|8|8,0:0|0:3|0:0,0:0:0:0:
189,56,150716,6,0,L|301:67,1,100,8|0,0:3|0:0,0:0:0:0:
390,23,151402,1,8,0:3:0:0:
456,110,151744,2,0,P|454:183|463:271,2,150,10|8|8,0:0|0:3|0:3,0:0:0:0:
390,23,153116,1,8,0:0:0:0:
303,90,153459,1,4,0:0:0:0:
289,199,153802,6,2,P|263:230|188:236,1,100,8|8,0:0|0:3,0:3:0:0:
109,293,154487,2,0,P|111:243|102:187,1,100,10|8,0:0|0:3,0:0:0:0:
58,93,155173,2,0,B|93:65|184:78|151:119|211:118|257:105,1,200,0|10,0:0|0:0,0:0:0:0:
345,52,156202,1,8,0:3:0:0:
442,101,156544,5,8,0:0:0:0:
401,203,156887,1,8,0:3:0:0:
380,311,157230,2,0,L|498:303,1,100,10|10,0:0|0:3,0:0:0:0:
499,195,157916,5,8,0:0:0:0:
418,120,158259,1,10,0:1:0:0:
309,140,158602,1,10,0:1:0:0:
281,246,158944,1,8,0:0:0:0:
203,323,159287,6,2,P|146:327|91:308,1,100,8|8,0:0|0:3,0:3:0:0:
154,216,159973,2,0,P|166:152|161:107,1,100,2|8,0:0|0:3,0:0:0:0:
90,34,160659,2,2,P|62:92|47:236,1,200,8|8,0:0|0:0,0:3:0:0:
104,318,161687,1,8,0:3:0:0:
256,192,161859,12,14,163230,0:3:0:0:
258,189,164773,6,0,P|254:111|239:33,2,150,6|0|2,0:0|0:0|0:3,0:0:0:0:
210,288,166144,5,2,0:1:0:0:
107,247,166487,1,2,0:1:0:0:
75,141,166830,1,2,0:1:0:0:
128,45,167173,1,2,0:1:0:0:
240,40,167516,6,0,P|254:114|257:189,2,150,2|0|2,0:0|0:0|0:3,0:0:0:0:
350,46,168887,5,2,0:1:0:0:
403,142,169230,1,2,0:1:0:0:
371,248,169573,1,2,0:1:0:0:
268,289,169916,1,2,0:1:0:0:
203,199,170259,6,0,P|136:173|20:227,1,200,2|2,0:0|0:3,0:0:0:0:
189,366,171630,5,2,0:1:0:0:
288,318,171973,1,2,0:1:0:0:
389,276,172316,1,2,0:1:0:0:
491,235,172659,1,2,0:1:0:0:
470,126,173002,6,0,P|385:77|291:103,1,200,2|2,0:0|0:3,0:0:0:0:
109,228,174373,5,2,0:1:0:0:
210,269,174716,1,2,0:1:0:0:
311,311,175059,1,2,0:1:0:0:
410,359,175402,1,2,0:1:0:0:
467,265,175744,6,0,P|470:209|435:164,1,100,12|8,0:0|0:0,0:0:0:0:
387,80,176430,2,0,L|279:96,1,100,8|10,0:0|0:0,0:0:0:0:
193,38,177116,2,0,P|124:41|102:165,1,200,10|8,0:0|0:0,0:0:0:0:
144,248,178144,1,10,0:0:0:0:
243,202,178487,6,0,P|287:194|349:230,1,100,8|8,0:0|0:0,0:0:0:0:
281,311,179173,2,0,L|162:321,1,100,8|8,0:0|0:0,0:0:0:0:
76,352,179859,2,0,P|77:311|74:240,1,100,10|8,0:0|0:0,0:0:0:0:
37,148,180544,1,10,0:0:0:0:
115,71,180887,1,12,0:0:0:0:
200,140,181230,6,0,B|292:158|293:116|404:125,1,200,8|8,0:0|0:0,0:0:0:0:
478,199,182259,1,10,0:0:0:0:
430,298,182602,2,0,P|373:318|319:308,1,100,8|8,0:0|0:0,0:0:0:0:
235,266,183287,1,10,0:0:0:0:
152,338,183630,1,14,0:0:0:0:
256,192,183716,12,14,186716,0:0:0:0:
392,314,188087,6,0,B|376:256|376:256|389:213,1,100,10|8,0:0|0:0,0:0:0:0:
416,112,188773,2,0,L|307:131,1,100,8|8,0:0|0:0,0:0:0:0:
236,203,189459,2,0,P|168:185|123:188,1,100,10|8,0:0|0:0,0:0:0:0:
39,140,190144,2,0,L|50:252,1,100,10|8,0:0|0:0,0:0:0:0:
65,349,190830,5,10,0:1:0:0:
168,310,191173,1,10,0:1:0:0:
270,270,191515,1,10,0:1:0:0:
372,228,191858,1,10,0:1:0:0:
458,159,192201,6,0,P|481:216|438:351,1,200,10|8,0:0|0:0,0:0:0:0:
335,341,193230,1,10,0:0:0:0:
265,257,193573,2,0,P|242:200|285:65,1,200,10|10,0:0|0:0,0:0:0:0:
386,48,194601,1,8,0:0:0:0:
408,156,194944,6,0,L|391:274,1,100,10|8,0:0|0:0,0:0:0:0:
307,324,195630,2,0,L|203:300,1,100,8|10,0:0|0:0,0:0:0:0:
110,348,196315,5,10,0:1:0:0:
51,256,196658,1,10,0:1:0:0:
79,150,197001,1,10,0:1:0:0:
157,73,197344,1,10,0:1:0:0:
252,131,197687,6,2,L|370:119,1,100,0|0,0:0|0:0,0:3:0:0:
412,214,198373,2,0,L|294:226,1,100,10|8,0:0|0:0,0:0:0:0:
217,278,199059,2,2,L|228:378,1,100,10|8,0:0|0:0,0:3:0:0:
335,348,199744,2,0,P|365:322|427:311,1,100,8|8,0:0|0:0,0:0:0:0:
465,209,200430,6,2,B|436:168|436:168|444:109,1,100,10|0,0:0|0:0,0:3:0:0:
367,40,201116,2,0,B|359:89|359:89|314:120,1,100,8|8,0:0|0:0,0:0:0:0:
223,63,201801,5,10,0:1:0:0:
115,81,202144,1,10,0:1:0:0:
59,176,202487,1,2,0:1:0:0:
103,277,202830,1,10,0:1:0:0:
200,225,203173,5,12,0:0:0:0:
256,192,203258,12,0,208659,0:0:0:0:
256,192,218944,5,4,0:0:0:0:
80,325,219630,6,0,P|131:305|190:306,1,100,12|8,0:0|0:3,0:0:0:0:
279,341,220316,2,0,L|394:343,1,100,10|8,0:0|0:3,0:0:0:0:
472,284,221002,1,8,0:0:0:0:
392,208,221344,1,8,0:3:0:0:
443,110,221687,2,0,P|409:56|375:41,1,100,10|10,0:0|0:3,0:0:0:0:
270,69,222373,6,0,B|220:86|131:72|188:37|2:-3|16:120,1,300,10|8,0:0|0:3,0:0:0:0:
83,197,223744,1,8,0:3:0:0:
51,302,224087,1,8,0:3:0:0:
159,321,224430,1,8,0:0:0:0:
200,218,224773,1,4,0:0:0:0:
304,184,225116,6,0,L|421:190,1,100,8|8,0:0|0:3,0:0:0:0:
487,116,225802,2,0,P|480:60|432:31,1,100,10|8,0:0|0:3,0:0:0:0:
338,40,226487,1,8,0:0:0:0:
250,106,226830,1,8,0:3:0:0:
152,54,227173,2,0,P|86:49|52:63,1,100,10|10,0:0|0:3,0:0:0:0:
55,171,227859,6,0,P|65:239|66:276,1,100,0|10,0:0|0:3,0:0:0:0:
161,324,228544,2,0,P|171:247|185:173,2,150,10|10|10,0:0|0:3|0:3,0:0:0:0:
267,351,229916,1,8,0:0:0:0:
320,255,230259,1,4,0:0:0:0:
424,219,230602,6,2,P|461:169|387:65,1,200,8|10,0:0|0:0,0:3:0:0:
295,21,231630,1,10,0:3:0:0:
217,99,231973,2,0,P|180:149|254:253,1,200,0|2,0:0|0:0,0:0:0:0:
218,358,233002,1,8,0:3:0:0:
109,344,233344,6,2,P|73:301|68:248,1,100,8|8,0:0|0:3,0:3:0:0:
0,165,234030,2,0,P|20:125|71:91,1,100,10|10,0:0|0:3,0:0:0:0:
159,35,234716,1,8,0:0:0:0:
260,76,235059,1,8,0:0:0:0:
369,70,235402,1,8,0:0:0:0:
454,139,235744,1,8,0:0:0:0:
376,217,236087,6,2,P|317:207|192:288,1,200,8|10,0:0|0:0,0:3:0:0:
99,317,237116,1,8,0:3:0:0:
37,226,237459,2,2,P|31:141|77:23,1,200,8|10,0:0|0:0,0:3:0:0:
179,34,238487,1,10,0:3:0:0:
256,192,238659,12,14,240030,0:3:0:0:
436,118,241573,6,0,P|396:83|332:75,1,100,6|10,0:1|0:0,0:0:0:0:
252,120,242259,2,0,P|169:119|98:109,2,150,10|2|8,0:1|0:1|0:0,0:0:0:0:
354,164,243631,1,10,0:1:0:0:
354,273,243973,1,10,0:1:0:0:
246,251,244316,6,0,P|204:236|129:238,1,100,10|10,0:1|0:0,0:0:0:0:
41,253,245002,2,0,L|26:86,2,150,10|2|10,0:1|0:1|0:0,0:0:0:0:
114,335,246373,1,10,0:1:0:0:
217,295,246716,1,10,0:1:0:0:
317,341,247059,6,0,P|382:353|436:344,1,100,10|8,0:1|0:0,0:0:0:0:
463,249,247745,2,0,P|448:172|439:94,2,150,10|2|8,0:1|0:1|0:0,0:0:0:0:
359,284,249116,1,10,0:1:0:0:
308,186,249459,1,10,0:1:0:0:
356,86,249802,6,0,P|327:26|277:16,1,100,10|10,0:1|0:1,0:0:0:0:
194,48,250488,2,0,L|176:148,1,100,10|10,0:1|0:1,0:0:0:0:
122,242,251173,1,10,0:1:0:0:
226,280,251516,1,10,0:1:0:0:
325,230,251859,1,10,0:1:0:0:
409,301,252202,1,10,0:1:0:0:
316,358,252544,6,0,P|289:362|200:359,1,100,14|10,0:1|0:0,0:0:0:0:
178,257,253230,2,0,P|187:163|186:101,2,150,10|2|8,0:1|0:1|0:0,0:0:0:0:
111,345,254602,1,10,0:1:0:0:
23,278,254944,1,10,0:1:0:0:
24,167,255287,6,0,P|50:114|53:65,1,100,10|10,0:1|0:0,0:0:0:0:
151,21,255973,2,0,L|306:16,2,150,10|2|8,0:1|0:1|0:0,0:0:0:0:
117,125,257344,1,10,0:1:0:0:
193,204,257687,1,10,0:1:0:0:
288,148,258030,6,0,P|339:134|385:135,1,100,10|8,0:1|0:0,0:0:0:0:
473,202,258716,2,0,P|475:272|494:359,2,150,10|2|10,0:1|0:1|0:0,0:0:0:0:
493,93,260087,1,10,0:1:0:0:
393,45,260430,1,10,0:1:0:0:
319,127,260773,6,0,P|272:138|199:139,1,100,10|10,0:1|0:1,0:0:0:0:
141,63,261459,2,0,P|88:71|38:86,1,100,10|10,0:1|0:1,0:0:0:0:
44,194,262144,1,10,0:1:0:0:
99,288,262487,1,10,0:1:0:0:
200,246,262830,1,10,0:1:0:0:
265,334,263173,1,10,0:1:0:0:
359,277,263516,5,4,0:0:0:0:
256,192,263602,12,2,264887,0:0:0:0:
