osu file format v14

[General]
AudioFilename: audio.mp3
AudioLeadIn: 0
PreviewTime: 52631
Countdown: 1
SampleSet: Normal
StackLeniency: 0.7
Mode: 1
LetterboxInBreaks: 0
WidescreenStoryboard: 0

[Editor]
DistanceSpacing: 0.8
BeatDivisor: 4
GridSize: 32
TimelineZoom: 1.45

[Metadata]
Title:Ukakuf Kins
TitleUnicode:Ukakuf Kins
Artist:t+pazolite feat. Nanahira
ArtistUnicode:t+pazolite feat. ななひら
Creator:katacheh
Version:Tomorrow
Source:Deemo
Tags:rhythm game novelty orchestra
BeatmapID:2014222
BeatmapSetID:961953

[Difficulty]
HPDrainRate:6
CircleSize:5
OverallDifficulty:6
ApproachRate:5
SliderMultiplier:1.4
SliderTickRate:1

[Events]
//Background and Video events
0,0,"Ukakus_Kins.png",0,0
//Break Periods
//Storyboard Layer 0 (Background)
//Storyboard Layer 1 (Fail)
//Storyboard Layer 2 (Pass)
//Storyboard Layer 3 (Foreground)
//Storyboard Layer 4 (Overlay)
//Storyboard Sound Samples

[TimingPoints]
1564,659.340659340659,3,1,0,65,1,8
1565,329.67032967033,3,1,0,65,1,0
1565,-454.545454545455,3,1,0,65,0,0
9477,-333.333333333333,3,1,0,80,0,0
17389,-100,3,1,0,80,0,0
17471,-454.545454545455,3,1,0,80,0,0
24971,-250,3,1,0,80,0,0
25301,-100,3,1,0,80,0,0
25383,-250,3,1,0,80,0,0
26290,-100,3,1,0,80,0,0
26372,-250,3,1,0,80,0,0
27279,-100,3,1,0,80,0,0
27359,-250,3,1,0,80,0,0
28266,-100,3,1,0,80,0,0
28348,-250,3,1,0,80,0,0
29255,-100,3,1,0,80,0,0
29337,-250,3,1,0,80,0,0
30244,-100,3,1,0,80,0,0
30326,-250,3,1,0,80,0,0
31233,-100,3,1,0,80,0,0
31315,-250,3,1,0,80,0,0
32222,-100,3,1,0,80,0,0
32304,-250,3,1,0,80,0,0
33211,-100,3,1,0,80,0,0
33293,-250,3,1,0,80,0,0
34200,-100,3,1,0,80,0,0
34530,-250,3,1,0,80,0,0
35189,-90.9090909090909,3,1,0,80,0,0
35519,-250,3,1,0,80,0,0
36178,-83.3333333333333,3,1,0,80,0,0
36508,-250,3,1,0,80,0,0
37167,-76.9230769230769,3,1,0,80,0,0
37497,-250,3,1,0,80,0,0
38156,-71.4285714285714,3,1,0,80,0,0
38486,-250,3,1,0,80,0,0
39145,-66.6666666666667,3,1,0,80,0,0
39475,-250,3,1,0,80,0,0
40134,-62.5,3,1,0,80,0,0
40464,-250,3,1,0,80,0,0
41123,-100,3,1,0,80,0,0
41453,-111.111111111111,3,1,0,80,0,0
42442,-125,3,1,0,80,0,0
43431,-142.857142857143,3,1,0,80,0,0
44420,-166.666666666667,3,1,0,80,0,0
45409,-200,3,1,0,80,0,0
46398,-250,3,1,0,80,0,0
47387,-333.333333333333,3,1,0,80,0,0
49035,-55.5555555555556,3,1,0,80,0,0
49117,-333.333333333333,3,1,0,65,0,0
52991,-250,3,1,0,70,0,1
64200,-100,3,1,0,80,0,1
64859,-333.333333333333,3,1,0,80,0,0
65189,-200,3,1,0,80,0,0
66837,-333.333333333333,3,1,0,80,0,0
67167,-200,3,1,0,80,0,0
68815,-333.333333333333,3,1,0,80,0,0
69145,-200,3,1,0,80,0,0
70793,-333.333333333333,3,1,0,80,0,0
71123,-200,3,1,0,80,0,0
72721,-133.333333333333,3,1,0,55,0,0
73183,-200,3,1,0,100,0,0
74699,-133.333333333333,3,1,0,55,0,0
75161,-200,3,1,0,100,0,0
76677,-133.333333333333,3,1,0,55,0,0
77139,-200,3,1,0,100,0,0
78655,-133.333333333333,3,1,0,55,0,0
79117,-200,3,1,0,100,0,0
80683,-200,3,1,0,100,0,0
88595,-200,3,1,0,100,0,1
95685,-166.666666666667,3,1,0,100,0,1
95850,-142.857142857143,3,1,0,100,0,1
96015,-125,3,1,0,100,0,1
96180,-111.111111111111,3,1,0,100,0,1
96345,-100,3,1,0,100,0,1
96508,-66.6666666666667,3,1,0,100,0,0
96672,-333.333333333333,3,1,0,60,0,0
100464,-294.117647058824,3,1,0,70,0,1
111672,-100,3,1,0,70,0,1
112332,-370.37037037037,3,1,0,70,0,1
127497,-66.6666666666667,3,1,0,70,0,1
128156,-333.333333333333,3,1,0,50,0,0
129145,-133.333333333333,3,1,0,50,0,0
130134,-333.333333333333,3,1,0,50,0,0
131123,-133.333333333333,3,1,0,50,0,0
132112,-333.333333333333,3,1,0,50,0,0
133101,-133.333333333333,3,1,0,50,0,0
134090,-333.333333333333,3,1,0,50,0,0
135079,-133.333333333333,3,1,0,50,0,0
136068,-333.333333333333,3,1,0,45,0,0
138046,-434.782608695652,3,1,0,35,0,0
140024,-625,3,1,0,25,0,0
142002,-1100,3,1,0,15,0,0

[HitObjects]
297,118,1565,5,0,0:0:0:0:
288,171,2554,1,2,0:0:0:0:
288,171,2883,1,0,0:0:0:0:
288,171,3213,1,0,0:0:0:0:
288,171,3543,1,0,0:0:0:0:
412,117,4532,5,0,0:0:0:0:
337,74,4861,1,2,0:0:0:0:
337,74,5191,1,2,0:0:0:0:
303,146,5521,1,0,0:0:0:0:
306,78,6510,5,2,0:0:0:0:
303,93,6839,1,0,0:0:0:0:
303,93,7169,1,0,0:0:0:0:
303,93,7499,1,0,0:0:0:0:
329,77,8488,5,2,0:0:0:0:
346,60,8817,1,2,0:0:0:0:
346,60,9147,1,2,0:0:0:0:
388,294,9477,1,0,0:0:0:0:
241,197,9641,1,0,0:0:0:0:
241,197,9806,1,0,0:0:0:0:
262,69,9971,1,2,0:0:0:0:
230,93,10136,1,0,0:0:0:0:
262,69,10301,1,0,0:0:0:0:
262,69,10466,5,2,0:0:0:0:
230,93,10795,1,2,0:0:0:0:
312,209,11125,1,0,0:0:0:0:
210,122,11455,5,0,0:0:0:0:
294,84,11619,1,0,0:0:0:0:
244,24,11784,1,2,0:0:0:0:
237,79,11949,1,0,0:0:0:0:
210,122,12114,1,2,0:0:0:0:
210,122,12279,1,2,0:0:0:0:
210,122,12444,5,0,0:0:0:0:
306,79,12773,1,2,0:0:0:0:
306,79,13103,1,2,0:0:0:0:
306,79,13433,5,0,0:0:0:0:
376,220,13597,1,0,0:0:0:0:
376,220,13762,1,0,0:0:0:0:
306,79,13927,1,2,0:0:0:0:
81,157,14092,1,0,0:0:0:0:
270,56,14257,1,0,0:0:0:0:
270,56,14422,5,2,0:0:0:0:
81,157,14751,1,2,0:0:0:0:
443,228,15081,1,0,0:0:0:0:
308,142,15411,5,0,0:0:0:0:
308,142,15575,1,0,0:0:0:0:
308,142,15740,1,2,0:0:0:0:
308,142,15905,1,0,0:0:0:0:
308,142,16070,1,2,0:0:0:0:
358,71,16235,1,2,0:0:0:0:
358,71,16400,1,2,0:0:0:0:
307,245,17059,5,0,0:0:0:0:
307,245,17224,1,0,0:0:0:0:
307,245,17389,1,6,0:0:0:0:
244,263,18048,1,2,0:0:0:0:
244,263,18378,1,2,0:0:0:0:
295,94,19367,5,2,0:0:0:0:
295,94,20026,1,2,0:0:0:0:
295,94,20356,1,2,0:0:0:0:
295,94,21345,5,2,0:0:0:0:
295,94,22004,1,2,0:0:0:0:
295,94,22334,1,2,0:0:0:0:
345,147,22663,1,0,0:0:0:0:
345,147,22993,1,0,0:0:0:0:
345,147,23323,1,2,0:0:0:0:
326,164,23652,1,0,0:0:0:0:
326,164,23982,1,2,0:0:0:0:
326,164,24312,1,2,0:0:0:0:
306,172,24971,5,0,0:0:0:0:
306,172,25136,1,0,0:0:0:0:
306,172,25301,5,6,0:0:0:0:
265,190,25795,5,0,0:0:0:0:
306,172,25960,1,2,0:0:0:0:
306,172,26290,5,6,0:0:0:0:
349,120,26619,5,0,0:0:0:0:
313,90,26784,1,2,0:0:0:0:
278,159,26949,1,0,0:0:0:0:
278,159,27114,1,0,0:0:0:0:
278,159,27279,5,6,0:0:0:0:
294,167,27773,5,0,0:0:0:0:
294,167,27938,1,2,0:0:0:0:
275,132,28268,5,6,0:0:0:0:
313,92,28597,5,2,0:0:0:0:
313,92,28762,1,2,0:0:0:0:
309,102,28927,1,0,0:0:0:0:
309,102,29092,1,0,0:0:0:0:
309,102,29257,5,6,0:0:0:0:
418,159,29751,5,0,0:0:0:0:
302,148,29916,1,2,0:0:0:0:
332,172,30246,5,6,0:0:0:0:
332,172,30575,5,2,0:0:0:0:
275,181,30740,1,2,0:0:0:0:
332,172,30905,1,0,0:0:0:0:
275,181,31070,1,2,0:0:0:0:
259,185,31235,5,6,0:0:0:0:
339,158,31565,5,2,0:0:0:0:
204,194,31729,1,0,0:0:0:0:
381,67,31894,1,2,0:0:0:0:
403,153,32224,5,6,0:0:0:0:
402,42,32554,1,2,0:0:0:0:
402,42,32883,1,2,0:0:0:0:
279,212,33213,5,4,0:0:0:0:
339,160,33543,5,0,0:0:0:0:
339,160,33707,1,0,0:0:0:0:
339,160,33872,1,2,0:0:0:0:
287,159,34202,5,0,0:0:0:0:
382,172,34284,1,0,0:0:0:0:
382,172,34367,1,0,0:0:0:0:
350,58,34532,5,2,0:0:0:0:
350,58,34861,1,2,0:0:0:0:
287,159,35191,5,0,0:0:0:0:
395,154,35273,1,0,0:0:0:0:
395,154,35356,1,0,0:0:0:0:
350,58,35521,5,2,0:0:0:0:
350,58,35850,1,2,0:0:0:0:
287,159,36180,5,0,0:0:0:0:
382,172,36262,1,0,0:0:0:0:
287,84,36345,1,0,0:0:0:0:
287,159,36510,5,2,0:0:0:0:
135,210,36592,1,2,0:0:0:0:
406,89,36674,1,2,0:0:0:0:
287,159,36839,1,2,0:0:0:0:
406,89,36922,1,2,0:0:0:0:
406,89,37004,1,2,0:0:0:0:
447,222,37169,5,0,0:0:0:0:
447,222,37251,1,0,0:0:0:0:
447,222,37334,1,0,0:0:0:0:
342,51,37499,5,2,0:0:0:0:
369,48,37663,1,0,0:0:0:0:
342,51,37828,1,2,0:0:0:0:
205,108,38158,5,0,0:0:0:0:
205,108,38240,1,0,0:0:0:0:
205,108,38323,1,0,0:0:0:0:
205,108,38488,5,2,0:0:0:0:
205,108,38817,1,2,0:0:0:0:
221,130,39147,5,0,0:0:0:0:
221,130,39229,1,0,0:0:0:0:
262,214,39312,1,0,0:0:0:0:
221,130,39477,5,2,0:0:0:0:
221,130,39806,1,2,0:0:0:0:
221,130,40136,5,0,0:0:0:0:
221,130,40218,1,0,0:0:0:0:
221,130,40301,1,0,0:0:0:0:
221,130,40466,5,2,0:0:0:0:
308,68,40548,1,2,0:0:0:0:
221,130,40630,1,2,0:0:0:0:
309,52,40795,1,2,0:0:0:0:
140,155,40878,1,2,0:0:0:0:
140,155,40960,1,2,0:0:0:0:
221,130,41125,5,4,0:0:0:0:
223,169,41455,5,0,0:0:0:0:
279,137,41537,1,0,0:0:0:0:
279,137,41619,1,0,0:0:0:0:
279,137,41702,1,0,0:0:0:0:
279,137,41784,1,2,0:0:0:0:
279,137,41867,1,0,0:0:0:0:
279,137,41949,1,2,0:0:0:0:
279,137,42032,1,2,0:0:0:0:
250,118,42114,1,0,0:0:0:0:
281,179,42444,5,0,0:0:0:0:
281,179,42526,1,0,0:0:0:0:
281,179,42608,1,2,0:0:0:0:
281,179,42691,1,2,0:0:0:0:
349,89,42773,1,0,0:0:0:0:
281,179,42856,1,2,0:0:0:0:
281,179,42938,1,0,0:0:0:0:
281,179,43021,1,0,0:0:0:0:
281,179,43103,1,2,0:0:0:0:
244,146,43433,5,0,0:0:0:0:
244,146,43515,1,0,0:0:0:0:
244,146,43597,1,2,0:0:0:0:
215,154,43680,1,0,0:0:0:0:
283,18,43762,1,2,0:0:0:0:
283,18,43845,1,2,0:0:0:0:
278,20,43927,1,0,0:0:0:0:
278,21,44010,1,0,0:0:0:0:
278,21,44092,1,2,0:0:0:0:
242,118,44422,5,2,0:0:0:0:
242,118,44504,1,0,0:0:0:0:
242,118,44586,1,0,0:0:0:0:
242,118,44669,1,0,0:0:0:0:
242,118,44751,1,2,0:0:0:0:
242,118,44834,1,0,0:0:0:0:
227,28,44916,1,2,0:0:0:0:
227,28,44999,1,2,0:0:0:0:
155,62,45081,1,0,0:0:0:0:
300,170,45411,5,2,0:0:0:0:
300,170,45493,1,2,0:0:0:0:
300,170,45575,1,0,0:0:0:0:
300,170,45658,1,2,0:0:0:0:
239,145,45740,1,0,0:0:0:0:
239,145,45823,1,0,0:0:0:0:
239,145,45905,1,2,0:0:0:0:
276,19,45988,1,2,0:0:0:0:
167,80,46070,1,0,0:0:0:0:
238,26,46400,5,2,0:0:0:0:
211,67,46482,1,0,0:0:0:0:
211,67,46565,1,2,0:0:0:0:
211,67,46647,1,2,0:0:0:0:
189,89,46729,1,0,0:0:0:0:
186,91,46812,1,0,0:0:0:0:
186,91,46894,1,2,0:0:0:0:
186,91,46977,1,2,0:0:0:0:
286,135,47059,1,0,0:0:0:0:
321,49,47389,5,0,0:0:0:0:
256,97,47471,1,0,0:0:0:0:
256,97,47554,1,2,0:0:0:0:
256,97,47636,1,2,0:0:0:0:
331,83,47718,1,0,0:0:0:0:
256,97,47801,1,2,0:0:0:0:
225,30,47883,1,2,0:0:0:0:
225,30,47966,1,2,0:0:0:0:
169,53,48048,1,0,0:0:0:0:
239,183,48213,1,0,0:0:0:0:
311,181,48378,1,2,0:0:0:0:
290,182,48543,1,2,0:0:0:0:
434,120,48707,1,0,0:0:0:0:
434,120,48872,1,0,0:0:0:0:
354,187,49037,5,6,0:0:0:0:
292,202,49696,1,2,0:0:0:0:
397,155,50026,1,2,0:0:0:0:
350,155,50356,1,2,0:0:0:0:
282,173,50685,1,2,0:0:0:0:
397,155,51015,1,2,0:0:0:0:
282,173,51345,1,2,0:0:0:0:
172,160,51510,1,2,0:0:0:0:
292,202,51674,1,2,0:0:0:0:
172,160,51839,1,2,0:0:0:0:
397,155,52004,1,2,0:0:0:0:
289,175,52663,1,2,0:0:0:0:
297,218,52993,5,0,0:0:0:0:
333,289,53075,1,0,0:0:0:0:
333,289,53158,1,0,0:0:0:0:
333,289,53240,1,0,0:0:0:0:
243,112,53323,1,0,0:0:0:0:
243,112,53405,1,0,0:0:0:0:
243,112,53488,1,0,0:0:0:0:
243,112,53570,1,0,0:0:0:0:
281,46,53652,1,2,0:0:0:0:
281,46,53735,1,2,0:0:0:0:
230,95,53817,1,0,0:0:0:0:
228,95,53900,1,0,0:0:0:0:
228,96,53982,1,2,0:0:0:0:
279,55,54065,1,2,0:0:0:0:
279,55,54147,1,2,0:0:0:0:
279,55,54229,1,2,0:0:0:0:
233,44,54312,1,0,0:0:0:0:
200,58,54394,1,2,0:0:0:0:
110,155,54477,1,0,0:0:0:0:
110,155,54559,1,0,0:0:0:0:
248,49,54641,1,2,0:0:0:0:
144,177,54724,1,2,0:0:0:0:
144,177,54806,1,0,0:0:0:0:
144,177,54889,1,0,0:0:0:0:
46,196,54971,1,2,0:0:0:0:
243,45,55054,1,2,0:0:0:0:
248,73,55136,1,2,0:0:0:0:
289,80,55218,1,2,0:0:0:0:
230,111,55301,1,0,0:0:0:0:
337,127,55383,1,2,0:0:0:0:
358,125,55466,1,0,0:0:0:0:
337,127,55548,1,0,0:0:0:0:
283,39,55630,1,2,0:0:0:0:
355,124,55713,1,0,0:0:0:0:
283,39,55795,1,2,0:0:0:0:
237,47,55878,1,2,0:0:0:0:
352,124,55960,1,0,0:0:0:0:
185,189,56043,1,0,0:0:0:0:
185,189,56125,1,0,0:0:0:0:
215,191,56207,1,0,0:0:0:0:
227,152,56290,1,2,0:0:0:0:
214,179,56372,1,0,0:0:0:0:
214,179,56455,1,0,0:0:0:0:
214,179,56537,1,0,0:0:0:0:
215,179,56619,1,2,0:0:0:0:
215,179,56702,1,2,0:0:0:0:
215,179,56784,1,2,0:0:0:0:
215,179,56867,1,2,0:0:0:0:
213,179,56949,5,0,0:0:0:0:
322,87,57032,1,0,0:0:0:0:
283,111,57114,1,2,0:0:0:0:
316,51,57196,1,2,0:0:0:0:
237,96,57279,1,0,0:0:0:0:
278,14,57361,1,2,0:0:0:0:
237,96,57444,1,0,0:0:0:0:
237,96,57526,1,0,0:0:0:0:
278,14,57608,1,2,0:0:0:0:
288,108,57691,1,0,0:0:0:0:
288,108,57773,1,2,0:0:0:0:
283,111,57856,1,2,0:0:0:0:
307,145,57938,1,0,0:0:0:0:
237,96,58021,1,0,0:0:0:0:
237,96,58103,1,0,0:0:0:0:
237,96,58185,1,0,0:0:0:0:
293,58,58268,1,2,0:0:0:0:
249,102,58350,1,0,0:0:0:0:
249,104,58433,1,0,0:0:0:0:
249,104,58515,1,0,0:0:0:0:
249,104,58597,1,2,0:0:0:0:
249,104,58680,1,2,0:0:0:0:
333,63,58762,1,0,0:0:0:0:
333,63,58845,1,0,0:0:0:0:
333,63,58927,1,2,0:0:0:0:
333,63,59010,1,2,0:0:0:0:
371,69,59092,1,2,0:0:0:0:
371,69,59174,1,2,0:0:0:0:
247,39,59257,1,0,0:0:0:0:
222,54,59339,1,2,0:0:0:0:
150,137,59422,1,0,0:0:0:0:
150,137,59504,1,0,0:0:0:0:
274,42,59586,1,2,0:0:0:0:
197,104,59669,1,0,0:0:0:0:
197,104,59751,1,2,0:0:0:0:
197,104,59834,1,2,0:0:0:0:
197,104,59916,1,0,0:0:0:0:
311,78,59999,1,2,0:0:0:0:
260,136,60081,1,0,0:0:0:0:
260,136,60163,1,0,0:0:0:0:
344,89,60246,1,2,0:0:0:0:
260,136,60328,1,2,0:0:0:0:
344,89,60411,1,0,0:0:0:0:
344,89,60493,1,0,0:0:0:0:
260,145,60575,1,2,0:0:0:0:
260,145,60658,1,0,0:0:0:0:
260,145,60740,1,0,0:0:0:0:
260,145,60823,1,0,0:0:0:0:
367,53,60905,5,2,0:0:0:0:
278,131,60988,1,2,0:0:0:0:
278,131,61070,1,0,0:0:0:0:
299,141,61152,1,2,0:0:0:0:
278,131,61235,1,0,0:0:0:0:
278,131,61317,1,0,0:0:0:0:
278,131,61400,1,0,0:0:0:0:
278,131,61482,1,0,0:0:0:0:
195,176,61565,1,2,0:0:0:0:
175,237,61647,1,0,0:0:0:0:
322,99,61729,1,2,0:0:0:0:
322,99,61812,1,2,0:0:0:0:
171,142,61894,1,0,0:0:0:0:
203,91,61977,1,0,0:0:0:0:
171,142,62059,1,0,0:0:0:0:
171,142,62141,1,0,0:0:0:0:
308,65,62224,1,2,0:0:0:0:
308,65,62306,1,2,0:0:0:0:
242,113,62389,1,0,0:0:0:0:
242,113,62471,1,0,0:0:0:0:
306,28,62554,1,2,0:0:0:0:
306,28,62636,1,2,0:0:0:0:
381,150,62718,1,0,0:0:0:0:
306,28,62801,1,2,0:0:0:0:
242,113,62883,1,0,0:0:0:0:
242,113,62966,1,0,0:0:0:0:
242,113,63048,1,0,0:0:0:0:
242,113,63130,1,0,0:0:0:0:
230,54,63213,1,2,0:0:0:0:
169,125,63295,1,0,0:0:0:0:
272,40,63378,1,2,0:0:0:0:
217,44,63460,1,2,0:0:0:0:
217,44,63543,1,0,0:0:0:0:
196,49,63625,1,2,0:0:0:0:
156,76,63707,1,0,0:0:0:0:
156,76,63790,1,0,0:0:0:0:
343,27,63872,1,2,0:0:0:0:
54,200,64202,5,2,0:0:0:0:
353,102,64284,1,2,0:0:0:0:
54,200,64367,1,2,0:0:0:0:
206,158,64449,1,2,0:0:0:0:
54,200,64532,1,2,0:0:0:0:
232,195,64861,5,0,0:0:0:0:
278,133,65191,5,2,0:0:0:0:
278,133,65356,1,0,0:0:0:0:
278,133,65521,1,2,0:0:0:0:
241,187,65685,1,0,0:0:0:0:
241,187,65850,1,2,0:0:0:0:
241,187,66180,1,2,0:0:0:0:
241,187,66510,1,2,0:0:0:0:
193,180,66839,5,0,0:0:0:0:
231,181,67169,5,2,0:0:0:0:
230,183,67334,1,0,0:0:0:0:
230,183,67499,1,2,0:0:0:0:
204,217,67663,1,0,0:0:0:0:
204,217,67828,1,0,0:0:0:0:
404,168,68158,1,0,0:0:0:0:
314,204,68488,1,2,0:0:0:0:
411,151,68817,5,0,0:0:0:0:
411,151,69147,5,2,0:0:0:0:
380,173,69312,1,0,0:0:0:0:
380,173,69477,1,2,0:0:0:0:
342,200,69641,1,0,0:0:0:0:
342,200,69806,1,2,0:0:0:0:
342,200,70136,1,2,0:0:0:0:
342,200,70466,1,2,0:0:0:0:
313,218,70795,5,0,0:0:0:0:
313,218,71125,5,2,0:0:0:0:
293,225,71290,1,0,0:0:0:0:
292,225,71455,1,2,0:0:0:0:
286,229,71619,1,0,0:0:0:0:
286,229,71784,5,0,0:0:0:0:
286,229,72114,1,2,0:0:0:0:
365,187,72444,1,0,0:0:0:0:
366,220,72773,5,4,0:0:0:0:
86,175,73103,1,4,0:0:0:0:
306,115,73268,5,2,0:0:0:0:
86,175,73433,1,0,0:0:0:0:
306,115,73597,1,2,0:0:0:0:
371,154,73762,1,0,0:0:0:0:
371,154,74092,1,2,0:0:0:0:
216,134,74422,1,2,0:0:0:0:
311,107,74751,5,4,0:0:0:0:
353,204,75081,1,4,0:0:0:0:
353,204,75246,5,2,0:0:0:0:
339,217,75411,1,0,0:0:0:0:
339,217,75575,1,2,0:0:0:0:
321,235,75740,1,0,0:0:0:0:
321,235,76070,1,0,0:0:0:0:
321,235,76400,1,2,0:0:0:0:
291,157,76729,5,4,0:0:0:0:
291,157,77059,1,4,0:0:0:0:
189,206,77224,5,2,0:0:0:0:
180,209,77389,1,0,0:0:0:0:
179,209,77554,1,2,0:0:0:0:
174,211,77719,1,0,0:0:0:0:
273,90,78048,1,2,0:0:0:0:
273,90,78378,1,2,0:0:0:0:
259,106,78707,5,4,0:0:0:0:
229,70,79037,1,4,0:0:0:0:
162,115,79202,5,2,0:0:0:0:
161,121,79367,1,0,0:0:0:0:
161,121,79532,1,2,0:0:0:0:
154,128,79696,1,0,0:0:0:0:
177,186,80026,1,2,0:0:0:0:
159,208,80356,1,0,0:0:0:0:
159,208,80685,5,0,0:0:0:0:
252,174,80768,1,0,0:0:0:0:
229,172,80850,1,0,0:0:0:0:
252,174,80933,1,0,0:0:0:0:
284,128,81015,1,2,0:0:0:0:
218,171,81180,1,0,0:0:0:0:
219,171,81345,1,2,0:0:0:0:
274,42,81427,1,2,0:0:0:0:
262,63,81510,1,0,0:0:0:0:
262,63,81592,1,0,0:0:0:0:
262,63,81674,1,2,0:0:0:0:
284,95,81839,1,0,0:0:0:0:
320,42,81922,1,2,0:0:0:0:
320,42,82004,1,2,0:0:0:0:
288,97,82169,1,0,0:0:0:0:
288,97,82334,1,2,0:0:0:0:
311,84,82416,1,2,0:0:0:0:
200,71,82499,1,0,0:0:0:0:
200,71,82663,5,0,0:0:0:0:
273,72,82746,1,0,0:0:0:0:
355,38,82828,1,0,0:0:0:0:
355,38,82911,1,0,0:0:0:0:
273,72,82993,1,2,0:0:0:0:
265,133,83158,1,0,0:0:0:0:
265,133,83323,1,2,0:0:0:0:
265,133,83405,1,2,0:0:0:0:
257,144,83488,1,0,0:0:0:0:
368,92,83570,1,2,0:0:0:0:
233,158,83652,1,0,0:0:0:0:
207,62,83817,1,0,0:0:0:0:
207,62,83900,1,0,0:0:0:0:
207,62,83982,1,2,0:0:0:0:
207,62,84147,1,2,0:0:0:0:
207,62,84312,1,0,0:0:0:0:
207,62,84394,1,2,0:0:0:0:
242,45,84477,1,2,0:0:0:0:
302,80,84559,1,2,0:0:0:0:
269,123,84641,5,0,0:0:0:0:
269,123,84724,1,0,0:0:0:0:
269,123,84806,1,0,0:0:0:0:
269,123,84889,1,0,0:0:0:0:
269,123,84971,1,2,0:0:0:0:
268,100,85136,1,0,0:0:0:0:
268,100,85301,1,2,0:0:0:0:
201,128,85383,1,2,0:0:0:0:
190,132,85466,1,0,0:0:0:0:
190,133,85548,1,0,0:0:0:0:
189,133,85630,1,2,0:0:0:0:
242,89,85795,1,0,0:0:0:0:
309,57,85878,1,2,0:0:0:0:
242,89,85960,1,2,0:0:0:0:
270,83,86125,1,0,0:0:0:0:
270,83,86290,1,2,0:0:0:0:
270,83,86372,1,2,0:0:0:0:
232,106,86455,1,0,0:0:0:0:
224,110,86619,5,0,0:0:0:0:
295,98,86702,1,0,0:0:0:0:
385,154,86784,1,0,0:0:0:0:
385,154,86867,1,0,0:0:0:0:
283,52,86949,1,2,0:0:0:0:
321,31,87114,1,0,0:0:0:0:
306,37,87196,1,2,0:0:0:0:
253,95,87279,1,0,0:0:0:0:
244,51,87361,1,0,0:0:0:0:
297,5,87444,1,2,0:0:0:0:
220,98,87608,1,0,0:0:0:0:
244,43,87691,1,2,0:0:0:0:
244,43,87773,1,2,0:0:0:0:
244,43,87856,1,2,0:0:0:0:
180,77,87938,1,0,0:0:0:0:
354,27,88048,1,0,0:0:0:0:
354,27,88158,1,2,0:0:0:0:
337,44,88268,1,0,0:0:0:0:
337,44,88378,1,2,0:0:0:0:
337,44,88488,1,2,0:0:0:0:
211,107,88597,5,0,0:0:0:0:
358,164,88680,1,0,0:0:0:0:
408,106,88762,1,2,0:0:0:0:
263,147,88817,1,0,0:0:0:0:
263,147,88872,1,0,0:0:0:0:
244,67,88927,1,2,0:0:0:0:
180,196,89010,1,2,0:0:0:0:
240,53,89092,1,0,0:0:0:0:
240,53,89174,1,2,0:0:0:0:
240,53,89257,1,2,0:0:0:0:
263,67,89367,1,0,0:0:0:0:
263,67,89477,1,0,0:0:0:0:
263,67,89586,1,2,0:0:0:0:
300,61,89669,1,2,0:0:0:0:
231,105,89751,1,0,0:0:0:0:
231,105,89834,1,0,0:0:0:0:
231,105,89916,1,2,0:0:0:0:
358,81,90026,1,2,0:0:0:0:
414,47,90136,1,2,0:0:0:0:
397,127,90246,1,0,0:0:0:0:
397,127,90328,1,0,0:0:0:0:
397,127,90411,1,2,0:0:0:0:
397,127,90493,1,2,0:0:0:0:
256,166,90575,5,0,0:0:0:0:
282,98,90658,1,0,0:0:0:0:
257,32,90740,1,2,0:0:0:0:
239,48,90795,1,0,0:0:0:0:
238,48,90850,1,0,0:0:0:0:
238,48,90905,1,2,0:0:0:0:
503,77,90988,1,2,0:0:0:0:
364,93,91070,1,0,0:0:0:0:
364,93,91152,1,0,0:0:0:0:
364,93,91235,1,2,0:0:0:0:
374,107,91345,1,0,0:0:0:0:
374,107,91455,1,0,0:0:0:0:
374,107,91565,1,2,0:0:0:0:
253,27,91647,1,2,0:0:0:0:
253,27,91729,1,0,0:0:0:0:
330,21,91812,1,2,0:0:0:0:
149,85,91894,1,0,0:0:0:0:
371,86,92004,1,2,0:0:0:0:
371,86,92114,1,2,0:0:0:0:
364,93,92224,1,0,0:0:0:0:
468,61,92306,1,2,0:0:0:0:
358,90,92389,1,2,0:0:0:0:
407,41,92471,1,2,0:0:0:0:
297,126,92554,5,0,0:0:0:0:
372,184,92636,1,0,0:0:0:0:
193,130,92718,1,2,0:0:0:0:
115,221,92773,1,2,0:0:0:0:
115,221,92828,1,0,0:0:0:0:
115,221,92883,1,2,0:0:0:0:
246,129,92966,1,0,0:0:0:0:
246,129,93048,1,2,0:0:0:0:
246,129,93130,1,2,0:0:0:0:
142,202,93213,1,0,0:0:0:0:
303,67,93323,1,2,0:0:0:0:
303,67,93433,1,2,0:0:0:0:
177,174,93543,1,0,0:0:0:0:
427,127,93625,1,0,0:0:0:0:
427,127,93707,1,0,0:0:0:0:
427,127,93790,1,0,0:0:0:0:
430,117,93872,1,2,0:0:0:0:
317,87,93982,1,2,0:0:0:0:
317,87,94092,1,2,0:0:0:0:
242,135,94202,1,0,0:0:0:0:
355,18,94284,1,0,0:0:0:0:
355,18,94367,1,2,0:0:0:0:
355,18,94449,1,2,0:0:0:0:
124,165,94532,5,0,0:0:0:0:
451,90,94614,1,0,0:0:0:0:
236,32,94696,1,2,0:0:0:0:
168,108,94751,1,0,0:0:0:0:
168,108,94806,1,0,0:0:0:0:
168,108,94861,1,2,0:0:0:0:
191,92,94944,1,2,0:0:0:0:
75,187,95026,1,0,0:0:0:0:
75,187,95108,1,0,0:0:0:0:
75,187,95191,1,2,0:0:0:0:
285,53,95273,1,2,0:0:0:0:
233,88,95356,1,0,0:0:0:0:
210,96,95438,1,2,0:0:0:0:
103,160,95521,1,0,0:0:0:0:
409,78,95685,1,2,0:0:0:0:
409,78,95850,1,2,0:0:0:0:
294,196,96015,1,2,0:0:0:0:
294,196,96180,1,0,0:0:0:0:
294,196,96345,1,0,0:0:0:0:
294,196,96510,5,6,0:0:0:0:
252,130,97169,1,2,0:0:0:0:
252,130,97499,1,2,0:0:0:0:
348,169,97828,1,2,0:0:0:0:
348,169,98158,1,2,0:0:0:0:
348,169,98488,1,2,0:0:0:0:
348,169,98817,1,2,0:0:0:0:
348,169,98982,1,2,0:0:0:0:
348,169,99147,1,2,0:0:0:0:
348,169,99312,1,2,0:0:0:0:
348,169,99477,1,2,0:0:0:0:
348,169,100136,1,2,0:0:0:0:
348,169,100466,5,0,0:0:0:0:
254,180,100548,1,0,0:0:0:0:
330,96,100630,1,2,0:0:0:0:
330,96,100713,1,2,0:0:0:0:
305,116,100795,1,0,0:0:0:0:
301,59,100878,1,2,0:0:0:0:
305,116,100960,1,0,0:0:0:0:
260,118,101043,1,0,0:0:0:0:
255,46,101125,1,2,0:0:0:0:
194,89,101207,1,0,0:0:0:0:
194,89,101290,1,0,0:0:0:0:
194,89,101372,1,0,0:0:0:0:
248,40,101455,1,2,0:0:0:0:
248,40,101537,1,2,0:0:0:0:
228,52,101619,1,0,0:0:0:0:
221,58,101702,1,0,0:0:0:0:
269,26,101784,1,2,0:0:0:0:
268,26,101867,1,2,0:0:0:0:
268,26,101949,1,2,0:0:0:0:
268,26,102032,1,2,0:0:0:0:
219,56,102114,1,0,0:0:0:0:
225,51,102196,1,2,0:0:0:0:
215,76,102279,1,0,0:0:0:0:
206,76,102361,1,0,0:0:0:0:
390,150,102444,5,2,0:0:0:0:
390,150,102526,1,2,0:0:0:0:
273,34,102608,1,0,0:0:0:0:
241,59,102691,1,0,0:0:0:0:
241,59,102773,1,2,0:0:0:0:
248,56,102856,1,0,0:0:0:0:
249,56,102938,1,2,0:0:0:0:
249,56,103021,1,2,0:0:0:0:
219,56,103103,1,0,0:0:0:0:
215,54,103185,1,2,0:0:0:0:
172,99,103268,1,0,0:0:0:0:
172,99,103350,1,0,0:0:0:0:
321,35,103433,1,2,0:0:0:0:
344,30,103515,1,2,0:0:0:0:
276,87,103597,1,0,0:0:0:0:
281,47,103680,1,2,0:0:0:0:
250,79,103762,1,0,0:0:0:0:
250,79,103845,1,0,0:0:0:0:
250,79,103927,1,2,0:0:0:0:
250,79,104010,1,2,0:0:0:0:
367,117,104092,1,2,0:0:0:0:
321,112,104174,1,0,0:0:0:0:
321,112,104257,1,0,0:0:0:0:
321,112,104339,1,0,0:0:0:0:
290,29,104422,5,2,0:0:0:0:
290,29,104504,1,2,0:0:0:0:
187,118,104586,1,0,0:0:0:0:
187,118,104669,1,0,0:0:0:0:
332,65,104751,1,2,0:0:0:0:
284,128,104834,1,0,0:0:0:0:
284,128,104916,1,0,0:0:0:0:
338,152,104999,1,0,0:0:0:0:
301,30,105081,1,2,0:0:0:0:
338,152,105163,1,0,0:0:0:0:
301,30,105246,1,2,0:0:0:0:
242,29,105328,1,2,0:0:0:0:
349,117,105411,1,0,0:0:0:0:
262,52,105493,1,2,0:0:0:0:
211,135,105575,1,0,0:0:0:0:
211,135,105658,1,0,0:0:0:0:
254,42,105740,1,2,0:0:0:0:
196,96,105823,1,0,0:0:0:0:
194,100,105905,1,0,0:0:0:0:
273,37,105988,1,2,0:0:0:0:
187,137,106070,1,0,0:0:0:0:
187,137,106152,1,2,0:0:0:0:
187,137,106235,1,2,0:0:0:0:
187,137,106317,1,2,0:0:0:0:
279,82,106400,5,0,0:0:0:0:
285,82,106482,1,0,0:0:0:0:
341,76,106565,1,0,0:0:0:0:
220,115,106647,1,0,0:0:0:0:
292,53,106729,1,2,0:0:0:0:
118,193,106812,1,0,0:0:0:0:
118,193,106894,1,2,0:0:0:0:
118,193,106977,1,2,0:0:0:0:
227,89,107059,1,0,0:0:0:0:
162,143,107141,1,2,0:0:0:0:
344,42,107224,1,2,0:0:0:0:
161,177,107306,1,0,0:0:0:0:
161,177,107389,1,2,0:0:0:0:
248,20,107471,1,2,0:0:0:0:
171,147,107554,1,0,0:0:0:0:
171,148,107636,1,0,0:0:0:0:
254,56,107718,1,2,0:0:0:0:
381,107,107801,1,0,0:0:0:0:
381,107,107883,1,0,0:0:0:0:
381,107,107966,1,0,0:0:0:0:
277,73,108048,1,2,0:0:0:0:
277,73,108130,1,2,0:0:0:0:
277,73,108213,1,2,0:0:0:0:
277,73,108295,1,2,0:0:0:0:
277,73,108378,5,0,0:0:0:0:
295,17,108460,1,2,0:0:0:0:
308,48,108543,1,0,0:0:0:0:
308,48,108625,1,0,0:0:0:0:
356,113,108707,1,2,0:0:0:0:
308,48,108790,1,0,0:0:0:0:
308,48,108872,1,2,0:0:0:0:
308,48,108955,1,2,0:0:0:0:
308,48,109037,1,2,0:0:0:0:
236,28,109119,1,2,0:0:0:0:
301,54,109202,1,0,0:0:0:0:
293,59,109284,1,0,0:0:0:0:
258,41,109367,1,2,0:0:0:0:
170,205,109449,1,0,0:0:0:0:
170,205,109532,1,0,0:0:0:0:
218,81,109614,1,0,0:0:0:0:
218,81,109696,1,2,0:0:0:0:
300,48,109779,1,2,0:0:0:0:
204,168,109861,1,0,0:0:0:0:
222,92,109944,1,0,0:0:0:0:
204,168,110026,1,2,0:0:0:0:
204,168,110108,1,2,0:0:0:0:
204,168,110191,1,2,0:0:0:0:
204,168,110273,1,2,0:0:0:0:
237,76,110356,5,0,0:0:0:0:
191,123,110438,1,2,0:0:0:0:
190,130,110521,1,0,0:0:0:0:
190,130,110603,1,0,0:0:0:0:
190,130,110685,1,2,0:0:0:0:
187,117,110768,1,0,0:0:0:0:
188,117,110850,1,2,0:0:0:0:
188,117,110933,1,2,0:0:0:0:
193,59,111015,1,0,0:0:0:0:
187,68,111097,1,2,0:0:0:0:
169,108,111180,1,0,0:0:0:0:
162,115,111262,1,0,0:0:0:0:
162,115,111345,1,2,0:0:0:0:
307,164,111674,5,2,0:0:0:0:
307,164,111757,1,2,0:0:0:0:
307,164,111839,1,2,0:0:0:0:
307,164,111922,1,2,0:0:0:0:
307,164,112004,1,2,0:0:0:0:
129,186,112334,5,0,0:0:0:0:
129,186,112416,1,0,0:0:0:0:
271,27,112499,1,2,0:0:0:0:
240,32,112581,1,2,0:0:0:0:
200,156,112663,1,0,0:0:0:0:
200,156,112746,1,0,0:0:0:0:
247,107,112828,1,0,0:0:0:0:
246,107,112911,1,0,0:0:0:0:
297,67,112993,1,2,0:0:0:0:
297,67,113075,1,2,0:0:0:0:
297,67,113158,1,2,0:0:0:0:
297,67,113240,1,2,0:0:0:0:
284,142,113323,1,0,0:0:0:0:
244,56,113405,1,2,0:0:0:0:
200,146,113488,1,0,0:0:0:0:
200,147,113570,1,0,0:0:0:0:
200,147,113652,1,2,0:0:0:0:
359,52,113735,1,2,0:0:0:0:
287,78,113817,1,2,0:0:0:0:
248,145,113900,1,0,0:0:0:0:
248,145,113982,1,0,0:0:0:0:
259,76,114065,1,0,0:0:0:0:
259,76,114147,1,2,0:0:0:0:
259,76,114229,1,2,0:0:0:0:
259,76,114312,5,0,0:0:0:0:
193,103,114394,1,0,0:0:0:0:
326,51,114477,1,2,0:0:0:0:
317,55,114559,1,2,0:0:0:0:
310,129,114641,1,0,0:0:0:0:
228,23,114724,1,2,0:0:0:0:
198,105,114806,1,0,0:0:0:0:
257,161,114889,1,0,0:0:0:0:
251,40,114971,1,2,0:0:0:0:
197,122,115054,1,0,0:0:0:0:
197,123,115136,1,2,0:0:0:0:
197,123,115218,1,2,0:0:0:0:
97,190,115301,1,0,0:0:0:0:
252,120,115383,1,0,0:0:0:0:
284,60,115466,1,2,0:0:0:0:
284,60,115548,1,2,0:0:0:0:
192,142,115630,1,0,0:0:0:0:
206,197,115713,1,0,0:0:0:0:
206,197,115795,1,0,0:0:0:0:
281,43,115878,1,2,0:0:0:0:
281,43,115960,1,2,0:0:0:0:
281,43,116043,1,2,0:0:0:0:
258,69,116125,1,0,0:0:0:0:
256,73,116207,1,0,0:0:0:0:
275,25,116290,5,2,0:0:0:0:
271,37,116372,1,2,0:0:0:0:
206,136,116455,1,0,0:0:0:0:
301,60,116537,1,2,0:0:0:0:
200,172,116619,1,0,0:0:0:0:
200,173,116702,1,0,0:0:0:0:
272,128,116784,1,0,0:0:0:0:
272,128,116867,1,0,0:0:0:0:
258,21,116949,1,2,0:0:0:0:
258,21,117032,1,2,0:0:0:0:
258,21,117114,1,2,0:0:0:0:
258,21,117196,1,2,0:0:0:0:
161,127,117279,1,0,0:0:0:0:
249,52,117361,1,2,0:0:0:0:
180,139,117444,1,0,0:0:0:0:
180,139,117526,1,0,0:0:0:0:
180,139,117608,1,2,0:0:0:0:
180,139,117691,1,2,0:0:0:0:
344,51,117773,1,2,0:0:0:0:
252,148,117856,1,0,0:0:0:0:
247,39,117938,1,2,0:0:0:0:
247,39,118021,1,2,0:0:0:0:
285,112,118103,1,0,0:0:0:0:
285,112,118185,1,0,0:0:0:0:
219,92,118268,5,2,0:0:0:0:
259,93,118350,1,0,0:0:0:0:
259,93,118433,1,0,0:0:0:0:
259,93,118515,1,2,0:0:0:0:
262,28,118597,1,0,0:0:0:0:
262,28,118680,1,2,0:0:0:0:
262,28,118762,1,2,0:0:0:0:
189,96,118845,1,0,0:0:0:0:
189,96,118927,1,2,0:0:0:0:
189,96,119010,1,2,0:0:0:0:
189,96,119092,1,0,0:0:0:0:
121,135,119174,1,0,0:0:0:0:
340,27,119257,1,2,0:0:0:0:
272,71,119339,1,2,0:0:0:0:
212,139,119422,1,0,0:0:0:0:
212,139,119504,1,0,0:0:0:0:
281,142,119586,1,2,0:0:0:0:
230,137,119669,1,0,0:0:0:0:
380,137,119751,1,0,0:0:0:0:
263,159,119834,1,0,0:0:0:0:
329,77,119916,1,2,0:0:0:0:
329,77,119999,1,2,0:0:0:0:
263,159,120081,1,2,0:0:0:0:
263,159,120163,1,2,0:0:0:0:
310,172,120246,5,0,0:0:0:0:
310,172,120328,1,2,0:0:0:0:
310,172,120411,1,2,0:0:0:0:
310,172,120493,1,2,0:0:0:0:
287,185,120575,1,0,0:0:0:0:
284,51,120658,1,2,0:0:0:0:
231,127,120740,1,0,0:0:0:0:
231,127,120823,1,0,0:0:0:0:
344,50,120905,1,2,0:0:0:0:
268,167,120988,1,0,0:0:0:0:
285,104,121070,1,2,0:0:0:0:
268,167,121152,1,2,0:0:0:0:
59,237,121235,1,2,0:0:0:0:
280,108,121317,1,0,0:0:0:0:
366,165,121400,1,0,0:0:0:0:
176,185,121482,1,0,0:0:0:0:
261,32,121565,1,2,0:0:0:0:
317,42,121647,1,2,0:0:0:0:
215,112,121729,1,0,0:0:0:0:
258,134,121812,1,0,0:0:0:0:
294,28,121894,1,2,0:0:0:0:
294,28,121977,1,2,0:0:0:0:
369,118,122059,1,0,0:0:0:0:
252,72,122141,1,0,0:0:0:0:
337,59,122224,5,2,0:0:0:0:
366,34,122306,1,2,0:0:0:0:
345,39,122389,1,2,0:0:0:0:
335,138,122471,1,0,0:0:0:0:
303,163,122554,1,2,0:0:0:0:
187,166,122636,1,0,0:0:0:0:
345,44,122718,1,2,0:0:0:0:
278,76,122801,1,2,0:0:0:0:
231,47,122883,1,0,0:0:0:0:
231,47,122966,1,0,0:0:0:0:
244,30,123048,1,2,0:0:0:0:
196,90,123130,1,2,0:0:0:0:
248,36,123213,1,0,0:0:0:0:
248,36,123295,1,2,0:0:0:0:
248,36,123378,1,2,0:0:0:0:
273,30,123460,1,2,0:0:0:0:
144,86,123543,1,0,0:0:0:0:
345,44,123625,1,2,0:0:0:0:
201,125,123707,1,0,0:0:0:0:
201,125,123790,1,0,0:0:0:0:
201,125,123872,1,2,0:0:0:0:
201,125,123955,1,2,0:0:0:0:
201,125,124037,1,2,0:0:0:0:
223,125,124119,1,2,0:0:0:0:
234,174,124202,5,0,0:0:0:0:
262,92,124284,1,2,0:0:0:0:
255,94,124367,1,0,0:0:0:0:
255,94,124449,1,0,0:0:0:0:
255,94,124532,1,2,0:0:0:0:
255,94,124614,1,2,0:0:0:0:
248,42,124696,1,0,0:0:0:0:
255,94,124779,1,2,0:0:0:0:
275,35,124861,1,2,0:0:0:0:
275,35,124944,1,2,0:0:0:0:
263,52,125026,1,0,0:0:0:0:
263,53,125108,1,0,0:0:0:0:
263,53,125191,1,2,0:0:0:0:
283,68,125273,1,2,0:0:0:0:
221,158,125356,1,0,0:0:0:0:
221,158,125438,1,0,0:0:0:0:
283,67,125521,1,2,0:0:0:0:
283,67,125603,1,0,0:0:0:0:
306,27,125685,1,2,0:0:0:0:
306,27,125768,1,2,0:0:0:0:
237,131,125850,1,0,0:0:0:0:
237,131,125933,1,2,0:0:0:0:
412,102,126015,1,0,0:0:0:0:
412,102,126097,1,0,0:0:0:0:
300,84,126180,5,2,0:0:0:0:
312,53,126262,1,2,0:0:0:0:
299,85,126345,1,0,0:0:0:0:
239,153,126427,1,0,0:0:0:0:
224,44,126510,1,0,0:0:0:0:
275,120,126592,1,2,0:0:0:0:
268,42,126674,1,0,0:0:0:0:
209,108,126757,1,0,0:0:0:0:
256,16,126839,1,2,0:0:0:0:
256,16,126922,1,2,0:0:0:0:
185,106,127004,1,0,0:0:0:0:
185,106,127086,1,0,0:0:0:0:
185,106,127169,1,2,0:0:0:0:
381,204,127499,5,2,0:0:0:0:
381,204,127581,1,2,0:0:0:0:
381,204,127663,1,2,0:0:0:0:
381,204,127746,1,2,0:0:0:0:
381,204,127828,1,2,0:0:0:0:
221,213,128158,5,0,0:0:0:0:
196,201,128323,1,0,0:0:0:0:
332,131,128488,1,0,0:0:0:0:
332,131,128652,1,2,0:0:0:0:
196,201,128817,1,0,0:0:0:0:
275,40,128982,1,0,0:0:0:0:
275,40,129147,5,2,0:0:0:0:
278,63,129312,1,0,0:0:0:0:
278,64,129477,1,2,0:0:0:0:
278,64,129641,1,2,0:0:0:0:
255,107,129806,1,0,0:0:0:0:
255,107,129971,1,2,0:0:0:0:
190,160,130136,5,0,0:0:0:0:
337,96,130301,1,0,0:0:0:0:
245,48,130466,1,2,0:0:0:0:
225,83,130630,1,0,0:0:0:0:
225,83,130795,1,2,0:0:0:0:
225,83,130960,1,2,0:0:0:0:
225,90,131125,5,0,0:0:0:0:
315,106,131290,1,2,0:0:0:0:
315,106,131455,1,2,0:0:0:0:
315,106,131619,1,2,0:0:0:0:
246,85,131784,1,0,0:0:0:0:
247,85,131949,1,2,0:0:0:0:
221,213,132114,5,0,0:0:0:0:
196,201,132279,1,0,0:0:0:0:
332,131,132444,1,0,0:0:0:0:
332,131,132608,1,2,0:0:0:0:
196,201,132773,1,0,0:0:0:0:
275,40,132938,1,0,0:0:0:0:
275,40,133103,5,2,0:0:0:0:
278,63,133268,1,0,0:0:0:0:
278,64,133433,1,2,0:0:0:0:
278,64,133597,1,2,0:0:0:0:
255,107,133762,1,0,0:0:0:0:
255,107,133927,1,2,0:0:0:0:
190,160,134092,5,0,0:0:0:0:
337,96,134257,1,0,0:0:0:0:
245,48,134422,1,2,0:0:0:0:
225,83,134586,1,0,0:0:0:0:
225,83,134751,1,2,0:0:0:0:
225,83,134916,1,2,0:0:0:0:
225,90,135081,5,0,0:0:0:0:
315,106,135246,1,2,0:0:0:0:
315,106,135411,1,2,0:0:0:0:
315,106,135575,1,2,0:0:0:0:
246,85,135740,1,0,0:0:0:0:
247,85,135905,1,2,0:0:0:0:
221,213,136070,5,0,0:0:0:0:
196,201,136235,1,0,0:0:0:0:
332,131,136400,1,0,0:0:0:0:
332,131,136564,1,2,0:0:0:0:
196,201,136729,1,0,0:0:0:0:
275,40,136894,1,0,0:0:0:0:
275,40,137059,1,2,0:0:0:0:
275,127,138048,5,0,0:0:0:0:
275,127,138213,1,0,0:0:0:0:
275,127,138378,1,2,0:0:0:0:
118,195,138543,1,0,0:0:0:0:
118,195,138707,1,2,0:0:0:0:
118,195,138872,1,2,0:0:0:0:
104,201,139037,1,0,0:0:0:0:
333,126,140026,5,0,0:0:0:0:
333,126,140191,1,0,0:0:0:0:
333,126,140356,1,0,0:0:0:0:
333,126,140521,1,2,0:0:0:0:
333,126,140685,1,0,0:0:0:0:
333,126,140850,1,0,0:0:0:0:
333,126,141015,1,2,0:0:0:0:
275,100,142004,5,0,0:0:0:0:
275,100,142169,1,0,0:0:0:0:
275,100,142334,1,2,0:0:0:0:
275,100,142499,1,0,0:0:0:0:
313,53,142663,1,2,0:0:0:0:
313,53,142828,1,2,0:0:0:0:
262,154,142993,1,0,0:0:0:0:
