osu file format v14

[General]
AudioFilename: audio.mp3
AudioLeadIn: 0
PreviewTime: 51036
Countdown: 0
SampleSet: Soft
StackLeniency: 0.7
Mode: 3
LetterboxInBreaks: 0
SpecialStyle: 0
WidescreenStoryboard: 1

[Editor]
DistanceSpacing: 1.4
BeatDivisor: 3
GridSize: 16
TimelineZoom: 1.5

[Metadata]
Title:Ukakuf Kins
TitleUnicode:Ukakuf Kins
Artist:t+pazolite feat. Nanahira
ArtistUnicode:t+pazolite feat. ななひら
Creator:My Angel RangE
Version:ormalN
Source:DEEMO
Tags:MARE CHCF-0001 Screamin’ Showcase tpazolite topazoraito rhythm mobile C.H.S Cutie & and Headshaking Sounds とぱぞらいと トパゾライト deemo 3.3 Vocal Selection album female video game piano other language
BeatmapID:3724941
BeatmapSetID:1671162

[Difficulty]
HPDrainRate:7.5
CircleSize:4
OverallDifficulty:7.5
ApproachRate:5
SliderMultiplier:1.4
SliderTickRate:1

[Events]
//Background and Video events
0,0,"5.jpg",0,0
//Break Periods
//Storyboard Layer 0 (Background)
//Storyboard Layer 1 (Fail)
//Storyboard Layer 2 (Pass)
//Storyboard Layer 3 (Foreground)
//Storyboard Layer 4 (Overlay)
//Storyboard Sound Samples
Sample,71558,0,"soft-hitwhistle5.wav",70
Sample,72547,0,"soft-hitwhistle6.wav",70
Sample,73536,0,"soft-hitwhistle5.wav",70
Sample,74525,0,"soft-hitwhistle4.wav",70
Sample,75514,0,"soft-hitwhistle5.wav",70
Sample,76503,0,"soft-hitwhistle6.wav",70
Sample,77492,0,"soft-hitwhistle5.wav",70
Sample,78481,0,"soft-hitwhistle4.wav",70

[TimingPoints]
20,329.67032967033,3,2,1,20,1,0
51448,-100,3,2,1,25,0,0
63316,-100,3,2,1,20,0,0
98921,-100,3,2,1,25,0,0
126613,-100,3,2,1,20,0,0

[HitObjects]
64,192,20,128,0,349:0:0:0:70:soft-hitwhistle3.wav
192,192,20,1,0,0:0:0:0:
448,192,349,1,0,0:0:0:70:soft-hitwhistle5.wav
320,192,514,1,0,0:0:0:70:soft-hitwhistle6.wav
192,192,679,128,0,1009:0:0:0:70:soft-hitwhistle7.wav
64,192,1009,128,0,1173:0:0:0:70:soft-hitwhistle5.wav
448,192,1009,1,0,0:0:0:0:
320,192,1338,1,0,0:0:0:70:soft-hitwhistle3.wav
192,192,1668,1,0,0:0:0:70:soft-hitwhistle10.wav
64,192,1998,1,0,0:0:0:70:soft-hitwhistle3.wav
448,192,1998,128,0,2327:0:0:0:0:
320,192,2327,1,0,0:0:0:70:soft-hitwhistle5.wav
192,192,2492,1,0,0:0:0:70:soft-hitwhistle6.wav
64,192,2657,128,0,2987:0:0:0:70:soft-hitwhistle7.wav
320,192,2987,1,0,0:0:0:70:soft-hitwhistle5.wav
448,192,2987,128,0,3151:0:0:0:0:
192,192,3316,1,0,0:0:0:70:soft-hitwhistle11.wav
64,192,3646,1,0,0:0:0:70:soft-hitwhistle6.wav
192,192,3976,1,0,0:0:0:70:soft-hitwhistle3.wav
320,192,3976,128,0,4305:0:0:0:0:
448,192,4305,1,0,0:0:0:70:soft-hitwhistle5.wav
64,192,4470,1,0,0:0:0:70:soft-hitwhistle6.wav
192,192,4635,1,0,0:0:0:70:soft-hitwhistle7.wav
320,192,4800,1,0,0:0:0:70:soft-hitwhistle8.wav
64,192,4965,128,0,5129:0:0:0:70:soft-hitwhistle5.wav
448,192,4965,1,0,0:0:0:0:
192,192,5294,1,0,0:0:0:70:soft-hitwhistle3.wav
320,192,5624,1,0,0:0:0:70:soft-hitwhistle10.wav
64,192,5954,1,0,0:0:0:70:soft-hitwhistle3.wav
192,192,5954,128,0,6283:0:0:0:0:
448,192,6283,1,0,0:0:0:70:soft-hitwhistle3.wav
320,192,6448,1,0,0:0:0:70:soft-hitwhistle4.wav
64,192,6613,1,0,0:0:0:70:soft-hitwhistle13.wav
192,192,6778,1,0,0:0:0:70:soft-hitwhistle10.wav
320,192,6943,128,0,7107:0:0:0:70:soft-hitwhistle3.wav
448,192,6943,128,0,7107:0:0:0:0:
192,192,7272,1,0,0:0:0:70:soft-hitwhistle5.wav
320,192,7602,1,0,0:0:0:70:soft-hitwhistle8.wav
64,192,7932,1,2,0:0:0:0:
192,192,7932,1,0,0:0:0:0:
320,192,8096,1,0,0:0:0:0:
448,192,8261,1,0,0:0:0:0:
192,192,8426,1,0,0:0:0:0:
64,192,8591,1,0,0:0:0:0:
320,192,8756,1,0,0:0:0:0:
64,192,8921,1,0,0:0:0:0:
448,192,8921,1,0,0:0:0:0:
320,192,9250,1,0,0:0:0:0:
192,192,9580,1,2,0:0:0:0:
320,192,9910,1,2,0:0:0:0:
448,192,9910,1,0,0:0:0:0:
192,192,10074,1,0,0:0:0:0:
64,192,10239,1,0,0:0:0:0:
320,192,10404,1,0,0:0:0:0:
448,192,10569,1,0,0:0:0:0:
320,192,10734,1,0,0:0:0:0:
64,192,10899,1,0,0:0:0:0:
192,192,10899,1,0,0:0:0:0:
320,192,11228,1,0,0:0:0:0:
448,192,11558,1,2,0:0:0:0:
192,192,11888,1,2,0:0:0:0:
320,192,11888,1,0,0:0:0:0:
64,192,12052,1,0,0:0:0:0:
192,192,12217,1,0,0:0:0:0:
320,192,12382,1,0,0:0:0:0:
448,192,12547,1,0,0:0:0:0:
64,192,12712,1,0,0:0:0:0:
192,192,12877,1,0,0:0:0:0:
320,192,12877,1,0,0:0:0:0:
448,192,13206,1,0,0:0:0:0:
64,192,13536,1,2,0:0:0:0:
448,192,13866,1,2,0:0:0:0:
320,192,14030,1,0,0:0:0:0:
192,192,14195,1,0,0:0:0:0:
64,192,14360,1,0,0:0:0:0:
192,192,14525,1,0,0:0:0:0:
320,192,14690,1,0,0:0:0:0:
64,192,14855,128,2,15514:0:0:0:0:
448,192,14855,128,0,15514:0:0:0:0:
320,192,15514,1,0,0:0:0:0:
64,192,15844,128,2,16173:0:0:0:0:
192,192,15844,128,0,16173:0:0:0:0:
320,192,16173,128,0,16503:0:0:0:0:
448,192,16503,128,0,16833:0:0:0:0:
192,192,16833,128,2,17162:0:0:0:0:
320,192,16833,128,0,17162:0:0:0:0:
64,192,17162,128,0,17492:0:0:0:0:
448,192,17492,128,0,17822:0:0:0:0:
64,192,17822,128,2,18151:0:0:0:0:
320,192,17822,128,0,18151:0:0:0:0:
192,192,18151,128,0,18481:0:0:0:0:
448,192,18481,128,0,18811:0:0:0:0:
64,192,18811,128,2,19140:0:0:0:0:
192,192,18811,128,0,19140:0:0:0:0:
448,192,19140,128,0,19470:0:0:0:0:
192,192,19470,128,0,19800:0:0:0:0:
64,192,19800,128,2,20129:0:0:0:0:
320,192,19800,128,0,20129:0:0:0:0:
448,192,20129,128,0,20459:0:0:0:0:
192,192,20459,128,0,20789:0:0:0:0:
320,192,20789,128,2,21118:0:0:0:0:
448,192,20789,128,0,21118:0:0:0:0:
64,192,21118,128,0,21448:0:0:0:0:
192,192,21448,128,0,21778:0:0:0:0:
64,192,21778,128,2,22107:0:0:0:0:
320,192,21778,128,0,22107:0:0:0:0:
448,192,22107,128,0,22437:0:0:0:0:
320,192,22437,128,0,22767:0:0:0:0:
64,192,22767,128,2,23096:0:0:0:0:
192,192,22767,128,0,23096:0:0:0:0:
448,192,23096,128,0,23426:0:0:0:0:
320,192,23426,128,0,23756:0:0:0:0:
64,192,23756,1,2,0:0:0:0:
448,192,23756,1,0,0:0:0:0:
192,192,24085,1,0,0:0:0:0:
320,192,24250,1,2,0:0:0:0:
448,192,24415,1,2,0:0:0:0:
64,192,24745,1,0,0:0:0:0:
192,192,24745,1,0,0:0:0:0:
448,192,25074,1,2,0:0:0:0:
320,192,25239,1,0,0:0:0:0:
192,192,25404,1,2,0:0:0:0:
64,192,25569,1,2,0:0:0:0:
320,192,25734,1,2,0:0:0:0:
448,192,25734,1,0,0:0:0:0:
192,192,26063,1,0,0:0:0:0:
64,192,26228,1,2,0:0:0:0:
448,192,26393,1,2,0:0:0:0:
192,192,26723,1,0,0:0:0:0:
320,192,26723,1,0,0:0:0:0:
64,192,27052,1,2,0:0:0:0:
192,192,27217,1,0,0:0:0:0:
448,192,27382,1,2,0:0:0:0:
320,192,27547,1,2,0:0:0:0:
64,192,27712,1,2,0:0:0:0:
192,192,27712,1,0,0:0:0:0:
320,192,28041,1,0,0:0:0:0:
448,192,28206,1,2,0:0:0:0:
320,192,28371,1,2,0:0:0:0:
64,192,28701,1,0,0:0:0:0:
192,192,28701,1,0,0:0:0:0:
448,192,29030,1,2,0:0:0:0:
320,192,29195,1,0,0:0:0:0:
192,192,29360,1,2,0:0:0:0:
64,192,29525,1,0,0:0:0:0:
320,192,29690,1,2,0:0:0:0:
448,192,29690,1,0,0:0:0:0:
64,192,30020,1,0,0:0:0:0:
192,192,30184,1,2,0:0:0:0:
320,192,30349,1,2,0:0:0:0:
64,192,30679,1,2,0:0:0:0:
192,192,30679,128,0,31009:0:0:0:0:
448,192,31009,128,0,31338:0:0:0:0:
64,192,31338,128,0,31668:0:0:0:0:
192,192,31668,1,2,0:0:0:0:
320,192,31668,1,0,0:0:0:0:
448,192,31998,1,0,0:0:0:0:
320,192,32162,1,0,0:0:0:0:
192,192,32327,1,0,0:0:0:0:
64,192,32657,1,2,0:0:0:0:
448,192,32657,1,0,0:0:0:0:
192,192,32987,1,0,0:0:0:0:
320,192,33151,1,0,0:0:0:0:
448,192,33316,1,0,0:0:0:0:
64,192,33646,1,2,0:0:0:0:
192,192,33646,1,0,0:0:0:0:
448,192,33976,1,0,0:0:0:0:
320,192,34140,1,0,0:0:0:0:
192,192,34305,1,0,0:0:0:0:
64,192,34635,1,2,0:0:0:0:
448,192,34635,1,0,0:0:0:0:
192,192,34965,1,2,0:0:0:0:
320,192,35129,1,0,0:0:0:0:
448,192,35294,1,2,0:0:0:0:
320,192,35459,1,0,0:0:0:0:
64,192,35624,1,2,0:0:0:0:
192,192,35624,1,0,0:0:0:0:
448,192,35954,1,0,0:0:0:0:
320,192,36118,1,0,0:0:0:0:
192,192,36283,1,0,0:0:0:0:
320,192,36613,1,2,0:0:0:0:
448,192,36613,1,0,0:0:0:0:
192,192,36943,1,0,0:0:0:0:
320,192,37107,1,0,0:0:0:0:
448,192,37272,1,0,0:0:0:0:
64,192,37602,1,2,0:0:0:0:
192,192,37602,1,0,0:0:0:0:
448,192,37932,1,0,0:0:0:0:
320,192,38096,1,0,0:0:0:0:
192,192,38261,1,0,0:0:0:0:
320,192,38591,1,2,0:0:0:0:
448,192,38591,1,0,0:0:0:0:
64,192,38921,1,2,0:0:0:0:
192,192,39085,1,0,0:0:0:0:
320,192,39250,1,2,0:0:0:0:
448,192,39415,1,0,0:0:0:0:
192,192,39580,1,2,0:0:0:0:
320,192,39580,1,0,0:0:0:0:
64,192,39910,1,0,0:0:0:0:
192,192,40074,1,0,0:0:0:0:
320,192,40239,1,0,0:0:0:0:
448,192,40404,1,0,0:0:0:0:
64,192,40569,1,2,0:0:0:0:
192,192,40569,1,0,0:0:0:0:
448,192,40899,1,0,0:0:0:0:
320,192,41063,1,0,0:0:0:0:
192,192,41228,1,0,0:0:0:0:
64,192,41393,1,0,0:0:0:0:
320,192,41558,1,2,0:0:0:0:
448,192,41558,1,0,0:0:0:0:
64,192,41888,1,0,0:0:0:0:
192,192,42052,1,0,0:0:0:0:
320,192,42217,1,0,0:0:0:0:
448,192,42382,1,0,0:0:0:0:
64,192,42547,1,2,0:0:0:0:
192,192,42547,1,0,0:0:0:0:
448,192,42877,1,2,0:0:0:0:
320,192,43041,1,0,0:0:0:0:
64,192,43206,1,2,0:0:0:0:
192,192,43371,1,0,0:0:0:0:
320,192,43536,1,2,0:0:0:0:
448,192,43536,1,0,0:0:0:0:
192,192,43866,1,0,0:0:0:0:
64,192,44030,1,0,0:0:0:0:
448,192,44195,1,0,0:0:0:0:
320,192,44360,1,0,0:0:0:0:
64,192,44525,1,2,0:0:0:0:
192,192,44525,1,0,0:0:0:0:
320,192,44855,1,0,0:0:0:0:
448,192,45020,1,0,0:0:0:0:
192,192,45184,1,0,0:0:0:0:
64,192,45349,1,0,0:0:0:0:
192,192,45514,1,2,0:0:0:0:
320,192,45514,1,0,0:0:0:0:
448,192,45844,1,0,0:0:0:0:
320,192,46009,1,0,0:0:0:0:
64,192,46173,1,0,0:0:0:0:
192,192,46338,1,0,0:0:0:0:
320,192,46503,1,2,0:0:0:0:
448,192,46503,1,0,0:0:0:0:
64,192,46668,1,0,0:0:0:0:
192,192,46833,1,0,0:0:0:0:
320,192,46998,1,0,0:0:0:0:
448,192,47162,1,0,0:0:0:0:
320,192,47327,1,0,0:0:0:0:
64,192,47492,1,2,0:0:0:0:
192,192,47492,1,0,0:0:0:0:
320,192,48481,1,2,0:0:0:0:
448,192,48481,1,0,0:0:0:0:
64,192,49470,1,2,0:0:0:0:
192,192,49470,1,0,0:0:0:0:
320,192,49800,128,0,50459:0:0:0:0:
64,192,50459,1,2,0:0:0:0:
192,192,50459,1,0,0:0:0:0:
448,192,51118,128,0,51448:0:0:0:0:
192,192,51448,1,2,0:0:0:0:
320,192,51448,1,0,0:0:0:0:
64,192,51613,1,0,0:0:0:0:
448,192,51778,1,0,0:0:0:0:
320,192,51943,1,2,0:0:0:0:
192,192,52107,1,2,0:0:0:0:
64,192,52272,1,0,0:0:0:0:
192,192,52437,1,0,0:0:0:0:
320,192,52437,1,0,0:0:0:0:
448,192,52602,1,0,0:0:0:0:
320,192,52767,1,2,0:0:0:0:
64,192,52932,1,2,0:0:0:0:
192,192,53096,1,2,0:0:0:0:
320,192,53261,1,0,0:0:0:0:
64,192,53426,1,2,0:0:0:0:
448,192,53426,1,0,0:0:0:0:
320,192,53591,1,0,0:0:0:0:
192,192,53756,1,0,0:0:0:0:
64,192,53921,1,2,0:0:0:0:
320,192,54085,1,2,0:0:0:0:
448,192,54250,1,0,0:0:0:0:
64,192,54415,1,0,0:0:0:0:
192,192,54415,1,0,0:0:0:0:
320,192,54580,1,0,0:0:0:0:
448,192,54745,1,2,0:0:0:0:
320,192,54910,1,2,0:0:0:0:
192,192,55074,1,2,0:0:0:0:
64,192,55239,1,0,0:0:0:0:
320,192,55404,1,2,0:0:0:0:
448,192,55404,1,0,0:0:0:0:
192,192,55569,1,0,0:0:0:0:
64,192,55734,1,0,0:0:0:0:
320,192,55899,1,2,0:0:0:0:
448,192,56063,1,2,0:0:0:0:
320,192,56228,1,0,0:0:0:0:
64,192,56393,1,0,0:0:0:0:
192,192,56393,1,0,0:0:0:0:
448,192,56558,1,0,0:0:0:0:
320,192,56723,1,2,0:0:0:0:
192,192,56888,1,2,0:0:0:0:
64,192,57052,1,2,0:0:0:0:
192,192,57217,1,0,0:0:0:0:
320,192,57382,1,2,0:0:0:0:
448,192,57382,1,0,0:0:0:0:
64,192,57547,1,0,0:0:0:0:
192,192,57712,1,0,0:0:0:0:
320,192,57877,1,2,0:0:0:0:
448,192,58041,1,2,0:0:0:0:
64,192,58206,1,0,0:0:0:0:
192,192,58371,1,0,0:0:0:0:
320,192,58371,1,0,0:0:0:0:
448,192,58536,1,0,0:0:0:0:
64,192,58701,1,2,0:0:0:0:
192,192,58866,1,0,0:0:0:0:
320,192,59030,1,2,0:0:0:0:
448,192,59195,1,0,0:0:0:0:
64,192,59360,1,2,0:0:0:0:
192,192,59360,1,0,0:0:0:0:
320,192,59525,1,0,0:0:0:0:
448,192,59690,1,0,0:0:0:0:
320,192,59855,1,2,0:0:0:0:
192,192,60020,1,2,0:0:0:0:
64,192,60184,1,0,0:0:0:0:
192,192,60349,1,0,0:0:0:0:
448,192,60349,1,0,0:0:0:0:
320,192,60514,1,0,0:0:0:0:
448,192,60679,1,2,0:0:0:0:
192,192,60844,1,0,0:0:0:0:
64,192,61009,1,2,0:0:0:0:
192,192,61173,1,0,0:0:0:0:
320,192,61338,1,2,0:0:0:0:
448,192,61338,1,0,0:0:0:0:
192,192,61503,1,0,0:0:0:0:
64,192,61668,1,0,0:0:0:0:
192,192,61833,1,2,0:0:0:0:
320,192,61998,1,0,0:0:0:0:
448,192,62162,1,0,0:0:0:0:
64,192,62327,128,0,62657:0:0:0:0:
192,192,62327,128,0,62657:0:0:0:0:
448,192,62657,128,2,62987:0:0:0:0:
320,192,62822,128,2,62987:0:0:0:0:
192,192,62987,1,2,0:0:0:0:
64,192,63316,1,2,0:0:0:0:
320,192,63316,1,0,0:0:0:0:
448,192,63646,1,0,0:0:0:70:soft-hitwhistle5.wav
320,192,63811,1,0,0:0:0:70:soft-hitwhistle8.wav
192,192,63976,1,0,0:0:0:70:soft-hitwhistle5.wav
64,192,64140,1,0,0:0:0:70:soft-hitwhistle8.wav
320,192,64305,128,0,64635:0:0:0:70:soft-hitwhistle5.wav
192,192,64635,128,0,64965:0:0:0:70:soft-hitwhistle6.wav
64,192,64965,128,0,65294:0:0:0:70:soft-hitwhistle7.wav
320,192,65294,1,2,0:0:0:0:
448,192,65294,1,0,0:0:0:0:
64,192,65624,1,0,0:0:0:70:soft-hitwhistle5.wav
192,192,65789,1,0,0:0:0:70:soft-hitwhistle8.wav
320,192,65954,1,0,0:0:0:70:soft-hitwhistle5.wav
448,192,66118,1,0,0:0:0:70:soft-hitwhistle8.wav
192,192,66283,128,0,66613:0:0:0:70:soft-hitwhistle13.wav
320,192,66613,128,0,66943:0:0:0:70:soft-hitwhistle4.wav
448,192,66943,128,0,67272:0:0:0:70:soft-hitwhistle14.wav
192,192,67272,1,2,0:0:0:0:
320,192,67272,1,0,0:0:0:0:
64,192,67602,1,0,0:0:0:70:soft-hitwhistle5.wav
192,192,67767,1,0,0:0:0:70:soft-hitwhistle8.wav
448,192,67932,1,0,0:0:0:70:soft-hitwhistle5.wav
320,192,68096,1,0,0:0:0:70:soft-hitwhistle8.wav
192,192,68261,128,0,68591:0:0:0:70:soft-hitwhistle5.wav
320,192,68591,128,0,68921:0:0:0:70:soft-hitwhistle6.wav
448,192,68921,128,0,69250:0:0:0:70:soft-hitwhistle7.wav
192,192,69250,1,2,0:0:0:0:
320,192,69250,1,0,0:0:0:0:
448,192,69580,1,0,0:0:0:70:soft-hitwhistle5.wav
320,192,69745,1,0,0:0:0:70:soft-hitwhistle8.wav
64,192,69910,1,0,0:0:0:70:soft-hitwhistle5.wav
192,192,70074,1,0,0:0:0:70:soft-hitwhistle8.wav
320,192,70239,128,0,70569:0:0:0:70:soft-hitwhistle13.wav
192,192,70569,128,0,70899:0:0:0:70:soft-hitwhistle4.wav
64,192,70899,128,0,71228:0:0:0:70:soft-hitwhistle3.wav
192,192,71228,1,2,0:0:0:0:
320,192,71228,1,0,0:0:0:0:
448,192,71558,1,2,0:0:0:0:
320,192,71723,1,0,0:0:0:70:soft-hitwhistle8.wav
192,192,71888,1,0,0:0:0:70:soft-hitwhistle5.wav
64,192,72052,1,0,0:0:0:70:soft-hitwhistle8.wav
320,192,72217,128,2,72547:0:0:0:0:
448,192,72217,1,0,0:0:0:70:soft-hitwhistle5.wav
192,192,72547,128,2,72877:0:0:0:0:
320,192,72877,128,0,73206:0:0:0:70:soft-hitwhistle7.wav
64,192,73206,1,2,0:0:0:0:
192,192,73206,1,0,0:0:0:0:
448,192,73536,1,2,0:0:0:0:
320,192,73701,1,0,0:0:0:70:soft-hitwhistle8.wav
192,192,73866,1,0,0:0:0:70:soft-hitwhistle5.wav
64,192,74030,1,0,0:0:0:70:soft-hitwhistle8.wav
192,192,74195,128,2,74525:0:0:0:0:
448,192,74195,1,0,0:0:0:70:soft-hitwhistle13.wav
320,192,74525,128,2,74855:0:0:0:0:
192,192,74855,128,0,75184:0:0:0:70:soft-hitwhistle14.wav
64,192,75184,1,2,0:0:0:0:
448,192,75184,1,0,0:0:0:0:
320,192,75514,1,2,0:0:0:0:
448,192,75679,1,0,0:0:0:70:soft-hitwhistle8.wav
192,192,75844,1,0,0:0:0:70:soft-hitwhistle5.wav
64,192,76009,1,0,0:0:0:70:soft-hitwhistle8.wav
320,192,76173,128,2,76503:0:0:0:0:
448,192,76173,1,0,0:0:0:70:soft-hitwhistle5.wav
192,192,76503,128,2,76833:0:0:0:0:
64,192,76833,128,0,77162:0:0:0:70:soft-hitwhistle7.wav
320,192,77162,1,2,0:0:0:0:
448,192,77162,1,0,0:0:0:0:
192,192,77492,1,2,0:0:0:0:
64,192,77657,1,0,0:0:0:70:soft-hitwhistle8.wav
320,192,77822,1,0,0:0:0:70:soft-hitwhistle5.wav
448,192,77987,1,0,0:0:0:70:soft-hitwhistle8.wav
64,192,78151,1,2,0:0:0:0:
192,192,78151,128,0,78481:0:0:0:70:soft-hitwhistle13.wav
320,192,78481,128,2,78811:0:0:0:0:
448,192,78811,128,0,79140:0:0:0:70:soft-hitwhistle3.wav
192,192,79140,1,2,0:0:0:0:
320,192,79140,1,0,0:0:0:0:
64,192,79305,1,0,0:0:0:0:
192,192,79470,1,0,0:0:0:0:
320,192,79635,1,0,0:0:0:0:
448,192,79800,1,2,0:0:0:0:
320,192,79965,1,0,0:0:0:0:
64,192,80129,1,0,0:0:0:0:
192,192,80129,1,0,0:0:0:0:
448,192,80294,1,0,0:0:0:0:
320,192,80459,1,2,0:0:0:0:
192,192,80624,1,0,0:0:0:0:
64,192,80789,1,2,0:0:0:0:
192,192,80954,1,0,0:0:0:0:
320,192,81118,1,2,0:0:0:0:
448,192,81118,1,0,0:0:0:0:
64,192,81283,1,0,0:0:0:0:
192,192,81448,1,0,0:0:0:0:
320,192,81613,1,0,0:0:0:0:
448,192,81778,1,2,0:0:0:0:
64,192,81943,1,0,0:0:0:0:
192,192,82107,1,0,0:0:0:0:
320,192,82107,1,0,0:0:0:0:
448,192,82272,1,0,0:0:0:0:
320,192,82437,1,2,0:0:0:0:
192,192,82602,1,0,0:0:0:0:
64,192,82767,1,2,0:0:0:0:
448,192,82932,1,2,0:0:0:0:
192,192,83096,1,2,0:0:0:0:
320,192,83096,1,0,0:0:0:0:
64,192,83261,1,0,0:0:0:0:
448,192,83426,1,0,0:0:0:0:
320,192,83591,1,0,0:0:0:0:
64,192,83756,1,2,0:0:0:0:
192,192,83921,1,0,0:0:0:0:
320,192,84085,1,0,0:0:0:0:
448,192,84085,1,0,0:0:0:0:
64,192,84250,1,0,0:0:0:0:
192,192,84415,1,2,0:0:0:0:
320,192,84580,1,0,0:0:0:0:
448,192,84745,1,2,0:0:0:0:
192,192,84910,1,0,0:0:0:0:
320,192,85074,1,2,0:0:0:0:
448,192,85074,1,0,0:0:0:0:
192,192,85239,1,0,0:0:0:0:
64,192,85404,1,0,0:0:0:0:
448,192,85569,1,0,0:0:0:0:
320,192,85734,1,2,0:0:0:0:
192,192,85899,1,0,0:0:0:0:
64,192,86063,1,0,0:0:0:0:
448,192,86063,1,0,0:0:0:0:
320,192,86228,1,0,0:0:0:0:
192,192,86393,128,2,86723:0:0:0:0:
64,192,86723,128,2,87052:0:0:0:0:
320,192,87052,1,2,0:0:0:0:
448,192,87052,1,0,0:0:0:0:
192,192,87217,1,0,0:0:0:0:
64,192,87382,1,0,0:0:0:0:
320,192,87547,1,0,0:0:0:0:
448,192,87712,1,2,0:0:0:0:
192,192,87877,1,0,0:0:0:0:
64,192,88041,1,0,0:0:0:0:
320,192,88041,1,0,0:0:0:0:
448,192,88206,1,0,0:0:0:0:
64,192,88371,1,2,0:0:0:0:
192,192,88481,1,0,0:0:0:0:
320,192,88591,1,0,0:0:0:0:
448,192,88701,1,2,0:0:0:0:
320,192,88866,1,0,0:0:0:0:
64,192,89030,1,2,0:0:0:0:
192,192,89030,1,0,0:0:0:0:
320,192,89195,1,0,0:0:0:0:
448,192,89360,1,0,0:0:0:0:
192,192,89525,1,0,0:0:0:0:
64,192,89690,1,2,0:0:0:0:
320,192,89855,1,0,0:0:0:0:
64,192,90020,1,0,0:0:0:0:
448,192,90020,1,0,0:0:0:0:
320,192,90184,1,0,0:0:0:0:
64,192,90349,1,2,0:0:0:0:
192,192,90459,1,0,0:0:0:0:
320,192,90569,1,0,0:0:0:0:
448,192,90679,1,2,0:0:0:0:
320,192,90844,1,0,0:0:0:0:
64,192,91009,1,2,0:0:0:0:
192,192,91009,1,0,0:0:0:0:
448,192,91173,1,0,0:0:0:0:
320,192,91338,1,0,0:0:0:0:
192,192,91503,1,0,0:0:0:0:
64,192,91668,1,2,0:0:0:0:
320,192,91833,1,0,0:0:0:0:
192,192,91998,1,0,0:0:0:0:
448,192,91998,1,0,0:0:0:0:
64,192,92162,1,0,0:0:0:0:
192,192,92327,1,2,0:0:0:0:
320,192,92437,1,0,0:0:0:0:
448,192,92547,1,0,0:0:0:0:
192,192,92657,1,2,0:0:0:0:
64,192,92822,1,0,0:0:0:0:
192,192,92987,1,2,0:0:0:0:
320,192,92987,1,0,0:0:0:0:
448,192,93151,1,0,0:0:0:0:
320,192,93316,1,0,0:0:0:0:
192,192,93481,1,0,0:0:0:0:
64,192,93646,1,2,0:0:0:0:
192,192,93811,1,0,0:0:0:0:
320,192,93976,1,0,0:0:0:0:
448,192,93976,1,0,0:0:0:0:
192,192,94140,1,0,0:0:0:0:
64,192,94305,1,2,0:0:0:0:
320,192,94470,1,0,0:0:0:0:
448,192,94635,1,2,0:0:0:0:
192,192,94800,1,0,0:0:0:0:
64,192,94965,1,2,0:0:0:0:
448,192,94965,1,0,0:0:0:0:
192,192,95954,1,2,0:0:0:0:
320,192,95954,1,0,0:0:0:0:
64,192,96943,1,2,0:0:0:0:
192,192,96943,1,0,0:0:0:0:
448,192,97272,128,0,97932:0:0:0:0:
192,192,97932,1,2,0:0:0:0:
320,192,97932,1,0,0:0:0:0:
64,192,98591,128,0,98921:0:0:0:0:
192,192,98921,1,2,0:0:0:0:
320,192,98921,1,0,0:0:0:0:
448,192,99085,1,0,0:0:0:0:
320,192,99250,1,0,0:0:0:0:
64,192,99415,1,2,0:0:0:0:
192,192,99580,1,2,0:0:0:0:
320,192,99745,1,0,0:0:0:0:
64,192,99910,1,0,0:0:0:0:
448,192,99910,1,0,0:0:0:0:
320,192,100074,1,0,0:0:0:0:
192,192,100239,1,2,0:0:0:0:
320,192,100404,1,2,0:0:0:0:
448,192,100569,1,2,0:0:0:0:
64,192,100734,1,0,0:0:0:0:
192,192,100899,1,2,0:0:0:0:
320,192,100899,1,0,0:0:0:0:
448,192,101063,1,0,0:0:0:0:
64,192,101228,1,0,0:0:0:0:
192,192,101393,1,2,0:0:0:0:
320,192,101558,1,2,0:0:0:0:
448,192,101723,1,0,0:0:0:0:
64,192,101888,1,0,0:0:0:0:
192,192,101888,1,0,0:0:0:0:
320,192,102052,1,0,0:0:0:0:
448,192,102217,1,2,0:0:0:0:
192,192,102382,1,2,0:0:0:0:
64,192,102547,1,2,0:0:0:0:
320,192,102712,1,0,0:0:0:0:
64,192,102877,1,2,0:0:0:0:
448,192,102877,1,0,0:0:0:0:
320,192,103041,1,0,0:0:0:0:
192,192,103206,1,0,0:0:0:0:
64,192,103371,1,2,0:0:0:0:
448,192,103536,1,2,0:0:0:0:
320,192,103701,1,0,0:0:0:0:
64,192,103866,1,0,0:0:0:0:
192,192,103866,1,0,0:0:0:0:
320,192,104030,1,0,0:0:0:0:
448,192,104195,1,2,0:0:0:0:
320,192,104360,1,2,0:0:0:0:
192,192,104525,1,2,0:0:0:0:
64,192,104525,1,0,0:0:0:0:
320,192,104855,1,2,0:0:0:0:
448,192,104855,1,0,0:0:0:0:
64,192,105020,1,0,0:0:0:0:
192,192,105184,1,0,0:0:0:0:
320,192,105349,1,2,0:0:0:0:
448,192,105514,1,2,0:0:0:0:
320,192,105679,1,0,0:0:0:0:
64,192,105844,1,0,0:0:0:0:
192,192,105844,1,0,0:0:0:0:
448,192,106009,1,0,0:0:0:0:
320,192,106173,1,2,0:0:0:0:
64,192,106338,1,0,0:0:0:0:
192,192,106503,1,2,0:0:0:0:
320,192,106668,1,0,0:0:0:0:
64,192,106833,1,2,0:0:0:0:
448,192,106833,1,0,0:0:0:0:
320,192,106998,1,0,0:0:0:0:
192,192,107162,1,0,0:0:0:0:
320,192,107327,1,2,0:0:0:0:
448,192,107492,1,2,0:0:0:0:
320,192,107657,1,0,0:0:0:0:
64,192,107822,1,0,0:0:0:0:
192,192,107822,1,0,0:0:0:0:
320,192,107987,1,0,0:0:0:0:
448,192,108151,1,2,0:0:0:0:
320,192,108316,1,0,0:0:0:0:
192,192,108481,1,2,0:0:0:0:
64,192,108646,1,0,0:0:0:0:
320,192,108811,1,2,0:0:0:0:
448,192,108811,1,0,0:0:0:0:
192,192,108976,1,0,0:0:0:0:
320,192,109140,1,0,0:0:0:0:
448,192,109305,1,2,0:0:0:0:
192,192,109470,1,0,0:0:0:0:
64,192,109635,1,0,0:0:0:0:
320,192,109800,128,0,110129:0:0:0:0:
448,192,109800,128,0,110129:0:0:0:0:
64,192,110129,128,2,110459:0:0:0:0:
192,192,110294,128,2,110459:0:0:0:0:
320,192,110459,1,2,0:0:0:0:
64,192,110789,1,2,0:0:0:0:
192,192,110899,1,0,0:0:0:0:
320,192,111009,1,0,0:0:0:0:
448,192,111118,1,2,0:0:0:0:
320,192,111228,1,0,0:0:0:0:
192,192,111338,1,0,0:0:0:0:
64,192,111448,128,0,111778:0:0:0:0:
192,192,111778,1,2,0:0:0:0:
448,192,111888,1,0,0:0:0:0:
320,192,111998,1,0,0:0:0:0:
192,192,112107,1,2,0:0:0:0:
64,192,112217,1,0,0:0:0:0:
448,192,112327,1,0,0:0:0:0:
320,192,112437,128,0,112767:0:0:0:0:
64,192,112767,1,2,0:0:0:0:
192,192,112877,1,0,0:0:0:0:
320,192,112987,1,0,0:0:0:0:
448,192,113096,1,2,0:0:0:0:
64,192,113206,1,0,0:0:0:0:
192,192,113316,1,0,0:0:0:0:
448,192,113426,128,0,113756:0:0:0:0:
320,192,113756,1,2,0:0:0:0:
192,192,113866,1,0,0:0:0:0:
64,192,113976,1,0,0:0:0:0:
448,192,114085,1,2,0:0:0:0:
320,192,114195,1,0,0:0:0:0:
192,192,114305,1,0,0:0:0:0:
64,192,114415,128,0,114745:0:0:0:0:
192,192,114745,1,2,0:0:0:0:
448,192,114855,1,0,0:0:0:0:
320,192,114965,1,0,0:0:0:0:
192,192,115074,1,2,0:0:0:0:
64,192,115184,1,0,0:0:0:0:
320,192,115294,1,0,0:0:0:0:
448,192,115404,128,0,115734:0:0:0:0:
64,192,115734,1,2,0:0:0:0:
192,192,115844,1,0,0:0:0:0:
320,192,115954,1,0,0:0:0:0:
448,192,116063,1,2,0:0:0:0:
64,192,116173,1,0,0:0:0:0:
192,192,116283,1,0,0:0:0:0:
320,192,116393,128,0,116723:0:0:0:0:
64,192,116723,1,2,0:0:0:0:
192,192,116833,1,0,0:0:0:0:
448,192,116943,1,0,0:0:0:0:
320,192,117052,1,2,0:0:0:0:
64,192,117162,1,0,0:0:0:0:
192,192,117272,1,0,0:0:0:0:
320,192,117382,128,0,117712:0:0:0:0:
64,192,117712,1,2,0:0:0:0:
448,192,117822,1,0,0:0:0:0:
320,192,117932,1,0,0:0:0:0:
192,192,118041,1,0,0:0:0:0:
64,192,118151,1,0,0:0:0:0:
448,192,118261,1,0,0:0:0:0:
192,192,118371,128,2,118701:0:0:0:0:
448,192,118701,1,2,0:0:0:0:
320,192,118811,1,0,0:0:0:0:
64,192,118921,1,0,0:0:0:0:
192,192,119030,1,2,0:0:0:0:
448,192,119140,1,0,0:0:0:0:
320,192,119250,1,0,0:0:0:0:
64,192,119360,128,2,119690:0:0:0:0:
448,192,119690,1,0,0:0:0:0:
320,192,119800,1,0,0:0:0:0:
64,192,119910,1,0,0:0:0:0:
192,192,120020,1,2,0:0:0:0:
448,192,120129,1,0,0:0:0:0:
320,192,120239,1,0,0:0:0:0:
192,192,120349,128,2,120679:0:0:0:0:
64,192,120679,1,2,0:0:0:0:
448,192,120789,1,0,0:0:0:0:
320,192,120899,1,0,0:0:0:0:
192,192,121009,1,2,0:0:0:0:
64,192,121118,1,0,0:0:0:0:
448,192,121228,1,0,0:0:0:0:
320,192,121338,128,2,121668:0:0:0:0:
192,192,121668,1,0,0:0:0:0:
64,192,121778,1,0,0:0:0:0:
448,192,121888,1,0,0:0:0:0:
320,192,121998,1,2,0:0:0:0:
192,192,122107,1,0,0:0:0:0:
64,192,122217,1,0,0:0:0:0:
448,192,122327,128,2,122657:0:0:0:0:
192,192,122657,1,2,0:0:0:0:
64,192,122767,1,0,0:0:0:0:
320,192,122877,1,0,0:0:0:0:
448,192,122987,1,0,0:0:0:0:
192,192,123096,1,0,0:0:0:0:
64,192,123206,1,0,0:0:0:0:
448,192,123316,128,2,123646:0:0:0:0:
64,192,123646,1,0,0:0:0:0:
192,192,123756,1,0,0:0:0:0:
320,192,123866,1,0,0:0:0:0:
448,192,123976,1,2,0:0:0:0:
64,192,124085,1,0,0:0:0:0:
192,192,124195,1,0,0:0:0:0:
320,192,124305,128,2,124635:0:0:0:0:
64,192,124635,1,2,0:0:0:0:
192,192,124745,1,0,0:0:0:0:
448,192,124855,1,0,0:0:0:0:
320,192,124965,1,2,0:0:0:0:
192,192,125074,1,0,0:0:0:0:
64,192,125184,1,0,0:0:0:0:
192,192,125294,128,2,125624:0:0:0:0:
320,192,125624,128,0,125954:0:0:0:0:
448,192,125624,128,0,125954:0:0:0:0:
64,192,125954,128,2,126283:0:0:0:0:
192,192,126118,128,2,126283:0:0:0:0:
320,192,126283,1,2,0:0:0:0:
64,192,126613,1,0,0:0:0:70:soft-hitwhistle3.wav
448,192,126613,128,0,126943:0:0:0:0:
320,192,126943,128,0,127272:0:0:0:70:soft-hitwhistle5.wav
192,192,127272,128,0,127602:0:0:0:70:soft-hitwhistle7.wav
64,192,127602,1,0,0:0:0:70:soft-hitwhistle5.wav
448,192,127602,1,0,0:0:0:0:
320,192,127767,1,0,0:0:0:0:
192,192,127932,1,0,0:0:0:70:soft-hitwhistle3.wav
64,192,128096,1,0,0:0:0:0:
320,192,128261,1,0,0:0:0:70:soft-hitwhistle10.wav
192,192,128426,1,0,0:0:0:0:
64,192,128591,128,0,128921:0:0:0:70:soft-hitwhistle3.wav
448,192,128591,1,0,0:0:0:0:
192,192,128921,128,0,129250:0:0:0:70:soft-hitwhistle5.wav
320,192,129250,128,0,129580:0:0:0:70:soft-hitwhistle7.wav
64,192,129580,1,0,0:0:0:70:soft-hitwhistle5.wav
448,192,129580,1,0,0:0:0:0:
192,192,129745,1,0,0:0:0:0:
320,192,129910,1,0,0:0:0:70:soft-hitwhistle11.wav
448,192,130074,1,0,0:0:0:0:
64,192,130239,1,0,0:0:0:70:soft-hitwhistle6.wav
192,192,130404,1,0,0:0:0:0:
320,192,130569,128,0,130899:0:0:0:70:soft-hitwhistle3.wav
448,192,130569,1,0,0:0:0:0:
192,192,130899,128,0,131228:0:0:0:70:soft-hitwhistle5.wav
320,192,131228,128,0,131558:0:0:0:70:soft-hitwhistle7.wav
64,192,131558,1,0,0:0:0:70:soft-hitwhistle5.wav
448,192,131558,1,0,0:0:0:0:
192,192,131723,1,0,0:0:0:0:
320,192,131888,1,0,0:0:0:70:soft-hitwhistle3.wav
448,192,132052,1,0,0:0:0:0:
320,192,132217,1,0,0:0:0:70:soft-hitwhistle10.wav
192,192,132382,1,0,0:0:0:0:
64,192,132547,1,0,0:0:0:70:soft-hitwhistle3.wav
320,192,132547,128,0,132877:0:0:0:0:
448,192,132877,128,0,133206:0:0:0:70:soft-hitwhistle5.wav
192,192,133206,128,0,133536:0:0:0:70:soft-hitwhistle7.wav
320,192,133536,1,0,0:0:0:70:soft-hitwhistle5.wav
448,192,133536,1,0,0:0:0:0:
64,192,133701,1,0,0:0:0:0:
192,192,133866,1,0,0:0:0:70:soft-hitwhistle11.wav
448,192,134030,1,0,0:0:0:0:
320,192,134195,1,0,0:0:0:70:soft-hitwhistle6.wav
64,192,134360,1,0,0:0:0:0:
192,192,134525,128,0,134855:0:0:0:70:soft-hitwhistle3.wav
448,192,134855,128,0,135184:0:0:0:70:soft-hitwhistle5.wav
320,192,135184,128,0,135514:0:0:0:70:soft-hitwhistle7.wav
64,192,135514,128,0,136173:0:0:0:70:soft-hitwhistle5.wav
192,192,135514,128,0,136173:0:0:0:0:
448,192,136503,128,0,136833:0:0:0:70:soft-hitwhistle3.wav
320,192,136833,128,0,137162:0:0:0:70:soft-hitwhistle5.wav
64,192,137162,128,0,137492:0:0:0:70:soft-hitwhistle7.wav
192,192,137492,128,0,138151:0:0:0:70:soft-hitwhistle5.wav
320,192,137492,128,0,138151:0:0:0:0:
448,192,138481,128,0,138811:0:0:0:70:soft-hitwhistle3.wav
320,192,138811,128,0,139140:0:0:0:70:soft-hitwhistle5.wav
192,192,139140,128,0,139470:0:0:0:70:soft-hitwhistle7.wav
64,192,139470,128,0,140129:0:0:0:70:soft-hitwhistle5.wav
448,192,139470,128,0,140129:0:0:0:0:
192,192,140459,128,0,140789:0:0:0:70:soft-hitwhistle3.wav
64,192,140789,128,0,141118:0:0:0:70:soft-hitwhistle5.wav
192,192,141118,128,0,141448:0:0:0:70:soft-hitwhistle7.wav
320,192,141448,128,0,142107:0:0:0:70:soft-hitwhistle5.wav
448,192,141448,128,0,142107:0:0:0:0:
