osu file format v14

[General]
AudioFilename: audio.mp3
AudioLeadIn: 0
PreviewTime: 105614
Countdown: 0
SampleSet: Normal
StackLeniency: 0.7
Mode: 1
LetterboxInBreaks: 0
WidescreenStoryboard: 0

[Editor]
DistanceSpacing: 0.6
BeatDivisor: 4
GridSize: 32
TimelineZoom: 2.3

[Metadata]
Title:Ponko2 Girlish
TitleUnicode:Ponko2 Girlish
Artist:t+pazolite feat. Nanahira
ArtistUnicode:t+pazolite feat. ななひら
Creator:Plua-
Version:Pure
Source:
Tags:chs
BeatmapID:1241441
BeatmapSetID:586168

[Difficulty]
HPDrainRate:5
CircleSize:2
OverallDifficulty:5
ApproachRate:5
SliderMultiplier:1.3999999666214
SliderTickRate:1

[Events]
//Background and Video events
0,0,"ponko.jpg",0,80
//Break Periods
2,39814,46814
2,125914,132014
//Storyboard Layer 0 (Background)
//Storyboard Layer 1 (Fail)
//Storyboard Layer 2 (Pass)
//Storyboard Layer 3 (Foreground)
//Storyboard Sound Samples

[TimingPoints]
1214,300,4,1,0,100,1,0
1214,-200,4,1,0,30,0,0
9614,-125,4,1,0,50,0,0
10889,-106.382978723404,4,1,0,70,0,0
20114,-106.382978723404,4,1,0,20,0,0
20164,-105.263157894737,4,1,0,31,0,0
20214,-104.166666666667,4,1,0,42,0,0
20264,-103.092783505155,4,1,0,53,0,0
20314,-102.040816326531,4,1,0,64,0,0
20364,-101.010101010101,4,1,0,75,0,0
20414,-100,4,1,0,100,0,0
23864,-101.010101010101,4,1,0,100,0,0
23914,-102.040816326531,4,1,0,100,0,0
23964,-103.092783505155,4,1,0,100,0,0
24014,-104.166666666667,4,1,0,100,0,0
24164,-106.382978723404,4,1,0,100,0,0
24314,-108.695652173913,4,1,0,100,0,0
24464,-111.111111111111,4,1,0,100,0,0
24614,-108.695652173913,4,1,0,100,0,0
24764,-106.382978723404,4,1,0,100,0,0
24914,-104.166666666667,4,1,0,100,0,0
25064,-102.040816326531,4,1,0,100,0,0
25214,-100,4,1,0,100,0,0
33464,-101.010101010101,4,1,0,100,0,0
33514,-102.040816326531,4,1,0,100,0,0
33564,-103.092783505155,4,1,0,100,0,0
33614,-104.166666666667,4,1,0,100,0,0
33764,-106.382978723404,4,1,0,100,0,0
33914,-108.695652173913,4,1,0,100,0,0
34064,-111.111111111111,4,1,0,100,0,0
34214,-108.695652173913,4,1,0,100,0,0
34364,-106.382978723404,4,1,0,100,0,0
34514,-104.166666666667,4,1,0,100,0,0
34664,-102.040816326531,4,1,0,100,0,0
34814,-100,4,1,0,100,0,0
39014,-25,4,1,0,100,0,0
39614,-100,4,1,0,100,0,0
48014,-133.333333333333,4,1,0,30,0,0
57464,-133.333333333333,4,1,0,60,0,0
57614,-125,4,1,0,60,0,0
58814,-125,4,1,0,80,0,0
58964,-117.647058823529,4,1,0,80,0,0
68489,-121.951219512195,4,1,0,60,0,0
69614,-126.582278481013,4,1,0,60,0,0
70814,-131.578947368421,4,1,0,60,0,0
73214,-136.986301369863,4,1,0,60,0,0
74414,-142.857142857143,4,1,0,60,0,0
75614,-149.253731343284,4,1,0,60,0,0
78014,-105.263157894737,4,1,0,80,0,0
83864,-104.166666666667,4,1,0,80,0,0
84614,-103.092783505155,4,1,0,80,0,0
85814,-102.040816326531,4,1,0,80,0,0
86414,-101.010101010101,4,1,0,80,0,0
87614,-100,4,1,0,100,0,1
90614,-101.010101010101,4,1,0,100,0,1
90689,-102.040816326531,4,1,0,100,0,1
90764,-103.092783505155,4,1,0,100,0,1
90839,-104.166666666667,4,1,0,100,0,1
90914,-105.263157894737,4,1,0,100,0,1
90989,-106.382978723404,4,1,0,100,0,1
91064,-107.52688172043,4,1,0,100,0,1
91364,-105.263157894737,4,1,0,100,0,1
91514,-104.166666666667,4,1,0,100,0,1
91664,-103.092783505155,4,1,0,100,0,1
91964,-102.040816326531,4,1,0,100,0,1
92114,-101.010101010101,4,1,0,100,0,1
92414,-100,4,1,0,100,0,1
95864,-100,4,1,0,100,0,0
96164,-121.951219512195,4,1,0,100,0,0
96314,-119.047619047619,4,1,0,100,0,0
96464,-116.279069767442,4,1,0,100,0,0
96614,-113.636363636364,4,1,0,100,0,0
96764,-111.111111111111,4,1,0,100,0,0
96914,-108.695652173913,4,1,0,100,0,0
96989,-106.382978723404,4,1,0,100,0,0
97064,-104.166666666667,4,1,0,100,0,0
97139,-102.040816326531,4,1,0,100,0,0
97214,-100,4,1,0,100,0,1
100214,-101.010101010101,4,1,0,100,0,1
100289,-102.040816326531,4,1,0,100,0,1
100364,-103.092783505155,4,1,0,100,0,1
100439,-104.166666666667,4,1,0,100,0,1
100514,-105.263157894737,4,1,0,100,0,1
100589,-106.382978723404,4,1,0,100,0,1
100664,-107.52688172043,4,1,0,100,0,1
100964,-105.263157894737,4,1,0,100,0,1
101114,-104.166666666667,4,1,0,100,0,1
101264,-103.092783505155,4,1,0,100,0,1
101564,-102.040816326531,4,1,0,100,0,1
101714,-101.010101010101,4,1,0,100,0,1
102014,-100,4,1,0,100,0,1
104414,-90.9090909090909,4,1,0,100,0,1
104451,-90.9090909090909,4,1,0,100,0,0
104564,-80,4,1,0,100,0,1
104601,-80,4,1,0,100,0,0
104714,-68.9655172413793,4,1,0,100,0,1
104751,-68.9655172413793,4,1,0,100,0,0
104864,-58.8235294117647,4,1,0,100,0,1
104901,-58.8235294117647,4,1,0,100,0,0
105014,-50,4,1,0,100,0,1
105051,-50,4,1,0,100,0,0
105164,-42.5531914893617,4,1,0,100,0,1
105201,-42.5531914893617,4,1,0,100,0,0
105314,-36.3636363636364,4,1,0,100,0,1
105351,-36.3636363636364,4,1,0,100,0,0
105464,-31.25,4,1,0,100,0,1
105501,-31.25,4,1,0,100,0,0
105614,-111.111111111111,4,1,0,60,0,0
106214,-111.111111111111,4,1,0,100,0,1
106289,-105.263157894737,4,1,0,100,0,0
106514,-105.263157894737,4,1,0,100,0,1
106589,-100,4,1,0,100,0,0
106814,-100,4,1,0,100,0,1
109814,-101.010101010101,4,1,0,100,0,1
109889,-102.040816326531,4,1,0,100,0,1
109964,-103.092783505155,4,1,0,100,0,1
110039,-104.166666666667,4,1,0,100,0,1
110114,-105.263157894737,4,1,0,100,0,1
110189,-106.382978723404,4,1,0,100,0,1
110264,-107.52688172043,4,1,0,100,0,1
110339,-108.695652173913,4,1,0,100,0,1
110414,-109.89010989011,4,1,0,100,0,1
110564,-108.695652173913,4,1,0,100,0,1
110714,-107.52688172043,4,1,0,100,0,1
110864,-106.382978723404,4,1,0,100,0,1
111014,-105.263157894737,4,1,0,100,0,1
111164,-104.166666666667,4,1,0,100,0,1
111314,-103.092783505155,4,1,0,100,0,1
111614,-100,4,1,0,100,0,1
115064,-100,4,1,0,100,0,0
115364,-121.951219512195,4,1,0,100,0,0
115514,-119.047619047619,4,1,0,100,0,0
115664,-116.279069767442,4,1,0,100,0,0
115814,-113.636363636364,4,1,0,100,0,0
115964,-111.111111111111,4,1,0,100,0,0
116114,-108.695652173913,4,1,0,100,0,0
116189,-106.382978723404,4,1,0,100,0,0
116264,-104.166666666667,4,1,0,100,0,0
116339,-102.040816326531,4,1,0,100,0,0
116414,-100,4,1,0,100,0,1
119114,-101.010101010101,4,1,0,100,0,1
119189,-102.040816326531,4,1,0,100,0,1
119264,-103.092783505155,4,1,0,100,0,1
119339,-104.166666666667,4,1,0,100,0,1
119414,-105.263157894737,4,1,0,100,0,1
119489,-106.382978723404,4,1,0,100,0,1
119564,-107.52688172043,4,1,0,100,0,1
119639,-108.695652173913,4,1,0,100,0,1
119714,-109.89010989011,4,1,0,100,0,1
119864,-108.695652173913,4,1,0,100,0,1
120164,-106.382978723404,4,1,0,100,0,1
120314,-105.263157894737,4,1,0,100,0,1
120464,-104.166666666667,4,1,0,100,0,1
120764,-102.040816326531,4,1,0,100,0,1
120914,-101.010101010101,4,1,0,100,0,1
121214,-100,4,1,0,100,0,1
123614,-90.9090909090909,4,1,0,100,0,1
123726,-90.9090909090909,4,1,0,100,0,0
123764,-80,4,1,0,100,0,1
123876,-80,4,1,0,100,0,0
123914,-68.9655172413793,4,1,0,100,0,1
124026,-68.9655172413793,4,1,0,100,0,0
124064,-58.8235294117647,4,1,0,100,0,1
124176,-58.8235294117647,4,1,0,100,0,0
124214,-50,4,1,0,100,0,1
124326,-50,4,1,0,100,0,0
124364,-42.5531914893617,4,1,0,100,0,1
124476,-42.5531914893617,4,1,0,100,0,0
124514,-36.3636363636364,4,1,0,100,0,1
124626,-36.3636363636364,4,1,0,100,0,0
124664,-31.25,4,1,0,100,0,1
124776,-31.25,4,1,0,100,0,0
124814,-100,4,1,0,100,0,1
125376,-100,4,1,0,100,0,0
125414,-100,4,1,0,100,0,1
125676,-100,4,1,0,100,0,0
125714,-100,4,1,0,100,0,1
126014,-100,4,1,0,100,0,0
133214,-133.333333333333,4,1,0,50,0,0
133289,-136.986301369863,4,1,0,50,0,0
133439,-140.845070422535,4,1,0,50,0,0
133589,-144.927536231884,4,1,0,50,0,0
133739,-149.253731343284,4,1,0,50,0,0
133889,-153.846153846154,4,1,0,50,0,0
134039,-158.730158730159,4,1,0,50,0,0
134189,-163.934426229508,4,1,0,50,0,0
134339,-169.491525423729,4,1,0,50,0,0
134489,-161.290322580645,4,1,0,50,0,0
134639,-153.846153846154,4,1,0,50,0,0
134789,-147.058823529412,4,1,0,50,0,0
134939,-140.845070422535,4,1,0,50,0,0
135239,-117.647058823529,4,1,0,50,0,0
135614,-100,4,1,0,100,0,0
136214,-200,4,1,0,50,0,0
136664,-100,4,1,0,100,0,0
137564,-200,4,1,0,50,0,0
137714,-100,4,1,0,100,0,0
138614,-200,4,1,0,50,0,0
139064,-100,4,1,0,100,0,0
139964,-200,4,1,0,50,0,0
140114,-100,4,1,0,100,0,0
140414,-125,4,1,0,65,0,0
145214,-133.333333333333,4,1,0,60,0,0
145289,-142.857142857143,4,1,0,55,0,0
146414,-166.666666666667,4,1,0,50,0,0
147614,-200,4,1,0,50,0,0
150014,-196.078431372549,4,1,0,28,0,0
150089,-192.307692307692,4,1,0,29,0,0
150164,-188.679245283019,4,1,0,31,0,0
150239,-185.185185185185,4,1,0,32,0,0
150314,-181.818181818182,4,1,0,34,0,0
150389,-178.571428571429,4,1,0,35,0,0
150464,-175.438596491228,4,1,0,37,0,0
150539,-172.413793103448,4,1,0,38,0,0
150614,-169.491525423729,4,1,0,40,0,0
150689,-166.666666666667,4,1,0,41,0,0
150764,-163.934426229508,4,1,0,43,0,0
150839,-161.290322580645,4,1,0,44,0,0
150914,-158.730158730159,4,1,0,46,0,0
150989,-156.25,4,1,0,47,0,0
151064,-153.846153846154,4,1,0,49,0,0
151139,-151.515151515152,4,1,0,50,0,0
151214,-149.253731343284,4,1,0,52,0,0
151289,-147.058823529412,4,1,0,53,0,0
151364,-144.927536231884,4,1,0,55,0,0
151439,-142.857142857143,4,1,0,56,0,0
151514,-140.845070422535,4,1,0,58,0,0
151589,-138.888888888889,4,1,0,59,0,0
151664,-136.986301369863,4,1,0,61,0,0
151739,-135.135135135135,4,1,0,62,0,0
151814,-133.333333333333,4,1,0,64,0,0
151889,-131.578947368421,4,1,0,65,0,0
151964,-129.87012987013,4,1,0,67,0,0
152039,-128.205128205128,4,1,0,68,0,0
152114,-126.582278481013,4,1,0,70,0,0
152189,-125,4,1,0,71,0,0
152264,-123.456790123457,4,1,0,73,0,0
152339,-121.951219512195,4,1,0,74,0,0
152414,-120.481927710843,4,1,0,76,0,0
152489,-119.047619047619,4,1,0,77,0,0
152564,-117.647058823529,4,1,0,79,0,0
152639,-116.279069767442,4,1,0,80,0,0
152714,-114.942528735632,4,1,0,82,0,0
152789,-113.636363636364,4,1,0,83,0,0
152864,-112.359550561798,4,1,0,85,0,0
152939,-111.111111111111,4,1,0,86,0,0
153014,-109.89010989011,4,1,0,88,0,0
153089,-108.695652173913,4,1,0,89,0,0
153164,-107.52688172043,4,1,0,91,0,0
153239,-106.382978723404,4,1,0,92,0,0
153314,-105.263157894737,4,1,0,94,0,0
153389,-104.166666666667,4,1,0,95,0,0
153464,-103.092783505155,4,1,0,97,0,0
153539,-102.040816326531,4,1,0,98,0,0
153614,-101.010101010101,4,1,0,100,0,0
154814,-100,4,1,0,100,0,1
157814,-101.010101010101,4,1,0,100,0,1
157889,-102.040816326531,4,1,0,100,0,1
157964,-103.092783505155,4,1,0,100,0,1
158039,-104.166666666667,4,1,0,100,0,1
158114,-105.263157894737,4,1,0,100,0,1
158189,-106.382978723404,4,1,0,100,0,1
158264,-107.52688172043,4,1,0,100,0,1
158564,-105.263157894737,4,1,0,100,0,1
158714,-104.166666666667,4,1,0,100,0,1
158864,-103.092783505155,4,1,0,100,0,1
159164,-102.040816326531,4,1,0,100,0,1
159314,-101.010101010101,4,1,0,100,0,1
159614,-100,4,1,0,100,0,1
163064,-100,4,1,0,100,0,0
163364,-121.951219512195,4,1,0,100,0,0
163514,-119.047619047619,4,1,0,100,0,0
163664,-116.279069767442,4,1,0,100,0,0
163814,-113.636363636364,4,1,0,100,0,0
163964,-111.111111111111,4,1,0,100,0,0
164114,-108.695652173913,4,1,0,100,0,0
164189,-106.382978723404,4,1,0,100,0,0
164264,-104.166666666667,4,1,0,100,0,0
164339,-102.040816326531,4,1,0,100,0,0
164414,-100,4,1,0,100,0,1
167414,-101.010101010101,4,1,0,100,0,1
167489,-102.040816326531,4,1,0,100,0,1
167564,-103.092783505155,4,1,0,100,0,1
167639,-104.166666666667,4,1,0,100,0,1
167714,-105.263157894737,4,1,0,100,0,1
167789,-106.382978723404,4,1,0,100,0,1
167864,-107.52688172043,4,1,0,100,0,1
168164,-105.263157894737,4,1,0,100,0,1
168314,-104.166666666667,4,1,0,100,0,1
168464,-103.092783505155,4,1,0,100,0,1
168764,-102.040816326531,4,1,0,100,0,1
168914,-101.010101010101,4,1,0,100,0,1
169214,-100,4,1,0,100,0,1
171614,-90.9090909090909,4,1,0,100,0,1
171651,-90.9090909090909,4,1,0,100,0,0
171764,-80,4,1,0,100,0,1
171801,-80,4,1,0,100,0,0
171914,-68.9655172413793,4,1,0,100,0,1
171951,-68.9655172413793,4,1,0,100,0,0
172064,-58.8235294117647,4,1,0,100,0,1
172101,-58.8235294117647,4,1,0,100,0,0
172214,-50,4,1,0,100,0,1
172251,-50,4,1,0,100,0,0
172364,-42.5531914893617,4,1,0,100,0,1
172401,-42.5531914893617,4,1,0,100,0,0
172514,-36.3636363636364,4,1,0,100,0,1
172551,-36.3636363636364,4,1,0,100,0,0
172664,-31.25,4,1,0,100,0,1
172701,-31.25,4,1,0,100,0,0
172814,-111.111111111111,4,1,0,60,0,0
173414,-111.111111111111,4,1,0,100,0,1
173489,-111.111111111111,4,1,0,100,0,0
173714,-105.263157894737,4,1,0,100,0,1
173789,-105.263157894737,4,1,0,100,0,0
174014,-100,4,1,0,100,0,1
177014,-101.010101010101,4,1,0,100,0,1
177089,-102.040816326531,4,1,0,100,0,1
177164,-103.092783505155,4,1,0,100,0,1
177239,-104.166666666667,4,1,0,100,0,1
177314,-105.263157894737,4,1,0,100,0,1
177389,-106.382978723404,4,1,0,100,0,1
177464,-107.52688172043,4,1,0,100,0,1
177539,-108.695652173913,4,1,0,100,0,1
177614,-109.89010989011,4,1,0,100,0,1
177764,-108.695652173913,4,1,0,100,0,1
177914,-107.52688172043,4,1,0,100,0,1
178064,-106.382978723404,4,1,0,100,0,1
178214,-105.263157894737,4,1,0,100,0,1
178364,-104.166666666667,4,1,0,100,0,1
178514,-103.092783505155,4,1,0,100,0,1
178814,-100,4,1,0,100,0,1
182264,-100,4,1,0,100,0,0
182564,-121.951219512195,4,1,0,100,0,0
182714,-119.047619047619,4,1,0,100,0,0
182864,-116.279069767442,4,1,0,100,0,0
183014,-113.636363636364,4,1,0,100,0,0
183164,-111.111111111111,4,1,0,100,0,0
183314,-108.695652173913,4,1,0,100,0,0
183389,-106.382978723404,4,1,0,100,0,0
183464,-104.166666666667,4,1,0,100,0,0
183539,-102.040816326531,4,1,0,100,0,0
183614,-100,4,1,0,100,0,1
186314,-101.010101010101,4,1,0,100,0,1
186389,-102.040816326531,4,1,0,100,0,1
186464,-103.092783505155,4,1,0,100,0,1
186539,-104.166666666667,4,1,0,100,0,1
186614,-105.263157894737,4,1,0,100,0,1
186689,-106.382978723404,4,1,0,100,0,1
186764,-107.52688172043,4,1,0,100,0,1
186839,-108.695652173913,4,1,0,100,0,1
186914,-109.89010989011,4,1,0,100,0,1
187064,-108.695652173913,4,1,0,100,0,1
187364,-106.382978723404,4,1,0,100,0,1
187514,-105.263157894737,4,1,0,100,0,1
187664,-104.166666666667,4,1,0,100,0,1
187964,-102.040816326531,4,1,0,100,0,1
188114,-101.010101010101,4,1,0,100,0,1
188414,-100,4,1,0,100,0,1
190814,-90.9090909090909,4,1,0,100,0,1
190926,-90.9090909090909,4,1,0,100,0,0
190964,-80,4,1,0,100,0,1
191076,-80,4,1,0,100,0,0
191114,-68.9655172413793,4,1,0,100,0,1
191226,-68.9655172413793,4,1,0,100,0,0
191264,-58.8235294117647,4,1,0,100,0,1
191376,-58.8235294117647,4,1,0,100,0,0
191414,-50,4,1,0,100,0,1
191526,-50,4,1,0,100,0,0
191564,-42.5531914893617,4,1,0,100,0,1
191676,-42.5531914893617,4,1,0,100,0,0
191714,-36.3636363636364,4,1,0,100,0,1
191826,-36.3636363636364,4,1,0,100,0,0
191864,-31.25,4,1,0,100,0,1
191976,-31.25,4,1,0,100,0,0
192014,-100,4,1,0,60,0,0
193214,-100,4,1,0,100,0,1
196664,-101.010101010101,4,1,0,100,0,1
196714,-102.040816326531,4,1,0,100,0,1
196764,-103.092783505155,4,1,0,100,0,1
196814,-104.166666666667,4,1,0,100,0,1
196964,-106.382978723404,4,1,0,100,0,1
197114,-108.695652173913,4,1,0,100,0,1
197264,-111.111111111111,4,1,0,100,0,1
197414,-108.695652173913,4,1,0,100,0,1
197564,-106.382978723404,4,1,0,100,0,1
197714,-104.166666666667,4,1,0,100,0,1
197864,-102.040816326531,4,1,0,100,0,1
198014,-100,4,1,0,100,0,1
201426,-100,4,1,0,100,0,0
201464,-103.092783505155,4,1,0,100,0,1
201539,-103.092783505155,4,1,0,100,0,0
201764,-106.382978723404,4,1,0,100,0,1
201839,-106.382978723404,4,1,0,100,0,0
202064,-109.89010989011,4,1,0,100,0,1
202101,-109.89010989011,4,1,0,100,0,0
202139,-109.89010989011,4,1,0,100,0,1
202176,-109.89010989011,4,1,0,100,0,0
202364,-106.382978723404,4,1,0,100,0,1
202439,-106.382978723404,4,1,0,100,0,0
202514,-103.092783505155,4,1,0,100,0,1
202664,-103.092783505155,4,1,0,100,0,0
202814,-100,4,1,0,100,0,1
206264,-101.010101010101,4,1,0,100,0,1
206314,-102.040816326531,4,1,0,100,0,1
206364,-103.092783505155,4,1,0,100,0,1
206414,-104.166666666667,4,1,0,100,0,1
206564,-106.382978723404,4,1,0,100,0,1
206714,-108.695652173913,4,1,0,100,0,1
206864,-111.111111111111,4,1,0,100,0,1
207014,-108.695652173913,4,1,0,100,0,1
207164,-106.382978723404,4,1,0,100,0,1
207314,-104.166666666667,4,1,0,100,0,1
207464,-102.040816326531,4,1,0,100,0,1
207614,-100,4,1,0,100,0,1
211814,-25,4,1,0,100,0,0
212414,-100,4,1,0,100,0,0
215864,-101.010101010101,4,1,0,100,0,0
215914,-102.040816326531,4,1,0,100,0,0
215964,-103.092783505155,4,1,0,100,0,0
216014,-104.166666666667,4,1,0,100,0,0
216164,-106.382978723404,4,1,0,100,0,0
216314,-108.695652173913,4,1,0,100,0,0
216464,-111.111111111111,4,1,0,100,0,0
216614,-108.695652173913,4,1,0,100,0,0
216764,-106.382978723404,4,1,0,100,0,0
216914,-104.166666666667,4,1,0,100,0,0
217064,-102.040816326531,4,1,0,100,0,0
217214,-100,4,1,0,100,0,0
220214,-101.010101010101,4,1,0,100,0,0
220289,-102.040816326531,4,1,0,100,0,0
220364,-103.092783505155,4,1,0,100,0,0
220439,-104.166666666667,4,1,0,100,0,0
220514,-105.263157894737,4,1,0,100,0,0
220589,-106.382978723404,4,1,0,100,0,0
220664,-107.52688172043,4,1,0,100,0,0
220739,-108.695652173913,4,1,0,100,0,0
220814,-109.89010989011,4,1,0,100,0,0
220964,-107.52688172043,4,1,0,100,0,0
221114,-105.263157894737,4,1,0,100,0,0
221264,-109.89010989011,4,1,0,100,0,0
221414,-114.942528735632,4,1,0,100,0,0
221564,-112.359550561798,4,1,0,100,0,0
221714,-109.89010989011,4,1,0,100,0,0
221864,-114.942528735632,4,1,0,100,0,0
222014,-120.481927710843,4,1,0,20,0,0

[HitObjects]
256,192,1214,5,0,0:0:0:0:
256,192,2414,1,0,0:0:0:0:
256,192,3014,1,8,0:0:0:0:
256,192,3614,1,0,0:0:0:0:
256,192,4514,1,8,0:0:0:0:
256,192,4664,1,8,0:0:0:0:
256,192,4814,1,0,0:0:0:0:
256,192,5714,1,8,0:0:0:0:
256,192,6014,1,0,0:0:0:0:
256,192,6914,1,8,0:0:0:0:
256,192,7214,1,0,0:0:0:0:
256,192,7814,1,8,0:0:0:0:
256,192,8414,2,0,L|352:128,2,105
256,192,9614,1,8,0:0:0:0:
256,192,9764,1,0,0:0:0:0:
256,192,9839,1,8,0:0:0:0:
256,192,9914,1,8,0:0:0:0:
256,192,10064,1,0,0:0:0:0:
256,192,10139,1,8,0:0:0:0:
256,192,10214,1,8,0:0:0:0:
256,192,10364,1,8,0:0:0:0:
256,192,10439,1,0,0:0:0:0:
256,192,10514,1,8,0:0:0:0:
256,192,10664,1,8,0:0:0:0:
256,192,10739,1,8,0:0:0:0:
256,192,10814,1,4,0:0:0:0:
256,192,10964,1,8,0:0:0:0:
256,192,11114,1,8,0:0:0:0:
256,192,11264,1,8,0:0:0:0:
256,192,11414,1,4,0:0:0:0:
256,192,11564,1,8,0:0:0:0:
256,192,11639,1,8,0:0:0:0:
256,192,11714,1,8,0:0:0:0:
256,192,11864,1,4,0:0:0:0:
256,192,12164,1,8,0:0:0:0:
256,192,12314,1,4,0:0:0:0:
256,192,12464,1,8,0:0:0:0:
256,192,12614,1,4,0:0:0:0:
256,192,12764,1,0,0:0:0:0:
256,192,12814,1,0,0:0:0:0:
256,192,12864,1,0,0:0:0:0:
256,192,12914,1,8,0:0:0:0:
256,192,13214,1,4,0:0:0:0:
256,192,13364,1,8,0:0:0:0:
256,192,13439,1,8,0:0:0:0:
256,192,13514,1,8,0:0:0:0:
256,192,13664,1,8,0:0:0:0:
256,192,13814,1,4,0:0:0:0:
256,192,13964,1,8,0:0:0:0:
256,192,14039,1,0,0:0:0:0:
256,192,14114,1,8,0:0:0:0:
256,192,14264,1,4,0:0:0:0:
256,192,14564,1,8,0:0:0:0:
256,192,14714,1,4,0:0:0:0:
256,192,14864,1,8,0:0:0:0:
256,192,15014,1,0,0:0:0:0:
256,192,15089,1,8,0:0:0:0:
256,192,15164,1,8,0:0:0:0:
256,192,15239,1,8,0:0:0:0:
256,192,15314,1,0,0:0:0:0:
256,192,15464,1,0,0:0:0:0:
256,192,15614,1,4,0:0:0:0:
256,192,15764,1,8,0:0:0:0:
256,192,15839,1,8,0:0:0:0:
256,192,15914,1,0,0:0:0:0:
256,192,16064,1,4,0:0:0:0:
256,192,16214,1,12,0:0:0:0:
256,192,16364,1,0,0:0:0:0:
256,192,16439,1,0,0:0:0:0:
256,192,16514,1,12,0:0:0:0:
256,192,16664,1,4,0:0:0:0:
256,192,16964,1,8,0:0:0:0:
256,192,17114,1,4,0:0:0:0:
256,192,17264,1,0,0:0:0:0:
256,192,17414,1,12,0:0:0:0:
256,192,17564,1,0,0:0:0:0:
256,192,17614,1,0,0:0:0:0:
256,192,17664,1,0,0:0:0:0:
256,192,17714,1,8,0:0:0:0:
256,192,18014,1,4,0:0:0:0:
256,192,18164,1,8,0:0:0:0:
256,192,18239,1,8,0:0:0:0:
256,192,18314,1,0,0:0:0:0:
256,192,18464,1,4,0:0:0:0:
256,192,18614,1,12,0:0:0:0:
256,192,18764,1,0,0:0:0:0:
256,192,18839,1,0,0:0:0:0:
256,192,18914,1,12,0:0:0:0:
256,192,19064,1,4,0:0:0:0:
256,192,19364,1,0,0:0:0:0:
256,192,19514,1,12,0:0:0:0:
256,192,19664,1,8,0:0:0:0:
256,192,19814,1,4,0:0:0:0:
256,192,20114,1,8,0:0:0:0:
256,192,20164,1,8,0:0:0:0:
256,192,20214,1,8,0:0:0:0:
256,192,20264,1,8,0:0:0:0:
256,192,20314,1,8,0:0:0:0:
256,192,20364,1,8,0:0:0:0:
256,192,20414,1,0,0:0:0:0:
256,192,20714,1,0,0:0:0:0:
256,192,20789,1,0,0:0:0:0:
256,192,20864,1,0,0:0:0:0:
256,192,20939,1,0,0:0:0:0:
256,192,21014,1,8,0:0:0:0:
256,192,21314,1,0,0:0:0:0:
256,192,21464,1,0,0:0:0:0:
256,192,21614,1,8,0:0:0:0:
256,192,21764,1,0,0:0:0:0:
256,192,21839,1,0,0:0:0:0:
256,192,21914,1,8,0:0:0:0:
256,192,22064,1,0,0:0:0:0:
256,192,22214,1,8,0:0:0:0:
256,192,22289,1,0,0:0:0:0:
256,192,22364,1,8,0:0:0:0:
256,192,22439,1,0,0:0:0:0:
256,192,22514,1,8,0:0:0:0:
256,192,22589,1,0,0:0:0:0:
256,192,22664,1,8,0:0:0:0:
256,192,22739,1,8,0:0:0:0:
256,192,22814,1,0,0:0:0:0:
256,192,22889,1,8,0:0:0:0:
256,192,22964,1,8,0:0:0:0:
256,192,23039,1,0,0:0:0:0:
256,192,23114,1,8,0:0:0:0:
256,192,23264,1,8,0:0:0:0:
256,192,23414,1,0,0:0:0:0:
256,192,23489,1,8,0:0:0:0:
256,192,23564,1,8,0:0:0:0:
256,192,23639,1,8,0:0:0:0:
256,192,23714,1,0,0:0:0:0:
256,192,23864,1,8,0:0:0:0:
256,192,23914,1,0,0:0:0:0:
256,192,23964,1,0,0:0:0:0:
256,192,24014,1,8,0:0:0:0:
256,192,24164,1,8,0:0:0:0:
256,192,24314,1,0,0:0:0:0:
256,192,24464,1,0,0:0:0:0:
256,192,24614,1,8,0:0:0:0:
256,192,24764,1,8,0:0:0:0:
256,192,24914,1,8,0:0:0:0:
256,192,25064,1,8,0:0:0:0:
256,192,25214,1,4,0:0:0:0:
256,192,25514,1,0,0:0:0:0:
256,192,25589,1,0,0:0:0:0:
256,192,25664,1,0,0:0:0:0:
256,192,25739,1,0,0:0:0:0:
256,192,25814,1,8,0:0:0:0:
256,192,26114,1,0,0:0:0:0:
256,192,26264,1,0,0:0:0:0:
256,192,26414,1,8,0:0:0:0:
256,192,26564,1,0,0:0:0:0:
256,192,26639,1,0,0:0:0:0:
256,192,26714,1,8,0:0:0:0:
256,192,26864,1,0,0:0:0:0:
256,192,27014,1,8,0:0:0:0:
256,192,27089,1,0,0:0:0:0:
256,192,27164,1,8,0:0:0:0:
256,192,27239,1,0,0:0:0:0:
256,192,27314,1,8,0:0:0:0:
256,192,27389,1,0,0:0:0:0:
256,192,27464,1,8,0:0:0:0:
256,192,27539,1,8,0:0:0:0:
256,192,27614,1,0,0:0:0:0:
256,192,27689,1,8,0:0:0:0:
256,192,27764,1,8,0:0:0:0:
256,192,27839,1,0,0:0:0:0:
256,192,27914,1,8,0:0:0:0:
256,192,28064,1,8,0:0:0:0:
256,192,28214,1,8,0:0:0:0:
256,192,28289,1,8,0:0:0:0:
256,192,28364,1,8,0:0:0:0:
256,192,28439,1,0,0:0:0:0:
256,192,28514,1,0,0:0:0:0:
256,192,28589,1,8,0:0:0:0:
256,192,28664,1,8,0:0:0:0:
256,192,28739,1,8,0:0:0:0:
256,192,28814,1,4,0:0:0:0:
256,192,28964,1,12,0:0:0:0:
256,192,29114,1,0,0:0:0:0:
256,192,29264,1,12,0:0:0:0:
256,192,29414,1,4,0:0:0:0:
256,192,29564,1,12,0:0:0:0:
256,192,29714,1,0,0:0:0:0:
256,192,29864,1,12,0:0:0:0:
256,192,30014,1,4,0:0:0:0:
256,192,30164,1,0,0:0:0:0:
256,192,30314,1,12,0:0:0:0:
256,192,30464,1,0,0:0:0:0:
256,192,30614,1,12,0:0:0:0:
256,192,30764,1,8,0:0:0:0:
256,192,30914,1,4,0:0:0:0:
256,192,31214,1,12,0:0:0:0:
256,192,31364,1,0,0:0:0:0:
256,192,31514,1,12,0:0:0:0:
256,192,31664,1,8,0:0:0:0:
256,192,31814,1,4,0:0:0:0:
256,192,31964,1,0,0:0:0:0:
256,192,32114,1,12,0:0:0:0:
256,192,32414,1,4,0:0:0:0:
256,192,32564,1,0,0:0:0:0:
256,192,32714,1,12,0:0:0:0:
256,192,32864,1,0,0:0:0:0:
256,192,33014,1,12,0:0:0:0:
256,192,33164,1,12,0:0:0:0:
256,192,33314,1,4,0:0:0:0:
256,192,33464,1,8,0:0:0:0:
256,192,33514,1,0,0:0:0:0:
256,192,33564,1,0,0:0:0:0:
256,192,33614,1,8,0:0:0:0:
256,192,33764,1,8,0:0:0:0:
256,192,33914,1,0,0:0:0:0:
256,192,34064,1,0,0:0:0:0:
256,192,34214,1,8,0:0:0:0:
256,192,34364,1,8,0:0:0:0:
256,192,34514,1,8,0:0:0:0:
256,192,34664,1,8,0:0:0:0:
256,192,34814,1,4,0:0:0:0:
256,192,34964,1,0,0:0:0:0:
256,192,35114,1,12,0:0:0:0:
256,192,35264,1,0,0:0:0:0:
256,192,35414,1,12,0:0:0:0:
256,192,35564,1,8,0:0:0:0:
256,192,35714,1,4,0:0:0:0:
256,192,35864,1,12,0:0:0:0:
256,192,36164,1,8,0:0:0:0:
256,192,36314,1,4,0:0:0:0:
256,192,36464,1,12,0:0:0:0:
256,192,36614,1,12,0:0:0:0:
256,192,36764,1,0,0:0:0:0:
256,192,36914,1,12,0:0:0:0:
256,192,37064,1,12,0:0:0:0:
256,192,37364,1,4,0:0:0:0:
256,192,37514,1,12,0:0:0:0:
256,192,37664,1,12,0:0:0:0:
256,192,37964,1,4,0:0:0:0:
256,192,38114,1,4,0:0:0:0:
256,192,38264,1,12,0:0:0:0:
256,192,38414,1,4,0:0:0:0:
256,192,38564,1,4,0:0:0:0:
256,192,38714,1,0,0:0:0:0:
256,192,38789,1,0,0:0:0:0:
256,192,38864,1,0,0:0:0:0:
256,192,38939,1,0,0:0:0:0:
256,192,39014,12,0,39389,0:0:0:0:
256,192,39614,5,4,0:0:0:0:
256,192,48014,5,8,0:0:0:0:
256,192,48164,1,0,0:0:0:0:
256,192,48239,1,8,0:0:0:0:
256,192,48314,1,8,0:0:0:0:
256,192,48464,1,0,0:0:0:0:
256,192,48539,1,8,0:0:0:0:
256,192,48614,1,8,0:0:0:0:
256,192,48764,1,8,0:0:0:0:
256,192,48839,1,0,0:0:0:0:
256,192,48914,1,8,0:0:0:0:
256,192,49064,1,8,0:0:0:0:
256,192,49139,1,8,0:0:0:0:
256,192,49214,1,4,0:0:0:0:
256,192,49514,1,4,0:0:0:0:
256,192,49814,1,8,0:0:0:0:
256,192,49964,1,8,0:0:0:0:
256,192,50114,1,8,0:0:0:0:
256,192,50264,1,4,0:0:0:0:
256,192,50414,1,0,0:0:0:0:
256,192,50714,1,4,0:0:0:0:
256,192,51014,1,8,0:0:0:0:
256,192,51164,1,0,0:0:0:0:
256,192,51314,1,8,0:0:0:0:
256,192,51464,1,8,0:0:0:0:
256,192,51614,1,4,0:0:0:0:
256,192,51914,1,4,0:0:0:0:
256,192,52214,1,8,0:0:0:0:
256,192,52364,1,8,0:0:0:0:
256,192,52514,1,8,0:0:0:0:
256,192,52664,1,4,0:0:0:0:
256,192,52814,1,0,0:0:0:0:
256,192,53114,1,4,0:0:0:0:
256,192,53414,1,8,0:0:0:0:
256,192,53564,1,0,0:0:0:0:
256,192,53714,1,8,0:0:0:0:
256,192,53864,1,8,0:0:0:0:
256,192,54014,1,4,0:0:0:0:
256,192,54314,1,4,0:0:0:0:
256,192,54614,1,8,0:0:0:0:
256,192,54764,1,8,0:0:0:0:
256,192,54914,1,8,0:0:0:0:
256,192,55064,1,4,0:0:0:0:
256,192,55214,1,0,0:0:0:0:
256,192,55514,1,4,0:0:0:0:
256,192,55814,1,0,0:0:0:0:
256,192,55964,1,8,0:0:0:0:
256,192,56114,1,8,0:0:0:0:
256,192,56264,1,8,0:0:0:0:
256,192,56414,1,4,0:0:0:0:
256,192,56714,1,4,0:0:0:0:
256,192,57014,1,8,0:0:0:0:
256,192,57164,1,8,0:0:0:0:
256,192,57314,1,8,0:0:0:0:
256,192,57464,1,4,0:0:0:0:
256,192,57764,1,4,0:0:0:0:
256,192,57914,1,8,0:0:0:0:
256,192,58064,1,4,0:0:0:0:
256,192,58214,1,8,0:0:0:0:
256,192,58364,1,4,0:0:0:0:
256,192,58514,1,8,0:0:0:0:
256,192,58664,1,8,0:0:0:0:
256,192,58814,1,4,0:0:0:0:
256,192,59114,1,8,0:0:0:0:
256,192,59414,1,8,0:0:0:0:
256,192,59489,1,8,0:0:0:0:
256,192,59564,1,4,0:0:0:0:
256,192,59714,1,8,0:0:0:0:
256,192,59864,1,8,0:0:0:0:
256,192,60014,1,4,0:0:0:0:
256,192,60239,1,8,0:0:0:0:
256,192,60314,1,8,0:0:0:0:
256,192,60464,1,8,0:0:0:0:
256,192,60614,1,8,0:0:0:0:
256,192,60689,1,8,0:0:0:0:
256,192,60764,1,4,0:0:0:0:
256,192,60914,1,0,0:0:0:0:
256,192,61064,1,8,0:0:0:0:
256,192,61214,1,4,0:0:0:0:
256,192,61439,1,8,0:0:0:0:
256,192,61514,1,8,0:0:0:0:
256,192,61664,1,0,0:0:0:0:
256,192,61814,1,8,0:0:0:0:
256,192,61889,1,8,0:0:0:0:
256,192,61964,1,4,0:0:0:0:
256,192,62114,1,8,0:0:0:0:
256,192,62264,1,8,0:0:0:0:
256,192,62414,1,4,0:0:0:0:
256,192,62639,1,8,0:0:0:0:
256,192,62714,1,8,0:0:0:0:
256,192,62864,1,0,0:0:0:0:
256,192,63014,1,8,0:0:0:0:
256,192,63089,1,8,0:0:0:0:
256,192,63164,1,4,0:0:0:0:
256,192,63314,1,0,0:0:0:0:
256,192,63464,1,8,0:0:0:0:
256,192,63614,1,4,0:0:0:0:
256,192,63764,1,8,0:0:0:0:
256,192,63839,1,8,0:0:0:0:
256,192,63914,1,8,0:0:0:0:
256,192,64064,1,0,0:0:0:0:
256,192,64214,1,8,0:0:0:0:
256,192,64289,1,8,0:0:0:0:
256,192,64364,1,4,0:0:0:0:
256,192,64514,1,8,0:0:0:0:
256,192,64664,1,8,0:0:0:0:
256,192,64814,1,4,0:0:0:0:
256,192,64964,1,8,0:0:0:0:
256,192,65039,1,8,0:0:0:0:
256,192,65114,1,8,0:0:0:0:
256,192,65264,1,0,0:0:0:0:
256,192,65414,1,8,0:0:0:0:
256,192,65489,1,8,0:0:0:0:
256,192,65564,1,4,0:0:0:0:
256,192,65714,1,0,0:0:0:0:
256,192,65864,1,8,0:0:0:0:
256,192,66014,1,4,0:0:0:0:
256,192,66164,1,8,0:0:0:0:
256,192,66239,1,8,0:0:0:0:
256,192,66314,1,8,0:0:0:0:
256,192,66464,1,0,0:0:0:0:
256,192,66614,1,8,0:0:0:0:
256,192,66689,1,8,0:0:0:0:
256,192,66764,1,4,0:0:0:0:
256,192,67064,1,4,0:0:0:0:
256,192,67364,1,4,0:0:0:0:
256,192,67664,1,4,0:0:0:0:
256,192,67964,1,4,0:0:0:0:
256,192,68264,1,8,0:0:0:0:
256,192,68414,1,4,0:0:0:0:
256,192,68564,1,0,0:0:0:0:
256,192,68714,1,8,0:0:0:0:
256,192,68864,1,8,0:0:0:0:
256,192,69014,1,0,0:0:0:0:
256,192,69164,1,8,0:0:0:0:
256,192,69314,1,8,0:0:0:0:
256,192,69464,1,0,0:0:0:0:
256,192,69764,1,0,0:0:0:0:
256,192,69914,1,8,0:0:0:0:
256,192,70064,1,8,0:0:0:0:
256,192,70214,1,0,0:0:0:0:
256,192,70364,1,8,0:0:0:0:
256,192,70514,1,8,0:0:0:0:
256,192,70664,1,0,0:0:0:0:
256,192,70964,1,0,0:0:0:0:
256,192,71114,1,8,0:0:0:0:
256,192,71264,1,8,0:0:0:0:
256,192,71414,1,0,0:0:0:0:
256,192,71564,1,8,0:0:0:0:
256,192,71714,1,0,0:0:0:0:
256,192,71864,1,8,0:0:0:0:
256,192,72164,1,8,0:0:0:0:
256,192,72464,1,8,0:0:0:0:
256,192,72764,1,8,0:0:0:0:
256,192,72914,1,8,0:0:0:0:
256,192,73364,1,0,0:0:0:0:
256,192,73514,1,8,0:0:0:0:
256,192,73664,1,8,0:0:0:0:
256,192,73814,1,0,0:0:0:0:
256,192,73964,1,8,0:0:0:0:
256,192,74114,1,8,0:0:0:0:
256,192,74264,1,0,0:0:0:0:
256,192,74564,1,0,0:0:0:0:
256,192,74714,1,8,0:0:0:0:
256,192,74864,1,8,0:0:0:0:
256,192,75014,1,0,0:0:0:0:
256,192,75164,1,8,0:0:0:0:
256,192,75314,1,8,0:0:0:0:
256,192,75464,1,0,0:0:0:0:
256,192,75764,1,0,0:0:0:0:
256,192,75914,1,8,0:0:0:0:
256,192,76064,1,8,0:0:0:0:
256,192,76214,1,0,0:0:0:0:
256,192,76364,1,8,0:0:0:0:
256,192,76514,1,0,0:0:0:0:
256,192,76664,1,8,0:0:0:0:
256,192,76964,1,8,0:0:0:0:
256,192,77264,1,8,0:0:0:0:
256,192,77564,1,8,0:0:0:0:
256,192,77714,1,0,0:0:0:0:
256,192,78014,1,4,0:0:0:0:
256,192,78164,1,0,0:0:0:0:
256,192,78239,1,8,0:0:0:0:
256,192,78314,1,8,0:0:0:0:
256,192,78464,1,0,0:0:0:0:
256,192,78614,1,12,0:0:0:0:
256,192,78764,1,8,0:0:0:0:
256,192,78914,1,8,0:0:0:0:
256,192,78989,1,8,0:0:0:0:
256,192,79064,1,0,0:0:0:0:
256,192,79139,1,8,0:0:0:0:
256,192,79214,1,4,0:0:0:0:
256,192,79364,1,0,0:0:0:0:
256,192,79439,1,8,0:0:0:0:
256,192,79514,1,8,0:0:0:0:
256,192,79664,1,0,0:0:0:0:
256,192,79814,1,12,0:0:0:0:
256,192,79964,1,8,0:0:0:0:
256,192,80039,1,8,0:0:0:0:
256,192,80114,1,0,0:0:0:0:
256,192,80189,1,8,0:0:0:0:
256,192,80264,1,8,0:0:0:0:
256,192,80414,1,4,0:0:0:0:
256,192,80564,1,0,0:0:0:0:
256,192,80639,1,8,0:0:0:0:
256,192,80714,1,8,0:0:0:0:
256,192,80864,1,0,0:0:0:0:
256,192,81014,1,12,0:0:0:0:
256,192,81164,1,8,0:0:0:0:
256,192,81314,1,8,0:0:0:0:
256,192,81389,1,8,0:0:0:0:
256,192,81464,1,0,0:0:0:0:
256,192,81539,1,8,0:0:0:0:
256,192,81614,1,0,0:0:0:0:
256,192,81714,1,0,0:0:0:0:
256,192,81814,1,0,0:0:0:0:
256,192,81914,1,8,0:0:0:0:
256,192,82014,1,8,0:0:0:0:
256,192,82114,1,8,0:0:0:0:
256,192,82214,1,4,0:0:0:0:
256,192,82514,1,4,0:0:0:0:
256,192,82814,1,4,0:0:0:0:
256,192,82964,1,0,0:0:0:0:
256,192,83039,1,8,0:0:0:0:
256,192,83114,1,8,0:0:0:0:
256,192,83264,1,8,0:0:0:0:
256,192,83414,1,0,0:0:0:0:
256,192,83489,1,8,0:0:0:0:
256,192,83564,1,8,0:0:0:0:
256,192,83714,1,8,0:0:0:0:
256,192,83864,1,8,0:0:0:0:
256,192,83939,1,8,0:0:0:0:
256,192,84014,1,0,0:0:0:0:
256,192,84089,1,8,0:0:0:0:
256,192,84164,1,8,0:0:0:0:
256,192,84239,1,0,0:0:0:0:
256,192,84314,1,8,0:0:0:0:
256,192,84464,1,8,0:0:0:0:
256,192,84614,1,0,0:0:0:0:
256,192,84689,1,8,0:0:0:0:
256,192,84764,1,8,0:0:0:0:
256,192,84914,1,8,0:0:0:0:
256,192,85064,1,0,0:0:0:0:
256,192,85139,1,8,0:0:0:0:
256,192,85214,1,8,0:0:0:0:
256,192,85364,1,0,0:0:0:0:
256,192,85439,1,8,0:0:0:0:
256,192,85514,1,8,0:0:0:0:
256,192,85664,1,8,0:0:0:0:
256,192,85814,1,8,0:0:0:0:
256,192,85889,1,8,0:0:0:0:
256,192,85964,1,0,0:0:0:0:
256,192,86039,1,8,0:0:0:0:
256,192,86114,1,8,0:0:0:0:
256,192,86264,1,8,0:0:0:0:
256,192,86414,1,8,0:0:0:0:
256,192,86489,1,8,0:0:0:0:
256,192,86564,1,0,0:0:0:0:
256,192,86639,1,8,0:0:0:0:
256,192,86714,1,8,0:0:0:0:
256,192,86789,1,0,0:0:0:0:
256,192,86864,1,8,0:0:0:0:
256,192,86939,1,8,0:0:0:0:
256,192,87014,1,4,0:0:0:0:
256,192,87614,1,4,0:0:0:0:
256,192,87764,1,0,0:0:0:0:
256,192,87839,1,0,0:0:0:0:
256,192,87914,1,0,0:0:0:0:
256,192,87989,1,0,0:0:0:0:
256,192,88064,1,8,0:0:0:0:
256,192,88214,1,0,0:0:0:0:
256,192,88289,1,0,0:0:0:0:
256,192,88364,1,0,0:0:0:0:
256,192,88439,1,0,0:0:0:0:
256,192,88514,1,8,0:0:0:0:
256,192,88589,1,8,0:0:0:0:
256,192,88664,1,0,0:0:0:0:
256,192,88814,1,4,0:0:0:0:
256,192,88964,1,0,0:0:0:0:
256,192,89039,1,0,0:0:0:0:
256,192,89114,1,8,0:0:0:0:
256,192,89189,1,0,0:0:0:0:
256,192,89264,1,8,0:0:0:0:
256,192,89414,1,0,0:0:0:0:
256,192,89489,1,0,0:0:0:0:
256,192,89564,1,8,0:0:0:0:
256,192,89639,1,0,0:0:0:0:
256,192,89714,1,8,0:0:0:0:
256,192,89789,1,0,0:0:0:0:
256,192,89864,1,0,0:0:0:0:
256,192,90014,1,4,0:0:0:0:
256,192,90164,1,0,0:0:0:0:
256,192,90239,1,8,0:0:0:0:
256,192,90314,1,0,0:0:0:0:
256,192,90389,1,0,0:0:0:0:
256,192,90464,1,8,0:0:0:0:
256,192,90614,1,0,0:0:0:0:
256,192,90689,1,8,0:0:0:0:
256,192,90764,1,0,0:0:0:0:
256,192,90839,1,8,0:0:0:0:
256,192,90914,1,8,0:0:0:0:
256,192,90989,1,0,0:0:0:0:
256,192,91064,1,8,0:0:0:0:
256,192,91364,1,8,0:0:0:0:
256,192,91514,1,0,0:0:0:0:
256,192,91664,1,8,0:0:0:0:
256,192,91964,1,8,0:0:0:0:
256,192,92114,1,8,0:0:0:0:
256,192,92414,1,4,0:0:0:0:
256,192,92564,1,0,0:0:0:0:
256,192,92639,1,0,0:0:0:0:
256,192,92714,1,8,0:0:0:0:
256,192,92789,1,8,0:0:0:0:
256,192,92864,1,8,0:0:0:0:
256,192,93014,1,0,0:0:0:0:
256,192,93089,1,0,0:0:0:0:
256,192,93164,1,8,0:0:0:0:
256,192,93239,1,8,0:0:0:0:
256,192,93314,1,8,0:0:0:0:
256,192,93389,1,8,0:0:0:0:
256,192,93464,1,0,0:0:0:0:
256,192,93614,1,4,0:0:0:0:
256,192,93764,1,0,0:0:0:0:
256,192,93839,1,8,0:0:0:0:
256,192,93914,1,8,0:0:0:0:
256,192,93989,1,0,0:0:0:0:
256,192,94064,1,8,0:0:0:0:
256,192,94214,1,0,0:0:0:0:
256,192,94289,1,8,0:0:0:0:
256,192,94364,1,8,0:0:0:0:
256,192,94439,1,0,0:0:0:0:
256,192,94514,1,8,0:0:0:0:
256,192,94589,1,0,0:0:0:0:
256,192,94664,1,0,0:0:0:0:
256,192,94814,1,4,0:0:0:0:
256,192,94964,1,0,0:0:0:0:
256,192,95039,1,8,0:0:0:0:
256,192,95114,1,8,0:0:0:0:
256,192,95189,1,8,0:0:0:0:
256,192,95264,1,8,0:0:0:0:
256,192,95414,1,0,0:0:0:0:
256,192,95489,1,8,0:0:0:0:
256,192,95564,1,8,0:0:0:0:
256,192,95639,1,8,0:0:0:0:
256,192,95714,1,4,0:0:0:0:
256,192,95864,1,4,0:0:0:0:
256,192,96164,1,0,0:0:0:0:
256,192,96314,1,8,0:0:0:0:
256,192,96464,1,8,0:0:0:0:
256,192,96614,1,0,0:0:0:0:
256,192,96764,1,8,0:0:0:0:
256,192,96914,1,8,0:0:0:0:
256,192,96989,1,8,0:0:0:0:
256,192,97064,1,8,0:0:0:0:
256,192,97139,1,8,0:0:0:0:
256,192,97214,1,4,0:0:0:0:
256,192,97364,1,0,0:0:0:0:
256,192,97439,1,0,0:0:0:0:
256,192,97514,1,0,0:0:0:0:
256,192,97589,1,0,0:0:0:0:
256,192,97664,1,8,0:0:0:0:
256,192,97814,1,0,0:0:0:0:
256,192,97889,1,0,0:0:0:0:
256,192,97964,1,0,0:0:0:0:
256,192,98039,1,0,0:0:0:0:
256,192,98114,1,8,0:0:0:0:
256,192,98189,1,0,0:0:0:0:
256,192,98264,1,0,0:0:0:0:
256,192,98414,1,4,0:0:0:0:
256,192,98564,1,0,0:0:0:0:
256,192,98639,1,0,0:0:0:0:
256,192,98714,1,8,0:0:0:0:
256,192,98789,1,0,0:0:0:0:
256,192,98864,1,8,0:0:0:0:
256,192,99014,1,0,0:0:0:0:
256,192,99089,1,0,0:0:0:0:
256,192,99164,1,8,0:0:0:0:
256,192,99239,1,0,0:0:0:0:
256,192,99314,1,8,0:0:0:0:
256,192,99389,1,8,0:0:0:0:
256,192,99464,1,0,0:0:0:0:
256,192,99614,1,4,0:0:0:0:
256,192,99764,1,0,0:0:0:0:
256,192,99839,1,8,0:0:0:0:
256,192,99914,1,0,0:0:0:0:
256,192,99989,1,0,0:0:0:0:
256,192,100064,1,8,0:0:0:0:
256,192,100214,1,0,0:0:0:0:
256,192,100289,1,8,0:0:0:0:
256,192,100364,1,0,0:0:0:0:
256,192,100439,1,8,0:0:0:0:
256,192,100514,1,8,0:0:0:0:
256,192,100589,1,0,0:0:0:0:
256,192,100664,1,8,0:0:0:0:
256,192,100964,1,8,0:0:0:0:
256,192,101114,1,0,0:0:0:0:
256,192,101264,1,8,0:0:0:0:
256,192,101564,1,8,0:0:0:0:
256,192,101714,1,8,0:0:0:0:
256,192,102014,1,4,0:0:0:0:
256,192,102164,1,0,0:0:0:0:
256,192,102239,1,0,0:0:0:0:
256,192,102314,1,8,0:0:0:0:
256,192,102389,1,8,0:0:0:0:
256,192,102464,1,8,0:0:0:0:
256,192,102614,1,0,0:0:0:0:
256,192,102689,1,0,0:0:0:0:
256,192,102764,1,8,0:0:0:0:
256,192,102839,1,8,0:0:0:0:
256,192,102914,1,8,0:0:0:0:
256,192,102989,1,0,0:0:0:0:
256,192,103064,1,0,0:0:0:0:
256,192,103214,1,4,0:0:0:0:
256,192,103364,1,0,0:0:0:0:
256,192,103439,1,8,0:0:0:0:
256,192,103514,1,8,0:0:0:0:
256,192,103589,1,0,0:0:0:0:
256,192,103664,1,8,0:0:0:0:
256,192,103814,1,0,0:0:0:0:
256,192,103889,1,8,0:0:0:0:
256,192,103964,1,8,0:0:0:0:
256,192,104039,1,0,0:0:0:0:
256,192,104114,1,8,0:0:0:0:
256,192,104189,1,8,0:0:0:0:
256,192,104264,1,0,0:0:0:0:
256,192,104414,1,4,0:0:0:0:
256,192,104564,1,4,0:0:0:0:
256,192,104714,1,4,0:0:0:0:
256,192,104864,1,4,0:0:0:0:
256,192,105014,1,4,0:0:0:0:
256,192,105164,1,4,0:0:0:0:
256,192,105314,1,4,0:0:0:0:
256,192,105464,1,4,0:0:0:0:
256,192,105614,1,0,0:0:0:0:
256,192,105689,1,0,0:0:0:0:
256,192,105764,1,8,0:0:0:0:
256,192,105839,1,8,0:0:0:0:
256,192,105914,1,0,0:0:0:0:
256,192,105989,1,8,0:0:0:0:
256,192,106064,1,8,0:0:0:0:
256,192,106139,1,8,0:0:0:0:
256,192,106214,1,4,0:0:0:0:
256,192,106514,1,4,0:0:0:0:
256,192,106814,1,4,0:0:0:0:
256,192,106964,1,8,0:0:0:0:
256,192,107039,1,8,0:0:0:0:
256,192,107114,1,0,0:0:0:0:
256,192,107264,1,8,0:0:0:0:
256,192,107414,1,0,0:0:0:0:
256,192,107489,1,8,0:0:0:0:
256,192,107564,1,8,0:0:0:0:
256,192,107714,1,8,0:0:0:0:
256,192,107789,1,0,0:0:0:0:
256,192,107864,1,8,0:0:0:0:
256,192,107939,1,8,0:0:0:0:
256,192,108014,1,0,0:0:0:0:
256,192,108089,1,0,0:0:0:0:
256,192,108164,1,8,0:0:0:0:
256,192,108314,1,0,0:0:0:0:
256,192,108389,1,0,0:0:0:0:
256,192,108464,1,8,0:0:0:0:
256,192,108614,1,0,0:0:0:0:
256,192,108764,1,8,0:0:0:0:
256,192,108839,1,0,0:0:0:0:
256,192,108914,1,0,0:0:0:0:
256,192,109064,1,8,0:0:0:0:
256,192,109139,1,0,0:0:0:0:
256,192,109214,1,8,0:0:0:0:
256,192,109289,1,8,0:0:0:0:
256,192,109364,1,0,0:0:0:0:
256,192,109514,1,8,0:0:0:0:
256,192,109589,1,8,0:0:0:0:
256,192,109664,1,0,0:0:0:0:
256,192,109814,1,8,0:0:0:0:
256,192,109889,1,0,0:0:0:0:
256,192,109964,1,0,0:0:0:0:
256,192,110039,1,0,0:0:0:0:
256,192,110114,1,8,0:0:0:0:
256,192,110264,1,8,0:0:0:0:
256,192,110339,1,8,0:0:0:0:
256,192,110414,1,0,0:0:0:0:
256,192,110564,1,0,0:0:0:0:
256,192,110714,1,8,0:0:0:0:
256,192,110864,1,8,0:0:0:0:
256,192,111014,1,0,0:0:0:0:
256,192,111164,1,0,0:0:0:0:
256,192,111314,1,8,0:0:0:0:
256,192,111614,1,0,0:0:0:0:
256,192,111764,1,8,0:0:0:0:
256,192,111914,1,0,0:0:0:0:
256,192,111989,1,0,0:0:0:0:
256,192,112064,1,8,0:0:0:0:
256,192,112139,1,8,0:0:0:0:
256,192,112214,1,0,0:0:0:0:
256,192,112364,1,8,0:0:0:0:
256,192,112514,1,0,0:0:0:0:
256,192,112589,1,8,0:0:0:0:
256,192,112664,1,8,0:0:0:0:
256,192,112814,1,0,0:0:0:0:
256,192,112889,1,0,0:0:0:0:
256,192,112964,1,8,0:0:0:0:
256,192,113114,1,0,0:0:0:0:
256,192,113264,1,8,0:0:0:0:
256,192,113339,1,8,0:0:0:0:
256,192,113414,1,0,0:0:0:0:
256,192,113564,1,0,0:0:0:0:
256,192,113714,1,8,0:0:0:0:
256,192,113789,1,0,0:0:0:0:
256,192,113864,1,0,0:0:0:0:
256,192,114014,1,4,0:0:0:0:
256,192,114164,1,8,0:0:0:0:
256,192,114239,1,8,0:0:0:0:
256,192,114314,1,0,0:0:0:0:
256,192,114464,1,8,0:0:0:0:
256,192,114539,1,0,0:0:0:0:
256,192,114614,1,0,0:0:0:0:
256,192,114764,1,8,0:0:0:0:
256,192,114839,1,8,0:0:0:0:
256,192,114914,1,4,0:0:0:0:
256,192,115064,1,4,0:0:0:0:
256,192,115364,1,0,0:0:0:0:
256,192,115514,1,8,0:0:0:0:
256,192,115664,1,8,0:0:0:0:
256,192,115814,1,0,0:0:0:0:
256,192,115964,1,8,0:0:0:0:
256,192,116114,1,8,0:0:0:0:
256,192,116189,1,8,0:0:0:0:
256,192,116264,1,8,0:0:0:0:
256,192,116339,1,8,0:0:0:0:
256,192,116414,1,4,0:0:0:0:
256,192,116564,1,8,0:0:0:0:
256,192,116639,1,0,0:0:0:0:
256,192,116714,1,0,0:0:0:0:
256,192,116864,1,8,0:0:0:0:
256,192,117014,1,0,0:0:0:0:
256,192,117089,1,0,0:0:0:0:
256,192,117164,1,8,0:0:0:0:
256,192,117314,1,8,0:0:0:0:
256,192,117389,1,0,0:0:0:0:
256,192,117464,1,8,0:0:0:0:
256,192,117539,1,8,0:0:0:0:
256,192,117614,1,0,0:0:0:0:
256,192,117689,1,8,0:0:0:0:
256,192,117764,1,0,0:0:0:0:
256,192,117914,1,8,0:0:0:0:
256,192,117989,1,0,0:0:0:0:
256,192,118064,1,0,0:0:0:0:
256,192,118214,1,8,0:0:0:0:
256,192,118364,1,8,0:0:0:0:
256,192,118439,1,0,0:0:0:0:
256,192,118514,1,8,0:0:0:0:
256,192,118664,1,8,0:0:0:0:
256,192,118739,1,0,0:0:0:0:
256,192,118814,1,0,0:0:0:0:
256,192,118889,1,8,0:0:0:0:
256,192,118964,1,0,0:0:0:0:
256,192,119114,1,8,0:0:0:0:
256,192,119189,1,8,0:0:0:0:
256,192,119264,1,0,0:0:0:0:
256,192,119414,1,8,0:0:0:0:
256,192,119489,1,0,0:0:0:0:
256,192,119564,1,0,0:0:0:0:
256,192,119639,1,0,0:0:0:0:
256,192,119714,1,8,0:0:0:0:
256,192,119864,1,8,0:0:0:0:
256,192,120164,1,8,0:0:0:0:
256,192,120314,1,0,0:0:0:0:
256,192,120464,1,8,0:0:0:0:
256,192,120764,1,0,0:0:0:0:
256,192,120914,1,8,0:0:0:0:
256,192,121214,1,0,0:0:0:0:
256,192,121364,1,8,0:0:0:0:
256,192,121514,1,0,0:0:0:0:
256,192,121589,1,0,0:0:0:0:
256,192,121664,1,8,0:0:0:0:
256,192,121739,1,0,0:0:0:0:
256,192,121814,1,0,0:0:0:0:
256,192,121964,1,8,0:0:0:0:
256,192,122114,1,0,0:0:0:0:
256,192,122189,1,8,0:0:0:0:
256,192,122264,1,8,0:0:0:0:
256,192,122414,1,0,0:0:0:0:
256,192,122489,1,0,0:0:0:0:
256,192,122564,1,8,0:0:0:0:
256,192,122714,1,0,0:0:0:0:
256,192,122864,1,8,0:0:0:0:
256,192,122939,1,8,0:0:0:0:
256,192,123014,1,0,0:0:0:0:
256,192,123164,1,8,0:0:0:0:
256,192,123239,1,8,0:0:0:0:
256,192,123314,1,0,0:0:0:0:
256,192,123389,1,0,0:0:0:0:
256,192,123464,1,8,0:0:0:0:
256,192,123614,1,4,0:0:0:0:
256,192,123764,1,4,0:0:0:0:
256,192,123914,1,4,0:0:0:0:
256,192,124064,1,4,0:0:0:0:
256,192,124214,1,4,0:0:0:0:
256,192,124364,1,4,0:0:0:0:
256,192,124514,1,4,0:0:0:0:
256,192,124664,1,4,0:0:0:0:
256,192,124814,1,0,0:0:0:0:
256,192,124889,1,0,0:0:0:0:
256,192,124964,1,8,0:0:0:0:
256,192,125039,1,8,0:0:0:0:
256,192,125114,1,0,0:0:0:0:
256,192,125189,1,0,0:0:0:0:
256,192,125264,1,8,0:0:0:0:
256,192,125339,1,8,0:0:0:0:
256,192,125414,1,4,0:0:0:0:
256,192,125714,1,4,0:0:0:0:
256,192,133214,5,4,0:0:0:0:
256,192,133364,1,0,0:0:0:0:
256,192,133514,1,8,0:0:0:0:
256,192,133664,1,0,0:0:0:0:
256,192,133814,1,8,0:0:0:0:
256,192,133964,1,8,0:0:0:0:
256,192,134114,1,0,0:0:0:0:
256,192,134264,1,0,0:0:0:0:
256,192,134414,1,8,0:0:0:0:
256,192,134564,1,0,0:0:0:0:
256,192,134714,1,8,0:0:0:0:
256,192,134864,1,8,0:0:0:0:
256,192,135014,1,8,0:0:0:0:
256,192,135314,1,8,0:0:0:0:
256,192,135614,1,4,0:0:0:0:
256,192,136214,1,8,0:0:0:0:
256,192,136664,1,4,0:0:0:0:
256,192,137114,1,4,0:0:0:0:
256,192,137564,1,8,0:0:0:0:
256,192,137714,1,4,0:0:0:0:
256,192,138014,1,4,0:0:0:0:
256,192,138614,1,8,0:0:0:0:
256,192,139064,1,4,0:0:0:0:
256,192,139514,1,4,0:0:0:0:
256,192,139964,1,8,0:0:0:0:
256,192,140114,1,4,0:0:0:0:
256,192,140414,1,4,0:0:0:0:
256,192,140564,1,8,0:0:0:0:
256,192,140714,1,4,0:0:0:0:
256,192,140864,1,0,0:0:0:0:
256,192,141014,1,12,0:0:0:0:
256,192,141314,1,8,0:0:0:0:
256,192,141464,1,4,0:0:0:0:
256,192,141614,1,8,0:0:0:0:
256,192,141764,1,8,0:0:0:0:
256,192,141914,1,4,0:0:0:0:
256,192,142064,1,0,0:0:0:0:
256,192,142214,1,12,0:0:0:0:
256,192,142514,1,8,0:0:0:0:
256,192,142664,1,8,0:0:0:0:
256,192,142814,1,4,0:0:0:0:
256,192,142964,1,8,0:0:0:0:
256,192,143114,1,4,0:0:0:0:
256,192,143264,1,0,0:0:0:0:
256,192,143414,1,12,0:0:0:0:
256,192,143714,1,8,0:0:0:0:
256,192,143864,1,4,0:0:0:0:
256,192,144164,1,4,0:0:0:0:
256,192,144464,1,4,0:0:0:0:
256,192,144764,1,4,0:0:0:0:
256,192,144914,1,8,0:0:0:0:
256,192,145214,1,4,0:0:0:0:
256,192,145364,1,0,0:0:0:0:
256,192,145514,1,8,0:0:0:0:
256,192,145664,1,8,0:0:0:0:
256,192,145814,1,0,0:0:0:0:
256,192,145964,1,8,0:0:0:0:
256,192,146114,1,8,0:0:0:0:
256,192,146264,1,0,0:0:0:0:
256,192,146564,1,0,0:0:0:0:
256,192,146714,1,8,0:0:0:0:
256,192,146864,1,8,0:0:0:0:
256,192,147014,1,0,0:0:0:0:
256,192,147164,1,8,0:0:0:0:
256,192,147314,1,8,0:0:0:0:
256,192,147464,1,0,0:0:0:0:
256,192,147764,1,0,0:0:0:0:
256,192,147914,1,8,0:0:0:0:
256,192,148064,1,8,0:0:0:0:
256,192,148214,1,0,0:0:0:0:
256,192,148364,1,8,0:0:0:0:
256,192,148514,1,0,0:0:0:0:
256,192,148664,1,8,0:0:0:0:
256,192,148964,1,8,0:0:0:0:
256,192,149264,1,8,0:0:0:0:
256,192,149564,1,8,0:0:0:0:
256,192,149714,1,8,0:0:0:0:
256,192,150014,1,8,0:0:0:0:
256,192,150164,1,8,0:0:0:0:
256,192,150239,1,0,0:0:0:0:
256,192,150314,1,8,0:0:0:0:
256,192,150464,1,8,0:0:0:0:
256,192,150614,1,8,0:0:0:0:
256,192,150689,1,0,0:0:0:0:
256,192,150764,1,8,0:0:0:0:
256,192,150914,1,8,0:0:0:0:
256,192,150989,1,8,0:0:0:0:
256,192,151064,1,8,0:0:0:0:
256,192,151214,1,8,0:0:0:0:
256,192,151289,1,8,0:0:0:0:
256,192,151364,1,0,0:0:0:0:
256,192,151439,1,8,0:0:0:0:
256,192,151514,1,8,0:0:0:0:
256,192,151664,1,8,0:0:0:0:
256,192,151739,1,8,0:0:0:0:
256,192,151814,1,8,0:0:0:0:
256,192,151889,1,0,0:0:0:0:
256,192,151964,1,8,0:0:0:0:
256,192,152114,1,8,0:0:0:0:
256,192,152264,1,8,0:0:0:0:
256,192,152339,1,8,0:0:0:0:
256,192,152414,1,8,0:0:0:0:
256,192,152564,1,8,0:0:0:0:
256,192,152639,1,0,0:0:0:0:
256,192,152714,1,8,0:0:0:0:
256,192,152864,1,8,0:0:0:0:
256,192,153014,1,8,0:0:0:0:
256,192,153089,1,8,0:0:0:0:
256,192,153164,1,0,0:0:0:0:
256,192,153239,1,8,0:0:0:0:
256,192,153314,1,8,0:0:0:0:
256,192,153464,1,8,0:0:0:0:
256,192,153614,1,4,0:0:0:0:
256,192,154814,1,4,0:0:0:0:
256,192,154964,1,0,0:0:0:0:
256,192,155039,1,0,0:0:0:0:
256,192,155114,1,0,0:0:0:0:
256,192,155189,1,0,0:0:0:0:
256,192,155264,1,8,0:0:0:0:
256,192,155414,1,0,0:0:0:0:
256,192,155489,1,0,0:0:0:0:
256,192,155564,1,0,0:0:0:0:
256,192,155639,1,0,0:0:0:0:
256,192,155714,1,8,0:0:0:0:
256,192,155789,1,8,0:0:0:0:
256,192,155864,1,0,0:0:0:0:
256,192,156014,1,4,0:0:0:0:
256,192,156164,1,0,0:0:0:0:
256,192,156239,1,0,0:0:0:0:
256,192,156314,1,8,0:0:0:0:
256,192,156389,1,0,0:0:0:0:
256,192,156464,1,8,0:0:0:0:
256,192,156614,1,0,0:0:0:0:
256,192,156689,1,0,0:0:0:0:
256,192,156764,1,8,0:0:0:0:
256,192,156839,1,0,0:0:0:0:
256,192,156914,1,8,0:0:0:0:
256,192,156989,1,0,0:0:0:0:
256,192,157064,1,0,0:0:0:0:
256,192,157214,1,4,0:0:0:0:
256,192,157364,1,0,0:0:0:0:
256,192,157439,1,8,0:0:0:0:
256,192,157514,1,0,0:0:0:0:
256,192,157589,1,0,0:0:0:0:
256,192,157664,1,8,0:0:0:0:
256,192,157814,1,0,0:0:0:0:
256,192,157889,1,8,0:0:0:0:
256,192,157964,1,0,0:0:0:0:
256,192,158039,1,8,0:0:0:0:
256,192,158114,1,8,0:0:0:0:
256,192,158189,1,0,0:0:0:0:
256,192,158264,1,8,0:0:0:0:
256,192,158564,1,8,0:0:0:0:
256,192,158714,1,0,0:0:0:0:
256,192,158864,1,8,0:0:0:0:
256,192,159164,1,8,0:0:0:0:
256,192,159314,1,8,0:0:0:0:
256,192,159614,1,4,0:0:0:0:
256,192,159764,1,0,0:0:0:0:
256,192,159839,1,0,0:0:0:0:
256,192,159914,1,8,0:0:0:0:
256,192,159989,1,8,0:0:0:0:
256,192,160064,1,8,0:0:0:0:
256,192,160214,1,0,0:0:0:0:
256,192,160289,1,0,0:0:0:0:
256,192,160364,1,8,0:0:0:0:
256,192,160439,1,8,0:0:0:0:
256,192,160514,1,8,0:0:0:0:
256,192,160589,1,8,0:0:0:0:
256,192,160664,1,0,0:0:0:0:
256,192,160814,1,4,0:0:0:0:
256,192,160964,1,0,0:0:0:0:
256,192,161039,1,8,0:0:0:0:
256,192,161114,1,8,0:0:0:0:
256,192,161189,1,0,0:0:0:0:
256,192,161264,1,8,0:0:0:0:
256,192,161414,1,0,0:0:0:0:
256,192,161489,1,8,0:0:0:0:
256,192,161564,1,8,0:0:0:0:
256,192,161639,1,0,0:0:0:0:
256,192,161714,1,8,0:0:0:0:
256,192,161789,1,0,0:0:0:0:
256,192,161864,1,0,0:0:0:0:
256,192,162014,1,4,0:0:0:0:
256,192,162164,1,0,0:0:0:0:
256,192,162239,1,8,0:0:0:0:
256,192,162314,1,8,0:0:0:0:
256,192,162389,1,8,0:0:0:0:
256,192,162464,1,8,0:0:0:0:
256,192,162614,1,0,0:0:0:0:
256,192,162689,1,8,0:0:0:0:
256,192,162764,1,8,0:0:0:0:
256,192,162839,1,8,0:0:0:0:
256,192,162914,1,4,0:0:0:0:
256,192,163064,1,4,0:0:0:0:
256,192,163364,1,0,0:0:0:0:
256,192,163514,1,8,0:0:0:0:
256,192,163664,1,8,0:0:0:0:
256,192,163814,1,0,0:0:0:0:
256,192,163964,1,8,0:0:0:0:
256,192,164114,1,8,0:0:0:0:
256,192,164189,1,8,0:0:0:0:
256,192,164264,1,8,0:0:0:0:
256,192,164339,1,8,0:0:0:0:
256,192,164414,1,4,0:0:0:0:
256,192,164564,1,0,0:0:0:0:
256,192,164639,1,0,0:0:0:0:
256,192,164714,1,0,0:0:0:0:
256,192,164789,1,0,0:0:0:0:
256,192,164864,1,8,0:0:0:0:
256,192,165014,1,0,0:0:0:0:
256,192,165089,1,0,0:0:0:0:
256,192,165164,1,0,0:0:0:0:
256,192,165239,1,0,0:0:0:0:
256,192,165314,1,8,0:0:0:0:
256,192,165389,1,0,0:0:0:0:
256,192,165464,1,0,0:0:0:0:
256,192,165614,1,4,0:0:0:0:
256,192,165764,1,0,0:0:0:0:
256,192,165839,1,0,0:0:0:0:
256,192,165914,1,8,0:0:0:0:
256,192,165989,1,0,0:0:0:0:
256,192,166064,1,8,0:0:0:0:
256,192,166214,1,0,0:0:0:0:
256,192,166289,1,0,0:0:0:0:
256,192,166364,1,8,0:0:0:0:
256,192,166439,1,0,0:0:0:0:
256,192,166514,1,8,0:0:0:0:
256,192,166589,1,8,0:0:0:0:
256,192,166664,1,0,0:0:0:0:
256,192,166814,1,4,0:0:0:0:
256,192,166964,1,0,0:0:0:0:
256,192,167039,1,8,0:0:0:0:
256,192,167114,1,0,0:0:0:0:
256,192,167189,1,0,0:0:0:0:
256,192,167264,1,8,0:0:0:0:
256,192,167414,1,0,0:0:0:0:
256,192,167489,1,8,0:0:0:0:
256,192,167564,1,0,0:0:0:0:
256,192,167639,1,8,0:0:0:0:
256,192,167714,1,8,0:0:0:0:
256,192,167789,1,0,0:0:0:0:
256,192,167864,1,8,0:0:0:0:
256,192,168164,1,8,0:0:0:0:
256,192,168314,1,0,0:0:0:0:
256,192,168464,1,8,0:0:0:0:
256,192,168764,1,8,0:0:0:0:
256,192,168914,1,8,0:0:0:0:
256,192,169214,1,4,0:0:0:0:
256,192,169364,1,0,0:0:0:0:
256,192,169439,1,0,0:0:0:0:
256,192,169514,1,8,0:0:0:0:
256,192,169589,1,8,0:0:0:0:
256,192,169664,1,8,0:0:0:0:
256,192,169814,1,0,0:0:0:0:
256,192,169889,1,0,0:0:0:0:
256,192,169964,1,8,0:0:0:0:
256,192,170039,1,8,0:0:0:0:
256,192,170114,1,8,0:0:0:0:
256,192,170189,1,0,0:0:0:0:
256,192,170264,1,0,0:0:0:0:
256,192,170414,1,4,0:0:0:0:
256,192,170564,1,0,0:0:0:0:
256,192,170639,1,8,0:0:0:0:
256,192,170714,1,8,0:0:0:0:
256,192,170789,1,0,0:0:0:0:
256,192,170864,1,8,0:0:0:0:
256,192,171014,1,0,0:0:0:0:
256,192,171089,1,8,0:0:0:0:
256,192,171164,1,8,0:0:0:0:
256,192,171239,1,0,0:0:0:0:
256,192,171314,1,8,0:0:0:0:
256,192,171389,1,8,0:0:0:0:
256,192,171464,1,0,0:0:0:0:
256,192,171614,1,4,0:0:0:0:
256,192,171764,1,4,0:0:0:0:
256,192,171914,1,4,0:0:0:0:
256,192,172064,1,4,0:0:0:0:
256,192,172214,1,4,0:0:0:0:
256,192,172364,1,4,0:0:0:0:
256,192,172514,1,4,0:0:0:0:
256,192,172664,1,4,0:0:0:0:
256,192,172814,1,0,0:0:0:0:
256,192,172889,1,0,0:0:0:0:
256,192,172964,1,8,0:0:0:0:
256,192,173039,1,8,0:0:0:0:
256,192,173114,1,0,0:0:0:0:
256,192,173189,1,8,0:0:0:0:
256,192,173264,1,8,0:0:0:0:
256,192,173339,1,8,0:0:0:0:
256,192,173414,1,4,0:0:0:0:
256,192,173714,1,4,0:0:0:0:
256,192,174014,1,4,0:0:0:0:
256,192,174164,1,8,0:0:0:0:
256,192,174239,1,8,0:0:0:0:
256,192,174314,1,0,0:0:0:0:
256,192,174464,1,8,0:0:0:0:
256,192,174614,1,0,0:0:0:0:
256,192,174689,1,8,0:0:0:0:
256,192,174764,1,8,0:0:0:0:
256,192,174914,1,8,0:0:0:0:
256,192,174989,1,0,0:0:0:0:
256,192,175064,1,8,0:0:0:0:
256,192,175139,1,8,0:0:0:0:
256,192,175214,1,0,0:0:0:0:
256,192,175289,1,0,0:0:0:0:
256,192,175364,1,8,0:0:0:0:
256,192,175514,1,0,0:0:0:0:
256,192,175589,1,0,0:0:0:0:
256,192,175664,1,8,0:0:0:0:
256,192,175814,1,0,0:0:0:0:
256,192,175964,1,8,0:0:0:0:
256,192,176039,1,0,0:0:0:0:
256,192,176114,1,0,0:0:0:0:
256,192,176264,1,8,0:0:0:0:
256,192,176339,1,0,0:0:0:0:
256,192,176414,1,8,0:0:0:0:
256,192,176489,1,8,0:0:0:0:
256,192,176564,1,0,0:0:0:0:
256,192,176714,1,8,0:0:0:0:
256,192,176789,1,8,0:0:0:0:
256,192,176864,1,0,0:0:0:0:
256,192,177014,1,8,0:0:0:0:
256,192,177089,1,0,0:0:0:0:
256,192,177164,1,0,0:0:0:0:
256,192,177239,1,0,0:0:0:0:
256,192,177314,1,8,0:0:0:0:
256,192,177464,1,8,0:0:0:0:
256,192,177539,1,8,0:0:0:0:
256,192,177614,1,0,0:0:0:0:
256,192,177764,1,0,0:0:0:0:
256,192,177914,1,8,0:0:0:0:
256,192,178064,1,8,0:0:0:0:
256,192,178214,1,0,0:0:0:0:
256,192,178364,1,0,0:0:0:0:
256,192,178514,1,8,0:0:0:0:
256,192,178814,1,0,0:0:0:0:
256,192,178964,1,8,0:0:0:0:
256,192,179114,1,0,0:0:0:0:
256,192,179189,1,0,0:0:0:0:
256,192,179264,1,8,0:0:0:0:
256,192,179339,1,8,0:0:0:0:
256,192,179414,1,0,0:0:0:0:
256,192,179564,1,8,0:0:0:0:
256,192,179714,1,0,0:0:0:0:
256,192,179789,1,8,0:0:0:0:
256,192,179864,1,8,0:0:0:0:
256,192,180014,1,0,0:0:0:0:
256,192,180089,1,0,0:0:0:0:
256,192,180164,1,8,0:0:0:0:
256,192,180314,1,0,0:0:0:0:
256,192,180464,1,8,0:0:0:0:
256,192,180539,1,8,0:0:0:0:
256,192,180614,1,0,0:0:0:0:
256,192,180764,1,0,0:0:0:0:
256,192,180914,1,8,0:0:0:0:
256,192,180989,1,0,0:0:0:0:
256,192,181064,1,0,0:0:0:0:
256,192,181214,1,4,0:0:0:0:
256,192,181364,1,8,0:0:0:0:
256,192,181439,1,8,0:0:0:0:
256,192,181514,1,0,0:0:0:0:
256,192,181664,1,8,0:0:0:0:
256,192,181739,1,0,0:0:0:0:
256,192,181814,1,0,0:0:0:0:
256,192,181964,1,8,0:0:0:0:
256,192,182039,1,8,0:0:0:0:
256,192,182114,1,4,0:0:0:0:
256,192,182264,1,4,0:0:0:0:
256,192,182564,1,0,0:0:0:0:
256,192,182714,1,8,0:0:0:0:
256,192,182864,1,8,0:0:0:0:
256,192,183014,1,0,0:0:0:0:
256,192,183164,1,8,0:0:0:0:
256,192,183314,1,8,0:0:0:0:
256,192,183389,1,8,0:0:0:0:
256,192,183464,1,8,0:0:0:0:
256,192,183539,1,8,0:0:0:0:
256,192,183614,1,4,0:0:0:0:
256,192,183764,1,8,0:0:0:0:
256,192,183839,1,0,0:0:0:0:
256,192,183914,1,0,0:0:0:0:
256,192,184064,1,8,0:0:0:0:
256,192,184214,1,0,0:0:0:0:
256,192,184289,1,0,0:0:0:0:
256,192,184364,1,8,0:0:0:0:
256,192,184514,1,8,0:0:0:0:
256,192,184589,1,0,0:0:0:0:
256,192,184664,1,8,0:0:0:0:
256,192,184739,1,8,0:0:0:0:
256,192,184814,1,0,0:0:0:0:
256,192,184889,1,8,0:0:0:0:
256,192,184964,1,0,0:0:0:0:
256,192,185114,1,8,0:0:0:0:
256,192,185189,1,0,0:0:0:0:
256,192,185264,1,0,0:0:0:0:
256,192,185414,1,8,0:0:0:0:
256,192,185564,1,8,0:0:0:0:
256,192,185639,1,0,0:0:0:0:
256,192,185714,1,8,0:0:0:0:
256,192,185864,1,8,0:0:0:0:
256,192,185939,1,0,0:0:0:0:
256,192,186014,1,0,0:0:0:0:
256,192,186089,1,8,0:0:0:0:
256,192,186164,1,0,0:0:0:0:
256,192,186314,1,8,0:0:0:0:
256,192,186389,1,8,0:0:0:0:
256,192,186464,1,0,0:0:0:0:
256,192,186614,1,8,0:0:0:0:
256,192,186689,1,0,0:0:0:0:
256,192,186764,1,0,0:0:0:0:
256,192,186839,1,0,0:0:0:0:
256,192,186914,1,8,0:0:0:0:
256,192,187064,1,8,0:0:0:0:
256,192,187364,1,8,0:0:0:0:
256,192,187514,1,0,0:0:0:0:
256,192,187664,1,8,0:0:0:0:
256,192,187964,1,0,0:0:0:0:
256,192,188114,1,8,0:0:0:0:
256,192,188414,1,0,0:0:0:0:
256,192,188564,1,8,0:0:0:0:
256,192,188714,1,0,0:0:0:0:
256,192,188789,1,0,0:0:0:0:
256,192,188864,1,8,0:0:0:0:
256,192,188939,1,0,0:0:0:0:
256,192,189014,1,0,0:0:0:0:
256,192,189164,1,8,0:0:0:0:
256,192,189314,1,0,0:0:0:0:
256,192,189389,1,8,0:0:0:0:
256,192,189464,1,8,0:0:0:0:
256,192,189614,1,0,0:0:0:0:
256,192,189689,1,0,0:0:0:0:
256,192,189764,1,8,0:0:0:0:
256,192,189914,1,0,0:0:0:0:
256,192,190064,1,8,0:0:0:0:
256,192,190139,1,8,0:0:0:0:
256,192,190214,1,0,0:0:0:0:
256,192,190364,1,8,0:0:0:0:
256,192,190439,1,8,0:0:0:0:
256,192,190514,1,0,0:0:0:0:
256,192,190589,1,0,0:0:0:0:
256,192,190664,1,8,0:0:0:0:
256,192,190814,1,4,0:0:0:0:
256,192,190964,1,4,0:0:0:0:
256,192,191114,1,4,0:0:0:0:
256,192,191264,1,4,0:0:0:0:
256,192,191414,1,4,0:0:0:0:
256,192,191564,1,4,0:0:0:0:
256,192,191714,1,4,0:0:0:0:
256,192,191864,1,4,0:0:0:0:
256,192,192014,1,0,0:0:0:0:
256,192,192089,1,0,0:0:0:0:
256,192,192164,1,8,0:0:0:0:
256,192,192239,1,8,0:0:0:0:
256,192,192314,1,0,0:0:0:0:
256,192,192389,1,0,0:0:0:0:
256,192,192464,1,8,0:0:0:0:
256,192,192539,1,8,0:0:0:0:
256,192,192614,1,0,0:0:0:0:
256,192,192689,1,8,0:0:0:0:
256,192,192764,1,8,0:0:0:0:
256,192,192839,1,8,0:0:0:0:
256,192,192914,1,0,0:0:0:0:
256,192,192989,1,8,0:0:0:0:
256,192,193064,1,8,0:0:0:0:
256,192,193139,1,8,0:0:0:0:
256,192,193214,1,4,0:0:0:0:
256,192,193364,1,0,0:0:0:0:
256,192,193439,1,0,0:0:0:0:
256,192,193514,1,8,0:0:0:0:
256,192,193664,1,8,0:0:0:0:
256,192,193739,1,0,0:0:0:0:
256,192,193814,1,8,0:0:0:0:
256,192,193889,1,8,0:0:0:0:
256,192,193964,1,0,0:0:0:0:
256,192,194114,1,8,0:0:0:0:
256,192,194189,1,0,0:0:0:0:
256,192,194264,1,0,0:0:0:0:
256,192,194414,1,8,0:0:0:0:
256,192,194489,1,8,0:0:0:0:
256,192,194564,1,0,0:0:0:0:
256,192,194639,1,0,0:0:0:0:
256,192,194714,1,8,0:0:0:0:
256,192,194864,1,0,0:0:0:0:
256,192,194939,1,0,0:0:0:0:
256,192,195014,1,8,0:0:0:0:
256,192,195164,1,0,0:0:0:0:
256,192,195314,1,8,0:0:0:0:
256,192,195464,1,8,0:0:0:0:
256,192,195539,1,8,0:0:0:0:
256,192,195614,1,0,0:0:0:0:
256,192,195764,1,0,0:0:0:0:
256,192,195839,1,0,0:0:0:0:
256,192,195914,1,8,0:0:0:0:
256,192,196064,1,0,0:0:0:0:
256,192,196214,1,8,0:0:0:0:
256,192,196289,1,0,0:0:0:0:
256,192,196364,1,8,0:0:0:0:
256,192,196439,1,8,0:0:0:0:
256,192,196514,1,0,0:0:0:0:
256,192,196589,1,0,0:0:0:0:
256,192,196664,1,8,0:0:0:0:
256,192,196714,1,0,0:0:0:0:
256,192,196764,1,0,0:0:0:0:
256,192,196814,1,8,0:0:0:0:
256,192,196964,1,8,0:0:0:0:
256,192,197114,1,0,0:0:0:0:
256,192,197264,1,0,0:0:0:0:
256,192,197414,1,8,0:0:0:0:
256,192,197564,1,8,0:0:0:0:
256,192,197714,1,8,0:0:0:0:
256,192,197864,1,8,0:0:0:0:
256,192,198014,1,4,0:0:0:0:
256,192,198164,1,0,0:0:0:0:
256,192,198239,1,0,0:0:0:0:
256,192,198314,1,8,0:0:0:0:
256,192,198464,1,0,0:0:0:0:
256,192,198539,1,0,0:0:0:0:
256,192,198614,1,8,0:0:0:0:
256,192,198689,1,0,0:0:0:0:
256,192,198764,1,8,0:0:0:0:
256,192,198914,1,0,0:0:0:0:
256,192,198989,1,8,0:0:0:0:
256,192,199064,1,8,0:0:0:0:
256,192,199214,1,0,0:0:0:0:
256,192,199364,1,8,0:0:0:0:
256,192,199439,1,8,0:0:0:0:
256,192,199514,1,0,0:0:0:0:
256,192,199664,1,8,0:0:0:0:
256,192,199739,1,0,0:0:0:0:
256,192,199814,1,8,0:0:0:0:
256,192,199964,1,0,0:0:0:0:
256,192,200114,1,8,0:0:0:0:
256,192,200189,1,8,0:0:0:0:
256,192,200264,1,8,0:0:0:0:
256,192,200339,1,8,0:0:0:0:
256,192,200414,1,0,0:0:0:0:
256,192,200564,1,0,0:0:0:0:
256,192,200714,1,8,0:0:0:0:
256,192,200789,1,8,0:0:0:0:
256,192,200864,1,0,0:0:0:0:
256,192,200939,1,8,0:0:0:0:
256,192,201014,1,0,0:0:0:0:
256,192,201164,1,0,0:0:0:0:
256,192,201314,1,12,0:0:0:0:
256,192,201464,1,4,0:0:0:0:
256,192,201764,1,4,0:0:0:0:
256,192,202064,1,0,0:0:0:0:
256,192,202139,1,0,0:0:0:0:
256,192,202364,1,4,0:0:0:0:
256,192,202514,1,12,0:0:0:0:
256,192,202814,1,4,0:0:0:0:
256,192,202964,1,0,0:0:0:0:
256,192,203039,1,0,0:0:0:0:
256,192,203114,1,8,0:0:0:0:
256,192,203264,1,8,0:0:0:0:
256,192,203339,1,0,0:0:0:0:
256,192,203414,1,8,0:0:0:0:
256,192,203489,1,8,0:0:0:0:
256,192,203564,1,0,0:0:0:0:
256,192,203714,1,8,0:0:0:0:
256,192,203789,1,0,0:0:0:0:
256,192,203864,1,0,0:0:0:0:
256,192,204014,1,8,0:0:0:0:
256,192,204089,1,8,0:0:0:0:
256,192,204164,1,0,0:0:0:0:
256,192,204239,1,0,0:0:0:0:
256,192,204314,1,8,0:0:0:0:
256,192,204464,1,0,0:0:0:0:
256,192,204539,1,0,0:0:0:0:
256,192,204614,1,8,0:0:0:0:
256,192,204764,1,0,0:0:0:0:
256,192,204914,1,8,0:0:0:0:
256,192,205064,1,8,0:0:0:0:
256,192,205139,1,8,0:0:0:0:
256,192,205214,1,0,0:0:0:0:
256,192,205364,1,0,0:0:0:0:
256,192,205439,1,0,0:0:0:0:
256,192,205514,1,8,0:0:0:0:
256,192,205664,1,0,0:0:0:0:
256,192,205814,1,8,0:0:0:0:
256,192,205889,1,0,0:0:0:0:
256,192,205964,1,8,0:0:0:0:
256,192,206039,1,8,0:0:0:0:
256,192,206114,1,0,0:0:0:0:
256,192,206189,1,0,0:0:0:0:
256,192,206264,1,8,0:0:0:0:
256,192,206314,1,0,0:0:0:0:
256,192,206364,1,0,0:0:0:0:
256,192,206414,1,8,0:0:0:0:
256,192,206564,1,8,0:0:0:0:
256,192,206714,1,0,0:0:0:0:
256,192,206864,1,0,0:0:0:0:
256,192,207014,1,8,0:0:0:0:
256,192,207164,1,8,0:0:0:0:
256,192,207314,1,8,0:0:0:0:
256,192,207464,1,8,0:0:0:0:
256,192,207614,1,4,0:0:0:0:
256,192,207764,1,0,0:0:0:0:
256,192,207839,1,0,0:0:0:0:
256,192,207914,1,8,0:0:0:0:
256,192,208064,1,0,0:0:0:0:
256,192,208139,1,0,0:0:0:0:
256,192,208214,1,8,0:0:0:0:
256,192,208289,1,0,0:0:0:0:
256,192,208364,1,8,0:0:0:0:
256,192,208514,1,0,0:0:0:0:
256,192,208589,1,8,0:0:0:0:
256,192,208664,1,8,0:0:0:0:
256,192,208814,1,0,0:0:0:0:
256,192,208964,1,8,0:0:0:0:
256,192,209039,1,8,0:0:0:0:
256,192,209114,1,0,0:0:0:0:
256,192,209264,1,8,0:0:0:0:
256,192,209339,1,0,0:0:0:0:
256,192,209414,1,8,0:0:0:0:
256,192,209564,1,0,0:0:0:0:
256,192,209714,1,8,0:0:0:0:
256,192,209789,1,8,0:0:0:0:
256,192,209864,1,8,0:0:0:0:
256,192,209939,1,8,0:0:0:0:
256,192,210014,1,0,0:0:0:0:
256,192,210164,1,0,0:0:0:0:
256,192,210314,1,8,0:0:0:0:
256,192,210389,1,8,0:0:0:0:
256,192,210464,1,0,0:0:0:0:
256,192,210539,1,8,0:0:0:0:
256,192,210614,1,0,0:0:0:0:
256,192,210764,1,0,0:0:0:0:
256,192,210914,1,0,0:0:0:0:
256,192,211064,1,8,0:0:0:0:
256,192,211214,1,4,0:0:0:0:
256,192,211364,1,4,0:0:0:0:
256,192,211514,1,0,0:0:0:0:
256,192,211589,1,0,0:0:0:0:
256,192,211664,1,0,0:0:0:0:
256,192,211739,1,0,0:0:0:0:
256,192,211814,12,0,212189,0:0:0:0:
256,192,212414,5,4,0:0:0:0:
256,192,212564,1,8,0:0:0:0:
256,192,212714,1,0,0:0:0:0:
256,192,212789,1,0,0:0:0:0:
256,192,212864,1,0,0:0:0:0:
256,192,212939,1,0,0:0:0:0:
256,192,213014,1,8,0:0:0:0:
256,192,213164,1,8,0:0:0:0:
256,192,213239,1,8,0:0:0:0:
256,192,213314,1,0,0:0:0:0:
256,192,213464,1,0,0:0:0:0:
256,192,213614,1,8,0:0:0:0:
256,192,213764,1,0,0:0:0:0:
256,192,213839,1,0,0:0:0:0:
256,192,213914,1,8,0:0:0:0:
256,192,214064,1,0,0:0:0:0:
256,192,214214,1,8,0:0:0:0:
256,192,214289,1,0,0:0:0:0:
256,192,214364,1,8,0:0:0:0:
256,192,214439,1,0,0:0:0:0:
256,192,214514,1,8,0:0:0:0:
256,192,214589,1,0,0:0:0:0:
256,192,214664,1,8,0:0:0:0:
256,192,214739,1,8,0:0:0:0:
256,192,214814,1,0,0:0:0:0:
256,192,214889,1,8,0:0:0:0:
256,192,214964,1,8,0:0:0:0:
256,192,215039,1,0,0:0:0:0:
256,192,215114,1,8,0:0:0:0:
256,192,215264,1,8,0:0:0:0:
256,192,215414,1,0,0:0:0:0:
256,192,215489,1,8,0:0:0:0:
256,192,215564,1,8,0:0:0:0:
256,192,215639,1,8,0:0:0:0:
256,192,215714,1,0,0:0:0:0:
256,192,215789,1,0,0:0:0:0:
256,192,215864,1,8,0:0:0:0:
256,192,215914,1,0,0:0:0:0:
256,192,215964,1,0,0:0:0:0:
256,192,216014,1,8,0:0:0:0:
256,192,216164,1,8,0:0:0:0:
256,192,216314,1,0,0:0:0:0:
256,192,216464,1,0,0:0:0:0:
256,192,216614,1,8,0:0:0:0:
256,192,216764,1,8,0:0:0:0:
256,192,216914,1,8,0:0:0:0:
256,192,217064,1,8,0:0:0:0:
256,192,217214,1,4,0:0:0:0:
256,192,217364,1,8,0:0:0:0:
256,192,217514,1,0,0:0:0:0:
256,192,217589,1,0,0:0:0:0:
256,192,217664,1,0,0:0:0:0:
256,192,217739,1,0,0:0:0:0:
256,192,217814,1,8,0:0:0:0:
256,192,217964,1,8,0:0:0:0:
256,192,218039,1,8,0:0:0:0:
256,192,218114,1,0,0:0:0:0:
256,192,218264,1,0,0:0:0:0:
256,192,218414,1,8,0:0:0:0:
256,192,218564,1,0,0:0:0:0:
256,192,218639,1,0,0:0:0:0:
256,192,218714,1,8,0:0:0:0:
256,192,218864,1,0,0:0:0:0:
256,192,219014,1,8,0:0:0:0:
256,192,219089,1,0,0:0:0:0:
256,192,219164,1,8,0:0:0:0:
256,192,219239,1,0,0:0:0:0:
256,192,219314,1,8,0:0:0:0:
256,192,219389,1,0,0:0:0:0:
256,192,219464,1,8,0:0:0:0:
256,192,219539,1,8,0:0:0:0:
256,192,219614,1,0,0:0:0:0:
256,192,219689,1,8,0:0:0:0:
256,192,219764,1,8,0:0:0:0:
256,192,219839,1,0,0:0:0:0:
256,192,219914,1,8,0:0:0:0:
256,192,220064,1,8,0:0:0:0:
256,192,220214,1,8,0:0:0:0:
256,192,220289,1,8,0:0:0:0:
256,192,220364,1,8,0:0:0:0:
256,192,220439,1,0,0:0:0:0:
256,192,220514,1,0,0:0:0:0:
256,192,220589,1,8,0:0:0:0:
256,192,220664,1,8,0:0:0:0:
256,192,220739,1,8,0:0:0:0:
256,192,220814,1,4,0:0:0:0:
256,192,220964,1,12,0:0:0:0:
256,192,221114,1,0,0:0:0:0:
256,192,221264,1,12,0:0:0:0:
256,192,221414,1,4,0:0:0:0:
256,192,221564,1,12,0:0:0:0:
256,192,221714,1,0,0:0:0:0:
256,192,221864,1,12,0:0:0:0:
256,192,222014,1,0,0:0:0:0:
256,192,222164,1,8,0:0:0:0:
256,192,222314,1,8,0:0:0:0:
256,192,222464,1,8,0:0:0:0:
256,192,222614,1,0,0:0:0:0:
256,192,222764,1,8,0:0:0:0:
256,192,222914,1,8,0:0:0:0:
256,192,223064,1,0,0:0:0:0:
256,192,223364,1,8,0:0:0:0:
256,192,223514,1,0,0:0:0:0:
256,192,223664,1,8,0:0:0:0:
256,192,223814,1,0,0:0:0:0:
256,192,223964,1,0,0:0:0:0:
256,192,224114,1,8,0:0:0:0:
256,192,224414,1,0,0:0:0:0:
256,192,224564,1,0,0:0:0:0:
256,192,224714,1,8,0:0:0:0:
256,192,224864,1,0,0:0:0:0:
256,192,225014,1,8,0:0:0:0:
256,192,225164,1,0,0:0:0:0:
256,192,225314,1,0,0:0:0:0:
256,192,225464,1,8,0:0:0:0:
256,192,225764,1,0,0:0:0:0:
256,192,225914,1,8,0:0:0:0:
256,192,226064,1,0,0:0:0:0:
256,192,226214,1,0,0:0:0:0:
