osu file format v14

[General]
AudioFilename: audio.mp3
AudioLeadIn: 0
PreviewTime: 116828
Countdown: 0
SampleSet: Soft
StackLeniency: 0.7
Mode: 3
LetterboxInBreaks: 0
SpecialStyle: 0
WidescreenStoryboard: 0

[Editor]
Bookmarks: 162,21495,42828,64161,85495,96161,117495,138828,160161,181495,202911,224161
DistanceSpacing: 0.8
BeatDivisor: 4
GridSize: 4
TimelineZoom: 1.2

[Metadata]
Title:Otsukimi PARTY HARD
TitleUnicode:Otsukimi PARTY HARD
Artist:t+pazolite feat. Nanahira
ArtistUnicode:t+pazolite feat. ななひら
Creator:LordTimeWaste
Version:JuMpStReAmPaRtY
Source:
Tags:TAG MATCH KAWAII-GABBA, KAKATTEKOYEAH!!!!, Cutie & Headshaking Sounds, C.H.S
BeatmapID:1267157
BeatmapSetID:599597

[Difficulty]
HPDrainRate:8.3
CircleSize:4
OverallDifficulty:8
ApproachRate:5
SliderMultiplier:1.4
SliderTickRate:1

[Events]
//Background and Video events
0,0,"1484680858.rabbity_str_com1.png",0,0
//Break Periods
//Storyboard Layer 0 (Background)
//Storyboard Layer 1 (Fail)
//Storyboard Layer 2 (Pass)
//Storyboard Layer 3 (Foreground)
//Storyboard Sound Samples

[TimingPoints]
162,333.333333333333,4,2,0,20,1,0
5161,-52.6315789473684,4,2,0,20,0,0
5203,-1000,4,2,0,20,0,0
5245,-52.6315789473684,4,2,0,20,0,0
5286,-1000,4,2,0,20,0,0
5328,-100,4,2,0,20,0,0
9495,-76.9230769230769,4,2,0,20,0,0
9620,-1000,4,2,0,20,0,0
9661,-100,4,2,0,20,0,0
9828,-76.9230769230769,4,2,0,20,0,0
9953,-1000,4,2,0,20,0,0
9995,-100,4,2,0,20,0,0
10161,-76.9230769230769,4,2,0,20,0,0
10286,-1000,4,2,0,20,0,0
10328,-100,4,2,0,20,0,0
10495,-76.9230769230769,4,2,0,20,0,0
10620,-1000,4,2,0,20,0,0
10661,-100,4,2,0,20,0,0
15828,-52.6315789473684,4,2,0,20,0,0
15870,-1000,4,2,0,20,0,0
15911,-52.6315789473684,4,2,0,20,0,0
15953,-1000,4,2,0,20,0,0
15995,-100,4,2,0,20,0,0
30161,-66.6666666666667,4,2,0,20,0,0
30203,-200,4,2,0,20,0,0
30245,-66.6666666666667,4,2,0,20,0,0
30286,-200,4,2,0,20,0,0
30328,-100,4,2,0,20,0,0
30411,-66.6666666666667,4,2,0,20,0,0
30453,-200,4,2,0,20,0,0
30495,-100,4,2,0,20,0,0
30578,-66.6666666666667,4,2,0,20,0,0
30620,-200,4,2,0,20,0,0
30661,-66.6666666666667,4,2,0,20,0,0
30703,-200,4,2,0,20,0,0
30745,-66.6666666666667,4,2,0,20,0,0
30786,-200,4,2,0,20,0,0
30828,-100,4,2,0,20,0,0
40661,-100,4,2,0,20,0,0
40682,-55.5555555555556,4,2,0,20,0,0
40703,-500,4,2,0,20,0,0
40724,-55.5555555555556,4,2,0,20,0,0
40745,-500,4,2,0,20,0,0
40766,-55.5555555555556,4,2,0,20,0,0
40786,-500,4,2,0,20,0,0
40807,-55.5555555555556,4,2,0,20,0,0
40828,-500,4,2,0,20,0,0
40849,-100,4,2,0,20,0,0
41161,-55.5555555555556,4,2,0,20,0,0
41182,-500,4,2,0,20,0,0
41203,-55.5555555555556,4,2,0,20,0,0
41224,-500,4,2,0,20,0,0
41245,-55.5555555555556,4,2,0,20,0,0
41266,-500,4,2,0,20,0,0
41286,-55.5555555555556,4,2,0,20,0,0
41307,-500,4,2,0,20,0,0
41328,-55.5555555555556,4,2,0,20,0,0
41349,-500,4,2,0,20,0,0
41370,-55.5555555555556,4,2,0,20,0,0
41391,-500,4,2,0,20,0,0
41411,-55.5555555555556,4,2,0,20,0,0
41432,-500,4,2,0,20,0,0
41453,-55.5555555555556,4,2,0,20,0,0
41474,-500,4,2,0,20,0,0
41495,-100,4,2,0,20,0,0
93495,-66.6666666666667,4,2,0,20,0,0
93578,-200,4,2,0,20,0,0
93661,-66.6666666666667,4,2,0,20,0,0
93745,-200,4,2,0,20,0,0
93828,-66.6666666666667,4,2,0,20,0,0
93911,-200,4,2,0,20,0,0
93995,-66.6666666666667,4,2,0,20,0,0
94036,-200,4,2,0,20,0,0
94078,-66.6666666666667,4,2,0,20,0,0
94120,-200,4,2,0,20,0,0
94161,-66.6666666666667,4,2,0,20,0,0
94203,-200,4,2,0,20,0,0
94245,-66.6666666666667,4,2,0,20,0,0
94286,-200,4,2,0,20,0,0
94328,-66.6666666666667,4,2,0,20,0,0
94370,-200,4,2,0,20,0,0
94411,-66.6666666666667,4,2,0,20,0,0
94453,-200,4,2,0,20,0,0
94495,-55.5555555555556,4,2,0,20,0,0
94536,-500,4,2,0,20,0,0
94578,-55.5555555555556,4,2,0,20,0,0
94620,-500,4,2,0,20,0,0
94661,-55.5555555555556,4,2,0,20,0,0
94703,-500,4,2,0,20,0,0
94745,-55.5555555555556,4,2,0,20,0,0
94786,-500,4,2,0,20,0,0
94828,-100,4,2,0,20,0,0
116828,-100,4,2,0,20,0,1
138828,-100,4,2,0,20,0,0
141995,-66.6666666666667,4,2,0,20,0,0
142078,-200,4,2,0,20,0,0
142161,-66.6666666666667,4,2,0,20,0,0
142245,-200,4,2,0,20,0,0
142328,-100,4,2,0,20,0,0
142828,-66.6666666666667,4,2,0,20,0,0
142870,-200,4,2,0,20,0,0
142911,-66.6666666666667,4,2,0,20,0,0
142953,-200,4,2,0,20,0,0
142995,-100,4,2,0,20,0,0
143078,-66.6666666666667,4,2,0,20,0,0
143120,-200,4,2,0,20,0,0
143161,-100,4,2,0,20,0,0
143245,-66.6666666666667,4,2,0,20,0,0
143286,-200,4,2,0,20,0,0
143328,-66.6666666666667,4,2,0,20,0,0
143370,-200,4,2,0,20,0,0
143411,-66.6666666666667,4,2,0,20,0,0
143453,-200,4,2,0,20,0,0
143495,-100,4,2,0,20,0,0
147495,-66.6666666666667,4,2,0,20,0,0
147578,-200,4,2,0,20,0,0
147661,-66.6666666666667,4,2,0,20,0,0
147745,-200,4,2,0,20,0,0
147828,-100,4,2,0,20,0,0
148328,-66.6666666666667,4,2,0,20,0,0
148370,-200,4,2,0,20,0,0
148411,-66.6666666666667,4,2,0,20,0,0
148453,-200,4,2,0,20,0,0
148495,-100,4,2,0,20,0,0
148828,-66.6666666666667,4,2,0,20,0,0
148911,-200,4,2,0,20,0,0
148995,-66.6666666666667,4,2,0,20,0,0
149078,-200,4,2,0,20,0,0
149161,-66.6666666666667,4,2,0,20,0,0
149245,-200,4,2,0,20,0,0
149328,-66.6666666666667,4,2,0,20,0,0
149411,-200,4,2,0,20,0,0
149495,-100,4,2,0,20,0,0
151328,-55.5555555555556,4,2,0,20,0,0
151349,-500,4,2,0,20,0,0
151370,-55.5555555555556,4,2,0,20,0,0
151391,-500,4,2,0,20,0,0
151411,-55.5555555555556,4,2,0,20,0,0
151432,-500,4,2,0,20,0,0
151453,-55.5555555555556,4,2,0,20,0,0
151474,-500,4,2,0,20,0,0
151495,-100,4,2,0,20,0,0
152661,-66.6666666666667,4,2,0,20,0,0
152745,-200,4,2,0,20,0,0
152828,-66.6666666666667,4,2,0,20,0,0
152911,-200,4,2,0,20,0,0
152995,-100,4,2,0,20,0,0
153495,-66.6666666666667,4,2,0,20,0,0
153536,-200,4,2,0,20,0,0
153578,-66.6666666666667,4,2,0,20,0,0
153620,-200,4,2,0,20,0,0
153661,-100,4,2,0,20,0,0
153745,-66.6666666666667,4,2,0,20,0,0
153786,-200,4,2,0,20,0,0
153828,-100,4,2,0,20,0,0
153911,-66.6666666666667,4,2,0,20,0,0
153953,-200,4,2,0,20,0,0
153995,-66.6666666666667,4,2,0,20,0,0
154036,-200,4,2,0,20,0,0
154078,-66.6666666666667,4,2,0,20,0,0
154120,-200,4,2,0,20,0,0
154161,-100,4,2,0,20,0,0
154995,-66.6666666666667,4,2,0,20,0,0
155036,-200,4,2,0,20,0,0
155078,-66.6666666666667,4,2,0,20,0,0
155120,-200,4,2,0,20,0,0
155161,-100,4,2,0,20,0,0
156161,-66.6666666666667,4,2,0,20,0,0
156203,-200,4,2,0,20,0,0
156245,-66.6666666666667,4,2,0,20,0,0
156286,-200,4,2,0,20,0,0
156328,-66.6666666666667,4,2,0,20,0,0
156370,-200,4,2,0,20,0,0
156411,-66.6666666666667,4,2,0,20,0,0
156453,-200,4,2,0,20,0,0
156495,-100,4,2,0,20,0,0
156995,-55.5555555555556,4,2,0,20,0,0
157016,-500,4,2,0,20,0,0
157036,-55.5555555555556,4,2,0,20,0,0
157057,-500,4,2,0,20,0,0
157078,-55.5555555555556,4,2,0,20,0,0
157099,-500,4,2,0,20,0,0
157120,-55.5555555555556,4,2,0,20,0,0
157141,-500,4,2,0,20,0,0
157161,-52.6315789473684,4,2,0,20,0,0
157245,-1000,4,2,0,20,0,0
157328,-52.6315789473684,4,2,0,20,0,0
157411,-1000,4,2,0,20,0,0
157495,-100,4,2,0,20,0,0
157995,-55.5555555555556,4,2,0,20,0,0
158016,-500,4,2,0,20,0,0
158036,-55.5555555555556,4,2,0,20,0,0
158057,-500,4,2,0,20,0,0
158078,-55.5555555555556,4,2,0,20,0,0
158099,-500,4,2,0,20,0,0
158120,-55.5555555555556,4,2,0,20,0,0
158141,-500,4,2,0,20,0,0
158161,-100,4,2,0,20,0,0
158495,-55.5555555555556,4,2,0,20,0,0
158516,-500,4,2,0,20,0,0
158536,-55.5555555555556,4,2,0,20,0,0
158557,-500,4,2,0,20,0,0
158578,-55.5555555555556,4,2,0,20,0,0
158599,-500,4,2,0,20,0,0
158620,-55.5555555555556,4,2,0,20,0,0
158641,-500,4,2,0,20,0,0
158661,-55.5555555555556,4,2,0,20,0,0
158682,-500,4,2,0,20,0,0
158703,-55.5555555555556,4,2,0,20,0,0
158724,-500,4,2,0,20,0,0
158745,-55.5555555555556,4,2,0,20,0,0
158766,-500,4,2,0,20,0,0
158786,-55.5555555555556,4,2,0,20,0,0
158807,-500,4,2,0,20,0,0
158828,-100,4,2,0,20,0,0
202495,-100,4,2,0,20,0,1
224161,-100,4,2,0,20,0,0
229161,-52.6315789473684,4,2,0,20,0,0
229245,-1000,4,2,0,20,0,0
229328,-52.6315789473684,4,2,0,20,0,0
229411,-1000,4,2,0,20,0,0
229495,-100,4,2,0,20,0,0
232495,-52.6315789473684,4,2,0,20,0,0
232578,-1000,4,2,0,20,0,0
232661,-52.6315789473684,4,2,0,20,0,0
232745,-1000,4,2,0,20,0,0
232828,-100,4,2,0,20,0,0
233161,-52.6315789473684,4,2,0,20,0,0
233245,-1000,4,2,0,20,0,0
233328,-52.6315789473684,4,2,0,20,0,0
233411,-1000,4,2,0,20,0,0
233495,-100,4,2,0,20,0,0
233828,-52.6315789473684,4,2,0,20,0,0
233911,-1000,4,2,0,20,0,0
233995,-52.6315789473684,4,2,0,20,0,0
234078,-1000,4,2,0,20,0,0
234161,-100,4,2,0,20,0,0
237161,-52.6315789473684,4,2,0,20,0,0
237245,-1000,4,2,0,20,0,0
237328,-52.6315789473684,4,2,0,20,0,0
237411,-1000,4,2,0,20,0,0
237495,-100,4,2,0,20,0,0
239495,-76.9230769230769,4,2,0,20,0,0
239620,-1000,4,2,0,20,0,0
239661,-100,4,2,0,20,0,0
239828,-76.9230769230769,4,2,0,20,0,0
239953,-1000,4,2,0,20,0,0
239995,-76.9230769230769,4,2,0,20,0,0
240120,-1000,4,2,0,20,0,0
240161,-100,4,2,0,20,0,0
243161,-55.5555555555556,4,2,0,20,0,0
243182,-500,4,2,0,20,0,0
243203,-55.5555555555556,4,2,0,20,0,0
243224,-500,4,2,0,20,0,0
243245,-55.5555555555556,4,2,0,20,0,0
243266,-500,4,2,0,20,0,0
243286,-55.5555555555556,4,2,0,20,0,0
243307,-500,4,2,0,20,0,0
243328,-55.5555555555556,4,2,0,20,0,0
243349,-500,4,2,0,20,0,0
243370,-55.5555555555556,4,2,0,20,0,0
243391,-500,4,2,0,20,0,0
243411,-55.5555555555556,4,2,0,20,0,0
243432,-500,4,2,0,20,0,0
243453,-55.5555555555556,4,2,0,20,0,0
243474,-500,4,2,0,20,0,0
243495,-100,4,2,0,20,0,0
243828,-55.5555555555556,4,2,0,20,0,0
243849,-500,4,2,0,20,0,0
243870,-55.5555555555556,4,2,0,20,0,0
243891,-500,4,2,0,20,0,0
243911,-55.5555555555556,4,2,0,20,0,0
243932,-500,4,2,0,20,0,0
243953,-55.5555555555556,4,2,0,20,0,0
243974,-500,4,2,0,20,0,0
243995,-55.5555555555556,4,2,0,20,0,0
244016,-500,4,2,0,20,0,0
244036,-55.5555555555556,4,2,0,20,0,0
244057,-500,4,2,0,20,0,0
244078,-55.5555555555556,4,2,0,20,0,0
244099,-500,4,2,0,20,0,0
244120,-55.5555555555556,4,2,0,20,0,0
244141,-500,4,2,0,20,0,0
244161,-100,4,2,0,20,0,0

[HitObjects]
64,192,162,5,0,0:0:0:0:
192,192,162,1,0,0:0:0:0:
320,192,162,1,0,0:0:0:0:
192,192,328,1,0,0:0:0:0:
448,192,328,1,0,0:0:0:0:
320,192,495,1,0,0:0:0:0:
448,192,495,1,0,0:0:0:0:
64,192,495,1,0,0:0:0:0:
320,192,661,1,0,0:0:0:0:
192,192,661,1,0,0:0:0:0:
64,192,828,1,0,0:0:0:0:
192,192,828,1,0,0:0:0:0:
448,192,828,1,0,0:0:0:0:
64,192,995,1,0,0:0:0:0:
320,192,995,1,0,0:0:0:0:
448,192,1161,1,0,0:0:0:0:
320,192,1161,1,0,0:0:0:0:
192,192,1161,1,0,0:0:0:0:
448,192,1328,1,0,0:0:0:0:
64,192,1328,1,0,0:0:0:0:
64,192,1495,1,0,0:0:0:0:
192,192,1495,1,0,0:0:0:0:
320,192,1495,1,0,0:0:0:0:
320,192,1661,1,0,0:0:0:0:
448,192,1661,1,0,0:0:0:0:
64,192,1828,1,0,0:0:0:0:
192,192,1828,1,0,0:0:0:0:
448,192,1828,1,0,0:0:0:0:
192,192,1995,1,0,0:0:0:0:
320,192,1995,1,0,0:0:0:0:
320,192,2161,1,0,0:0:0:0:
64,192,2161,1,0,0:0:0:0:
448,192,2161,1,0,0:0:0:0:
64,192,2328,1,0,0:0:0:0:
192,192,2328,1,0,0:0:0:0:
448,192,2495,1,0,0:0:0:0:
320,192,2495,1,0,0:0:0:0:
192,192,2495,1,0,0:0:0:0:
448,192,2661,1,0,0:0:0:0:
320,192,2661,1,0,0:0:0:0:
192,192,2661,1,0,0:0:0:0:
448,192,2828,1,0,0:0:0:0:
320,192,2828,1,0,0:0:0:0:
192,192,2828,1,0,0:0:0:0:
64,192,2995,1,0,0:0:0:0:
320,192,2995,1,0,0:0:0:0:
448,192,3161,1,0,0:0:0:0:
320,192,3161,1,0,0:0:0:0:
64,192,3161,1,0,0:0:0:0:
192,192,3328,1,0,0:0:0:0:
320,192,3328,1,0,0:0:0:0:
64,192,3495,1,0,0:0:0:0:
448,192,3495,1,0,0:0:0:0:
192,192,3495,1,0,0:0:0:0:
64,192,3661,1,0,0:0:0:0:
320,192,3661,1,0,0:0:0:0:
320,192,3828,1,0,0:0:0:0:
192,192,3828,1,0,0:0:0:0:
448,192,3828,1,0,0:0:0:0:
192,192,3995,1,0,0:0:0:0:
64,192,3995,1,0,0:0:0:0:
448,192,4161,1,0,0:0:0:0:
320,192,4161,1,0,0:0:0:0:
64,192,4161,1,0,0:0:0:0:
192,192,4328,1,0,0:0:0:0:
320,192,4328,1,0,0:0:0:0:
192,192,4495,1,0,0:0:0:0:
448,192,4495,1,0,0:0:0:0:
64,192,4495,1,0,0:0:0:0:
320,192,4661,1,0,0:0:0:0:
448,192,4661,1,0,0:0:0:0:
64,192,4828,1,0,0:0:0:0:
320,192,4828,1,0,0:0:0:0:
192,192,4828,1,0,0:0:0:0:
448,192,4995,1,0,0:0:0:0:
192,192,4995,1,0,0:0:0:0:
64,192,5161,128,0,5328:0:0:0:0:
320,192,5161,128,0,5328:0:0:0:0:
448,192,5161,128,0,5328:0:0:0:0:
320,192,5495,1,0,0:0:0:0:
192,192,5495,1,0,0:0:0:0:
64,192,5495,1,0,0:0:0:0:
192,192,5661,1,0,0:0:0:0:
448,192,5661,1,0,0:0:0:0:
64,192,5828,1,0,0:0:0:0:
448,192,5828,1,0,0:0:0:0:
320,192,5828,1,0,0:0:0:0:
320,192,5995,1,0,0:0:0:0:
192,192,5995,1,0,0:0:0:0:
448,192,6161,1,0,0:0:0:0:
192,192,6161,1,0,0:0:0:0:
64,192,6161,1,0,0:0:0:0:
64,192,6328,1,0,0:0:0:0:
320,192,6328,1,0,0:0:0:0:
448,192,6495,1,0,0:0:0:0:
192,192,6495,1,0,0:0:0:0:
320,192,6495,1,0,0:0:0:0:
448,192,6661,1,0,0:0:0:0:
64,192,6661,1,0,0:0:0:0:
320,192,6828,1,0,0:0:0:0:
192,192,6828,1,0,0:0:0:0:
64,192,6828,1,0,0:0:0:0:
192,192,6995,1,0,0:0:0:0:
448,192,6995,1,0,0:0:0:0:
448,192,7161,1,0,0:0:0:0:
320,192,7161,1,0,0:0:0:0:
64,192,7161,1,0,0:0:0:0:
64,192,7328,1,0,0:0:0:0:
192,192,7328,1,0,0:0:0:0:
192,192,7495,1,0,0:0:0:0:
448,192,7495,1,0,0:0:0:0:
320,192,7495,1,0,0:0:0:0:
320,192,7661,1,0,0:0:0:0:
448,192,7661,1,0,0:0:0:0:
192,192,7828,1,0,0:0:0:0:
320,192,7828,1,0,0:0:0:0:
64,192,7828,1,0,0:0:0:0:
64,192,7995,1,0,0:0:0:0:
192,192,7995,1,0,0:0:0:0:
320,192,7995,1,0,0:0:0:0:
64,192,8161,1,0,0:0:0:0:
192,192,8161,1,0,0:0:0:0:
320,192,8161,1,0,0:0:0:0:
448,192,8328,1,0,0:0:0:0:
64,192,8328,1,0,0:0:0:0:
320,192,8495,1,0,0:0:0:0:
192,192,8495,1,0,0:0:0:0:
64,192,8495,1,0,0:0:0:0:
192,192,8661,1,0,0:0:0:0:
448,192,8661,1,0,0:0:0:0:
64,192,8828,1,0,0:0:0:0:
448,192,8828,1,0,0:0:0:0:
320,192,8828,1,0,0:0:0:0:
320,192,8995,1,0,0:0:0:0:
192,192,8995,1,0,0:0:0:0:
448,192,9161,1,0,0:0:0:0:
192,192,9161,1,0,0:0:0:0:
64,192,9161,1,0,0:0:0:0:
64,192,9328,1,0,0:0:0:0:
320,192,9328,1,0,0:0:0:0:
192,192,9495,128,0,9661:0:0:0:0:
320,192,9495,128,0,9661:0:0:0:0:
448,192,9495,128,0,10828:0:0:0:0:
64,192,9828,128,0,9995:0:0:0:0:
192,192,9828,128,0,9995:0:0:0:0:
64,192,10161,128,0,10328:0:0:0:0:
320,192,10161,128,0,10328:0:0:0:0:
192,192,10495,128,0,10661:0:0:0:0:
320,192,10495,128,0,10661:0:0:0:0:
320,192,10828,1,0,0:0:0:0:
192,192,10828,1,0,0:0:0:0:
64,192,10828,1,0,0:0:0:0:
320,192,10995,1,0,0:0:0:0:
448,192,11078,1,0,0:0:0:0:
64,192,11161,1,0,0:0:0:0:
320,192,11161,1,0,0:0:0:0:
192,192,11161,1,0,0:0:0:0:
64,192,11328,1,0,0:0:0:0:
192,192,11411,1,0,0:0:0:0:
320,192,11495,1,0,0:0:0:0:
448,192,11495,1,0,0:0:0:0:
64,192,11495,1,0,0:0:0:0:
448,192,11661,1,0,0:0:0:0:
320,192,11745,1,0,0:0:0:0:
64,192,11828,1,0,0:0:0:0:
448,192,11828,1,0,0:0:0:0:
192,192,11828,1,0,0:0:0:0:
192,192,11995,1,0,0:0:0:0:
320,192,12078,1,0,0:0:0:0:
192,192,12161,1,0,0:0:0:0:
448,192,12161,1,0,0:0:0:0:
64,192,12161,1,0,0:0:0:0:
320,192,12328,1,0,0:0:0:0:
192,192,12411,1,0,0:0:0:0:
64,192,12495,1,0,0:0:0:0:
448,192,12495,1,0,0:0:0:0:
320,192,12495,1,0,0:0:0:0:
192,192,12661,1,0,0:0:0:0:
320,192,12745,1,0,0:0:0:0:
192,192,12828,1,0,0:0:0:0:
64,192,12828,1,0,0:0:0:0:
448,192,12828,1,0,0:0:0:0:
320,192,12995,1,0,0:0:0:0:
192,192,13078,1,0,0:0:0:0:
448,192,13161,1,0,0:0:0:0:
320,192,13161,1,0,0:0:0:0:
64,192,13161,1,0,0:0:0:0:
448,192,13328,1,0,0:0:0:0:
64,192,13328,1,0,0:0:0:0:
320,192,13328,1,0,0:0:0:0:
64,192,13495,1,0,0:0:0:0:
448,192,13495,1,0,0:0:0:0:
320,192,13495,1,0,0:0:0:0:
192,192,13661,1,0,0:0:0:0:
64,192,13745,1,0,0:0:0:0:
320,192,13828,1,0,0:0:0:0:
192,192,13828,1,0,0:0:0:0:
448,192,13828,1,0,0:0:0:0:
320,192,13995,1,0,0:0:0:0:
448,192,14078,1,0,0:0:0:0:
64,192,14161,1,0,0:0:0:0:
192,192,14161,1,0,0:0:0:0:
320,192,14161,1,0,0:0:0:0:
192,192,14328,1,0,0:0:0:0:
64,192,14411,1,0,0:0:0:0:
320,192,14495,1,0,0:0:0:0:
448,192,14495,1,0,0:0:0:0:
192,192,14495,1,0,0:0:0:0:
320,192,14661,1,0,0:0:0:0:
448,192,14745,1,0,0:0:0:0:
64,192,14828,1,0,0:0:0:0:
192,192,14828,1,0,0:0:0:0:
320,192,14828,1,0,0:0:0:0:
192,192,14995,1,0,0:0:0:0:
320,192,15078,1,0,0:0:0:0:
448,192,15161,1,0,0:0:0:0:
192,192,15161,1,0,0:0:0:0:
64,192,15161,1,0,0:0:0:0:
64,192,15328,1,0,0:0:0:0:
192,192,15411,1,0,0:0:0:0:
448,192,15495,1,0,0:0:0:0:
64,192,15495,1,0,0:0:0:0:
320,192,15495,1,0,0:0:0:0:
192,192,15661,1,0,0:0:0:0:
320,192,15745,1,0,0:0:0:0:
64,192,15828,128,0,15995:0:0:0:0:
192,192,15828,128,0,15995:0:0:0:0:
448,192,15828,128,0,15995:0:0:0:0:
320,192,16161,1,0,0:0:0:0:
192,192,16161,1,0,0:0:0:0:
448,192,16161,1,0,0:0:0:0:
64,192,16328,1,0,0:0:0:0:
192,192,16328,1,0,0:0:0:0:
448,192,16328,1,0,0:0:0:0:
448,192,16495,1,0,0:0:0:0:
320,192,16495,1,0,0:0:0:0:
64,192,16495,1,0,0:0:0:0:
320,192,16661,1,0,0:0:0:0:
192,192,16661,1,0,0:0:0:0:
64,192,16661,1,0,0:0:0:0:
320,192,16828,1,0,0:0:0:0:
192,192,16828,1,0,0:0:0:0:
448,192,16828,1,0,0:0:0:0:
64,192,16995,1,0,0:0:0:0:
448,192,16995,1,0,0:0:0:0:
192,192,16995,1,0,0:0:0:0:
64,192,17161,1,0,0:0:0:0:
448,192,17161,1,0,0:0:0:0:
320,192,17161,1,0,0:0:0:0:
64,192,17328,1,0,0:0:0:0:
320,192,17328,1,0,0:0:0:0:
192,192,17328,1,0,0:0:0:0:
320,192,17495,1,0,0:0:0:0:
192,192,17495,1,0,0:0:0:0:
448,192,17495,1,0,0:0:0:0:
64,192,17661,1,0,0:0:0:0:
320,192,17661,1,0,0:0:0:0:
192,192,17661,1,0,0:0:0:0:
192,192,17828,1,0,0:0:0:0:
320,192,17828,1,0,0:0:0:0:
448,192,17828,1,0,0:0:0:0:
192,192,17995,1,0,0:0:0:0:
320,192,17995,1,0,0:0:0:0:
64,192,17995,1,0,0:0:0:0:
448,192,18161,1,0,0:0:0:0:
64,192,18161,1,0,0:0:0:0:
320,192,18161,1,0,0:0:0:0:
192,192,18328,1,0,0:0:0:0:
448,192,18328,1,0,0:0:0:0:
64,192,18328,1,0,0:0:0:0:
320,192,18495,1,0,0:0:0:0:
448,192,18495,1,0,0:0:0:0:
64,192,18495,1,0,0:0:0:0:
320,192,18661,1,0,0:0:0:0:
64,192,18661,1,0,0:0:0:0:
448,192,18661,1,0,0:0:0:0:
192,192,18828,1,0,0:0:0:0:
64,192,18828,1,0,0:0:0:0:
448,192,18911,1,0,0:0:0:0:
320,192,18911,1,0,0:0:0:0:
192,192,18995,1,0,0:0:0:0:
64,192,18995,1,0,0:0:0:0:
448,192,19078,1,0,0:0:0:0:
320,192,19078,1,0,0:0:0:0:
192,192,19161,1,0,0:0:0:0:
64,192,19161,1,0,0:0:0:0:
448,192,19245,1,0,0:0:0:0:
320,192,19245,1,0,0:0:0:0:
192,192,19328,1,0,0:0:0:0:
64,192,19328,1,0,0:0:0:0:
448,192,19411,1,0,0:0:0:0:
320,192,19411,1,0,0:0:0:0:
64,192,19495,1,0,0:0:0:0:
192,192,19495,1,0,0:0:0:0:
320,192,19578,1,0,0:0:0:0:
448,192,19578,1,0,0:0:0:0:
64,192,19661,1,0,0:0:0:0:
192,192,19661,1,0,0:0:0:0:
320,192,19745,1,0,0:0:0:0:
448,192,19745,1,0,0:0:0:0:
64,192,19828,1,0,0:0:0:0:
192,192,19828,1,0,0:0:0:0:
320,192,19911,1,0,0:0:0:0:
448,192,19911,1,0,0:0:0:0:
192,192,19995,1,0,0:0:0:0:
64,192,19995,1,0,0:0:0:0:
448,192,20078,1,0,0:0:0:0:
64,192,20161,128,0,20328:0:0:0:0:
320,192,20161,1,0,0:0:0:0:
192,192,20328,128,0,20495:0:0:0:0:
448,192,20328,1,0,0:0:0:0:
448,192,20495,128,0,20661:0:0:0:0:
320,192,20495,1,0,0:0:0:0:
64,192,20745,1,0,0:0:0:0:
320,192,20828,128,0,20995:0:0:0:0:
192,192,20828,1,0,0:0:0:0:
448,192,20995,1,0,0:0:0:0:
64,192,20995,128,0,21161:0:0:0:0:
192,192,21078,1,0,0:0:0:0:
448,192,21161,128,0,21495:0:0:0:0:
320,192,21161,1,0,0:0:0:0:
64,192,21495,1,0,0:0:0:0:
192,192,21495,1,0,0:0:0:0:
320,192,21578,1,0,0:0:0:0:
448,192,21661,1,0,0:0:0:0:
192,192,21661,1,0,0:0:0:0:
64,192,21745,1,0,0:0:0:0:
448,192,21828,1,0,0:0:0:0:
320,192,21828,1,0,0:0:0:0:
192,192,21911,1,0,0:0:0:0:
64,192,21995,1,0,0:0:0:0:
448,192,21995,1,0,0:0:0:0:
320,192,22078,1,0,0:0:0:0:
192,192,22161,1,0,0:0:0:0:
64,192,22161,1,0,0:0:0:0:
320,192,22245,1,0,0:0:0:0:
448,192,22328,1,0,0:0:0:0:
192,192,22328,1,0,0:0:0:0:
64,192,22411,1,0,0:0:0:0:
448,192,22495,1,0,0:0:0:0:
320,192,22495,1,0,0:0:0:0:
192,192,22578,1,0,0:0:0:0:
64,192,22661,1,0,0:0:0:0:
320,192,22661,1,0,0:0:0:0:
448,192,22745,1,0,0:0:0:0:
64,192,22828,1,0,0:0:0:0:
192,192,22828,1,0,0:0:0:0:
320,192,22911,1,0,0:0:0:0:
64,192,22995,1,0,0:0:0:0:
448,192,22995,1,0,0:0:0:0:
192,192,23078,1,0,0:0:0:0:
320,192,23161,1,0,0:0:0:0:
448,192,23161,1,0,0:0:0:0:
64,192,23245,1,0,0:0:0:0:
192,192,23328,1,0,0:0:0:0:
448,192,23328,1,0,0:0:0:0:
320,192,23411,1,0,0:0:0:0:
64,192,23495,1,0,0:0:0:0:
192,192,23495,1,0,0:0:0:0:
320,192,23578,1,0,0:0:0:0:
64,192,23661,1,0,0:0:0:0:
448,192,23661,1,0,0:0:0:0:
192,192,23745,1,0,0:0:0:0:
320,192,23828,1,0,0:0:0:0:
448,192,23828,1,0,0:0:0:0:
192,192,23911,1,0,0:0:0:0:
448,192,23995,1,0,0:0:0:0:
320,192,23995,1,0,0:0:0:0:
192,192,24078,1,0,0:0:0:0:
448,192,24161,1,0,0:0:0:0:
320,192,24161,1,0,0:0:0:0:
192,192,24245,1,0,0:0:0:0:
64,192,24328,1,0,0:0:0:0:
448,192,24328,1,0,0:0:0:0:
320,192,24411,1,0,0:0:0:0:
192,192,24495,1,0,0:0:0:0:
64,192,24495,1,0,0:0:0:0:
448,192,24578,1,0,0:0:0:0:
320,192,24661,1,0,0:0:0:0:
64,192,24661,1,0,0:0:0:0:
192,192,24745,1,0,0:0:0:0:
64,192,24828,1,0,0:0:0:0:
448,192,24828,1,0,0:0:0:0:
320,192,24911,1,0,0:0:0:0:
192,192,24995,1,0,0:0:0:0:
448,192,24995,1,0,0:0:0:0:
64,192,25078,1,0,0:0:0:0:
320,192,25161,1,0,0:0:0:0:
448,192,25161,1,0,0:0:0:0:
192,192,25245,1,0,0:0:0:0:
448,192,25328,1,0,0:0:0:0:
64,192,25328,1,0,0:0:0:0:
320,192,25411,1,0,0:0:0:0:
64,192,25495,1,0,0:0:0:0:
192,192,25495,1,0,0:0:0:0:
320,192,25578,1,0,0:0:0:0:
448,192,25661,1,0,0:0:0:0:
64,192,25661,1,0,0:0:0:0:
192,192,25745,1,0,0:0:0:0:
320,192,25828,1,0,0:0:0:0:
448,192,25828,1,0,0:0:0:0:
64,192,25911,1,0,0:0:0:0:
192,192,25995,1,0,0:0:0:0:
448,192,25995,1,0,0:0:0:0:
320,192,26078,1,0,0:0:0:0:
448,192,26161,1,0,0:0:0:0:
64,192,26161,1,0,0:0:0:0:
192,192,26245,1,0,0:0:0:0:
320,192,26328,1,0,0:0:0:0:
448,192,26328,1,0,0:0:0:0:
192,192,26411,1,0,0:0:0:0:
64,192,26411,1,0,0:0:0:0:
448,192,26495,1,0,0:0:0:0:
320,192,26495,1,0,0:0:0:0:
192,192,26661,1,0,0:0:0:0:
320,192,26661,1,0,0:0:0:0:
64,192,26828,1,0,0:0:0:0:
192,192,26828,1,0,0:0:0:0:
320,192,26911,1,0,0:0:0:0:
64,192,26995,1,0,0:0:0:0:
448,192,26995,1,0,0:0:0:0:
192,192,27078,1,0,0:0:0:0:
320,192,27161,1,0,0:0:0:0:
448,192,27161,1,0,0:0:0:0:
192,192,27245,1,0,0:0:0:0:
64,192,27328,1,0,0:0:0:0:
448,192,27328,1,0,0:0:0:0:
320,192,27411,1,0,0:0:0:0:
192,192,27495,1,0,0:0:0:0:
64,192,27495,1,0,0:0:0:0:
320,192,27578,1,0,0:0:0:0:
448,192,27661,1,0,0:0:0:0:
64,192,27661,1,0,0:0:0:0:
192,192,27745,1,0,0:0:0:0:
320,192,27828,1,0,0:0:0:0:
448,192,27828,1,0,0:0:0:0:
64,192,27911,1,0,0:0:0:0:
192,192,27995,1,0,0:0:0:0:
448,192,27995,1,0,0:0:0:0:
64,192,28078,1,0,0:0:0:0:
320,192,28161,1,0,0:0:0:0:
448,192,28161,1,0,0:0:0:0:
192,192,28245,1,0,0:0:0:0:
64,192,28328,1,0,0:0:0:0:
448,192,28328,1,0,0:0:0:0:
320,192,28411,1,0,0:0:0:0:
192,192,28495,1,0,0:0:0:0:
64,192,28495,1,0,0:0:0:0:
320,192,28578,1,0,0:0:0:0:
448,192,28661,1,0,0:0:0:0:
64,192,28661,1,0,0:0:0:0:
192,192,28745,1,0,0:0:0:0:
448,192,28828,1,0,0:0:0:0:
320,192,28828,1,0,0:0:0:0:
192,192,28911,1,0,0:0:0:0:
448,192,28995,1,0,0:0:0:0:
64,192,28995,1,0,0:0:0:0:
320,192,29078,1,0,0:0:0:0:
192,192,29161,1,0,0:0:0:0:
64,192,29161,1,0,0:0:0:0:
320,192,29245,1,0,0:0:0:0:
64,192,29328,1,0,0:0:0:0:
192,192,29328,1,0,0:0:0:0:
320,192,29411,1,0,0:0:0:0:
64,192,29495,1,0,0:0:0:0:
192,192,29495,1,0,0:0:0:0:
448,192,29578,1,0,0:0:0:0:
320,192,29661,1,0,0:0:0:0:
64,192,29661,1,0,0:0:0:0:
192,192,29745,1,0,0:0:0:0:
64,192,29828,128,0,30161:0:0:0:0:
320,192,29828,1,0,0:0:0:0:
448,192,29828,1,0,0:0:0:0:
320,192,29995,1,0,0:0:0:0:
448,192,29995,1,0,0:0:0:0:
448,192,30161,1,0,0:0:0:0:
192,192,30161,1,0,0:0:0:0:
192,192,30245,1,0,0:0:0:0:
192,192,30411,1,0,0:0:0:0:
64,192,30578,1,0,0:0:0:0:
64,192,30661,1,0,0:0:0:0:
320,192,30745,1,0,0:0:0:0:
448,192,30828,128,0,30995:0:0:0:0:
320,192,30828,1,0,0:0:0:0:
192,192,30995,128,0,31161:0:0:0:0:
320,192,31161,128,0,31328:0:0:0:0:
448,192,31161,1,0,0:0:0:0:
64,192,31328,1,0,0:0:0:0:
64,192,31495,128,0,31661:0:0:0:0:
320,192,31495,1,0,0:0:0:0:
448,192,31661,128,0,31828:0:0:0:0:
192,192,31661,1,0,0:0:0:0:
320,192,31745,1,0,0:0:0:0:
192,192,31828,128,0,31995:0:0:0:0:
64,192,31828,1,0,0:0:0:0:
320,192,31995,1,0,0:0:0:0:
448,192,31995,1,0,0:0:0:0:
64,192,32161,1,0,0:0:0:0:
192,192,32161,1,0,0:0:0:0:
448,192,32161,1,0,0:0:0:0:
320,192,32245,1,0,0:0:0:0:
192,192,32328,1,0,0:0:0:0:
64,192,32328,1,0,0:0:0:0:
448,192,32411,1,0,0:0:0:0:
320,192,32495,1,0,0:0:0:0:
192,192,32495,1,0,0:0:0:0:
64,192,32495,1,0,0:0:0:0:
448,192,32578,1,0,0:0:0:0:
320,192,32661,1,0,0:0:0:0:
64,192,32661,1,0,0:0:0:0:
192,192,32745,1,0,0:0:0:0:
64,192,32828,1,0,0:0:0:0:
320,192,32828,1,0,0:0:0:0:
448,192,32828,1,0,0:0:0:0:
192,192,32911,1,0,0:0:0:0:
320,192,32995,1,0,0:0:0:0:
448,192,32995,1,0,0:0:0:0:
64,192,33078,1,0,0:0:0:0:
320,192,33161,1,0,0:0:0:0:
448,192,33161,1,0,0:0:0:0:
192,192,33161,1,0,0:0:0:0:
64,192,33245,1,0,0:0:0:0:
192,192,33328,1,0,0:0:0:0:
448,192,33328,1,0,0:0:0:0:
320,192,33411,1,0,0:0:0:0:
448,192,33495,1,0,0:0:0:0:
192,192,33495,1,0,0:0:0:0:
64,192,33495,1,0,0:0:0:0:
320,192,33578,1,0,0:0:0:0:
64,192,33661,1,0,0:0:0:0:
192,192,33661,1,0,0:0:0:0:
448,192,33745,1,0,0:0:0:0:
320,192,33828,1,0,0:0:0:0:
192,192,33828,1,0,0:0:0:0:
64,192,33828,1,0,0:0:0:0:
448,192,33911,1,0,0:0:0:0:
320,192,33995,1,0,0:0:0:0:
64,192,33995,1,0,0:0:0:0:
192,192,34078,1,0,0:0:0:0:
448,192,34161,1,0,0:0:0:0:
320,192,34161,1,0,0:0:0:0:
64,192,34161,1,0,0:0:0:0:
192,192,34245,1,0,0:0:0:0:
448,192,34328,1,0,0:0:0:0:
64,192,34328,1,0,0:0:0:0:
320,192,34411,1,0,0:0:0:0:
448,192,34495,1,0,0:0:0:0:
192,192,34495,1,0,0:0:0:0:
64,192,34495,1,0,0:0:0:0:
320,192,34578,1,0,0:0:0:0:
448,192,34661,1,0,0:0:0:0:
64,192,34661,1,0,0:0:0:0:
192,192,34745,1,0,0:0:0:0:
448,192,34828,1,0,0:0:0:0:
320,192,34828,1,0,0:0:0:0:
64,192,34828,1,0,0:0:0:0:
192,192,34911,1,0,0:0:0:0:
320,192,34995,1,0,0:0:0:0:
448,192,34995,1,0,0:0:0:0:
64,192,35078,1,0,0:0:0:0:
192,192,35161,1,0,0:0:0:0:
320,192,35161,1,0,0:0:0:0:
448,192,35161,1,0,0:0:0:0:
64,192,35245,1,0,0:0:0:0:
192,192,35328,1,0,0:0:0:0:
448,192,35328,1,0,0:0:0:0:
320,192,35411,1,0,0:0:0:0:
448,192,35495,1,0,0:0:0:0:
192,192,35495,1,0,0:0:0:0:
64,192,35495,1,0,0:0:0:0:
320,192,35578,1,0,0:0:0:0:
192,192,35661,1,0,0:0:0:0:
64,192,35661,1,0,0:0:0:0:
448,192,35745,1,0,0:0:0:0:
192,192,35828,1,0,0:0:0:0:
64,192,35828,1,0,0:0:0:0:
320,192,35828,1,0,0:0:0:0:
448,192,35911,1,0,0:0:0:0:
320,192,35995,1,0,0:0:0:0:
64,192,35995,1,0,0:0:0:0:
192,192,36078,1,0,0:0:0:0:
64,192,36161,1,0,0:0:0:0:
320,192,36161,1,0,0:0:0:0:
448,192,36161,1,0,0:0:0:0:
192,192,36245,1,0,0:0:0:0:
448,192,36328,1,0,0:0:0:0:
320,192,36328,1,0,0:0:0:0:
64,192,36411,1,0,0:0:0:0:
192,192,36495,1,0,0:0:0:0:
320,192,36495,1,0,0:0:0:0:
448,192,36495,1,0,0:0:0:0:
64,192,36578,1,0,0:0:0:0:
192,192,36661,1,0,0:0:0:0:
448,192,36661,1,0,0:0:0:0:
320,192,36745,1,0,0:0:0:0:
64,192,36828,128,0,37495:0:0:0:0:
448,192,36828,128,0,37161:0:0:0:0:
192,192,36828,1,0,0:0:0:0:
320,192,37161,1,0,0:0:0:0:
192,192,37161,128,0,37328:0:0:0:0:
320,192,37328,128,0,37495:0:0:0:0:
192,192,37495,1,0,0:0:0:0:
448,192,37495,1,0,0:0:0:0:
192,192,37661,1,0,0:0:0:0:
64,192,37661,1,0,0:0:0:0:
320,192,37661,1,0,0:0:0:0:
192,192,37828,1,0,0:0:0:0:
64,192,37828,1,0,0:0:0:0:
448,192,37828,1,0,0:0:0:0:
192,192,37995,1,0,0:0:0:0:
320,192,37995,1,0,0:0:0:0:
448,192,37995,1,0,0:0:0:0:
64,192,38161,1,0,0:0:0:0:
192,192,38161,1,0,0:0:0:0:
448,192,38161,1,0,0:0:0:0:
448,192,38328,1,0,0:0:0:0:
320,192,38328,1,0,0:0:0:0:
64,192,38328,1,0,0:0:0:0:
64,192,38495,1,0,0:0:0:0:
192,192,38495,1,0,0:0:0:0:
448,192,38495,1,0,0:0:0:0:
448,192,38661,1,0,0:0:0:0:
320,192,38661,1,0,0:0:0:0:
64,192,38661,1,0,0:0:0:0:
448,192,38828,1,0,0:0:0:0:
64,192,38828,1,0,0:0:0:0:
192,192,38828,1,0,0:0:0:0:
192,192,38995,1,0,0:0:0:0:
320,192,38995,1,0,0:0:0:0:
448,192,38995,1,0,0:0:0:0:
64,192,39161,1,0,0:0:0:0:
448,192,39161,1,0,0:0:0:0:
320,192,39161,1,0,0:0:0:0:
192,192,39328,1,0,0:0:0:0:
320,192,39328,1,0,0:0:0:0:
64,192,39328,1,0,0:0:0:0:
448,192,39495,1,0,0:0:0:0:
64,192,39495,1,0,0:0:0:0:
320,192,39495,1,0,0:0:0:0:
448,192,39661,1,0,0:0:0:0:
192,192,39661,1,0,0:0:0:0:
64,192,39661,1,0,0:0:0:0:
320,192,39828,1,0,0:0:0:0:
64,192,39828,1,0,0:0:0:0:
448,192,39828,1,0,0:0:0:0:
64,192,39995,1,0,0:0:0:0:
448,192,39995,1,0,0:0:0:0:
192,192,39995,1,0,0:0:0:0:
64,192,40161,1,0,0:0:0:0:
192,192,40161,1,0,0:0:0:0:
448,192,40161,1,0,0:0:0:0:
320,192,40245,1,0,0:0:0:0:
448,192,40245,1,0,0:0:0:0:
192,192,40328,1,0,0:0:0:0:
64,192,40328,1,0,0:0:0:0:
320,192,40411,1,0,0:0:0:0:
448,192,40411,1,0,0:0:0:0:
192,192,40495,1,0,0:0:0:0:
64,192,40495,1,0,0:0:0:0:
320,192,40578,1,0,0:0:0:0:
448,192,40578,1,0,0:0:0:0:
64,192,40661,1,0,0:0:0:0:
192,192,40703,1,0,0:0:0:0:
320,192,40745,1,0,0:0:0:0:
448,192,40786,1,0,0:0:0:0:
192,192,40828,1,0,0:0:0:0:
64,192,40828,1,0,0:0:0:0:
320,192,40911,1,0,0:0:0:0:
448,192,40911,1,0,0:0:0:0:
192,192,40995,1,0,0:0:0:0:
64,192,40995,1,0,0:0:0:0:
320,192,41078,1,0,0:0:0:0:
448,192,41078,1,0,0:0:0:0:
64,192,41161,1,0,0:0:0:0:
192,192,41203,1,0,0:0:0:0:
448,192,41245,1,0,0:0:0:0:
320,192,41286,1,0,0:0:0:0:
64,192,41328,1,0,0:0:0:0:
192,192,41370,1,0,0:0:0:0:
320,192,41411,1,0,0:0:0:0:
448,192,41453,1,0,0:0:0:0:
64,192,41495,128,0,42828:0:0:0:0:
192,192,41495,1,0,0:0:0:0:
320,192,41495,1,0,0:0:0:0:
448,192,41578,1,0,0:0:0:0:
192,192,41661,1,0,0:0:0:0:
448,192,41745,1,0,0:0:0:0:
192,192,41828,1,0,0:0:0:0:
320,192,41911,1,0,0:0:0:0:
448,192,41995,1,0,0:0:0:0:
192,192,42078,1,0,0:0:0:0:
320,192,42161,1,0,0:0:0:0:
448,192,42245,1,0,0:0:0:0:
192,192,42328,1,0,0:0:0:0:
320,192,42411,1,0,0:0:0:0:
448,192,42495,1,0,0:0:0:0:
192,192,42578,1,0,0:0:0:0:
320,192,42661,1,0,0:0:0:0:
448,192,42828,128,0,44161:0:0:0:0:
192,192,42828,1,0,0:0:0:0:
320,192,42828,128,0,43495:0:0:0:0:
64,192,43495,128,0,43828:0:0:0:0:
192,192,43828,128,0,44161:0:0:0:0:
320,192,44161,128,0,45495:0:0:0:0:
64,192,44161,128,0,44828:0:0:0:0:
192,192,44828,128,0,45161:0:0:0:0:
448,192,45161,128,0,45495:0:0:0:0:
64,192,45495,128,0,46828:0:0:0:0:
192,192,45495,128,0,46161:0:0:0:0:
320,192,46161,128,0,46495:0:0:0:0:
448,192,46495,128,0,46828:0:0:0:0:
320,192,46828,128,0,47161:0:0:0:0:
192,192,46828,128,0,48161:0:0:0:0:
64,192,47161,128,0,47495:0:0:0:0:
320,192,47495,128,0,47828:0:0:0:0:
448,192,47828,128,0,48161:0:0:0:0:
320,192,48161,128,0,49495:0:0:0:0:
64,192,48161,128,0,48495:0:0:0:0:
192,192,48495,128,0,48828:0:0:0:0:
448,192,48828,128,0,49161:0:0:0:0:
64,192,49161,128,0,49495:0:0:0:0:
448,192,49495,128,0,50828:0:0:0:0:
192,192,49495,128,0,49828:0:0:0:0:
320,192,49828,128,0,50161:0:0:0:0:
192,192,50161,128,0,50495:0:0:0:0:
64,192,50495,128,0,50828:0:0:0:0:
320,192,50828,128,0,51161:0:0:0:0:
192,192,50828,128,0,52161:0:0:0:0:
64,192,51161,128,0,51495:0:0:0:0:
320,192,51495,128,0,51828:0:0:0:0:
448,192,51828,128,0,52161:0:0:0:0:
320,192,52161,128,0,52495:0:0:0:0:
64,192,52161,128,0,53495:0:0:0:0:
192,192,52495,128,0,52828:0:0:0:0:
448,192,52828,128,0,53161:0:0:0:0:
320,192,53161,128,0,53495:0:0:0:0:
448,192,53495,128,0,54828:0:0:0:0:
192,192,53495,128,0,53578:0:0:0:0:
64,192,53661,128,0,53745:0:0:0:0:
320,192,53828,128,0,53911:0:0:0:0:
192,192,53995,128,0,54078:0:0:0:0:
64,192,54161,128,0,54245:0:0:0:0:
320,192,54328,128,0,54411:0:0:0:0:
192,192,54495,128,0,54578:0:0:0:0:
64,192,54661,128,0,54745:0:0:0:0:
320,192,54828,128,0,56161:0:0:0:0:
192,192,54828,128,0,54911:0:0:0:0:
64,192,54995,128,0,55078:0:0:0:0:
192,192,55161,128,0,55245:0:0:0:0:
64,192,55328,128,0,55411:0:0:0:0:
192,192,55495,128,0,55578:0:0:0:0:
64,192,55661,128,0,55745:0:0:0:0:
192,192,55828,128,0,55911:0:0:0:0:
64,192,55995,128,0,56078:0:0:0:0:
192,192,56161,128,0,57495:0:0:0:0:
448,192,56161,128,0,56245:0:0:0:0:
320,192,56328,128,0,56411:0:0:0:0:
64,192,56495,128,0,56578:0:0:0:0:
320,192,56661,128,0,56745:0:0:0:0:
448,192,56828,128,0,56911:0:0:0:0:
320,192,56995,128,0,57078:0:0:0:0:
64,192,57161,128,0,57245:0:0:0:0:
320,192,57328,128,0,57411:0:0:0:0:
64,192,57495,128,0,58828:0:0:0:0:
448,192,57495,128,0,57578:0:0:0:0:
320,192,57661,128,0,57745:0:0:0:0:
192,192,57828,128,0,57911:0:0:0:0:
448,192,57995,128,0,58078:0:0:0:0:
320,192,58161,128,0,58245:0:0:0:0:
192,192,58328,128,0,58411:0:0:0:0:
448,192,58495,128,0,58578:0:0:0:0:
320,192,58661,128,0,58745:0:0:0:0:
448,192,58828,128,0,60161:0:0:0:0:
192,192,58828,128,0,58911:0:0:0:0:
64,192,58995,128,0,59078:0:0:0:0:
192,192,59161,128,0,59245:0:0:0:0:
320,192,59328,128,0,59411:0:0:0:0:
192,192,59495,128,0,59578:0:0:0:0:
64,192,59661,128,0,59745:0:0:0:0:
192,192,59828,128,0,59911:0:0:0:0:
320,192,59995,128,0,60078:0:0:0:0:
64,192,60161,128,0,61495:0:0:0:0:
192,192,60161,128,0,60245:0:0:0:0:
448,192,60328,128,0,60411:0:0:0:0:
192,192,60495,128,0,60578:0:0:0:0:
448,192,60661,128,0,60745:0:0:0:0:
192,192,60828,128,0,60911:0:0:0:0:
448,192,60995,128,0,61078:0:0:0:0:
192,192,61161,128,0,61245:0:0:0:0:
448,192,61328,128,0,61411:0:0:0:0:
192,192,61495,128,0,62828:0:0:0:0:
320,192,61495,128,0,61578:0:0:0:0:
448,192,61661,128,0,61745:0:0:0:0:
64,192,61828,128,0,61911:0:0:0:0:
320,192,61995,128,0,62078:0:0:0:0:
448,192,62161,128,0,62245:0:0:0:0:
64,192,62328,128,0,62411:0:0:0:0:
320,192,62495,128,0,62578:0:0:0:0:
448,192,62661,128,0,62745:0:0:0:0:
64,192,62828,128,0,64161:0:0:0:0:
320,192,62828,128,0,62911:0:0:0:0:
192,192,62995,128,0,63078:0:0:0:0:
448,192,63161,128,0,63245:0:0:0:0:
320,192,63328,128,0,63411:0:0:0:0:
192,192,63495,128,0,63578:0:0:0:0:
448,192,63661,128,0,63745:0:0:0:0:
320,192,63828,128,0,63911:0:0:0:0:
192,192,63995,128,0,64078:0:0:0:0:
448,192,64161,128,0,65495:0:0:0:0:
192,192,64161,1,0,0:0:0:0:
320,192,64161,128,0,64328:0:0:0:0:
64,192,64328,128,0,64495:0:0:0:0:
192,192,64495,128,0,64578:0:0:0:0:
320,192,64578,128,0,64661:0:0:0:0:
320,192,64745,128,0,64995:0:0:0:0:
64,192,64995,128,0,65161:0:0:0:0:
192,192,65161,128,0,65245:0:0:0:0:
320,192,65245,128,0,65328:0:0:0:0:
320,192,65411,128,0,65661:0:0:0:0:
64,192,65495,128,0,66828:0:0:0:0:
192,192,65661,128,0,65828:0:0:0:0:
448,192,65828,128,0,65911:0:0:0:0:
320,192,65911,128,0,65995:0:0:0:0:
192,192,66078,128,0,66161:0:0:0:0:
320,192,66328,128,0,66495:0:0:0:0:
192,192,66495,128,0,66661:0:0:0:0:
448,192,66661,128,0,66828:0:0:0:0:
320,192,66828,128,0,68161:0:0:0:0:
192,192,66828,128,0,66995:0:0:0:0:
448,192,66995,128,0,67161:0:0:0:0:
64,192,67161,128,0,67245:0:0:0:0:
192,192,67245,128,0,67328:0:0:0:0:
448,192,67411,128,0,67661:0:0:0:0:
192,192,67661,128,0,67828:0:0:0:0:
64,192,67828,128,0,67995:0:0:0:0:
448,192,67995,128,0,68161:0:0:0:0:
192,192,68161,128,0,69495:0:0:0:0:
64,192,68161,128,0,68328:0:0:0:0:
320,192,68328,128,0,68495:0:0:0:0:
448,192,68495,128,0,68578:0:0:0:0:
64,192,68578,128,0,68661:0:0:0:0:
320,192,68745,128,0,68995:0:0:0:0:
448,192,68995,128,0,69161:0:0:0:0:
64,192,69161,128,0,69328:0:0:0:0:
320,192,69328,128,0,69495:0:0:0:0:
64,192,69495,128,0,70828:0:0:0:0:
448,192,69495,128,0,69661:0:0:0:0:
192,192,69661,128,0,69828:0:0:0:0:
320,192,69828,128,0,69911:0:0:0:0:
448,192,69911,128,0,69995:0:0:0:0:
448,192,70078,128,0,70328:0:0:0:0:
192,192,70328,128,0,70495:0:0:0:0:
320,192,70495,128,0,70578:0:0:0:0:
448,192,70578,128,0,70661:0:0:0:0:
448,192,70745,128,0,70995:0:0:0:0:
320,192,70828,128,0,72161:0:0:0:0:
192,192,70995,128,0,71161:0:0:0:0:
64,192,71161,128,0,71245:0:0:0:0:
448,192,71245,128,0,71328:0:0:0:0:
192,192,71411,128,0,71495:0:0:0:0:
192,192,71661,128,0,71828:0:0:0:0:
448,192,71828,128,0,71995:0:0:0:0:
64,192,71995,128,0,72161:0:0:0:0:
448,192,72161,128,0,73495:0:0:0:0:
192,192,72161,128,0,72328:0:0:0:0:
64,192,72328,128,0,72495:0:0:0:0:
192,192,72495,128,0,72578:0:0:0:0:
320,192,72578,128,0,72661:0:0:0:0:
192,192,72745,128,0,72828:0:0:0:0:
192,192,72995,128,0,73161:0:0:0:0:
64,192,73161,128,0,73245:0:0:0:0:
320,192,73245,128,0,73328:0:0:0:0:
320,192,73411,128,0,73661:0:0:0:0:
192,192,73495,128,0,74828:0:0:0:0:
448,192,73661,128,0,73828:0:0:0:0:
320,192,73828,128,0,73995:0:0:0:0:
448,192,73995,128,0,74161:0:0:0:0:
320,192,74161,128,0,74245:0:0:0:0:
64,192,74495,128,0,74661:0:0:0:0:
320,192,74661,128,0,74828:0:0:0:0:
448,192,74828,128,0,74995:0:0:0:0:
64,192,74828,1,0,0:0:0:0:
192,192,74995,128,0,75161:0:0:0:0:
320,192,75161,128,0,75245:0:0:0:0:
64,192,75161,1,0,0:0:0:0:
448,192,75245,128,0,75328:0:0:0:0:
448,192,75411,128,0,75661:0:0:0:0:
192,192,75495,1,0,0:0:0:0:
64,192,75495,1,0,0:0:0:0:
192,192,75661,128,0,75828:0:0:0:0:
320,192,75828,128,0,75911:0:0:0:0:
64,192,75828,1,0,0:0:0:0:
448,192,75911,128,0,75995:0:0:0:0:
448,192,76078,128,0,76328:0:0:0:0:
64,192,76161,1,0,0:0:0:0:
192,192,76161,1,0,0:0:0:0:
192,192,76328,128,0,76495:0:0:0:0:
64,192,76495,128,0,76578:0:0:0:0:
320,192,76495,1,0,0:0:0:0:
448,192,76578,128,0,76661:0:0:0:0:
320,192,76745,128,0,76828:0:0:0:0:
64,192,76828,1,0,0:0:0:0:
192,192,76828,1,0,0:0:0:0:
192,192,76995,128,0,77161:0:0:0:0:
64,192,77161,128,0,77328:0:0:0:0:
320,192,77161,1,0,0:0:0:0:
448,192,77328,128,0,77495:0:0:0:0:
64,192,77495,128,0,77661:0:0:0:0:
192,192,77495,1,0,0:0:0:0:
448,192,77661,128,0,77828:0:0:0:0:
192,192,77828,128,0,77911:0:0:0:0:
64,192,77828,1,0,0:0:0:0:
320,192,77911,128,0,77995:0:0:0:0:
64,192,78078,128,0,78328:0:0:0:0:
448,192,78161,1,0,0:0:0:0:
320,192,78161,1,0,0:0:0:0:
448,192,78328,128,0,78495:0:0:0:0:
320,192,78495,128,0,78661:0:0:0:0:
192,192,78495,1,0,0:0:0:0:
448,192,78661,128,0,78828:0:0:0:0:
192,192,78828,128,0,78995:0:0:0:0:
320,192,78828,1,0,0:0:0:0:
64,192,78995,128,0,79161:0:0:0:0:
320,192,79161,128,0,79245:0:0:0:0:
192,192,79161,1,0,0:0:0:0:
448,192,79245,128,0,79328:0:0:0:0:
320,192,79411,128,0,79661:0:0:0:0:
192,192,79495,1,0,0:0:0:0:
64,192,79495,1,0,0:0:0:0:
448,192,79661,128,0,79828:0:0:0:0:
64,192,79828,128,0,79995:0:0:0:0:
320,192,79828,1,0,0:0:0:0:
192,192,79995,128,0,80161:0:0:0:0:
320,192,80161,128,0,80328:0:0:0:0:
448,192,80161,1,0,0:0:0:0:
64,192,80328,128,0,80495:0:0:0:0:
192,192,80495,128,0,80578:0:0:0:0:
448,192,80495,1,0,0:0:0:0:
320,192,80578,128,0,80661:0:0:0:0:
320,192,80745,128,0,80995:0:0:0:0:
192,192,80828,1,0,0:0:0:0:
64,192,80828,1,0,0:0:0:0:
64,192,80995,128,0,81161:0:0:0:0:
192,192,81161,128,0,81245:0:0:0:0:
448,192,81161,1,0,0:0:0:0:
320,192,81245,128,0,81328:0:0:0:0:
320,192,81411,128,0,81661:0:0:0:0:
192,192,81495,1,0,0:0:0:0:
64,192,81495,1,0,0:0:0:0:
64,192,81661,128,0,81828:0:0:0:0:
320,192,81828,128,0,81911:0:0:0:0:
192,192,81828,1,0,0:0:0:0:
448,192,81911,128,0,81995:0:0:0:0:
192,192,82078,128,0,82161:0:0:0:0:
320,192,82161,1,0,0:0:0:0:
448,192,82161,1,0,0:0:0:0:
192,192,82328,128,0,82495:0:0:0:0:
320,192,82495,128,0,82661:0:0:0:0:
64,192,82495,1,0,0:0:0:0:
448,192,82661,128,0,82828:0:0:0:0:
64,192,82828,128,0,82995:0:0:0:0:
192,192,82828,1,0,0:0:0:0:
320,192,82995,128,0,83161:0:0:0:0:
448,192,83161,128,0,83245:0:0:0:0:
192,192,83161,1,0,0:0:0:0:
64,192,83245,128,0,83328:0:0:0:0:
320,192,83411,128,0,83495:0:0:0:0:
192,192,83495,1,0,0:0:0:0:
64,192,83495,1,0,0:0:0:0:
320,192,83661,128,0,83828:0:0:0:0:
448,192,83828,128,0,83911:0:0:0:0:
192,192,83828,1,0,0:0:0:0:
64,192,83911,128,0,83995:0:0:0:0:
192,192,84078,128,0,84328:0:0:0:0:
448,192,84161,1,0,0:0:0:0:
320,192,84161,1,0,0:0:0:0:
320,192,84328,128,0,84495:0:0:0:0:
192,192,84495,128,0,84661:0:0:0:0:
448,192,84495,1,0,0:0:0:0:
64,192,84661,128,0,84828:0:0:0:0:
448,192,84828,128,0,84911:0:0:0:0:
320,192,84828,1,0,0:0:0:0:
192,192,85078,128,0,85161:0:0:0:0:
448,192,85161,1,0,0:0:0:0:
64,192,85161,1,0,0:0:0:0:
320,192,85328,128,0,90828:0:0:0:0:
192,192,85495,1,0,0:0:0:0:
64,192,85495,1,0,0:0:0:0:
448,192,85495,1,0,0:0:0:0:
192,192,85661,1,0,0:0:0:0:
64,192,85828,1,0,0:0:0:0:
448,192,85828,1,0,0:0:0:0:
448,192,85995,1,0,0:0:0:0:
192,192,86161,1,0,0:0:0:0:
64,192,86161,1,0,0:0:0:0:
64,192,86328,1,0,0:0:0:0:
192,192,86495,1,0,0:0:0:0:
448,192,86495,1,0,0:0:0:0:
192,192,86661,1,0,0:0:0:0:
448,192,86828,1,0,0:0:0:0:
64,192,86828,1,0,0:0:0:0:
448,192,86995,1,0,0:0:0:0:
192,192,87161,1,0,0:0:0:0:
64,192,87161,1,0,0:0:0:0:
64,192,87328,1,0,0:0:0:0:
192,192,87495,1,0,0:0:0:0:
448,192,87495,1,0,0:0:0:0:
192,192,87661,1,0,0:0:0:0:
64,192,87828,1,0,0:0:0:0:
448,192,87828,1,0,0:0:0:0:
448,192,87995,1,0,0:0:0:0:
192,192,88161,1,0,0:0:0:0:
64,192,88161,1,0,0:0:0:0:
192,192,88328,1,0,0:0:0:0:
64,192,88495,1,0,0:0:0:0:
448,192,88495,1,0,0:0:0:0:
448,192,88661,1,0,0:0:0:0:
192,192,88828,1,0,0:0:0:0:
64,192,88828,1,0,0:0:0:0:
64,192,88995,1,0,0:0:0:0:
192,192,89161,1,0,0:0:0:0:
448,192,89161,1,0,0:0:0:0:
192,192,89328,1,0,0:0:0:0:
448,192,89495,1,0,0:0:0:0:
64,192,89495,1,0,0:0:0:0:
448,192,89661,1,0,0:0:0:0:
192,192,89828,1,0,0:0:0:0:
64,192,89828,1,0,0:0:0:0:
64,192,89995,1,0,0:0:0:0:
192,192,90161,1,0,0:0:0:0:
448,192,90161,1,0,0:0:0:0:
192,192,90328,1,0,0:0:0:0:
64,192,90495,1,0,0:0:0:0:
448,192,90495,1,0,0:0:0:0:
64,192,90828,1,0,0:0:0:0:
192,192,90828,1,0,0:0:0:0:
448,192,90828,1,0,0:0:0:0:
192,192,90995,1,0,0:0:0:0:
320,192,90995,1,0,0:0:0:0:
320,192,91161,1,0,0:0:0:0:
448,192,91161,1,0,0:0:0:0:
64,192,91161,1,0,0:0:0:0:
448,192,91328,1,0,0:0:0:0:
192,192,91328,1,0,0:0:0:0:
64,192,91495,1,0,0:0:0:0:
320,192,91495,1,0,0:0:0:0:
192,192,91495,1,0,0:0:0:0:
448,192,91661,1,0,0:0:0:0:
320,192,91661,1,0,0:0:0:0:
192,192,91828,1,0,0:0:0:0:
64,192,91828,1,0,0:0:0:0:
448,192,91828,1,0,0:0:0:0:
320,192,91995,1,0,0:0:0:0:
192,192,91995,1,0,0:0:0:0:
64,192,92161,1,0,0:0:0:0:
448,192,92161,1,0,0:0:0:0:
320,192,92161,1,0,0:0:0:0:
64,192,92328,1,0,0:0:0:0:
192,192,92328,1,0,0:0:0:0:
192,192,92495,1,0,0:0:0:0:
448,192,92495,1,0,0:0:0:0:
320,192,92495,1,0,0:0:0:0:
448,192,92661,1,0,0:0:0:0:
64,192,92661,1,0,0:0:0:0:
320,192,92828,1,0,0:0:0:0:
64,192,92828,1,0,0:0:0:0:
192,192,92828,1,0,0:0:0:0:
320,192,92995,1,0,0:0:0:0:
448,192,92995,1,0,0:0:0:0:
192,192,93161,1,0,0:0:0:0:
64,192,93161,1,0,0:0:0:0:
448,192,93161,1,0,0:0:0:0:
192,192,93328,1,0,0:0:0:0:
64,192,93328,1,0,0:0:0:0:
320,192,93495,1,0,0:0:0:0:
320,192,93661,1,0,0:0:0:0:
320,192,93828,1,0,0:0:0:0:
448,192,93995,1,0,0:0:0:0:
448,192,94078,1,0,0:0:0:0:
64,192,94161,1,0,0:0:0:0:
64,192,94245,1,0,0:0:0:0:
320,192,94328,1,0,0:0:0:0:
320,192,94411,1,0,0:0:0:0:
192,192,94495,1,0,0:0:0:0:
192,192,94578,1,0,0:0:0:0:
448,192,94661,1,0,0:0:0:0:
448,192,94745,1,0,0:0:0:0:
64,192,94828,1,0,0:0:0:0:
192,192,94828,1,0,0:0:0:0:
192,192,94995,5,0,0:0:0:0:
320,192,94995,1,0,0:0:0:0:
320,192,95161,1,0,0:0:0:0:
448,192,95161,1,0,0:0:0:0:
192,192,95411,1,0,0:0:0:0:
448,192,95495,1,0,0:0:0:0:
64,192,95495,1,0,0:0:0:0:
320,192,95661,1,0,0:0:0:0:
192,192,95745,1,0,0:0:0:0:
64,192,95828,128,0,95995:0:0:0:0:
448,192,95828,128,0,95995:0:0:0:0:
320,192,95828,1,0,0:0:0:0:
64,192,96161,5,0,0:0:0:0:
320,192,96161,1,0,0:0:0:0:
448,192,96161,1,0,0:0:0:0:
192,192,96245,1,0,0:0:0:0:
320,192,96328,1,0,0:0:0:0:
448,192,96328,1,0,0:0:0:0:
64,192,96411,1,0,0:0:0:0:
192,192,96495,1,0,0:0:0:0:
448,192,96495,1,0,0:0:0:0:
320,192,96495,1,0,0:0:0:0:
64,192,96578,1,0,0:0:0:0:
448,192,96661,1,0,0:0:0:0:
320,192,96661,1,0,0:0:0:0:
192,192,96745,1,0,0:0:0:0:
64,192,96828,1,0,0:0:0:0:
448,192,96828,1,0,0:0:0:0:
320,192,96828,1,0,0:0:0:0:
192,192,96911,1,0,0:0:0:0:
64,192,96995,1,0,0:0:0:0:
448,192,96995,1,0,0:0:0:0:
320,192,97078,1,0,0:0:0:0:
192,192,97161,1,0,0:0:0:0:
64,192,97161,1,0,0:0:0:0:
448,192,97161,1,0,0:0:0:0:
320,192,97245,1,0,0:0:0:0:
192,192,97328,1,0,0:0:0:0:
64,192,97328,1,0,0:0:0:0:
448,192,97411,1,0,0:0:0:0:
320,192,97495,1,0,0:0:0:0:
64,192,97495,1,0,0:0:0:0:
192,192,97495,1,0,0:0:0:0:
448,192,97578,1,0,0:0:0:0:
64,192,97661,1,0,0:0:0:0:
320,192,97661,1,0,0:0:0:0:
192,192,97745,1,0,0:0:0:0:
64,192,97828,1,0,0:0:0:0:
448,192,97828,1,0,0:0:0:0:
320,192,97828,1,0,0:0:0:0:
192,192,97911,1,0,0:0:0:0:
64,192,97995,1,0,0:0:0:0:
448,192,97995,1,0,0:0:0:0:
320,192,98078,1,0,0:0:0:0:
64,192,98161,1,0,0:0:0:0:
192,192,98161,1,0,0:0:0:0:
448,192,98161,1,0,0:0:0:0:
320,192,98245,1,0,0:0:0:0:
192,192,98328,1,0,0:0:0:0:
448,192,98328,1,0,0:0:0:0:
64,192,98411,1,0,0:0:0:0:
448,192,98495,1,0,0:0:0:0:
320,192,98495,1,0,0:0:0:0:
192,192,98495,1,0,0:0:0:0:
64,192,98578,1,0,0:0:0:0:
448,192,98661,1,0,0:0:0:0:
192,192,98661,1,0,0:0:0:0:
320,192,98661,1,0,0:0:0:0:
64,192,98745,1,0,0:0:0:0:
448,192,98828,5,0,0:0:0:0:
320,192,98828,1,0,0:0:0:0:
192,192,98828,1,0,0:0:0:0:
64,192,98911,1,0,0:0:0:0:
320,192,98995,1,0,0:0:0:0:
448,192,98995,1,0,0:0:0:0:
192,192,99078,1,0,0:0:0:0:
64,192,99161,1,0,0:0:0:0:
320,192,99161,1,0,0:0:0:0:
448,192,99161,1,0,0:0:0:0:
192,192,99245,1,0,0:0:0:0:
320,192,99328,1,0,0:0:0:0:
64,192,99328,1,0,0:0:0:0:
448,192,99411,1,0,0:0:0:0:
64,192,99495,1,0,0:0:0:0:
192,192,99495,1,0,0:0:0:0:
320,192,99495,1,0,0:0:0:0:
448,192,99578,1,0,0:0:0:0:
192,192,99661,1,0,0:0:0:0:
64,192,99661,1,0,0:0:0:0:
320,192,99745,1,0,0:0:0:0:
64,192,99828,1,0,0:0:0:0:
192,192,99828,1,0,0:0:0:0:
448,192,99828,1,0,0:0:0:0:
320,192,99911,1,0,0:0:0:0:
64,192,99995,1,0,0:0:0:0:
448,192,99995,1,0,0:0:0:0:
192,192,100078,1,0,0:0:0:0:
320,192,100161,1,0,0:0:0:0:
448,192,100161,1,0,0:0:0:0:
64,192,100161,1,0,0:0:0:0:
192,192,100245,1,0,0:0:0:0:
448,192,100328,1,0,0:0:0:0:
64,192,100328,1,0,0:0:0:0:
320,192,100411,1,0,0:0:0:0:
64,192,100495,1,0,0:0:0:0:
448,192,100495,1,0,0:0:0:0:
192,192,100495,1,0,0:0:0:0:
320,192,100578,1,0,0:0:0:0:
64,192,100661,1,0,0:0:0:0:
448,192,100661,1,0,0:0:0:0:
192,192,100745,1,0,0:0:0:0:
64,192,100828,1,0,0:0:0:0:
320,192,100828,1,0,0:0:0:0:
448,192,100828,1,0,0:0:0:0:
192,192,100911,1,0,0:0:0:0:
320,192,100995,1,0,0:0:0:0:
448,192,100995,1,0,0:0:0:0:
192,192,101078,1,0,0:0:0:0:
64,192,101078,1,0,0:0:0:0:
448,192,101161,1,0,0:0:0:0:
320,192,101161,1,0,0:0:0:0:
192,192,101245,1,0,0:0:0:0:
448,192,101328,1,0,0:0:0:0:
320,192,101328,1,0,0:0:0:0:
192,192,101411,1,0,0:0:0:0:
448,192,101495,5,0,0:0:0:0:
64,192,101495,1,0,0:0:0:0:
320,192,101578,1,0,0:0:0:0:
192,192,101661,1,0,0:0:0:0:
64,192,101661,1,0,0:0:0:0:
448,192,101745,1,0,0:0:0:0:
320,192,101828,1,0,0:0:0:0:
64,192,101828,1,0,0:0:0:0:
192,192,101828,1,0,0:0:0:0:
448,192,101911,1,0,0:0:0:0:
64,192,101995,1,0,0:0:0:0:
192,192,101995,1,0,0:0:0:0:
320,192,102078,1,0,0:0:0:0:
448,192,102161,1,0,0:0:0:0:
64,192,102161,1,0,0:0:0:0:
192,192,102161,1,0,0:0:0:0:
320,192,102245,1,0,0:0:0:0:
448,192,102328,1,0,0:0:0:0:
64,192,102328,1,0,0:0:0:0:
192,192,102411,1,0,0:0:0:0:
320,192,102495,1,0,0:0:0:0:
448,192,102495,1,0,0:0:0:0:
64,192,102495,1,0,0:0:0:0:
192,192,102578,1,0,0:0:0:0:
320,192,102661,1,0,0:0:0:0:
448,192,102661,1,0,0:0:0:0:
64,192,102745,1,0,0:0:0:0:
192,192,102828,1,0,0:0:0:0:
448,192,102828,1,0,0:0:0:0:
320,192,102828,1,0,0:0:0:0:
64,192,102911,1,0,0:0:0:0:
448,192,102995,1,0,0:0:0:0:
192,192,102995,1,0,0:0:0:0:
320,192,103078,1,0,0:0:0:0:
448,192,103161,1,0,0:0:0:0:
64,192,103161,1,0,0:0:0:0:
192,192,103161,1,0,0:0:0:0:
320,192,103245,1,0,0:0:0:0:
448,192,103328,1,0,0:0:0:0:
64,192,103328,1,0,0:0:0:0:
192,192,103411,1,0,0:0:0:0:
448,192,103495,1,0,0:0:0:0:
320,192,103495,1,0,0:0:0:0:
64,192,103495,1,0,0:0:0:0:
192,192,103578,1,0,0:0:0:0:
320,192,103661,1,0,0:0:0:0:
64,192,103661,1,0,0:0:0:0:
448,192,103745,1,0,0:0:0:0:
64,192,103828,1,0,0:0:0:0:
192,192,103828,1,0,0:0:0:0:
320,192,103828,1,0,0:0:0:0:
448,192,103911,1,0,0:0:0:0:
64,192,103995,1,0,0:0:0:0:
320,192,103995,1,0,0:0:0:0:
192,192,103995,1,0,0:0:0:0:
448,192,104078,1,0,0:0:0:0:
64,192,104161,5,0,0:0:0:0:
192,192,104161,1,0,0:0:0:0:
320,192,104161,1,0,0:0:0:0:
448,192,104245,1,0,0:0:0:0:
192,192,104328,1,0,0:0:0:0:
64,192,104328,1,0,0:0:0:0:
320,192,104411,1,0,0:0:0:0:
448,192,104495,1,0,0:0:0:0:
192,192,104495,1,0,0:0:0:0:
64,192,104495,1,0,0:0:0:0:
320,192,104578,1,0,0:0:0:0:
192,192,104661,1,0,0:0:0:0:
448,192,104661,1,0,0:0:0:0:
64,192,104745,1,0,0:0:0:0:
448,192,104828,1,0,0:0:0:0:
320,192,104828,1,0,0:0:0:0:
192,192,104828,1,0,0:0:0:0:
64,192,104911,1,0,0:0:0:0:
320,192,104995,1,0,0:0:0:0:
448,192,104995,1,0,0:0:0:0:
192,192,105078,1,0,0:0:0:0:
448,192,105161,1,0,0:0:0:0:
320,192,105161,1,0,0:0:0:0:
64,192,105161,1,0,0:0:0:0:
192,192,105245,1,0,0:0:0:0:
448,192,105328,1,0,0:0:0:0:
64,192,105328,1,0,0:0:0:0:
320,192,105411,1,0,0:0:0:0:
192,192,105495,1,0,0:0:0:0:
64,192,105495,1,0,0:0:0:0:
448,192,105495,1,0,0:0:0:0:
320,192,105578,1,0,0:0:0:0:
64,192,105661,1,0,0:0:0:0:
192,192,105661,1,0,0:0:0:0:
448,192,105745,1,0,0:0:0:0:
320,192,105745,1,0,0:0:0:0:
192,192,105828,1,0,0:0:0:0:
64,192,105828,1,0,0:0:0:0:
320,192,105911,1,0,0:0:0:0:
192,192,105995,1,0,0:0:0:0:
64,192,105995,1,0,0:0:0:0:
320,192,106078,1,0,0:0:0:0:
64,192,106161,128,0,106828:0:0:0:0:
448,192,106161,128,0,106828:0:0:0:0:
192,192,106161,128,0,106328:0:0:0:0:
320,192,106328,128,0,106495:0:0:0:0:
192,192,106495,128,0,106661:0:0:0:0:
320,192,106661,128,0,106828:0:0:0:0:
192,192,106828,1,0,0:0:0:0:
320,192,106911,1,0,0:0:0:0:
64,192,106995,1,0,0:0:0:0:
192,192,106995,1,0,0:0:0:0:
448,192,107078,1,0,0:0:0:0:
192,192,107161,1,0,0:0:0:0:
64,192,107161,1,0,0:0:0:0:
320,192,107161,1,0,0:0:0:0:
448,192,107245,1,0,0:0:0:0:
192,192,107328,1,0,0:0:0:0:
64,192,107328,1,0,0:0:0:0:
320,192,107411,1,0,0:0:0:0:
192,192,107495,1,0,0:0:0:0:
64,192,107495,1,0,0:0:0:0:
448,192,107495,1,0,0:0:0:0:
320,192,107578,1,0,0:0:0:0:
64,192,107661,1,0,0:0:0:0:
448,192,107661,1,0,0:0:0:0:
192,192,107745,1,0,0:0:0:0:
64,192,107828,1,0,0:0:0:0:
448,192,107828,1,0,0:0:0:0:
320,192,107828,1,0,0:0:0:0:
192,192,107911,1,0,0:0:0:0:
448,192,107995,1,0,0:0:0:0:
320,192,107995,1,0,0:0:0:0:
64,192,108078,1,0,0:0:0:0:
320,192,108161,1,0,0:0:0:0:
448,192,108161,1,0,0:0:0:0:
192,192,108161,1,0,0:0:0:0:
64,192,108245,1,0,0:0:0:0:
192,192,108328,1,0,0:0:0:0:
448,192,108328,1,0,0:0:0:0:
320,192,108411,1,0,0:0:0:0:
192,192,108495,1,0,0:0:0:0:
64,192,108495,1,0,0:0:0:0:
448,192,108495,1,0,0:0:0:0:
320,192,108578,1,0,0:0:0:0:
64,192,108661,1,0,0:0:0:0:
448,192,108661,1,0,0:0:0:0:
192,192,108745,1,0,0:0:0:0:
64,192,108828,1,0,0:0:0:0:
320,192,108828,1,0,0:0:0:0:
448,192,108828,1,0,0:0:0:0:
192,192,108911,1,0,0:0:0:0:
64,192,108995,1,0,0:0:0:0:
320,192,108995,1,0,0:0:0:0:
448,192,109078,1,0,0:0:0:0:
320,192,109161,1,0,0:0:0:0:
192,192,109161,1,0,0:0:0:0:
64,192,109161,1,0,0:0:0:0:
448,192,109245,1,0,0:0:0:0:
192,192,109328,1,0,0:0:0:0:
320,192,109328,1,0,0:0:0:0:
64,192,109328,1,0,0:0:0:0:
448,192,109411,1,0,0:0:0:0:
64,192,109495,5,0,0:0:0:0:
320,192,109495,1,0,0:0:0:0:
192,192,109495,1,0,0:0:0:0:
448,192,109578,1,0,0:0:0:0:
64,192,109661,1,0,0:0:0:0:
192,192,109661,1,0,0:0:0:0:
320,192,109745,1,0,0:0:0:0:
64,192,109828,1,0,0:0:0:0:
192,192,109828,1,0,0:0:0:0:
448,192,109828,1,0,0:0:0:0:
320,192,109911,1,0,0:0:0:0:
448,192,109995,1,0,0:0:0:0:
192,192,109995,1,0,0:0:0:0:
64,192,110078,1,0,0:0:0:0:
192,192,110161,1,0,0:0:0:0:
320,192,110161,1,0,0:0:0:0:
448,192,110161,1,0,0:0:0:0:
64,192,110245,1,0,0:0:0:0:
448,192,110328,1,0,0:0:0:0:
320,192,110328,1,0,0:0:0:0:
192,192,110411,1,0,0:0:0:0:
64,192,110495,1,0,0:0:0:0:
320,192,110495,1,0,0:0:0:0:
448,192,110495,1,0,0:0:0:0:
192,192,110578,1,0,0:0:0:0:
64,192,110661,1,0,0:0:0:0:
448,192,110661,1,0,0:0:0:0:
320,192,110745,1,0,0:0:0:0:
448,192,110828,1,0,0:0:0:0:
64,192,110828,1,0,0:0:0:0:
192,192,110828,1,0,0:0:0:0:
320,192,110911,1,0,0:0:0:0:
448,192,110995,1,0,0:0:0:0:
64,192,110995,1,0,0:0:0:0:
192,192,111078,1,0,0:0:0:0:
320,192,111161,1,0,0:0:0:0:
64,192,111161,1,0,0:0:0:0:
448,192,111161,1,0,0:0:0:0:
192,192,111245,1,0,0:0:0:0:
64,192,111328,1,0,0:0:0:0:
448,192,111328,1,0,0:0:0:0:
320,192,111411,1,0,0:0:0:0:
64,192,111495,1,0,0:0:0:0:
192,192,111495,1,0,0:0:0:0:
448,192,111495,1,0,0:0:0:0:
320,192,111578,1,0,0:0:0:0:
64,192,111661,1,0,0:0:0:0:
192,192,111661,1,0,0:0:0:0:
448,192,111745,1,0,0:0:0:0:
320,192,111745,1,0,0:0:0:0:
192,192,111828,1,0,0:0:0:0:
64,192,111828,1,0,0:0:0:0:
320,192,111911,1,0,0:0:0:0:
192,192,111995,1,0,0:0:0:0:
64,192,111995,1,0,0:0:0:0:
320,192,112078,1,0,0:0:0:0:
64,192,112161,5,0,0:0:0:0:
448,192,112161,1,0,0:0:0:0:
192,192,112245,1,0,0:0:0:0:
448,192,112328,1,0,0:0:0:0:
320,192,112328,1,0,0:0:0:0:
64,192,112411,1,0,0:0:0:0:
320,192,112495,1,0,0:0:0:0:
448,192,112495,1,0,0:0:0:0:
192,192,112495,1,0,0:0:0:0:
64,192,112578,1,0,0:0:0:0:
320,192,112661,1,0,0:0:0:0:
448,192,112661,1,0,0:0:0:0:
192,192,112745,1,0,0:0:0:0:
320,192,112828,1,0,0:0:0:0:
448,192,112828,1,0,0:0:0:0:
64,192,112828,1,0,0:0:0:0:
192,192,112911,1,0,0:0:0:0:
448,192,112995,1,0,0:0:0:0:
64,192,112995,1,0,0:0:0:0:
320,192,113078,1,0,0:0:0:0:
448,192,113161,1,0,0:0:0:0:
64,192,113161,1,0,0:0:0:0:
192,192,113161,1,0,0:0:0:0:
320,192,113245,1,0,0:0:0:0:
64,192,113328,1,0,0:0:0:0:
192,192,113328,1,0,0:0:0:0:
448,192,113411,1,0,0:0:0:0:
192,192,113495,1,0,0:0:0:0:
64,192,113495,1,0,0:0:0:0:
320,192,113495,1,0,0:0:0:0:
448,192,113578,1,0,0:0:0:0:
320,192,113661,1,0,0:0:0:0:
64,192,113661,1,0,0:0:0:0:
192,192,113745,1,0,0:0:0:0:
320,192,113828,1,0,0:0:0:0:
448,192,113828,1,0,0:0:0:0:
64,192,113828,1,0,0:0:0:0:
192,192,113911,1,0,0:0:0:0:
448,192,113995,1,0,0:0:0:0:
64,192,113995,1,0,0:0:0:0:
320,192,114078,1,0,0:0:0:0:
448,192,114161,1,0,0:0:0:0:
192,192,114161,1,0,0:0:0:0:
64,192,114161,1,0,0:0:0:0:
320,192,114245,1,0,0:0:0:0:
448,192,114328,1,0,0:0:0:0:
192,192,114328,1,0,0:0:0:0:
64,192,114411,1,0,0:0:0:0:
192,192,114495,1,0,0:0:0:0:
320,192,114495,1,0,0:0:0:0:
448,192,114495,1,0,0:0:0:0:
64,192,114578,1,0,0:0:0:0:
320,192,114661,1,0,0:0:0:0:
192,192,114661,1,0,0:0:0:0:
448,192,114661,1,0,0:0:0:0:
64,192,114745,1,0,0:0:0:0:
448,192,114828,5,0,0:0:0:0:
192,192,114828,1,0,0:0:0:0:
320,192,114828,1,0,0:0:0:0:
64,192,114911,1,0,0:0:0:0:
448,192,114995,1,0,0:0:0:0:
320,192,114995,1,0,0:0:0:0:
192,192,115078,1,0,0:0:0:0:
448,192,115161,1,0,0:0:0:0:
320,192,115161,1,0,0:0:0:0:
64,192,115161,1,0,0:0:0:0:
192,192,115245,1,0,0:0:0:0:
64,192,115328,1,0,0:0:0:0:
320,192,115328,1,0,0:0:0:0:
448,192,115411,1,0,0:0:0:0:
320,192,115495,1,0,0:0:0:0:
192,192,115495,1,0,0:0:0:0:
64,192,115495,1,0,0:0:0:0:
448,192,115578,1,0,0:0:0:0:
64,192,115661,1,0,0:0:0:0:
192,192,115661,1,0,0:0:0:0:
320,192,115745,1,0,0:0:0:0:
448,192,115828,1,0,0:0:0:0:
192,192,115828,1,0,0:0:0:0:
64,192,115828,1,0,0:0:0:0:
320,192,115911,1,0,0:0:0:0:
448,192,115995,1,0,0:0:0:0:
64,192,115995,1,0,0:0:0:0:
192,192,116078,1,0,0:0:0:0:
64,192,116161,1,0,0:0:0:0:
320,192,116161,128,0,116828:0:0:0:0:
448,192,116161,128,0,116828:0:0:0:0:
192,192,116328,1,0,0:0:0:0:
192,192,116495,1,0,0:0:0:0:
64,192,116495,1,0,0:0:0:0:
64,192,116661,1,0,0:0:0:0:
64,192,116828,1,0,0:0:0:0:
192,192,116828,1,0,0:0:0:0:
320,192,116911,1,0,0:0:0:0:
448,192,116995,1,0,0:0:0:0:
192,192,117078,1,0,0:0:0:0:
64,192,117161,128,0,117495:0:0:0:0:
448,192,117161,128,0,117495:0:0:0:0:
320,192,117161,1,0,0:0:0:0:
192,192,117495,1,0,0:0:0:0:
320,192,117495,1,0,0:0:0:0:
448,192,117578,1,0,0:0:0:0:
64,192,117661,1,0,0:0:0:0:
320,192,117661,1,0,0:0:0:0:
192,192,117745,1,0,0:0:0:0:
64,192,117828,1,0,0:0:0:0:
320,192,117828,1,0,0:0:0:0:
448,192,117828,1,0,0:0:0:0:
192,192,117911,1,0,0:0:0:0:
448,192,117995,1,0,0:0:0:0:
64,192,117995,1,0,0:0:0:0:
320,192,118078,1,0,0:0:0:0:
192,192,118161,1,0,0:0:0:0:
64,192,118161,1,0,0:0:0:0:
448,192,118161,1,0,0:0:0:0:
320,192,118245,1,0,0:0:0:0:
192,192,118328,1,0,0:0:0:0:
64,192,118328,1,0,0:0:0:0:
448,192,118411,1,0,0:0:0:0:
320,192,118495,1,0,0:0:0:0:
192,192,118495,1,0,0:0:0:0:
64,192,118495,1,0,0:0:0:0:
448,192,118578,1,0,0:0:0:0:
320,192,118661,1,0,0:0:0:0:
64,192,118661,1,0,0:0:0:0:
192,192,118745,1,0,0:0:0:0:
64,192,118828,1,0,0:0:0:0:
320,192,118828,1,0,0:0:0:0:
448,192,118828,1,0,0:0:0:0:
192,192,118911,1,0,0:0:0:0:
448,192,118995,1,0,0:0:0:0:
64,192,118995,1,0,0:0:0:0:
320,192,119078,1,0,0:0:0:0:
192,192,119161,1,0,0:0:0:0:
64,192,119161,1,0,0:0:0:0:
448,192,119161,1,0,0:0:0:0:
320,192,119245,1,0,0:0:0:0:
448,192,119328,1,0,0:0:0:0:
64,192,119328,1,0,0:0:0:0:
192,192,119411,1,0,0:0:0:0:
448,192,119495,1,0,0:0:0:0:
64,192,119495,1,0,0:0:0:0:
320,192,119495,1,0,0:0:0:0:
192,192,119578,1,0,0:0:0:0:
320,192,119661,1,0,0:0:0:0:
448,192,119661,1,0,0:0:0:0:
64,192,119745,1,0,0:0:0:0:
192,192,119828,1,0,0:0:0:0:
320,192,119828,1,0,0:0:0:0:
448,192,119828,1,0,0:0:0:0:
64,192,119911,1,0,0:0:0:0:
192,192,119995,1,0,0:0:0:0:
320,192,119995,1,0,0:0:0:0:
64,192,120078,1,0,0:0:0:0:
192,192,120161,1,0,0:0:0:0:
320,192,120161,1,0,0:0:0:0:
448,192,120161,1,0,0:0:0:0:
64,192,120245,1,0,0:0:0:0:
448,192,120328,1,0,0:0:0:0:
320,192,120328,1,0,0:0:0:0:
192,192,120411,1,0,0:0:0:0:
64,192,120495,1,0,0:0:0:0:
320,192,120495,1,0,0:0:0:0:
448,192,120495,1,0,0:0:0:0:
192,192,120578,1,0,0:0:0:0:
64,192,120661,1,0,0:0:0:0:
320,192,120661,1,0,0:0:0:0:
192,192,120745,1,0,0:0:0:0:
64,192,120828,1,0,0:0:0:0:
320,192,120828,1,0,0:0:0:0:
448,192,120828,1,0,0:0:0:0:
192,192,120911,1,0,0:0:0:0:
320,192,120995,1,0,0:0:0:0:
448,192,120995,1,0,0:0:0:0:
192,192,121078,1,0,0:0:0:0:
320,192,121161,1,0,0:0:0:0:
448,192,121161,1,0,0:0:0:0:
64,192,121161,1,0,0:0:0:0:
192,192,121245,1,0,0:0:0:0:
64,192,121328,1,0,0:0:0:0:
320,192,121328,1,0,0:0:0:0:
448,192,121411,1,0,0:0:0:0:
320,192,121495,1,0,0:0:0:0:
192,192,121495,1,0,0:0:0:0:
64,192,121495,1,0,0:0:0:0:
448,192,121578,1,0,0:0:0:0:
320,192,121661,5,0,0:0:0:0:
64,192,121661,1,0,0:0:0:0:
192,192,121745,1,0,0:0:0:0:
64,192,121828,1,0,0:0:0:0:
320,192,121828,1,0,0:0:0:0:
448,192,121828,1,0,0:0:0:0:
192,192,121911,1,0,0:0:0:0:
64,192,121995,1,0,0:0:0:0:
448,192,121995,1,0,0:0:0:0:
320,192,122078,1,0,0:0:0:0:
192,192,122161,1,0,0:0:0:0:
64,192,122161,1,0,0:0:0:0:
448,192,122161,1,0,0:0:0:0:
320,192,122245,1,0,0:0:0:0:
192,192,122328,1,0,0:0:0:0:
64,192,122328,1,0,0:0:0:0:
320,192,122411,1,0,0:0:0:0:
448,192,122411,1,0,0:0:0:0:
192,192,122495,1,0,0:0:0:0:
64,192,122495,1,0,0:0:0:0:
320,192,122578,1,0,0:0:0:0:
192,192,122661,1,0,0:0:0:0:
64,192,122661,1,0,0:0:0:0:
320,192,122745,1,0,0:0:0:0:
192,192,122828,1,0,0:0:0:0:
64,192,122828,1,0,0:0:0:0:
448,192,122828,1,0,0:0:0:0:
320,192,122911,1,0,0:0:0:0:
448,192,122995,1,0,0:0:0:0:
64,192,122995,1,0,0:0:0:0:
192,192,123078,1,0,0:0:0:0:
320,192,123161,1,0,0:0:0:0:
448,192,123161,1,0,0:0:0:0:
64,192,123161,1,0,0:0:0:0:
192,192,123245,1,0,0:0:0:0:
320,192,123328,1,0,0:0:0:0:
448,192,123328,1,0,0:0:0:0:
192,192,123411,1,0,0:0:0:0:
320,192,123495,1,0,0:0:0:0:
448,192,123495,1,0,0:0:0:0:
64,192,123495,1,0,0:0:0:0:
192,192,123578,1,0,0:0:0:0:
64,192,123661,1,0,0:0:0:0:
448,192,123661,1,0,0:0:0:0:
320,192,123745,1,0,0:0:0:0:
192,192,123828,1,0,0:0:0:0:
64,192,123828,1,0,0:0:0:0:
448,192,123828,1,0,0:0:0:0:
320,192,123911,1,0,0:0:0:0:
192,192,123995,1,0,0:0:0:0:
64,192,123995,1,0,0:0:0:0:
320,192,124078,1,0,0:0:0:0:
448,192,124161,1,0,0:0:0:0:
192,192,124161,1,0,0:0:0:0:
64,192,124161,1,0,0:0:0:0:
320,192,124245,1,0,0:0:0:0:
448,192,124328,1,0,0:0:0:0:
64,192,124328,1,0,0:0:0:0:
192,192,124411,1,0,0:0:0:0:
320,192,124495,1,0,0:0:0:0:
448,192,124495,1,0,0:0:0:0:
64,192,124495,1,0,0:0:0:0:
192,192,124578,1,0,0:0:0:0:
64,192,124661,1,0,0:0:0:0:
320,192,124661,1,0,0:0:0:0:
192,192,124745,1,0,0:0:0:0:
64,192,124828,1,0,0:0:0:0:
320,192,124828,1,0,0:0:0:0:
448,192,124828,1,0,0:0:0:0:
192,192,124911,1,0,0:0:0:0:
448,192,124995,1,0,0:0:0:0:
64,192,124995,1,0,0:0:0:0:
320,192,125078,1,0,0:0:0:0:
192,192,125161,1,0,0:0:0:0:
64,192,125161,1,0,0:0:0:0:
448,192,125161,1,0,0:0:0:0:
320,192,125245,1,0,0:0:0:0:
192,192,125328,1,0,0:0:0:0:
64,192,125328,1,0,0:0:0:0:
320,192,125411,1,0,0:0:0:0:
192,192,125495,1,0,0:0:0:0:
64,192,125495,1,0,0:0:0:0:
448,192,125495,1,0,0:0:0:0:
320,192,125578,1,0,0:0:0:0:
448,192,125661,1,0,0:0:0:0:
64,192,125661,1,0,0:0:0:0:
192,192,125745,1,0,0:0:0:0:
320,192,125828,1,0,0:0:0:0:
448,192,125828,1,0,0:0:0:0:
64,192,125828,1,0,0:0:0:0:
192,192,125911,1,0,0:0:0:0:
320,192,125995,1,0,0:0:0:0:
448,192,125995,1,0,0:0:0:0:
192,192,126078,1,0,0:0:0:0:
320,192,126161,1,0,0:0:0:0:
448,192,126161,1,0,0:0:0:0:
64,192,126161,1,0,0:0:0:0:
192,192,126245,1,0,0:0:0:0:
320,192,126328,1,0,0:0:0:0:
64,192,126328,1,0,0:0:0:0:
448,192,126411,1,0,0:0:0:0:
320,192,126495,1,0,0:0:0:0:
192,192,126495,1,0,0:0:0:0:
64,192,126495,1,0,0:0:0:0:
448,192,126578,1,0,0:0:0:0:
192,192,126661,1,0,0:0:0:0:
64,192,126661,1,0,0:0:0:0:
320,192,126745,1,0,0:0:0:0:
448,192,126828,1,0,0:0:0:0:
192,192,126828,1,0,0:0:0:0:
64,192,126828,1,0,0:0:0:0:
320,192,126911,1,0,0:0:0:0:
192,192,126995,1,0,0:0:0:0:
64,192,126995,1,0,0:0:0:0:
320,192,127078,1,0,0:0:0:0:
448,192,127078,1,0,0:0:0:0:
192,192,127161,1,0,0:0:0:0:
64,192,127161,1,0,0:0:0:0:
320,192,127245,1,0,0:0:0:0:
192,192,127328,1,0,0:0:0:0:
64,192,127328,1,0,0:0:0:0:
320,192,127411,1,0,0:0:0:0:
64,192,127495,128,0,128161:0:0:0:0:
192,192,127495,128,0,127661:0:0:0:0:
448,192,127495,128,0,128161:0:0:0:0:
320,192,127661,128,0,127828:0:0:0:0:
192,192,127828,128,0,127995:0:0:0:0:
320,192,127995,128,0,128161:0:0:0:0:
192,192,128161,1,0,0:0:0:0:
64,192,128245,1,0,0:0:0:0:
448,192,128328,1,0,0:0:0:0:
192,192,128328,1,0,0:0:0:0:
320,192,128411,1,0,0:0:0:0:
448,192,128495,1,0,0:0:0:0:
192,192,128495,1,0,0:0:0:0:
64,192,128495,1,0,0:0:0:0:
320,192,128578,1,0,0:0:0:0:
64,192,128661,1,0,0:0:0:0:
448,192,128661,1,0,0:0:0:0:
192,192,128745,1,0,0:0:0:0:
320,192,128828,1,0,0:0:0:0:
448,192,128828,1,0,0:0:0:0:
64,192,128828,1,0,0:0:0:0:
192,192,128911,1,0,0:0:0:0:
320,192,128995,1,0,0:0:0:0:
448,192,128995,1,0,0:0:0:0:
64,192,129078,1,0,0:0:0:0:
192,192,129161,1,0,0:0:0:0:
320,192,129161,1,0,0:0:0:0:
448,192,129161,1,0,0:0:0:0:
64,192,129245,1,0,0:0:0:0:
192,192,129328,1,0,0:0:0:0:
448,192,129328,1,0,0:0:0:0:
320,192,129411,1,0,0:0:0:0:
448,192,129495,1,0,0:0:0:0:
192,192,129495,1,0,0:0:0:0:
64,192,129495,1,0,0:0:0:0:
320,192,129578,1,0,0:0:0:0:
64,192,129661,1,0,0:0:0:0:
448,192,129661,1,0,0:0:0:0:
192,192,129745,1,0,0:0:0:0:
320,192,129828,1,0,0:0:0:0:
448,192,129828,1,0,0:0:0:0:
64,192,129828,1,0,0:0:0:0:
192,192,129911,1,0,0:0:0:0:
64,192,129995,1,0,0:0:0:0:
448,192,129995,1,0,0:0:0:0:
320,192,130078,1,0,0:0:0:0:
64,192,130161,1,0,0:0:0:0:
448,192,130161,1,0,0:0:0:0:
192,192,130161,1,0,0:0:0:0:
320,192,130245,1,0,0:0:0:0:
192,192,130328,1,0,0:0:0:0:
64,192,130328,1,0,0:0:0:0:
448,192,130411,1,0,0:0:0:0:
320,192,130495,1,0,0:0:0:0:
192,192,130495,1,0,0:0:0:0:
64,192,130495,1,0,0:0:0:0:
448,192,130578,1,0,0:0:0:0:
320,192,130661,1,0,0:0:0:0:
192,192,130661,1,0,0:0:0:0:
448,192,130745,1,0,0:0:0:0:
320,192,130828,1,0,0:0:0:0:
192,192,130828,1,0,0:0:0:0:
64,192,130828,1,0,0:0:0:0:
448,192,130911,1,0,0:0:0:0:
64,192,130995,1,0,0:0:0:0:
192,192,130995,1,0,0:0:0:0:
320,192,131078,1,0,0:0:0:0:
448,192,131161,1,0,0:0:0:0:
192,192,131161,1,0,0:0:0:0:
64,192,131161,1,0,0:0:0:0:
320,192,131245,1,0,0:0:0:0:
448,192,131328,1,0,0:0:0:0:
192,192,131328,1,0,0:0:0:0:
320,192,131411,1,0,0:0:0:0:
448,192,131495,1,0,0:0:0:0:
192,192,131495,1,0,0:0:0:0:
64,192,131495,1,0,0:0:0:0:
320,192,131578,1,0,0:0:0:0:
192,192,131661,1,0,0:0:0:0:
64,192,131661,1,0,0:0:0:0:
320,192,131745,1,0,0:0:0:0:
192,192,131828,1,0,0:0:0:0:
64,192,131828,1,0,0:0:0:0:
448,192,131828,1,0,0:0:0:0:
320,192,131911,1,0,0:0:0:0:
448,192,131995,1,0,0:0:0:0:
192,192,131995,1,0,0:0:0:0:
64,192,132078,1,0,0:0:0:0:
192,192,132161,1,0,0:0:0:0:
320,192,132161,1,0,0:0:0:0:
448,192,132161,1,0,0:0:0:0:
64,192,132245,1,0,0:0:0:0:
192,192,132328,5,0,0:0:0:0:
448,192,132328,1,0,0:0:0:0:
320,192,132411,1,0,0:0:0:0:
448,192,132495,1,0,0:0:0:0:
192,192,132495,1,0,0:0:0:0:
64,192,132495,1,0,0:0:0:0:
320,192,132578,1,0,0:0:0:0:
448,192,132661,1,0,0:0:0:0:
64,192,132661,1,0,0:0:0:0:
192,192,132745,1,0,0:0:0:0:
320,192,132828,1,0,0:0:0:0:
448,192,132828,1,0,0:0:0:0:
64,192,132828,1,0,0:0:0:0:
192,192,132911,1,0,0:0:0:0:
320,192,132995,1,0,0:0:0:0:
448,192,132995,1,0,0:0:0:0:
192,192,133078,1,0,0:0:0:0:
64,192,133078,1,0,0:0:0:0:
320,192,133161,1,0,0:0:0:0:
448,192,133161,1,0,0:0:0:0:
192,192,133245,1,0,0:0:0:0:
320,192,133328,1,0,0:0:0:0:
448,192,133328,1,0,0:0:0:0:
192,192,133411,1,0,0:0:0:0:
320,192,133495,1,0,0:0:0:0:
448,192,133495,1,0,0:0:0:0:
64,192,133495,1,0,0:0:0:0:
192,192,133578,1,0,0:0:0:0:
64,192,133661,1,0,0:0:0:0:
448,192,133661,1,0,0:0:0:0:
320,192,133745,1,0,0:0:0:0:
192,192,133828,1,0,0:0:0:0:
64,192,133828,1,0,0:0:0:0:
448,192,133828,1,0,0:0:0:0:
320,192,133911,1,0,0:0:0:0:
192,192,133995,1,0,0:0:0:0:
64,192,133995,1,0,0:0:0:0:
320,192,134078,1,0,0:0:0:0:
192,192,134161,1,0,0:0:0:0:
64,192,134161,1,0,0:0:0:0:
448,192,134161,1,0,0:0:0:0:
320,192,134245,1,0,0:0:0:0:
448,192,134328,1,0,0:0:0:0:
64,192,134328,1,0,0:0:0:0:
192,192,134411,1,0,0:0:0:0:
320,192,134495,1,0,0:0:0:0:
448,192,134495,1,0,0:0:0:0:
64,192,134495,1,0,0:0:0:0:
192,192,134578,1,0,0:0:0:0:
320,192,134661,1,0,0:0:0:0:
448,192,134661,1,0,0:0:0:0:
192,192,134745,1,0,0:0:0:0:
64,192,134828,1,0,0:0:0:0:
320,192,134828,1,0,0:0:0:0:
448,192,134828,1,0,0:0:0:0:
192,192,134911,1,0,0:0:0:0:
64,192,134995,1,0,0:0:0:0:
448,192,134995,1,0,0:0:0:0:
320,192,135078,1,0,0:0:0:0:
192,192,135161,1,0,0:0:0:0:
64,192,135161,1,0,0:0:0:0:
448,192,135161,1,0,0:0:0:0:
320,192,135245,1,0,0:0:0:0:
448,192,135328,1,0,0:0:0:0:
192,192,135328,1,0,0:0:0:0:
320,192,135411,1,0,0:0:0:0:
448,192,135495,1,0,0:0:0:0:
192,192,135495,1,0,0:0:0:0:
64,192,135495,1,0,0:0:0:0:
320,192,135578,1,0,0:0:0:0:
64,192,135661,1,0,0:0:0:0:
448,192,135661,1,0,0:0:0:0:
192,192,135745,1,0,0:0:0:0:
320,192,135828,1,0,0:0:0:0:
448,192,135828,1,0,0:0:0:0:
64,192,135828,1,0,0:0:0:0:
192,192,135911,1,0,0:0:0:0:
320,192,135995,1,0,0:0:0:0:
448,192,135995,1,0,0:0:0:0:
192,192,136078,1,0,0:0:0:0:
320,192,136161,1,0,0:0:0:0:
448,192,136161,1,0,0:0:0:0:
64,192,136161,1,0,0:0:0:0:
192,192,136245,1,0,0:0:0:0:
64,192,136328,1,0,0:0:0:0:
320,192,136328,1,0,0:0:0:0:
448,192,136411,1,0,0:0:0:0:
192,192,136495,1,0,0:0:0:0:
64,192,136495,1,0,0:0:0:0:
320,192,136578,1,0,0:0:0:0:
192,192,136661,1,0,0:0:0:0:
448,192,136661,1,0,0:0:0:0:
64,192,136745,1,0,0:0:0:0:
320,192,136828,1,0,0:0:0:0:
448,192,136828,1,0,0:0:0:0:
192,192,136911,1,0,0:0:0:0:
64,192,136911,1,0,0:0:0:0:
320,192,136995,1,0,0:0:0:0:
448,192,136995,1,0,0:0:0:0:
192,192,137078,1,0,0:0:0:0:
64,192,137078,1,0,0:0:0:0:
320,192,137161,1,0,0:0:0:0:
448,192,137203,1,0,0:0:0:0:
64,192,137245,1,0,0:0:0:0:
192,192,137286,1,0,0:0:0:0:
320,192,137328,1,0,0:0:0:0:
448,192,137370,1,0,0:0:0:0:
64,192,137411,1,0,0:0:0:0:
192,192,137453,1,0,0:0:0:0:
320,192,137495,1,0,0:0:0:0:
448,192,137495,1,0,0:0:0:0:
192,192,137661,1,0,0:0:0:0:
320,192,137661,1,0,0:0:0:0:
448,192,137828,1,0,0:0:0:0:
320,192,137828,1,0,0:0:0:0:
64,192,137995,1,0,0:0:0:0:
448,192,137995,1,0,0:0:0:0:
192,192,138161,1,0,0:0:0:0:
320,192,138161,1,0,0:0:0:0:
320,192,138328,1,0,0:0:0:0:
448,192,138328,1,0,0:0:0:0:
64,192,138411,1,0,0:0:0:0:
192,192,138411,1,0,0:0:0:0:
448,192,138495,1,0,0:0:0:0:
320,192,138495,1,0,0:0:0:0:
320,192,138661,1,0,0:0:0:0:
448,192,138661,1,0,0:0:0:0:
448,192,138828,1,0,0:0:0:0:
320,192,138828,1,0,0:0:0:0:
64,192,138828,1,0,0:0:0:0:
64,192,138995,1,0,0:0:0:0:
192,192,138995,1,0,0:0:0:0:
192,192,139161,1,0,0:0:0:0:
448,192,139161,1,0,0:0:0:0:
320,192,139161,1,0,0:0:0:0:
64,192,139328,1,0,0:0:0:0:
320,192,139328,1,0,0:0:0:0:
448,192,139495,1,0,0:0:0:0:
320,192,139495,1,0,0:0:0:0:
192,192,139495,1,0,0:0:0:0:
64,192,139661,1,0,0:0:0:0:
192,192,139661,1,0,0:0:0:0:
64,192,139828,1,0,0:0:0:0:
448,192,139828,1,0,0:0:0:0:
320,192,139828,1,0,0:0:0:0:
320,192,139995,1,0,0:0:0:0:
192,192,139995,1,0,0:0:0:0:
320,192,140161,1,0,0:0:0:0:
448,192,140161,1,0,0:0:0:0:
64,192,140161,1,0,0:0:0:0:
64,192,140328,1,0,0:0:0:0:
192,192,140328,1,0,0:0:0:0:
192,192,140495,1,0,0:0:0:0:
448,192,140495,1,0,0:0:0:0:
320,192,140495,1,0,0:0:0:0:
64,192,140661,1,0,0:0:0:0:
320,192,140661,1,0,0:0:0:0:
448,192,140828,1,0,0:0:0:0:
320,192,140828,1,0,0:0:0:0:
192,192,140828,1,0,0:0:0:0:
192,192,140995,1,0,0:0:0:0:
64,192,140995,1,0,0:0:0:0:
320,192,141161,1,0,0:0:0:0:
192,192,141161,1,0,0:0:0:0:
448,192,141161,1,0,0:0:0:0:
320,192,141328,1,0,0:0:0:0:
192,192,141328,1,0,0:0:0:0:
448,192,141328,1,0,0:0:0:0:
448,192,141495,1,0,0:0:0:0:
320,192,141495,1,0,0:0:0:0:
64,192,141495,1,0,0:0:0:0:
192,192,141661,1,0,0:0:0:0:
64,192,141661,1,0,0:0:0:0:
192,192,141828,1,0,0:0:0:0:
448,192,141828,1,0,0:0:0:0:
320,192,141828,1,0,0:0:0:0:
448,192,141995,1,0,0:0:0:0:
320,192,141995,1,0,0:0:0:0:
448,192,142161,1,0,0:0:0:0:
320,192,142161,1,0,0:0:0:0:
192,192,142161,1,0,0:0:0:0:
64,192,142328,1,0,0:0:0:0:
192,192,142328,1,0,0:0:0:0:
64,192,142495,1,0,0:0:0:0:
448,192,142495,1,0,0:0:0:0:
320,192,142495,1,0,0:0:0:0:
320,192,142661,1,0,0:0:0:0:
192,192,142661,1,0,0:0:0:0:
448,192,142828,1,0,0:0:0:0:
320,192,142828,1,0,0:0:0:0:
192,192,142828,1,0,0:0:0:0:
192,192,142911,1,0,0:0:0:0:
192,192,143078,1,0,0:0:0:0:
64,192,143245,1,0,0:0:0:0:
64,192,143328,1,0,0:0:0:0:
320,192,143411,1,0,0:0:0:0:
320,192,143495,1,0,0:0:0:0:
448,192,143495,1,0,0:0:0:0:
192,192,143495,1,0,0:0:0:0:
64,192,143661,1,0,0:0:0:0:
448,192,143661,1,0,0:0:0:0:
192,192,143745,1,0,0:0:0:0:
448,192,143828,1,0,0:0:0:0:
320,192,143828,1,0,0:0:0:0:
64,192,143828,1,0,0:0:0:0:
192,192,143995,1,0,0:0:0:0:
64,192,143995,1,0,0:0:0:0:
192,192,144161,1,0,0:0:0:0:
320,192,144161,1,0,0:0:0:0:
448,192,144161,1,0,0:0:0:0:
64,192,144328,1,0,0:0:0:0:
448,192,144328,1,0,0:0:0:0:
64,192,144495,1,0,0:0:0:0:
448,192,144495,1,0,0:0:0:0:
192,192,144495,1,0,0:0:0:0:
320,192,144661,1,0,0:0:0:0:
192,192,144661,1,0,0:0:0:0:
320,192,144828,1,0,0:0:0:0:
448,192,144828,1,0,0:0:0:0:
64,192,144828,1,0,0:0:0:0:
192,192,144995,1,0,0:0:0:0:
64,192,144995,1,0,0:0:0:0:
192,192,145161,1,0,0:0:0:0:
448,192,145161,1,0,0:0:0:0:
320,192,145161,1,0,0:0:0:0:
320,192,145328,1,0,0:0:0:0:
64,192,145328,1,0,0:0:0:0:
320,192,145495,1,0,0:0:0:0:
448,192,145495,1,0,0:0:0:0:
192,192,145495,1,0,0:0:0:0:
192,192,145661,1,0,0:0:0:0:
64,192,145661,1,0,0:0:0:0:
448,192,145828,1,0,0:0:0:0:
192,192,145828,1,0,0:0:0:0:
320,192,145828,1,0,0:0:0:0:
64,192,145995,1,0,0:0:0:0:
320,192,145995,1,0,0:0:0:0:
320,192,146161,1,0,0:0:0:0:
448,192,146161,1,0,0:0:0:0:
192,192,146161,1,0,0:0:0:0:
192,192,146328,1,0,0:0:0:0:
64,192,146328,1,0,0:0:0:0:
192,192,146495,1,0,0:0:0:0:
320,192,146495,1,0,0:0:0:0:
448,192,146495,1,0,0:0:0:0:
192,192,146661,1,0,0:0:0:0:
320,192,146661,1,0,0:0:0:0:
448,192,146661,1,0,0:0:0:0:
320,192,146828,1,0,0:0:0:0:
448,192,146828,1,0,0:0:0:0:
64,192,146828,1,0,0:0:0:0:
192,192,146995,1,0,0:0:0:0:
64,192,146995,1,0,0:0:0:0:
192,192,147161,1,0,0:0:0:0:
448,192,147161,1,0,0:0:0:0:
320,192,147161,1,0,0:0:0:0:
320,192,147328,1,0,0:0:0:0:
64,192,147328,1,0,0:0:0:0:
64,192,147495,1,0,0:0:0:0:
448,192,147495,1,0,0:0:0:0:
192,192,147495,1,0,0:0:0:0:
64,192,147661,1,0,0:0:0:0:
448,192,147661,1,0,0:0:0:0:
448,192,147828,1,0,0:0:0:0:
192,192,147828,1,0,0:0:0:0:
320,192,147828,1,0,0:0:0:0:
320,192,147995,1,0,0:0:0:0:
64,192,147995,1,0,0:0:0:0:
192,192,148161,1,0,0:0:0:0:
448,192,148161,1,0,0:0:0:0:
64,192,148161,1,0,0:0:0:0:
64,192,148328,1,0,0:0:0:0:
192,192,148328,1,0,0:0:0:0:
192,192,148411,1,0,0:0:0:0:
64,192,148495,1,0,0:0:0:0:
448,192,148495,1,0,0:0:0:0:
320,192,148495,1,0,0:0:0:0:
320,192,148661,1,0,0:0:0:0:
64,192,148661,1,0,0:0:0:0:
320,192,148828,1,0,0:0:0:0:
448,192,148828,1,0,0:0:0:0:
320,192,148995,1,0,0:0:0:0:
448,192,148995,1,0,0:0:0:0:
320,192,149161,1,0,0:0:0:0:
448,192,149161,1,0,0:0:0:0:
320,192,149328,1,0,0:0:0:0:
448,192,149328,1,0,0:0:0:0:
320,192,149495,1,0,0:0:0:0:
448,192,149495,1,0,0:0:0:0:
64,192,149495,1,0,0:0:0:0:
192,192,149661,1,0,0:0:0:0:
64,192,149661,1,0,0:0:0:0:
448,192,149828,1,0,0:0:0:0:
192,192,149828,1,0,0:0:0:0:
320,192,149828,1,0,0:0:0:0:
320,192,149995,1,0,0:0:0:0:
64,192,149995,1,0,0:0:0:0:
320,192,150161,1,0,0:0:0:0:
448,192,150161,1,0,0:0:0:0:
192,192,150161,1,0,0:0:0:0:
192,192,150328,1,0,0:0:0:0:
64,192,150328,1,0,0:0:0:0:
64,192,150495,1,0,0:0:0:0:
448,192,150495,1,0,0:0:0:0:
320,192,150495,1,0,0:0:0:0:
192,192,150661,1,0,0:0:0:0:
320,192,150661,1,0,0:0:0:0:
448,192,150828,1,0,0:0:0:0:
192,192,150828,1,0,0:0:0:0:
64,192,150828,1,0,0:0:0:0:
320,192,150995,1,0,0:0:0:0:
64,192,150995,1,0,0:0:0:0:
320,192,151161,1,0,0:0:0:0:
448,192,151161,1,0,0:0:0:0:
192,192,151161,1,0,0:0:0:0:
64,192,151328,1,0,0:0:0:0:
192,192,151328,1,0,0:0:0:0:
320,192,151370,1,0,0:0:0:0:
448,192,151411,1,0,0:0:0:0:
192,192,151453,1,0,0:0:0:0:
64,192,151495,1,0,0:0:0:0:
320,192,151495,1,0,0:0:0:0:
448,192,151495,1,0,0:0:0:0:
192,192,151661,1,0,0:0:0:0:
64,192,151661,1,0,0:0:0:0:
192,192,151828,1,0,0:0:0:0:
320,192,151828,1,0,0:0:0:0:
448,192,151828,1,0,0:0:0:0:
192,192,151995,1,0,0:0:0:0:
320,192,151995,1,0,0:0:0:0:
320,192,152161,1,0,0:0:0:0:
448,192,152161,1,0,0:0:0:0:
64,192,152161,1,0,0:0:0:0:
192,192,152328,1,0,0:0:0:0:
64,192,152328,1,0,0:0:0:0:
448,192,152495,1,0,0:0:0:0:
192,192,152495,1,0,0:0:0:0:
320,192,152495,1,0,0:0:0:0:
320,192,152661,1,0,0:0:0:0:
448,192,152661,1,0,0:0:0:0:
320,192,152828,1,0,0:0:0:0:
448,192,152828,1,0,0:0:0:0:
64,192,152828,1,0,0:0:0:0:
192,192,152995,128,0,153161:0:0:0:0:
320,192,152995,128,0,153161:0:0:0:0:
64,192,153161,1,0,0:0:0:0:
448,192,153161,1,0,0:0:0:0:
192,192,153328,1,0,0:0:0:0:
320,192,153328,1,0,0:0:0:0:
320,192,153495,1,0,0:0:0:0:
448,192,153495,1,0,0:0:0:0:
192,192,153495,1,0,0:0:0:0:
192,192,153578,1,0,0:0:0:0:
192,192,153745,1,0,0:0:0:0:
64,192,153911,1,0,0:0:0:0:
64,192,153995,1,0,0:0:0:0:
320,192,154078,1,0,0:0:0:0:
320,192,154161,1,0,0:0:0:0:
448,192,154161,128,0,154328:0:0:0:0:
64,192,154328,128,0,154411:0:0:0:0:
192,192,154411,128,0,154495:0:0:0:0:
320,192,154495,128,0,154661:0:0:0:0:
448,192,154495,1,0,0:0:0:0:
64,192,154661,128,0,154828:0:0:0:0:
320,192,154828,1,0,0:0:0:0:
448,192,154828,1,0,0:0:0:0:
192,192,154828,1,0,0:0:0:0:
192,192,154995,1,0,0:0:0:0:
192,192,155078,1,0,0:0:0:0:
320,192,155161,1,0,0:0:0:0:
448,192,155161,1,0,0:0:0:0:
64,192,155161,1,0,0:0:0:0:
64,192,155328,1,0,0:0:0:0:
448,192,155328,1,0,0:0:0:0:
320,192,155495,1,0,0:0:0:0:
448,192,155495,1,0,0:0:0:0:
192,192,155495,1,0,0:0:0:0:
192,192,155661,1,0,0:0:0:0:
64,192,155661,1,0,0:0:0:0:
448,192,155828,1,0,0:0:0:0:
192,192,155828,1,0,0:0:0:0:
64,192,155828,1,0,0:0:0:0:
320,192,155995,1,0,0:0:0:0:
64,192,155995,1,0,0:0:0:0:
320,192,156161,1,0,0:0:0:0:
448,192,156161,1,0,0:0:0:0:
192,192,156161,1,0,0:0:0:0:
192,192,156245,1,0,0:0:0:0:
64,192,156328,1,0,0:0:0:0:
320,192,156411,1,0,0:0:0:0:
320,192,156495,1,0,0:0:0:0:
448,192,156495,1,0,0:0:0:0:
192,192,156495,1,0,0:0:0:0:
320,192,156661,1,0,0:0:0:0:
64,192,156661,1,0,0:0:0:0:
320,192,156828,1,0,0:0:0:0:
448,192,156828,1,0,0:0:0:0:
192,192,156828,1,0,0:0:0:0:
64,192,156995,1,0,0:0:0:0:
448,192,156995,1,0,0:0:0:0:
192,192,157036,1,0,0:0:0:0:
320,192,157078,1,0,0:0:0:0:
448,192,157120,1,0,0:0:0:0:
64,192,157161,128,0,157495:0:0:0:0:
192,192,157161,128,0,157495:0:0:0:0:
320,192,157161,1,0,0:0:0:0:
320,192,157495,1,0,0:0:0:0:
448,192,157495,1,0,0:0:0:0:
192,192,157578,1,0,0:0:0:0:
64,192,157578,1,0,0:0:0:0:
320,192,157661,5,0,0:0:0:0:
448,192,157661,1,0,0:0:0:0:
192,192,157745,1,0,0:0:0:0:
64,192,157745,1,0,0:0:0:0:
320,192,157828,1,0,0:0:0:0:
448,192,157828,1,0,0:0:0:0:
192,192,157911,1,0,0:0:0:0:
64,192,157911,1,0,0:0:0:0:
448,192,157995,1,0,0:0:0:0:
320,192,158036,1,0,0:0:0:0:
192,192,158078,1,0,0:0:0:0:
64,192,158120,1,0,0:0:0:0:
320,192,158161,1,0,0:0:0:0:
448,192,158161,1,0,0:0:0:0:
192,192,158245,1,0,0:0:0:0:
64,192,158245,1,0,0:0:0:0:
320,192,158328,1,0,0:0:0:0:
448,192,158328,1,0,0:0:0:0:
192,192,158411,1,0,0:0:0:0:
64,192,158411,1,0,0:0:0:0:
448,192,158495,1,0,0:0:0:0:
320,192,158536,1,0,0:0:0:0:
64,192,158578,1,0,0:0:0:0:
192,192,158620,1,0,0:0:0:0:
320,192,158661,1,0,0:0:0:0:
448,192,158703,1,0,0:0:0:0:
192,192,158745,1,0,0:0:0:0:
64,192,158786,1,0,0:0:0:0:
448,192,158828,5,0,0:0:0:0:
320,192,158828,128,0,158995:0:0:0:0:
448,192,158995,128,0,159161:0:0:0:0:
64,192,158995,1,0,0:0:0:0:
64,192,159161,128,0,159328:0:0:0:0:
320,192,159161,1,0,0:0:0:0:
192,192,159328,1,0,0:0:0:0:
320,192,159411,1,0,0:0:0:0:
448,192,159495,128,0,159661:0:0:0:0:
64,192,159578,1,0,0:0:0:0:
192,192,159661,128,0,159828:0:0:0:0:
448,192,159745,1,0,0:0:0:0:
320,192,159828,128,0,159995:0:0:0:0:
64,192,159828,1,0,0:0:0:0:
448,192,160161,128,0,161495:0:0:0:0:
192,192,160161,1,0,0:0:0:0:
320,192,160161,128,0,160328:0:0:0:0:
64,192,160328,128,0,160495:0:0:0:0:
192,192,160495,128,0,160578:0:0:0:0:
320,192,160578,128,0,160661:0:0:0:0:
320,192,160745,128,0,160995:0:0:0:0:
64,192,160995,128,0,161161:0:0:0:0:
192,192,161161,128,0,161245:0:0:0:0:
320,192,161245,128,0,161328:0:0:0:0:
320,192,161411,128,0,161661:0:0:0:0:
64,192,161495,128,0,162828:0:0:0:0:
192,192,161661,128,0,161828:0:0:0:0:
448,192,161828,128,0,161911:0:0:0:0:
320,192,161911,128,0,161995:0:0:0:0:
192,192,162078,128,0,162161:0:0:0:0:
320,192,162328,128,0,162495:0:0:0:0:
192,192,162495,128,0,162661:0:0:0:0:
448,192,162661,128,0,162828:0:0:0:0:
320,192,162828,128,0,164161:0:0:0:0:
192,192,162828,128,0,162995:0:0:0:0:
448,192,162995,128,0,163161:0:0:0:0:
64,192,163161,128,0,163245:0:0:0:0:
192,192,163245,128,0,163328:0:0:0:0:
448,192,163411,128,0,163661:0:0:0:0:
192,192,163661,128,0,163828:0:0:0:0:
64,192,163828,128,0,163995:0:0:0:0:
448,192,163995,128,0,164161:0:0:0:0:
192,192,164161,128,0,165495:0:0:0:0:
64,192,164161,128,0,164328:0:0:0:0:
320,192,164328,128,0,164495:0:0:0:0:
448,192,164495,128,0,164578:0:0:0:0:
64,192,164578,128,0,164661:0:0:0:0:
320,192,164745,128,0,164995:0:0:0:0:
448,192,164995,128,0,165161:0:0:0:0:
64,192,165161,128,0,165328:0:0:0:0:
320,192,165328,128,0,165495:0:0:0:0:
64,192,165495,128,0,166828:0:0:0:0:
448,192,165495,128,0,165661:0:0:0:0:
192,192,165661,128,0,165828:0:0:0:0:
320,192,165828,128,0,165911:0:0:0:0:
448,192,165911,128,0,165995:0:0:0:0:
448,192,166078,128,0,166328:0:0:0:0:
192,192,166328,128,0,166495:0:0:0:0:
320,192,166495,128,0,166578:0:0:0:0:
448,192,166578,128,0,166661:0:0:0:0:
448,192,166745,128,0,166995:0:0:0:0:
320,192,166828,128,0,168161:0:0:0:0:
192,192,166995,128,0,167161:0:0:0:0:
64,192,167161,128,0,167245:0:0:0:0:
448,192,167245,128,0,167328:0:0:0:0:
192,192,167411,128,0,167495:0:0:0:0:
192,192,167661,128,0,167828:0:0:0:0:
448,192,167828,128,0,167995:0:0:0:0:
64,192,167995,128,0,168161:0:0:0:0:
448,192,168161,128,0,169495:0:0:0:0:
192,192,168161,128,0,168328:0:0:0:0:
64,192,168328,128,0,168495:0:0:0:0:
192,192,168495,128,0,168578:0:0:0:0:
320,192,168578,128,0,168661:0:0:0:0:
192,192,168745,128,0,168828:0:0:0:0:
192,192,168995,128,0,169161:0:0:0:0:
64,192,169161,128,0,169245:0:0:0:0:
320,192,169245,128,0,169328:0:0:0:0:
320,192,169411,128,0,169661:0:0:0:0:
192,192,169495,128,0,170828:0:0:0:0:
448,192,169661,128,0,169828:0:0:0:0:
320,192,169828,128,0,169995:0:0:0:0:
448,192,169995,128,0,170161:0:0:0:0:
320,192,170161,128,0,170245:0:0:0:0:
64,192,170495,128,0,170661:0:0:0:0:
320,192,170661,128,0,170828:0:0:0:0:
448,192,170828,128,0,170995:0:0:0:0:
64,192,170828,1,0,0:0:0:0:
192,192,170995,128,0,171161:0:0:0:0:
320,192,171161,128,0,171245:0:0:0:0:
64,192,171161,1,0,0:0:0:0:
448,192,171245,128,0,171328:0:0:0:0:
448,192,171411,128,0,171661:0:0:0:0:
192,192,171495,1,0,0:0:0:0:
64,192,171495,1,0,0:0:0:0:
320,192,171495,1,0,0:0:0:0:
192,192,171661,128,0,171828:0:0:0:0:
320,192,171828,128,0,171911:0:0:0:0:
64,192,171828,1,0,0:0:0:0:
448,192,171911,128,0,171995:0:0:0:0:
448,192,172078,128,0,172328:0:0:0:0:
64,192,172161,1,0,0:0:0:0:
192,192,172161,1,0,0:0:0:0:
320,192,172161,1,0,0:0:0:0:
192,192,172328,128,0,172495:0:0:0:0:
64,192,172495,128,0,172578:0:0:0:0:
320,192,172495,1,0,0:0:0:0:
448,192,172578,128,0,172661:0:0:0:0:
320,192,172745,128,0,172828:0:0:0:0:
64,192,172828,1,0,0:0:0:0:
192,192,172828,1,0,0:0:0:0:
448,192,172828,1,0,0:0:0:0:
192,192,172995,128,0,173161:0:0:0:0:
64,192,173161,128,0,173328:0:0:0:0:
320,192,173161,1,0,0:0:0:0:
448,192,173328,128,0,173495:0:0:0:0:
64,192,173495,128,0,173661:0:0:0:0:
192,192,173495,1,0,0:0:0:0:
320,192,173495,1,0,0:0:0:0:
448,192,173661,128,0,173828:0:0:0:0:
192,192,173828,128,0,173911:0:0:0:0:
64,192,173828,1,0,0:0:0:0:
320,192,173911,128,0,173995:0:0:0:0:
64,192,174078,128,0,174328:0:0:0:0:
448,192,174161,1,0,0:0:0:0:
320,192,174161,1,0,0:0:0:0:
192,192,174161,1,0,0:0:0:0:
448,192,174328,128,0,174495:0:0:0:0:
320,192,174495,128,0,174661:0:0:0:0:
192,192,174495,1,0,0:0:0:0:
448,192,174661,128,0,174828:0:0:0:0:
192,192,174828,128,0,174995:0:0:0:0:
320,192,174828,1,0,0:0:0:0:
64,192,174828,1,0,0:0:0:0:
64,192,174995,128,0,175161:0:0:0:0:
320,192,175161,128,0,175245:0:0:0:0:
192,192,175161,1,0,0:0:0:0:
448,192,175245,128,0,175328:0:0:0:0:
320,192,175411,128,0,175661:0:0:0:0:
192,192,175495,1,0,0:0:0:0:
64,192,175495,1,0,0:0:0:0:
448,192,175495,1,0,0:0:0:0:
448,192,175661,128,0,175828:0:0:0:0:
64,192,175828,128,0,175995:0:0:0:0:
192,192,175828,1,0,0:0:0:0:
192,192,175995,128,0,176161:0:0:0:0:
64,192,176161,1,0,0:0:0:0:
320,192,176161,1,0,0:0:0:0:
448,192,176161,128,0,177495:0:0:0:0:
192,192,176328,1,0,0:0:0:0:
64,192,176328,1,0,0:0:0:0:
192,192,176495,1,0,0:0:0:0:
320,192,176495,1,0,0:0:0:0:
64,192,176661,1,0,0:0:0:0:
320,192,176661,1,0,0:0:0:0:
192,192,176828,1,0,0:0:0:0:
320,192,176828,1,0,0:0:0:0:
64,192,176995,1,0,0:0:0:0:
320,192,176995,1,0,0:0:0:0:
192,192,177161,1,0,0:0:0:0:
64,192,177161,1,0,0:0:0:0:
192,192,177328,1,0,0:0:0:0:
320,192,177328,1,0,0:0:0:0:
320,192,177495,1,0,0:0:0:0:
64,192,177495,128,0,178828:0:0:0:0:
192,192,177661,1,0,0:0:0:0:
448,192,177661,1,0,0:0:0:0:
320,192,177828,1,0,0:0:0:0:
448,192,177828,1,0,0:0:0:0:
192,192,177995,1,0,0:0:0:0:
320,192,177995,1,0,0:0:0:0:
192,192,178161,1,0,0:0:0:0:
448,192,178161,1,0,0:0:0:0:
320,192,178328,1,0,0:0:0:0:
448,192,178328,1,0,0:0:0:0:
192,192,178495,1,0,0:0:0:0:
448,192,178495,1,0,0:0:0:0:
320,192,178661,1,0,0:0:0:0:
192,192,178661,1,0,0:0:0:0:
320,192,178828,1,0,0:0:0:0:
448,192,178828,1,0,0:0:0:0:
192,192,178911,1,0,0:0:0:0:
64,192,178911,1,0,0:0:0:0:
320,192,178995,1,0,0:0:0:0:
448,192,178995,1,0,0:0:0:0:
192,192,179078,1,0,0:0:0:0:
64,192,179078,1,0,0:0:0:0:
320,192,179161,1,0,0:0:0:0:
448,192,179161,1,0,0:0:0:0:
192,192,179245,1,0,0:0:0:0:
64,192,179245,1,0,0:0:0:0:
320,192,179328,1,0,0:0:0:0:
448,192,179328,1,0,0:0:0:0:
192,192,179411,1,0,0:0:0:0:
64,192,179411,1,0,0:0:0:0:
320,192,179495,1,0,0:0:0:0:
448,192,179495,1,0,0:0:0:0:
192,192,179578,1,0,0:0:0:0:
64,192,179578,1,0,0:0:0:0:
320,192,179661,1,0,0:0:0:0:
448,192,179661,1,0,0:0:0:0:
192,192,179745,1,0,0:0:0:0:
64,192,179745,1,0,0:0:0:0:
320,192,179828,1,0,0:0:0:0:
448,192,179828,1,0,0:0:0:0:
64,192,179911,1,0,0:0:0:0:
192,192,179911,1,0,0:0:0:0:
320,192,179995,1,0,0:0:0:0:
448,192,179995,1,0,0:0:0:0:
192,192,180078,1,0,0:0:0:0:
64,192,180078,1,0,0:0:0:0:
320,192,180161,1,0,0:0:0:0:
448,192,180161,1,0,0:0:0:0:
320,192,180328,5,0,0:0:0:0:
192,192,180328,1,0,0:0:0:0:
192,192,180495,1,0,0:0:0:0:
64,192,180495,1,0,0:0:0:0:
320,192,180745,1,0,0:0:0:0:
448,192,180828,1,0,0:0:0:0:
64,192,180828,1,0,0:0:0:0:
192,192,180995,1,0,0:0:0:0:
320,192,181078,1,0,0:0:0:0:
192,192,181161,1,0,0:0:0:0:
448,192,181161,128,0,181328:0:0:0:0:
64,192,181161,128,0,181328:0:0:0:0:
448,192,181495,5,0,0:0:0:0:
192,192,181495,1,0,0:0:0:0:
64,192,181495,1,0,0:0:0:0:
320,192,181578,1,0,0:0:0:0:
192,192,181661,1,0,0:0:0:0:
64,192,181661,1,0,0:0:0:0:
448,192,181745,1,0,0:0:0:0:
320,192,181828,1,0,0:0:0:0:
64,192,181828,1,0,0:0:0:0:
192,192,181828,1,0,0:0:0:0:
448,192,181911,1,0,0:0:0:0:
64,192,181995,1,0,0:0:0:0:
192,192,181995,1,0,0:0:0:0:
320,192,182078,1,0,0:0:0:0:
448,192,182161,1,0,0:0:0:0:
64,192,182161,1,0,0:0:0:0:
192,192,182161,1,0,0:0:0:0:
320,192,182245,1,0,0:0:0:0:
448,192,182328,1,0,0:0:0:0:
64,192,182328,1,0,0:0:0:0:
192,192,182411,1,0,0:0:0:0:
320,192,182495,1,0,0:0:0:0:
448,192,182495,1,0,0:0:0:0:
64,192,182495,1,0,0:0:0:0:
192,192,182578,1,0,0:0:0:0:
320,192,182661,1,0,0:0:0:0:
448,192,182661,1,0,0:0:0:0:
64,192,182745,1,0,0:0:0:0:
192,192,182828,1,0,0:0:0:0:
448,192,182828,1,0,0:0:0:0:
320,192,182828,1,0,0:0:0:0:
64,192,182911,1,0,0:0:0:0:
448,192,182995,1,0,0:0:0:0:
192,192,182995,1,0,0:0:0:0:
320,192,183078,1,0,0:0:0:0:
448,192,183161,1,0,0:0:0:0:
64,192,183161,1,0,0:0:0:0:
192,192,183161,1,0,0:0:0:0:
320,192,183245,1,0,0:0:0:0:
448,192,183328,1,0,0:0:0:0:
64,192,183328,1,0,0:0:0:0:
192,192,183411,1,0,0:0:0:0:
448,192,183495,1,0,0:0:0:0:
320,192,183495,1,0,0:0:0:0:
64,192,183495,1,0,0:0:0:0:
192,192,183578,1,0,0:0:0:0:
320,192,183661,1,0,0:0:0:0:
64,192,183661,1,0,0:0:0:0:
448,192,183745,1,0,0:0:0:0:
64,192,183828,1,0,0:0:0:0:
192,192,183828,1,0,0:0:0:0:
320,192,183828,1,0,0:0:0:0:
448,192,183911,1,0,0:0:0:0:
64,192,183995,1,0,0:0:0:0:
320,192,183995,1,0,0:0:0:0:
192,192,183995,1,0,0:0:0:0:
448,192,184078,1,0,0:0:0:0:
64,192,184161,5,0,0:0:0:0:
192,192,184161,1,0,0:0:0:0:
320,192,184161,1,0,0:0:0:0:
448,192,184245,1,0,0:0:0:0:
192,192,184328,1,0,0:0:0:0:
64,192,184328,1,0,0:0:0:0:
320,192,184411,1,0,0:0:0:0:
448,192,184495,1,0,0:0:0:0:
192,192,184495,1,0,0:0:0:0:
64,192,184495,1,0,0:0:0:0:
320,192,184578,1,0,0:0:0:0:
192,192,184661,1,0,0:0:0:0:
448,192,184661,1,0,0:0:0:0:
64,192,184745,1,0,0:0:0:0:
448,192,184828,1,0,0:0:0:0:
320,192,184828,1,0,0:0:0:0:
192,192,184828,1,0,0:0:0:0:
64,192,184911,1,0,0:0:0:0:
320,192,184995,1,0,0:0:0:0:
448,192,184995,1,0,0:0:0:0:
192,192,185078,1,0,0:0:0:0:
448,192,185161,1,0,0:0:0:0:
320,192,185161,1,0,0:0:0:0:
64,192,185161,1,0,0:0:0:0:
192,192,185245,1,0,0:0:0:0:
448,192,185328,1,0,0:0:0:0:
64,192,185328,1,0,0:0:0:0:
320,192,185411,1,0,0:0:0:0:
192,192,185495,1,0,0:0:0:0:
64,192,185495,1,0,0:0:0:0:
448,192,185495,1,0,0:0:0:0:
320,192,185578,1,0,0:0:0:0:
64,192,185661,1,0,0:0:0:0:
448,192,185661,1,0,0:0:0:0:
192,192,185745,1,0,0:0:0:0:
448,192,185828,1,0,0:0:0:0:
64,192,185828,1,0,0:0:0:0:
320,192,185828,1,0,0:0:0:0:
192,192,185911,1,0,0:0:0:0:
448,192,185995,1,0,0:0:0:0:
64,192,185995,1,0,0:0:0:0:
320,192,186078,1,0,0:0:0:0:
448,192,186161,1,0,0:0:0:0:
192,192,186161,1,0,0:0:0:0:
64,192,186161,1,0,0:0:0:0:
320,192,186245,1,0,0:0:0:0:
192,192,186328,1,0,0:0:0:0:
64,192,186328,1,0,0:0:0:0:
320,192,186411,1,0,0:0:0:0:
448,192,186411,1,0,0:0:0:0:
64,192,186495,1,0,0:0:0:0:
192,192,186495,1,0,0:0:0:0:
320,192,186578,1,0,0:0:0:0:
64,192,186661,1,0,0:0:0:0:
192,192,186661,1,0,0:0:0:0:
320,192,186745,1,0,0:0:0:0:
64,192,186828,5,0,0:0:0:0:
448,192,186828,1,0,0:0:0:0:
192,192,186911,1,0,0:0:0:0:
320,192,186995,1,0,0:0:0:0:
448,192,186995,1,0,0:0:0:0:
64,192,187078,1,0,0:0:0:0:
192,192,187161,1,0,0:0:0:0:
448,192,187161,1,0,0:0:0:0:
320,192,187161,1,0,0:0:0:0:
64,192,187245,1,0,0:0:0:0:
448,192,187328,1,0,0:0:0:0:
320,192,187328,1,0,0:0:0:0:
192,192,187411,1,0,0:0:0:0:
64,192,187495,1,0,0:0:0:0:
448,192,187495,1,0,0:0:0:0:
320,192,187495,1,0,0:0:0:0:
192,192,187578,1,0,0:0:0:0:
64,192,187661,1,0,0:0:0:0:
448,192,187661,1,0,0:0:0:0:
320,192,187745,1,0,0:0:0:0:
192,192,187828,1,0,0:0:0:0:
64,192,187828,1,0,0:0:0:0:
448,192,187828,1,0,0:0:0:0:
320,192,187911,1,0,0:0:0:0:
192,192,187995,1,0,0:0:0:0:
64,192,187995,1,0,0:0:0:0:
448,192,188078,1,0,0:0:0:0:
320,192,188161,1,0,0:0:0:0:
64,192,188161,1,0,0:0:0:0:
192,192,188161,1,0,0:0:0:0:
448,192,188245,1,0,0:0:0:0:
64,192,188328,1,0,0:0:0:0:
320,192,188328,1,0,0:0:0:0:
192,192,188411,1,0,0:0:0:0:
64,192,188495,1,0,0:0:0:0:
448,192,188495,1,0,0:0:0:0:
320,192,188495,1,0,0:0:0:0:
192,192,188578,1,0,0:0:0:0:
64,192,188661,1,0,0:0:0:0:
448,192,188661,1,0,0:0:0:0:
320,192,188745,1,0,0:0:0:0:
64,192,188828,1,0,0:0:0:0:
192,192,188828,1,0,0:0:0:0:
448,192,188828,1,0,0:0:0:0:
320,192,188911,1,0,0:0:0:0:
192,192,188995,1,0,0:0:0:0:
448,192,188995,1,0,0:0:0:0:
64,192,189078,1,0,0:0:0:0:
448,192,189161,1,0,0:0:0:0:
320,192,189161,1,0,0:0:0:0:
192,192,189161,1,0,0:0:0:0:
64,192,189245,1,0,0:0:0:0:
448,192,189328,1,0,0:0:0:0:
192,192,189328,1,0,0:0:0:0:
320,192,189328,1,0,0:0:0:0:
64,192,189411,1,0,0:0:0:0:
448,192,189495,5,0,0:0:0:0:
320,192,189495,1,0,0:0:0:0:
192,192,189495,1,0,0:0:0:0:
64,192,189578,1,0,0:0:0:0:
320,192,189661,1,0,0:0:0:0:
448,192,189661,1,0,0:0:0:0:
192,192,189745,1,0,0:0:0:0:
64,192,189828,1,0,0:0:0:0:
320,192,189828,1,0,0:0:0:0:
448,192,189828,1,0,0:0:0:0:
192,192,189911,1,0,0:0:0:0:
320,192,189995,1,0,0:0:0:0:
64,192,189995,1,0,0:0:0:0:
448,192,190078,1,0,0:0:0:0:
64,192,190161,1,0,0:0:0:0:
192,192,190161,1,0,0:0:0:0:
320,192,190161,1,0,0:0:0:0:
448,192,190245,1,0,0:0:0:0:
192,192,190328,1,0,0:0:0:0:
64,192,190328,1,0,0:0:0:0:
320,192,190411,1,0,0:0:0:0:
64,192,190495,1,0,0:0:0:0:
192,192,190495,1,0,0:0:0:0:
448,192,190495,1,0,0:0:0:0:
320,192,190578,1,0,0:0:0:0:
64,192,190661,1,0,0:0:0:0:
448,192,190661,1,0,0:0:0:0:
192,192,190745,1,0,0:0:0:0:
320,192,190828,1,0,0:0:0:0:
448,192,190828,1,0,0:0:0:0:
64,192,190828,1,0,0:0:0:0:
192,192,190911,1,0,0:0:0:0:
448,192,190995,1,0,0:0:0:0:
320,192,190995,1,0,0:0:0:0:
64,192,191078,1,0,0:0:0:0:
192,192,191078,1,0,0:0:0:0:
320,192,191161,1,0,0:0:0:0:
448,192,191161,1,0,0:0:0:0:
192,192,191245,1,0,0:0:0:0:
320,192,191328,1,0,0:0:0:0:
448,192,191328,1,0,0:0:0:0:
192,192,191411,1,0,0:0:0:0:
448,192,191495,128,0,192161:0:0:0:0:
64,192,191495,128,0,192161:0:0:0:0:
320,192,191495,128,0,191661:0:0:0:0:
192,192,191661,128,0,191828:0:0:0:0:
320,192,191828,128,0,191995:0:0:0:0:
192,192,191995,128,0,192161:0:0:0:0:
320,192,192161,1,0,0:0:0:0:
192,192,192245,1,0,0:0:0:0:
448,192,192328,1,0,0:0:0:0:
320,192,192328,1,0,0:0:0:0:
64,192,192411,1,0,0:0:0:0:
320,192,192495,1,0,0:0:0:0:
448,192,192495,1,0,0:0:0:0:
192,192,192495,1,0,0:0:0:0:
64,192,192578,1,0,0:0:0:0:
320,192,192661,1,0,0:0:0:0:
448,192,192661,1,0,0:0:0:0:
192,192,192745,1,0,0:0:0:0:
320,192,192828,1,0,0:0:0:0:
448,192,192828,1,0,0:0:0:0:
64,192,192828,1,0,0:0:0:0:
192,192,192911,1,0,0:0:0:0:
448,192,192995,1,0,0:0:0:0:
64,192,192995,1,0,0:0:0:0:
320,192,193078,1,0,0:0:0:0:
448,192,193161,1,0,0:0:0:0:
64,192,193161,1,0,0:0:0:0:
192,192,193161,1,0,0:0:0:0:
320,192,193245,1,0,0:0:0:0:
64,192,193328,1,0,0:0:0:0:
192,192,193328,1,0,0:0:0:0:
448,192,193411,1,0,0:0:0:0:
192,192,193495,1,0,0:0:0:0:
64,192,193495,1,0,0:0:0:0:
320,192,193495,1,0,0:0:0:0:
448,192,193578,1,0,0:0:0:0:
320,192,193661,1,0,0:0:0:0:
64,192,193661,1,0,0:0:0:0:
192,192,193745,1,0,0:0:0:0:
320,192,193828,1,0,0:0:0:0:
448,192,193828,1,0,0:0:0:0:
64,192,193828,1,0,0:0:0:0:
192,192,193911,1,0,0:0:0:0:
448,192,193995,1,0,0:0:0:0:
64,192,193995,1,0,0:0:0:0:
320,192,194078,1,0,0:0:0:0:
448,192,194161,1,0,0:0:0:0:
192,192,194161,1,0,0:0:0:0:
64,192,194161,1,0,0:0:0:0:
320,192,194245,1,0,0:0:0:0:
448,192,194328,1,0,0:0:0:0:
192,192,194328,1,0,0:0:0:0:
64,192,194411,1,0,0:0:0:0:
192,192,194495,1,0,0:0:0:0:
320,192,194495,1,0,0:0:0:0:
448,192,194495,1,0,0:0:0:0:
64,192,194578,1,0,0:0:0:0:
320,192,194661,1,0,0:0:0:0:
192,192,194661,1,0,0:0:0:0:
448,192,194661,1,0,0:0:0:0:
64,192,194745,1,0,0:0:0:0:
448,192,194828,5,0,0:0:0:0:
192,192,194828,1,0,0:0:0:0:
320,192,194828,1,0,0:0:0:0:
64,192,194911,1,0,0:0:0:0:
448,192,194995,1,0,0:0:0:0:
320,192,194995,1,0,0:0:0:0:
192,192,195078,1,0,0:0:0:0:
448,192,195161,1,0,0:0:0:0:
320,192,195161,1,0,0:0:0:0:
64,192,195161,1,0,0:0:0:0:
192,192,195245,1,0,0:0:0:0:
64,192,195328,1,0,0:0:0:0:
320,192,195328,1,0,0:0:0:0:
448,192,195411,1,0,0:0:0:0:
320,192,195495,1,0,0:0:0:0:
192,192,195495,1,0,0:0:0:0:
64,192,195495,1,0,0:0:0:0:
448,192,195578,1,0,0:0:0:0:
64,192,195661,1,0,0:0:0:0:
192,192,195661,1,0,0:0:0:0:
320,192,195745,1,0,0:0:0:0:
448,192,195828,1,0,0:0:0:0:
192,192,195828,1,0,0:0:0:0:
64,192,195828,1,0,0:0:0:0:
320,192,195911,1,0,0:0:0:0:
448,192,195995,1,0,0:0:0:0:
64,192,195995,1,0,0:0:0:0:
192,192,196078,1,0,0:0:0:0:
64,192,196161,1,0,0:0:0:0:
448,192,196161,1,0,0:0:0:0:
320,192,196161,1,0,0:0:0:0:
192,192,196245,1,0,0:0:0:0:
64,192,196328,1,0,0:0:0:0:
448,192,196328,1,0,0:0:0:0:
320,192,196411,1,0,0:0:0:0:
192,192,196495,1,0,0:0:0:0:
448,192,196495,1,0,0:0:0:0:
64,192,196495,1,0,0:0:0:0:
320,192,196578,1,0,0:0:0:0:
448,192,196661,1,0,0:0:0:0:
64,192,196661,1,0,0:0:0:0:
192,192,196745,1,0,0:0:0:0:
448,192,196828,1,0,0:0:0:0:
320,192,196828,1,0,0:0:0:0:
64,192,196828,1,0,0:0:0:0:
192,192,196911,1,0,0:0:0:0:
448,192,196995,1,0,0:0:0:0:
320,192,196995,1,0,0:0:0:0:
64,192,197078,1,0,0:0:0:0:
192,192,197078,1,0,0:0:0:0:
320,192,197161,1,0,0:0:0:0:
448,192,197161,1,0,0:0:0:0:
192,192,197245,1,0,0:0:0:0:
320,192,197328,1,0,0:0:0:0:
448,192,197328,1,0,0:0:0:0:
192,192,197411,1,0,0:0:0:0:
448,192,197495,5,0,0:0:0:0:
64,192,197495,1,0,0:0:0:0:
320,192,197578,1,0,0:0:0:0:
64,192,197661,1,0,0:0:0:0:
192,192,197661,1,0,0:0:0:0:
448,192,197745,1,0,0:0:0:0:
192,192,197828,1,0,0:0:0:0:
64,192,197828,1,0,0:0:0:0:
320,192,197828,1,0,0:0:0:0:
448,192,197911,1,0,0:0:0:0:
192,192,197995,1,0,0:0:0:0:
64,192,197995,1,0,0:0:0:0:
320,192,198078,1,0,0:0:0:0:
192,192,198161,1,0,0:0:0:0:
64,192,198161,1,0,0:0:0:0:
448,192,198161,1,0,0:0:0:0:
320,192,198245,1,0,0:0:0:0:
64,192,198328,1,0,0:0:0:0:
448,192,198328,1,0,0:0:0:0:
192,192,198411,1,0,0:0:0:0:
64,192,198495,1,0,0:0:0:0:
448,192,198495,1,0,0:0:0:0:
320,192,198495,1,0,0:0:0:0:
192,192,198578,1,0,0:0:0:0:
448,192,198661,1,0,0:0:0:0:
320,192,198661,1,0,0:0:0:0:
64,192,198745,1,0,0:0:0:0:
320,192,198828,1,0,0:0:0:0:
448,192,198828,1,0,0:0:0:0:
192,192,198828,1,0,0:0:0:0:
64,192,198911,1,0,0:0:0:0:
192,192,198995,1,0,0:0:0:0:
448,192,198995,1,0,0:0:0:0:
320,192,199078,1,0,0:0:0:0:
192,192,199161,1,0,0:0:0:0:
64,192,199161,1,0,0:0:0:0:
448,192,199161,1,0,0:0:0:0:
320,192,199245,1,0,0:0:0:0:
64,192,199328,1,0,0:0:0:0:
448,192,199328,1,0,0:0:0:0:
192,192,199411,1,0,0:0:0:0:
64,192,199495,1,0,0:0:0:0:
320,192,199495,1,0,0:0:0:0:
448,192,199495,1,0,0:0:0:0:
192,192,199578,1,0,0:0:0:0:
64,192,199661,1,0,0:0:0:0:
320,192,199661,1,0,0:0:0:0:
448,192,199745,1,0,0:0:0:0:
320,192,199828,1,0,0:0:0:0:
192,192,199828,1,0,0:0:0:0:
64,192,199828,1,0,0:0:0:0:
448,192,199911,1,0,0:0:0:0:
192,192,199995,1,0,0:0:0:0:
320,192,199995,1,0,0:0:0:0:
64,192,199995,1,0,0:0:0:0:
448,192,200078,1,0,0:0:0:0:
64,192,200161,5,0,0:0:0:0:
320,192,200161,1,0,0:0:0:0:
192,192,200161,1,0,0:0:0:0:
448,192,200245,1,0,0:0:0:0:
64,192,200328,1,0,0:0:0:0:
192,192,200328,1,0,0:0:0:0:
320,192,200411,1,0,0:0:0:0:
64,192,200495,1,0,0:0:0:0:
192,192,200495,1,0,0:0:0:0:
448,192,200495,1,0,0:0:0:0:
320,192,200578,1,0,0:0:0:0:
448,192,200661,1,0,0:0:0:0:
192,192,200661,1,0,0:0:0:0:
64,192,200745,1,0,0:0:0:0:
192,192,200828,1,0,0:0:0:0:
320,192,200828,1,0,0:0:0:0:
448,192,200828,1,0,0:0:0:0:
64,192,200911,1,0,0:0:0:0:
448,192,200995,1,0,0:0:0:0:
320,192,200995,1,0,0:0:0:0:
192,192,201078,1,0,0:0:0:0:
64,192,201161,1,0,0:0:0:0:
320,192,201161,1,0,0:0:0:0:
448,192,201161,1,0,0:0:0:0:
192,192,201245,1,0,0:0:0:0:
64,192,201328,1,0,0:0:0:0:
448,192,201328,1,0,0:0:0:0:
320,192,201411,1,0,0:0:0:0:
448,192,201495,1,0,0:0:0:0:
192,192,201495,128,0,202161:0:0:0:0:
64,192,201495,128,0,202161:0:0:0:0:
320,192,201661,1,0,0:0:0:0:
320,192,201828,1,0,0:0:0:0:
448,192,201828,1,0,0:0:0:0:
448,192,201995,1,0,0:0:0:0:
448,192,202161,1,0,0:0:0:0:
320,192,202161,1,0,0:0:0:0:
192,192,202245,1,0,0:0:0:0:
64,192,202328,1,0,0:0:0:0:
320,192,202411,1,0,0:0:0:0:
448,192,202495,128,0,202828:0:0:0:0:
64,192,202495,128,0,202828:0:0:0:0:
192,192,202495,1,0,0:0:0:0:
320,192,202828,1,0,0:0:0:0:
192,192,202828,1,0,0:0:0:0:
64,192,202911,1,0,0:0:0:0:
448,192,202995,1,0,0:0:0:0:
192,192,202995,1,0,0:0:0:0:
320,192,203078,1,0,0:0:0:0:
448,192,203161,1,0,0:0:0:0:
192,192,203161,1,0,0:0:0:0:
64,192,203161,1,0,0:0:0:0:
320,192,203245,1,0,0:0:0:0:
64,192,203328,1,0,0:0:0:0:
448,192,203328,1,0,0:0:0:0:
192,192,203411,1,0,0:0:0:0:
320,192,203495,1,0,0:0:0:0:
448,192,203495,1,0,0:0:0:0:
64,192,203495,1,0,0:0:0:0:
192,192,203578,1,0,0:0:0:0:
320,192,203661,1,0,0:0:0:0:
448,192,203661,1,0,0:0:0:0:
64,192,203745,1,0,0:0:0:0:
192,192,203828,1,0,0:0:0:0:
320,192,203828,1,0,0:0:0:0:
448,192,203828,1,0,0:0:0:0:
64,192,203911,1,0,0:0:0:0:
192,192,203995,1,0,0:0:0:0:
448,192,203995,1,0,0:0:0:0:
320,192,204078,1,0,0:0:0:0:
448,192,204161,1,0,0:0:0:0:
192,192,204161,1,0,0:0:0:0:
64,192,204161,1,0,0:0:0:0:
320,192,204245,1,0,0:0:0:0:
64,192,204328,1,0,0:0:0:0:
448,192,204328,1,0,0:0:0:0:
192,192,204411,1,0,0:0:0:0:
320,192,204495,1,0,0:0:0:0:
448,192,204495,1,0,0:0:0:0:
64,192,204495,1,0,0:0:0:0:
192,192,204578,1,0,0:0:0:0:
64,192,204661,1,0,0:0:0:0:
448,192,204661,1,0,0:0:0:0:
320,192,204745,1,0,0:0:0:0:
64,192,204828,1,0,0:0:0:0:
448,192,204828,1,0,0:0:0:0:
192,192,204828,1,0,0:0:0:0:
320,192,204911,1,0,0:0:0:0:
192,192,204995,1,0,0:0:0:0:
64,192,204995,1,0,0:0:0:0:
448,192,205078,1,0,0:0:0:0:
320,192,205161,1,0,0:0:0:0:
192,192,205161,1,0,0:0:0:0:
64,192,205161,1,0,0:0:0:0:
448,192,205245,1,0,0:0:0:0:
320,192,205328,1,0,0:0:0:0:
192,192,205328,1,0,0:0:0:0:
448,192,205411,1,0,0:0:0:0:
320,192,205495,1,0,0:0:0:0:
192,192,205495,1,0,0:0:0:0:
64,192,205495,1,0,0:0:0:0:
448,192,205578,1,0,0:0:0:0:
64,192,205661,1,0,0:0:0:0:
192,192,205661,1,0,0:0:0:0:
320,192,205745,1,0,0:0:0:0:
448,192,205828,1,0,0:0:0:0:
192,192,205828,1,0,0:0:0:0:
64,192,205828,1,0,0:0:0:0:
320,192,205911,1,0,0:0:0:0:
448,192,205995,1,0,0:0:0:0:
192,192,205995,1,0,0:0:0:0:
320,192,206078,1,0,0:0:0:0:
448,192,206161,1,0,0:0:0:0:
192,192,206161,1,0,0:0:0:0:
64,192,206161,1,0,0:0:0:0:
320,192,206245,1,0,0:0:0:0:
192,192,206328,1,0,0:0:0:0:
64,192,206328,1,0,0:0:0:0:
320,192,206411,1,0,0:0:0:0:
192,192,206495,1,0,0:0:0:0:
64,192,206495,1,0,0:0:0:0:
448,192,206495,1,0,0:0:0:0:
320,192,206578,1,0,0:0:0:0:
448,192,206661,1,0,0:0:0:0:
192,192,206661,1,0,0:0:0:0:
64,192,206745,1,0,0:0:0:0:
192,192,206828,1,0,0:0:0:0:
320,192,206828,1,0,0:0:0:0:
448,192,206828,1,0,0:0:0:0:
64,192,206911,1,0,0:0:0:0:
192,192,206995,5,0,0:0:0:0:
448,192,206995,1,0,0:0:0:0:
320,192,207078,1,0,0:0:0:0:
448,192,207161,1,0,0:0:0:0:
192,192,207161,1,0,0:0:0:0:
64,192,207161,1,0,0:0:0:0:
320,192,207245,1,0,0:0:0:0:
448,192,207328,1,0,0:0:0:0:
64,192,207328,1,0,0:0:0:0:
192,192,207411,1,0,0:0:0:0:
320,192,207495,1,0,0:0:0:0:
448,192,207495,1,0,0:0:0:0:
64,192,207495,1,0,0:0:0:0:
192,192,207578,1,0,0:0:0:0:
320,192,207661,1,0,0:0:0:0:
448,192,207661,1,0,0:0:0:0:
192,192,207745,1,0,0:0:0:0:
64,192,207745,1,0,0:0:0:0:
320,192,207828,1,0,0:0:0:0:
448,192,207828,1,0,0:0:0:0:
192,192,207911,1,0,0:0:0:0:
320,192,207995,1,0,0:0:0:0:
448,192,207995,1,0,0:0:0:0:
192,192,208078,1,0,0:0:0:0:
320,192,208161,1,0,0:0:0:0:
448,192,208161,1,0,0:0:0:0:
64,192,208161,1,0,0:0:0:0:
192,192,208245,1,0,0:0:0:0:
64,192,208328,1,0,0:0:0:0:
448,192,208328,1,0,0:0:0:0:
320,192,208411,1,0,0:0:0:0:
192,192,208495,1,0,0:0:0:0:
64,192,208495,1,0,0:0:0:0:
448,192,208495,1,0,0:0:0:0:
320,192,208578,1,0,0:0:0:0:
192,192,208661,1,0,0:0:0:0:
64,192,208661,1,0,0:0:0:0:
320,192,208745,1,0,0:0:0:0:
192,192,208828,1,0,0:0:0:0:
64,192,208828,1,0,0:0:0:0:
448,192,208828,1,0,0:0:0:0:
320,192,208911,1,0,0:0:0:0:
448,192,208995,1,0,0:0:0:0:
64,192,208995,1,0,0:0:0:0:
192,192,209078,1,0,0:0:0:0:
320,192,209161,1,0,0:0:0:0:
448,192,209161,1,0,0:0:0:0:
64,192,209161,1,0,0:0:0:0:
192,192,209245,1,0,0:0:0:0:
320,192,209328,1,0,0:0:0:0:
448,192,209328,1,0,0:0:0:0:
192,192,209411,1,0,0:0:0:0:
64,192,209495,1,0,0:0:0:0:
320,192,209495,1,0,0:0:0:0:
448,192,209495,1,0,0:0:0:0:
192,192,209578,1,0,0:0:0:0:
64,192,209661,1,0,0:0:0:0:
448,192,209661,1,0,0:0:0:0:
320,192,209745,1,0,0:0:0:0:
192,192,209828,1,0,0:0:0:0:
64,192,209828,1,0,0:0:0:0:
448,192,209828,1,0,0:0:0:0:
320,192,209911,1,0,0:0:0:0:
448,192,209995,1,0,0:0:0:0:
192,192,209995,1,0,0:0:0:0:
320,192,210078,1,0,0:0:0:0:
448,192,210161,1,0,0:0:0:0:
192,192,210161,1,0,0:0:0:0:
64,192,210161,1,0,0:0:0:0:
320,192,210245,1,0,0:0:0:0:
64,192,210328,1,0,0:0:0:0:
448,192,210328,1,0,0:0:0:0:
192,192,210411,1,0,0:0:0:0:
320,192,210495,1,0,0:0:0:0:
448,192,210495,1,0,0:0:0:0:
64,192,210495,1,0,0:0:0:0:
192,192,210578,1,0,0:0:0:0:
320,192,210661,1,0,0:0:0:0:
448,192,210661,1,0,0:0:0:0:
192,192,210745,1,0,0:0:0:0:
320,192,210828,1,0,0:0:0:0:
448,192,210828,1,0,0:0:0:0:
64,192,210828,1,0,0:0:0:0:
192,192,210911,1,0,0:0:0:0:
64,192,210995,1,0,0:0:0:0:
448,192,210995,1,0,0:0:0:0:
320,192,211078,1,0,0:0:0:0:
192,192,211161,1,0,0:0:0:0:
64,192,211161,1,0,0:0:0:0:
448,192,211161,1,0,0:0:0:0:
320,192,211245,1,0,0:0:0:0:
192,192,211328,1,0,0:0:0:0:
64,192,211328,1,0,0:0:0:0:
320,192,211411,1,0,0:0:0:0:
192,192,211495,1,0,0:0:0:0:
64,192,211495,1,0,0:0:0:0:
448,192,211495,1,0,0:0:0:0:
320,192,211578,1,0,0:0:0:0:
192,192,211661,1,0,0:0:0:0:
448,192,211661,1,0,0:0:0:0:
64,192,211745,1,0,0:0:0:0:
192,192,211828,1,0,0:0:0:0:
320,192,211828,1,0,0:0:0:0:
448,192,211828,1,0,0:0:0:0:
64,192,211911,1,0,0:0:0:0:
320,192,211995,1,0,0:0:0:0:
448,192,211995,1,0,0:0:0:0:
192,192,212078,1,0,0:0:0:0:
64,192,212161,1,0,0:0:0:0:
320,192,212161,1,0,0:0:0:0:
448,192,212161,1,0,0:0:0:0:
192,192,212245,1,0,0:0:0:0:
320,192,212328,1,0,0:0:0:0:
448,192,212328,1,0,0:0:0:0:
192,192,212411,1,0,0:0:0:0:
64,192,212411,1,0,0:0:0:0:
320,192,212495,1,0,0:0:0:0:
448,192,212495,1,0,0:0:0:0:
192,192,212578,1,0,0:0:0:0:
320,192,212661,1,0,0:0:0:0:
448,192,212661,1,0,0:0:0:0:
192,192,212745,1,0,0:0:0:0:
448,192,212828,128,0,213495:0:0:0:0:
320,192,212828,128,0,212995:0:0:0:0:
64,192,212828,128,0,213495:0:0:0:0:
192,192,212995,128,0,213161:0:0:0:0:
320,192,213161,128,0,213328:0:0:0:0:
192,192,213328,128,0,213495:0:0:0:0:
320,192,213495,1,0,0:0:0:0:
448,192,213578,1,0,0:0:0:0:
64,192,213661,1,0,0:0:0:0:
320,192,213661,1,0,0:0:0:0:
192,192,213745,1,0,0:0:0:0:
64,192,213828,1,0,0:0:0:0:
320,192,213828,1,0,0:0:0:0:
448,192,213828,1,0,0:0:0:0:
192,192,213911,1,0,0:0:0:0:
448,192,213995,1,0,0:0:0:0:
64,192,213995,1,0,0:0:0:0:
320,192,214078,1,0,0:0:0:0:
192,192,214161,1,0,0:0:0:0:
64,192,214161,1,0,0:0:0:0:
448,192,214161,1,0,0:0:0:0:
320,192,214245,1,0,0:0:0:0:
192,192,214328,1,0,0:0:0:0:
64,192,214328,1,0,0:0:0:0:
448,192,214411,1,0,0:0:0:0:
320,192,214495,1,0,0:0:0:0:
192,192,214495,1,0,0:0:0:0:
64,192,214495,1,0,0:0:0:0:
448,192,214578,1,0,0:0:0:0:
320,192,214661,1,0,0:0:0:0:
64,192,214661,1,0,0:0:0:0:
192,192,214745,1,0,0:0:0:0:
64,192,214828,1,0,0:0:0:0:
320,192,214828,1,0,0:0:0:0:
448,192,214828,1,0,0:0:0:0:
192,192,214911,1,0,0:0:0:0:
448,192,214995,1,0,0:0:0:0:
64,192,214995,1,0,0:0:0:0:
320,192,215078,1,0,0:0:0:0:
192,192,215161,1,0,0:0:0:0:
64,192,215161,1,0,0:0:0:0:
448,192,215161,1,0,0:0:0:0:
320,192,215245,1,0,0:0:0:0:
448,192,215328,1,0,0:0:0:0:
64,192,215328,1,0,0:0:0:0:
192,192,215411,1,0,0:0:0:0:
448,192,215495,1,0,0:0:0:0:
64,192,215495,1,0,0:0:0:0:
320,192,215495,1,0,0:0:0:0:
192,192,215578,1,0,0:0:0:0:
320,192,215661,1,0,0:0:0:0:
448,192,215661,1,0,0:0:0:0:
64,192,215745,1,0,0:0:0:0:
192,192,215828,1,0,0:0:0:0:
320,192,215828,1,0,0:0:0:0:
448,192,215828,1,0,0:0:0:0:
64,192,215911,1,0,0:0:0:0:
192,192,215995,1,0,0:0:0:0:
320,192,215995,1,0,0:0:0:0:
64,192,216078,1,0,0:0:0:0:
192,192,216161,1,0,0:0:0:0:
320,192,216161,1,0,0:0:0:0:
448,192,216161,1,0,0:0:0:0:
64,192,216245,1,0,0:0:0:0:
448,192,216328,1,0,0:0:0:0:
320,192,216328,1,0,0:0:0:0:
192,192,216411,1,0,0:0:0:0:
64,192,216495,1,0,0:0:0:0:
320,192,216495,1,0,0:0:0:0:
448,192,216495,1,0,0:0:0:0:
192,192,216578,1,0,0:0:0:0:
64,192,216661,1,0,0:0:0:0:
320,192,216661,1,0,0:0:0:0:
192,192,216745,1,0,0:0:0:0:
64,192,216828,1,0,0:0:0:0:
320,192,216828,1,0,0:0:0:0:
448,192,216828,1,0,0:0:0:0:
192,192,216911,1,0,0:0:0:0:
320,192,216995,1,0,0:0:0:0:
448,192,216995,1,0,0:0:0:0:
192,192,217078,1,0,0:0:0:0:
320,192,217161,1,0,0:0:0:0:
448,192,217161,1,0,0:0:0:0:
64,192,217161,1,0,0:0:0:0:
192,192,217245,1,0,0:0:0:0:
64,192,217328,1,0,0:0:0:0:
320,192,217328,1,0,0:0:0:0:
448,192,217411,1,0,0:0:0:0:
320,192,217495,1,0,0:0:0:0:
192,192,217495,1,0,0:0:0:0:
64,192,217495,1,0,0:0:0:0:
448,192,217578,1,0,0:0:0:0:
320,192,217661,5,0,0:0:0:0:
64,192,217661,1,0,0:0:0:0:
192,192,217745,1,0,0:0:0:0:
64,192,217828,1,0,0:0:0:0:
320,192,217828,1,0,0:0:0:0:
448,192,217828,1,0,0:0:0:0:
192,192,217911,1,0,0:0:0:0:
64,192,217995,1,0,0:0:0:0:
448,192,217995,1,0,0:0:0:0:
320,192,218078,1,0,0:0:0:0:
192,192,218161,1,0,0:0:0:0:
64,192,218161,1,0,0:0:0:0:
448,192,218161,1,0,0:0:0:0:
320,192,218245,1,0,0:0:0:0:
192,192,218328,1,0,0:0:0:0:
64,192,218328,1,0,0:0:0:0:
320,192,218411,1,0,0:0:0:0:
448,192,218411,1,0,0:0:0:0:
192,192,218495,1,0,0:0:0:0:
64,192,218495,1,0,0:0:0:0:
320,192,218578,1,0,0:0:0:0:
192,192,218661,1,0,0:0:0:0:
64,192,218661,1,0,0:0:0:0:
320,192,218745,1,0,0:0:0:0:
192,192,218828,1,0,0:0:0:0:
64,192,218828,1,0,0:0:0:0:
448,192,218828,1,0,0:0:0:0:
448,192,218995,1,0,0:0:0:0:
320,192,218995,1,0,0:0:0:0:
320,192,219161,1,0,0:0:0:0:
192,192,219161,1,0,0:0:0:0:
64,192,219161,1,0,0:0:0:0:
192,192,219328,1,0,0:0:0:0:
64,192,219328,1,0,0:0:0:0:
448,192,219495,1,0,0:0:0:0:
320,192,219495,1,0,0:0:0:0:
64,192,219495,1,0,0:0:0:0:
192,192,219661,1,0,0:0:0:0:
320,192,219661,1,0,0:0:0:0:
192,192,219828,1,0,0:0:0:0:
64,192,219828,1,0,0:0:0:0:
448,192,219828,1,0,0:0:0:0:
320,192,219995,1,0,0:0:0:0:
64,192,219995,1,0,0:0:0:0:
448,192,220161,1,0,0:0:0:0:
320,192,220161,1,0,0:0:0:0:
192,192,220161,1,0,0:0:0:0:
64,192,220328,1,0,0:0:0:0:
192,192,220328,1,0,0:0:0:0:
320,192,220328,1,0,0:0:0:0:
448,192,220495,1,0,0:0:0:0:
320,192,220495,1,0,0:0:0:0:
192,192,220495,1,0,0:0:0:0:
64,192,220661,1,0,0:0:0:0:
192,192,220661,1,0,0:0:0:0:
320,192,220661,1,0,0:0:0:0:
448,192,220828,1,0,0:0:0:0:
320,192,220828,1,0,0:0:0:0:
64,192,220828,1,0,0:0:0:0:
64,192,220995,1,0,0:0:0:0:
192,192,220995,1,0,0:0:0:0:
448,192,220995,1,0,0:0:0:0:
448,192,221161,1,0,0:0:0:0:
320,192,221161,1,0,0:0:0:0:
192,192,221161,1,0,0:0:0:0:
64,192,221328,1,0,0:0:0:0:
192,192,221328,1,0,0:0:0:0:
320,192,221328,1,0,0:0:0:0:
320,192,221495,1,0,0:0:0:0:
448,192,221495,1,0,0:0:0:0:
320,192,221661,1,0,0:0:0:0:
192,192,221661,1,0,0:0:0:0:
192,192,221828,1,0,0:0:0:0:
64,192,221828,1,0,0:0:0:0:
64,192,221995,1,0,0:0:0:0:
448,192,221995,1,0,0:0:0:0:
448,192,222161,1,0,0:0:0:0:
320,192,222161,1,0,0:0:0:0:
192,192,222245,1,0,0:0:0:0:
64,192,222245,1,0,0:0:0:0:
320,192,222328,1,0,0:0:0:0:
448,192,222328,1,0,0:0:0:0:
192,192,222411,1,0,0:0:0:0:
64,192,222411,1,0,0:0:0:0:
448,192,222495,1,0,0:0:0:0:
320,192,222536,1,0,0:0:0:0:
64,192,222578,1,0,0:0:0:0:
192,192,222620,1,0,0:0:0:0:
448,192,222661,1,0,0:0:0:0:
320,192,222703,1,0,0:0:0:0:
64,192,222745,1,0,0:0:0:0:
192,192,222786,1,0,0:0:0:0:
448,192,222828,128,0,222995:0:0:0:0:
320,192,222828,128,0,222995:0:0:0:0:
64,192,222828,128,0,222995:0:0:0:0:
320,192,223161,128,0,223411:0:0:0:0:
448,192,223161,128,0,223411:0:0:0:0:
192,192,223245,1,0,0:0:0:0:
64,192,223328,1,0,0:0:0:0:
192,192,223411,1,0,0:0:0:0:
320,192,223495,128,0,223745:0:0:0:0:
448,192,223495,128,0,223745:0:0:0:0:
192,192,223578,1,0,0:0:0:0:
64,192,223661,1,0,0:0:0:0:
192,192,223745,1,0,0:0:0:0:
320,192,223828,128,0,224078:0:0:0:0:
448,192,223828,128,0,224078:0:0:0:0:
192,192,223911,1,0,0:0:0:0:
64,192,223995,1,0,0:0:0:0:
192,192,224078,1,0,0:0:0:0:
64,192,224161,1,0,0:0:0:0:
448,192,224161,1,0,0:0:0:0:
320,192,224245,1,0,0:0:0:0:
192,192,224328,1,0,0:0:0:0:
64,192,224328,1,0,0:0:0:0:
448,192,224411,1,0,0:0:0:0:
320,192,224495,1,0,0:0:0:0:
64,192,224495,1,0,0:0:0:0:
192,192,224578,1,0,0:0:0:0:
448,192,224661,1,0,0:0:0:0:
64,192,224661,1,0,0:0:0:0:
320,192,224745,1,0,0:0:0:0:
64,192,224828,1,0,0:0:0:0:
448,192,224828,1,0,0:0:0:0:
192,192,224911,1,0,0:0:0:0:
320,192,224995,1,0,0:0:0:0:
64,192,224995,1,0,0:0:0:0:
448,192,225078,1,0,0:0:0:0:
64,192,225161,1,0,0:0:0:0:
192,192,225161,1,0,0:0:0:0:
320,192,225245,1,0,0:0:0:0:
448,192,225328,1,0,0:0:0:0:
64,192,225328,1,0,0:0:0:0:
192,192,225411,1,0,0:0:0:0:
320,192,225495,1,0,0:0:0:0:
448,192,225495,1,0,0:0:0:0:
192,192,225578,1,0,0:0:0:0:
64,192,225661,1,0,0:0:0:0:
448,192,225661,1,0,0:0:0:0:
320,192,225745,1,0,0:0:0:0:
64,192,225828,1,0,0:0:0:0:
192,192,225828,1,0,0:0:0:0:
320,192,225911,1,0,0:0:0:0:
448,192,225995,1,0,0:0:0:0:
64,192,225995,1,0,0:0:0:0:
192,192,226078,1,0,0:0:0:0:
320,192,226161,1,0,0:0:0:0:
448,192,226161,1,0,0:0:0:0:
192,192,226245,1,0,0:0:0:0:
64,192,226328,1,0,0:0:0:0:
448,192,226328,1,0,0:0:0:0:
320,192,226411,1,0,0:0:0:0:
64,192,226495,1,0,0:0:0:0:
192,192,226495,1,0,0:0:0:0:
320,192,226578,1,0,0:0:0:0:
64,192,226661,1,0,0:0:0:0:
192,192,226661,1,0,0:0:0:0:
320,192,226745,1,0,0:0:0:0:
64,192,226828,1,0,0:0:0:0:
192,192,226828,1,0,0:0:0:0:
320,192,226911,1,0,0:0:0:0:
448,192,226995,1,0,0:0:0:0:
192,192,226995,1,0,0:0:0:0:
320,192,227078,1,0,0:0:0:0:
64,192,227161,1,0,0:0:0:0:
192,192,227161,1,0,0:0:0:0:
320,192,227245,1,0,0:0:0:0:
448,192,227328,1,0,0:0:0:0:
192,192,227328,1,0,0:0:0:0:
320,192,227411,1,0,0:0:0:0:
64,192,227495,1,0,0:0:0:0:
192,192,227495,1,0,0:0:0:0:
320,192,227578,1,0,0:0:0:0:
448,192,227661,1,0,0:0:0:0:
64,192,227661,1,0,0:0:0:0:
192,192,227745,1,0,0:0:0:0:
320,192,227828,1,0,0:0:0:0:
64,192,227828,1,0,0:0:0:0:
448,192,227911,1,0,0:0:0:0:
64,192,227995,1,0,0:0:0:0:
192,192,227995,1,0,0:0:0:0:
320,192,228078,1,0,0:0:0:0:
448,192,228161,1,0,0:0:0:0:
192,192,228161,1,0,0:0:0:0:
64,192,228245,1,0,0:0:0:0:
320,192,228328,1,0,0:0:0:0:
448,192,228328,1,0,0:0:0:0:
192,192,228411,1,0,0:0:0:0:
64,192,228495,1,0,0:0:0:0:
448,192,228495,1,0,0:0:0:0:
320,192,228578,1,0,0:0:0:0:
192,192,228661,1,0,0:0:0:0:
64,192,228661,1,0,0:0:0:0:
448,192,228745,1,0,0:0:0:0:
320,192,228828,1,0,0:0:0:0:
192,192,228828,1,0,0:0:0:0:
448,192,228911,1,0,0:0:0:0:
64,192,228995,1,0,0:0:0:0:
192,192,228995,1,0,0:0:0:0:
320,192,229078,1,0,0:0:0:0:
448,192,229078,1,0,0:0:0:0:
64,192,229161,128,0,229495:0:0:0:0:
192,192,229161,128,0,229495:0:0:0:0:
320,192,229495,1,0,0:0:0:0:
448,192,229495,1,0,0:0:0:0:
192,192,229578,1,0,0:0:0:0:
64,192,229661,1,0,0:0:0:0:
448,192,229661,1,0,0:0:0:0:
320,192,229745,1,0,0:0:0:0:
192,192,229828,1,0,0:0:0:0:
64,192,229828,1,0,0:0:0:0:
320,192,229911,1,0,0:0:0:0:
192,192,229995,1,0,0:0:0:0:
448,192,229995,1,0,0:0:0:0:
320,192,230078,1,0,0:0:0:0:
192,192,230161,1,0,0:0:0:0:
64,192,230161,1,0,0:0:0:0:
320,192,230245,1,0,0:0:0:0:
448,192,230328,1,0,0:0:0:0:
64,192,230328,1,0,0:0:0:0:
192,192,230411,1,0,0:0:0:0:
448,192,230495,1,0,0:0:0:0:
320,192,230495,1,0,0:0:0:0:
192,192,230578,1,0,0:0:0:0:
64,192,230661,1,0,0:0:0:0:
320,192,230661,1,0,0:0:0:0:
192,192,230745,1,0,0:0:0:0:
64,192,230828,1,0,0:0:0:0:
448,192,230828,1,0,0:0:0:0:
320,192,230911,1,0,0:0:0:0:
192,192,230995,1,0,0:0:0:0:
64,192,230995,1,0,0:0:0:0:
448,192,231078,1,0,0:0:0:0:
320,192,231161,1,0,0:0:0:0:
64,192,231161,1,0,0:0:0:0:
192,192,231245,1,0,0:0:0:0:
64,192,231328,1,0,0:0:0:0:
448,192,231328,1,0,0:0:0:0:
320,192,231411,1,0,0:0:0:0:
64,192,231495,1,0,0:0:0:0:
448,192,231495,1,0,0:0:0:0:
192,192,231578,1,0,0:0:0:0:
320,192,231661,1,0,0:0:0:0:
448,192,231661,1,0,0:0:0:0:
64,192,231745,1,0,0:0:0:0:
192,192,231828,1,0,0:0:0:0:
320,192,231828,1,0,0:0:0:0:
448,192,231911,1,0,0:0:0:0:
320,192,231995,1,0,0:0:0:0:
192,192,231995,1,0,0:0:0:0:
448,192,232078,1,0,0:0:0:0:
320,192,232161,1,0,0:0:0:0:
192,192,232161,1,0,0:0:0:0:
448,192,232245,1,0,0:0:0:0:
64,192,232328,1,0,0:0:0:0:
192,192,232328,1,0,0:0:0:0:
320,192,232411,1,0,0:0:0:0:
192,192,232495,128,0,232828:0:0:0:0:
448,192,232495,128,0,232828:0:0:0:0:
320,192,232828,1,0,0:0:0:0:
64,192,232828,1,0,0:0:0:0:
192,192,232995,1,0,0:0:0:0:
320,192,232995,1,0,0:0:0:0:
192,192,233161,128,0,233495:0:0:0:0:
320,192,233161,128,0,233495:0:0:0:0:
64,192,233495,1,0,0:0:0:0:
448,192,233495,1,0,0:0:0:0:
64,192,233661,1,0,0:0:0:0:
448,192,233661,1,0,0:0:0:0:
64,192,233828,128,0,234161:0:0:0:0:
448,192,233828,128,0,234161:0:0:0:0:
192,192,234161,1,0,0:0:0:0:
320,192,234161,1,0,0:0:0:0:
320,192,234328,1,0,0:0:0:0:
192,192,234328,1,0,0:0:0:0:
448,192,234411,1,0,0:0:0:0:
64,192,234411,1,0,0:0:0:0:
192,192,234495,1,0,0:0:0:0:
320,192,234495,1,0,0:0:0:0:
64,192,234661,1,0,0:0:0:0:
192,192,234661,1,0,0:0:0:0:
320,192,234661,1,0,0:0:0:0:
448,192,234661,1,0,0:0:0:0:
64,192,234828,1,0,0:0:0:0:
192,192,234828,1,0,0:0:0:0:
320,192,234828,1,0,0:0:0:0:
448,192,234911,1,0,0:0:0:0:
64,192,234995,1,0,0:0:0:0:
192,192,234995,1,0,0:0:0:0:
320,192,235078,1,0,0:0:0:0:
448,192,235161,1,0,0:0:0:0:
192,192,235161,1,0,0:0:0:0:
64,192,235161,1,0,0:0:0:0:
320,192,235245,1,0,0:0:0:0:
448,192,235328,1,0,0:0:0:0:
64,192,235328,1,0,0:0:0:0:
192,192,235411,1,0,0:0:0:0:
320,192,235495,1,0,0:0:0:0:
448,192,235495,1,0,0:0:0:0:
64,192,235495,1,0,0:0:0:0:
192,192,235578,1,0,0:0:0:0:
64,192,235661,1,0,0:0:0:0:
448,192,235661,1,0,0:0:0:0:
320,192,235745,1,0,0:0:0:0:
192,192,235828,1,0,0:0:0:0:
64,192,235828,1,0,0:0:0:0:
448,192,235828,1,0,0:0:0:0:
320,192,235911,1,0,0:0:0:0:
192,192,235995,1,0,0:0:0:0:
64,192,235995,1,0,0:0:0:0:
320,192,236078,1,0,0:0:0:0:
448,192,236161,1,0,0:0:0:0:
192,192,236161,1,0,0:0:0:0:
64,192,236161,1,0,0:0:0:0:
320,192,236245,1,0,0:0:0:0:
448,192,236328,1,0,0:0:0:0:
192,192,236328,1,0,0:0:0:0:
64,192,236411,1,0,0:0:0:0:
448,192,236495,1,0,0:0:0:0:
192,192,236495,1,0,0:0:0:0:
320,192,236495,1,0,0:0:0:0:
64,192,236578,1,0,0:0:0:0:
448,192,236661,1,0,0:0:0:0:
320,192,236661,1,0,0:0:0:0:
192,192,236745,1,0,0:0:0:0:
320,192,236828,1,0,0:0:0:0:
64,192,236828,1,0,0:0:0:0:
448,192,236828,1,0,0:0:0:0:
192,192,236911,1,0,0:0:0:0:
64,192,236995,1,0,0:0:0:0:
320,192,236995,1,0,0:0:0:0:
448,192,237078,1,0,0:0:0:0:
320,192,237161,1,0,0:0:0:0:
64,192,237161,128,0,237495:0:0:0:0:
192,192,237161,128,0,237495:0:0:0:0:
320,192,237495,1,0,0:0:0:0:
448,192,237495,1,0,0:0:0:0:
192,192,237578,1,0,0:0:0:0:
64,192,237661,1,0,0:0:0:0:
448,192,237661,1,0,0:0:0:0:
320,192,237745,1,0,0:0:0:0:
192,192,237828,1,0,0:0:0:0:
64,192,237828,1,0,0:0:0:0:
448,192,237828,1,0,0:0:0:0:
320,192,237911,1,0,0:0:0:0:
448,192,237995,1,0,0:0:0:0:
64,192,237995,1,0,0:0:0:0:
192,192,238078,1,0,0:0:0:0:
320,192,238161,1,0,0:0:0:0:
448,192,238161,1,0,0:0:0:0:
64,192,238161,1,0,0:0:0:0:
192,192,238245,1,0,0:0:0:0:
64,192,238328,1,0,0:0:0:0:
320,192,238328,1,0,0:0:0:0:
448,192,238328,1,0,0:0:0:0:
192,192,238411,1,0,0:0:0:0:
64,192,238495,1,0,0:0:0:0:
320,192,238495,1,0,0:0:0:0:
448,192,238495,1,0,0:0:0:0:
192,192,238578,1,0,0:0:0:0:
320,192,238661,1,0,0:0:0:0:
448,192,238661,1,0,0:0:0:0:
64,192,238745,1,0,0:0:0:0:
192,192,238828,1,0,0:0:0:0:
448,192,238828,1,0,0:0:0:0:
320,192,238828,1,0,0:0:0:0:
64,192,238911,1,0,0:0:0:0:
192,192,238995,1,0,0:0:0:0:
320,192,238995,1,0,0:0:0:0:
64,192,239078,1,0,0:0:0:0:
448,192,239161,1,0,0:0:0:0:
320,192,239161,1,0,0:0:0:0:
192,192,239161,1,0,0:0:0:0:
64,192,239245,1,0,0:0:0:0:
448,192,239328,1,0,0:0:0:0:
320,192,239328,1,0,0:0:0:0:
192,192,239411,1,0,0:0:0:0:
64,192,239495,128,0,239661:0:0:0:0:
320,192,239495,128,0,239661:0:0:0:0:
448,192,239828,128,0,239995:0:0:0:0:
320,192,239995,128,0,240161:0:0:0:0:
192,192,239995,128,0,240161:0:0:0:0:
64,192,240161,1,0,0:0:0:0:
448,192,240161,1,0,0:0:0:0:
320,192,240328,1,0,0:0:0:0:
192,192,240328,1,0,0:0:0:0:
64,192,240328,1,0,0:0:0:0:
448,192,240495,1,0,0:0:0:0:
320,192,240495,1,0,0:0:0:0:
192,192,240495,1,0,0:0:0:0:
64,192,240661,1,0,0:0:0:0:
320,192,240661,1,0,0:0:0:0:
448,192,240661,1,0,0:0:0:0:
192,192,240828,1,0,0:0:0:0:
64,192,240828,1,0,0:0:0:0:
320,192,240828,1,0,0:0:0:0:
64,192,240995,1,0,0:0:0:0:
192,192,240995,1,0,0:0:0:0:
448,192,240995,1,0,0:0:0:0:
448,192,241161,1,0,0:0:0:0:
320,192,241161,1,0,0:0:0:0:
192,192,241161,1,0,0:0:0:0:
448,192,241328,1,0,0:0:0:0:
320,192,241328,1,0,0:0:0:0:
64,192,241328,1,0,0:0:0:0:
64,192,241495,1,0,0:0:0:0:
192,192,241495,1,0,0:0:0:0:
448,192,241495,1,0,0:0:0:0:
448,192,241661,1,0,0:0:0:0:
320,192,241661,1,0,0:0:0:0:
64,192,241661,1,0,0:0:0:0:
64,192,241828,1,0,0:0:0:0:
192,192,241828,1,0,0:0:0:0:
448,192,241828,1,0,0:0:0:0:
448,192,241995,1,0,0:0:0:0:
320,192,241995,1,0,0:0:0:0:
64,192,241995,1,0,0:0:0:0:
64,192,242161,1,0,0:0:0:0:
192,192,242161,1,0,0:0:0:0:
320,192,242161,1,0,0:0:0:0:
448,192,242328,1,0,0:0:0:0:
320,192,242328,1,0,0:0:0:0:
192,192,242328,1,0,0:0:0:0:
64,192,242495,1,0,0:0:0:0:
192,192,242495,1,0,0:0:0:0:
320,192,242495,1,0,0:0:0:0:
448,192,242661,1,0,0:0:0:0:
320,192,242661,1,0,0:0:0:0:
192,192,242661,1,0,0:0:0:0:
64,192,242828,1,0,0:0:0:0:
192,192,242828,1,0,0:0:0:0:
320,192,242911,1,0,0:0:0:0:
448,192,242911,1,0,0:0:0:0:
192,192,242995,1,0,0:0:0:0:
64,192,242995,1,0,0:0:0:0:
320,192,243078,1,0,0:0:0:0:
448,192,243078,1,0,0:0:0:0:
64,192,243161,1,0,0:0:0:0:
192,192,243203,1,0,0:0:0:0:
320,192,243245,1,0,0:0:0:0:
448,192,243286,1,0,0:0:0:0:
64,192,243328,1,0,0:0:0:0:
192,192,243370,1,0,0:0:0:0:
320,192,243411,1,0,0:0:0:0:
448,192,243453,1,0,0:0:0:0:
64,192,243495,1,0,0:0:0:0:
192,192,243495,1,0,0:0:0:0:
320,192,243578,1,0,0:0:0:0:
448,192,243578,1,0,0:0:0:0:
192,192,243661,1,0,0:0:0:0:
64,192,243661,1,0,0:0:0:0:
320,192,243745,1,0,0:0:0:0:
448,192,243745,1,0,0:0:0:0:
64,192,243828,1,0,0:0:0:0:
192,192,243870,1,0,0:0:0:0:
320,192,243911,1,0,0:0:0:0:
448,192,243953,1,0,0:0:0:0:
192,192,243995,1,0,0:0:0:0:
64,192,244036,1,0,0:0:0:0:
320,192,244078,1,0,0:0:0:0:
448,192,244120,1,0,0:0:0:0:
192,192,244161,128,0,247078:0:0:0:0:
320,192,244161,128,0,247078:0:0:0:0:
64,192,244161,128,0,247078:0:0:0:0:
448,192,247078,128,0,247161:0:0:0:0:
192,192,247161,128,0,247245:0:0:0:0:
