osu file format v14

[General]
AudioFilename: ONOMATO.mp3
AudioLeadIn: 0
PreviewTime: 78700
Countdown: 0
SampleSet: Soft
StackLeniency: 0.7
Mode: 3
LetterboxInBreaks: 0
SpecialStyle: 0
WidescreenStoryboard: 1

[Editor]
DistanceSpacing: 0.9
BeatDivisor: 4
GridSize: 16
TimelineZoom: 2.3

[Metadata]
Title:ONOMATO Pairing!!!
TitleUnicode:ONOMATO Pairing!!!
Artist:t+pazolite feat. Nanahira
ArtistUnicode:t+pazolite feat. ななひら
Creator:Syadow-
Version:EXPERT
Source:WACCA Lily
Tags:electronic hardcore techno tano*c j-core jcore mirea chouyaa agayers rhezie japanese angki Marvelous MARVA-0003 tpazolite tpz Muse Dash
BeatmapID:3629972
BeatmapSetID:1271793

[Difficulty]
HPDrainRate:8.5
CircleSize:4
OverallDifficulty:8.5
ApproachRate:5
SliderMultiplier:1.4
SliderTickRate:1

[Events]
//Background and Video events
0,0,"ono2.jpg",0,0
//Break Periods
//Storyboard Layer 0 (Background)
//Storyboard Layer 1 (Fail)
//Storyboard Layer 2 (Pass)
//Storyboard Layer 3 (Foreground)
//Storyboard Layer 4 (Overlay)
//Storyboard Sound Samples

[TimingPoints]
3511,379.746835443038,4,2,1,50,1,0
32751,-45.4545454545455,4,2,1,50,0,0
32846,-250,4,2,1,50,0,0
32941,-166.666666666667,4,2,1,50,0,0
33036,-125,4,2,1,50,0,0
33131,-100,4,2,1,50,0,0
36928,-66.6666666666667,4,2,1,50,0,0
37023,-200,4,2,1,50,0,0
37118,-66.6666666666667,4,2,1,50,0,0
37213,-200,4,2,1,50,0,0
37308,-66.6666666666667,4,2,1,50,0,0
37403,-200,4,2,1,50,0,0
37498,-66.6666666666667,4,2,1,50,0,0
37593,-200,4,2,1,50,0,0
37688,-100,4,2,1,50,0,0
37878,-66.6666666666667,4,2,1,50,0,0
37925,-200,4,2,1,50,0,0
37973,-66.6666666666667,4,2,1,50,0,0
38020,-200,4,2,1,50,0,0
38067,-66.6666666666667,4,2,1,50,0,0
38114,-200,4,2,1,50,0,0
38162,-66.6666666666667,4,2,1,50,0,0
38209,-200,4,2,1,50,0,0
38257,-66.6666666666667,4,2,1,50,0,0
38304,-200,4,2,1,50,0,0
38352,-66.6666666666667,4,2,1,50,0,0
38399,-200,4,2,1,50,0,0
38447,-100,4,2,1,50,0,0
43954,-66.6666666666667,4,2,1,50,0,0
44048,-200,4,2,1,50,0,0
44143,-66.6666666666667,4,2,1,50,0,0
44237,-200,4,2,1,50,0,0
44333,-66.6666666666667,4,2,1,50,0,0
44427,-200,4,2,1,50,0,0
44523,-100,4,2,1,50,0,0
77941,-66.6666666666667,4,2,1,50,0,0
78004,-200,4,2,1,50,0,0
78067,-66.6666666666667,4,2,1,50,0,0
78130,-200,4,2,1,50,0,0
78194,-66.6666666666667,4,2,1,50,0,0
78257,-200,4,2,1,50,0,0
78321,-66.6666666666667,4,2,1,50,0,0
78384,-200,4,2,1,50,0,0
78447,-66.6666666666667,4,2,1,50,0,0
78510,-200,4,2,1,50,0,0
78574,-66.6666666666667,4,2,1,50,0,0
78637,-200,4,2,1,50,0,0
78700,-66.6666666666667,4,2,1,50,0,0
78795,-83.3333333333333,4,2,1,50,0,0
78890,-125,4,2,1,50,0,0
78985,-200,4,2,1,50,0,0
79080,-142.857142857143,4,2,1,50,0,0
79175,-111.111111111111,4,2,1,50,0,0
79270,-71.4285714285714,4,2,1,50,0,0
79365,-100,4,2,1,50,0,0
79460,-100,4,2,1,50,0,1
88574,-100,4,2,1,50,0,0
91612,-100,4,2,1,50,0,1
106802,-100,4,2,1,50,0,0
112878,-66.6666666666667,4,2,1,50,0,0
112973,-200,4,2,1,50,0,0
113067,-66.6666666666667,4,2,1,50,0,0
113162,-200,4,2,1,50,0,0
113257,-66.6666666666667,4,2,1,50,0,0
113352,-200,4,2,1,50,0,0
113447,-66.6666666666667,4,2,1,50,0,0
113542,-200,4,2,1,50,0,0
113637,-100,4,2,1,50,0,0
115916,-200,4,2,1,50,0,0
116011,-66.6666666666667,4,2,1,50,0,0
116105,-200,4,2,1,50,0,0
116200,-66.6666666666667,4,2,1,50,0,0
116295,-200,4,2,1,50,0,0
116390,-66.6666666666667,4,2,1,50,0,0
116485,-200,4,2,1,50,0,0
116580,-66.6666666666667,4,2,1,50,0,0
116675,-100,4,2,1,50,0,0
117814,-45.4545454545455,4,2,1,50,0,0
117909,-250,4,2,1,50,0,0
118004,-166.666666666667,4,2,1,50,0,0
118099,-125,4,2,1,50,0,0
118194,-100,4,2,1,50,0,0

[HitObjects]
320,192,662,5,0,0:0:0:0:
192,192,852,1,0,0:0:0:0:
64,192,1042,1,0,0:0:0:0:
448,192,1232,1,0,0:0:0:0:
192,192,1422,1,0,0:0:0:0:
320,192,1612,1,0,0:0:0:0:
448,192,1802,1,0,0:0:0:0:
192,192,2181,1,0,0:0:0:0:
320,192,2371,1,0,0:0:0:0:
64,192,2561,1,0,0:0:0:0:
192,192,2751,1,0,0:0:0:0:
448,192,2941,1,0,0:0:0:0:
320,192,3131,1,0,0:0:0:0:
192,192,3321,1,0,0:0:0:0:
64,192,3511,1,4,0:0:0:0:
320,192,3511,1,2,0:0:0:0:
448,192,3511,128,0,4080:0:0:0:0:
320,192,3890,128,0,4080:0:0:0:0:
64,192,4080,128,0,4650:0:0:0:0:
192,192,4270,128,0,4650:0:0:0:0:
320,192,4650,128,0,4840:0:0:0:0:
192,192,4840,128,0,5029:0:0:0:0:
64,192,5029,1,4,0:0:0:0:
320,192,5029,1,2,0:0:0:0:
448,192,5029,128,0,5219:0:0:0:0:
64,192,5314,128,0,5504:0:0:0:0:
192,192,5599,128,0,6169:0:0:0:0:
320,192,5789,128,0,6169:0:0:0:0:
64,192,6169,1,2,0:0:0:0:
448,192,6169,1,0,0:0:0:0:
64,192,6548,128,4,7118:0:0:0:0:
192,192,6548,1,2,0:0:0:0:
448,192,6548,1,0,0:0:0:0:
192,192,6928,128,0,7118:0:0:0:0:
448,192,7118,128,0,7688:0:0:0:0:
320,192,7308,128,0,7688:0:0:0:0:
192,192,7688,128,0,7878:0:0:0:0:
320,192,7878,128,0,8067:0:0:0:0:
64,192,8067,128,4,8257:0:0:0:0:
192,192,8067,1,2,0:0:0:0:
448,192,8067,1,0,0:0:0:0:
448,192,8352,128,0,8542:0:0:0:0:
192,192,8637,128,0,9207:0:0:0:0:
64,192,8827,128,2,9207:0:0:0:0:
320,192,8827,1,4,0:0:0:0:
448,192,8827,1,0,0:0:0:0:
448,192,9207,1,0,0:0:0:0:
320,192,9254,1,0,0:0:0:0:
64,192,9302,1,0,0:0:0:0:
192,192,9349,1,0,0:0:0:0:
448,192,9397,1,0,0:0:0:0:
320,192,9444,1,0,0:0:0:0:
64,192,9492,1,0,0:0:0:0:
192,192,9539,1,0,0:0:0:0:
320,192,9586,1,4,0:0:0:0:
448,192,9586,128,2,9966:0:0:0:0:
64,192,9776,1,0,0:0:0:70:Hey!.wav
64,192,9966,1,2,0:0:0:0:
320,192,9966,1,0,0:0:0:0:
320,192,10156,128,0,10346:0:0:0:70:Hey!.wav
64,192,10346,128,2,10536:0:0:0:0:
192,192,10346,1,0,0:0:0:0:
448,192,10536,1,0,0:0:0:70:Hey!.wav
192,192,10631,128,0,10821:0:0:0:0:
320,192,10726,1,2,0:0:0:0:
448,192,10726,1,0,0:0:0:0:
320,192,10916,128,0,11105:0:0:0:70:Hey!.wav
64,192,11105,1,2,0:0:0:0:
448,192,11105,128,0,11485:0:0:0:0:
192,192,11295,1,0,0:0:0:70:Hey!.wav
64,192,11485,1,2,0:0:0:0:
320,192,11485,128,0,11865:0:0:0:0:
448,192,11675,1,0,0:0:0:70:Hey!.wav
64,192,11865,1,2,0:0:0:0:
192,192,11865,128,0,12245:0:0:0:0:
320,192,12055,1,0,0:0:0:70:Hey!.wav
64,192,12245,128,2,12435:0:0:0:0:
448,192,12245,1,0,0:0:0:0:
320,192,12435,128,0,12624:0:0:0:70:Hey!.wav
64,192,12624,1,2,0:0:0:0:
192,192,12624,128,0,13194:0:0:0:0:
448,192,12814,1,0,0:0:0:70:Hey!.wav
320,192,12909,1,0,0:0:0:0:
64,192,13004,128,2,13194:0:0:0:0:
448,192,13004,1,0,0:0:0:0:
320,192,13194,1,0,0:0:0:70:Hey!.wav
192,192,13384,1,2,0:0:0:0:
448,192,13384,128,0,13574:0:0:0:0:
64,192,13574,128,0,13764:0:0:0:70:Hey!.wav
192,192,13669,1,0,0:0:0:0:
320,192,13764,128,2,13954:0:0:0:0:
448,192,13764,1,0,0:0:0:0:
192,192,13954,128,0,14143:0:0:0:70:Hey!.wav
64,192,14143,1,2,0:0:0:0:
320,192,14143,128,4,14428:0:0:0:0:
448,192,14143,128,0,14428:0:0:0:0:
192,192,14333,1,0,0:0:0:70:Hey!.wav
64,192,14428,1,0,0:0:0:0:
320,192,14523,128,2,14808:0:0:0:0:
448,192,14523,128,0,14808:0:0:0:0:
192,192,14713,1,0,0:0:0:70:Hey!.wav
320,192,14903,128,2,15093:0:0:0:0:
448,192,14903,128,0,15093:0:0:0:0:
64,192,15093,1,0,0:0:0:70:Hey!.wav
320,192,15188,128,2,15378:0:0:0:0:
448,192,15188,128,0,15378:0:0:0:0:
64,192,15283,1,0,0:0:0:0:
192,192,15283,1,0,0:0:0:0:
320,192,15473,128,2,15567:0:0:0:0:
448,192,15473,128,0,15567:0:0:0:70:Hey!.wav
192,192,15662,128,2,15947:0:0:0:0:
320,192,15662,128,0,15947:0:0:0:0:
64,192,15852,1,0,0:0:0:70:Hey!.wav
448,192,15947,1,0,0:0:0:0:
192,192,16042,128,2,16327:0:0:0:0:
320,192,16042,128,0,16327:0:0:0:0:
64,192,16232,1,0,0:0:0:70:Hey!.wav
192,192,16422,128,2,16612:0:0:0:0:
320,192,16422,128,0,16612:0:0:0:0:
448,192,16612,1,0,0:0:0:70:Hey!.wav
192,192,16707,128,2,16897:0:0:0:0:
320,192,16707,128,0,16897:0:0:0:0:
64,192,16802,1,0,0:0:0:0:
448,192,16802,1,0,0:0:0:0:
192,192,16992,128,2,17086:0:0:0:0:
320,192,16992,128,0,17086:0:0:0:70:Hey!.wav
64,192,17181,128,2,17466:0:0:0:0:
192,192,17181,128,0,17466:0:0:0:0:
448,192,17371,1,0,0:0:0:70:Hey!.wav
320,192,17466,1,0,0:0:0:0:
64,192,17561,128,2,17846:0:0:0:0:
192,192,17561,128,0,17846:0:0:0:0:
448,192,17751,1,0,0:0:0:70:Hey!.wav
64,192,17941,128,2,18131:0:0:0:0:
192,192,17941,128,0,18131:0:0:0:0:
320,192,18131,1,0,0:0:0:70:Hey!.wav
64,192,18226,128,2,18416:0:0:0:0:
192,192,18226,128,0,18416:0:0:0:0:
320,192,18321,1,0,0:0:0:0:
448,192,18321,1,0,0:0:0:0:
64,192,18511,128,2,18605:0:0:0:0:
192,192,18511,128,0,18605:0:0:0:70:Hey!.wav
64,192,18700,128,2,18985:0:0:0:0:
448,192,18700,128,0,18985:0:0:0:0:
320,192,18890,1,0,0:0:0:70:Hey!.wav
192,192,18985,1,0,0:0:0:0:
64,192,19080,128,2,19365:0:0:0:0:
448,192,19080,128,0,19365:0:0:0:0:
320,192,19270,1,0,0:0:0:70:Hey!.wav
64,192,19460,128,2,19745:0:0:0:0:
448,192,19460,128,0,19745:0:0:0:0:
192,192,19650,1,0,0:0:0:0:
64,192,19840,1,0,0:0:0:70:bell.wav
448,192,19840,1,0,0:0:0:0:
192,192,19935,1,0,0:0:0:0:
320,192,20029,1,0,0:0:0:0:
64,192,20219,1,2,0:0:0:0:
192,192,20219,1,4,0:0:0:0:
448,192,20219,1,0,0:0:0:0:
320,192,20314,1,0,0:0:0:0:
64,192,20409,1,2,0:0:0:0:
192,192,20409,1,0,0:0:0:70:Hey!.wav
320,192,20504,1,0,0:0:0:0:
448,192,20504,1,0,0:0:0:0:
64,192,20599,1,2,0:0:0:0:
192,192,20599,1,0,0:0:0:0:
320,192,20694,1,0,0:0:0:0:
64,192,20789,1,2,0:0:0:0:
448,192,20789,1,0,0:0:0:70:Hey!.wav
192,192,20884,1,0,0:0:0:0:
320,192,20979,1,8,0:0:0:0:
448,192,20979,1,2,0:0:0:0:
64,192,21074,1,0,0:0:0:0:
192,192,21169,1,2,0:0:0:0:
320,192,21169,1,0,0:0:0:70:Hey!.wav
64,192,21264,1,0,0:0:0:0:
448,192,21264,1,0,0:0:0:0:
192,192,21359,1,2,0:0:0:0:
320,192,21359,1,0,0:0:0:0:
448,192,21454,1,0,0:0:0:0:
64,192,21548,1,2,0:0:0:0:
192,192,21548,1,0,0:0:0:70:Hey!.wav
320,192,21643,1,0,0:0:0:0:
192,192,21738,1,2,0:0:0:0:
448,192,21738,1,0,0:0:0:0:
64,192,21833,1,0,0:0:0:0:
320,192,21928,1,2,0:0:0:0:
448,192,21928,1,0,0:0:0:70:Hey!.wav
64,192,22023,1,0,0:0:0:0:
192,192,22023,1,0,0:0:0:0:
320,192,22118,1,2,0:0:0:0:
448,192,22118,1,0,0:0:0:0:
192,192,22213,1,0,0:0:0:0:
64,192,22308,1,2,0:0:0:0:
448,192,22308,1,0,0:0:0:70:Hey!.wav
320,192,22403,1,0,0:0:0:0:
64,192,22498,1,8,0:0:0:0:
192,192,22498,1,2,0:0:0:0:
448,192,22593,1,0,0:0:0:0:
192,192,22688,1,2,0:0:0:0:
320,192,22688,1,0,0:0:0:70:Hey!.wav
64,192,22783,1,0,0:0:0:0:
448,192,22783,1,0,0:0:0:0:
320,192,22878,1,2,0:0:0:0:
192,192,22878,1,0,0:0:0:0:
64,192,22973,1,0,0:0:0:0:
320,192,23067,1,2,0:0:0:0:
448,192,23067,1,0,0:0:0:70:Hey!.wav
192,192,23162,1,0,0:0:0:0:
64,192,23257,1,2,0:0:0:0:
448,192,23257,1,0,0:0:0:0:
192,192,23352,1,2,0:0:0:0:
320,192,23352,1,0,0:0:0:0:
64,192,23447,1,2,0:0:0:0:
448,192,23447,1,0,0:0:0:70:Hey!.wav
192,192,23542,1,2,0:0:0:0:
320,192,23542,1,0,0:0:0:0:
64,192,23637,1,2,0:0:0:0:
448,192,23637,1,0,0:0:0:0:
192,192,23732,1,2,0:0:0:0:
320,192,23732,1,0,0:0:0:0:
64,192,23827,1,2,0:0:0:0:
448,192,23827,1,0,0:0:0:70:Hey!.wav
320,192,23922,1,2,0:0:0:0:
192,192,24017,1,8,0:0:0:0:
64,192,24017,1,0,0:0:0:0:
448,192,24112,1,8,0:0:0:0:
320,192,24112,1,0,0:0:0:0:
192,192,24207,1,8,0:0:0:0:
64,192,24207,1,0,0:0:0:70:Hey!.wav
448,192,24302,1,8,0:0:0:0:
320,192,24302,1,0,0:0:0:0:
192,192,24397,1,8,0:0:0:0:
64,192,24397,1,0,0:0:0:0:
192,192,24492,1,8,0:0:0:0:
64,192,24492,1,0,0:0:0:0:
448,192,24586,1,8,0:0:0:0:
320,192,24586,1,0,0:0:0:70:Hey!.wav
448,192,24681,1,8,0:0:0:0:
320,192,24681,1,0,0:0:0:0:
192,192,24776,1,8,0:1:0:0:
64,192,24776,128,0,25061:0:0:0:0:
448,192,24966,128,0,25251:0:0:0:0:
192,192,25156,1,8,0:1:0:0:
64,192,25156,128,0,25441:0:0:0:0:
448,192,25346,128,0,25536:0:0:0:0:
64,192,25536,1,0,0:0:0:0:
192,192,25631,1,0,0:0:0:0:
320,192,25726,1,8,0:1:0:0:
448,192,25726,1,0,0:0:0:0:
64,192,25821,1,0,0:0:0:0:
448,192,25916,1,0,0:0:0:0:
192,192,26011,1,0,0:0:0:0:
320,192,26105,1,0,0:0:0:0:
64,192,26295,128,2,26580:0:0:0:0:
192,192,26295,128,4,26580:0:0:0:0:
448,192,26295,1,0,0:0:0:0:
448,192,26485,1,0,0:0:0:0:
320,192,26580,1,0,0:0:0:0:
448,192,26675,128,8,26960:0:0:0:0:
192,192,26675,1,0,0:0:0:0:
64,192,26675,1,0,0:0:0:0:
192,192,26865,1,0,0:0:0:0:
64,192,27055,128,2,27340:0:0:0:0:
448,192,27055,128,0,27340:0:0:0:0:
192,192,27245,1,0,0:0:0:0:
320,192,27340,1,0,0:0:0:0:
64,192,27435,1,8,0:0:0:0:
192,192,27435,128,0,27719:0:0:0:0:
448,192,27435,1,0,0:0:0:0:
320,192,27624,1,0,0:0:0:0:
64,192,27814,128,2,28099:0:0:0:0:
192,192,27814,128,0,28099:0:0:0:0:
448,192,28004,1,0,0:0:0:0:
320,192,28099,1,0,0:0:0:0:
64,192,28194,1,8,0:0:0:0:
192,192,28194,1,0,0:0:0:0:
448,192,28194,1,0,0:0:0:0:
192,192,28384,1,0,0:0:0:0:
320,192,28479,1,0,0:0:0:0:
192,192,28574,1,2,0:0:0:0:
448,192,28574,1,0,0:0:0:0:
64,192,28669,1,0,0:0:0:0:
320,192,28764,1,0,0:0:0:0:
192,192,28859,1,0,0:0:0:0:
320,192,28954,1,2,0:0:0:0:
448,192,28954,1,0,0:0:0:0:
64,192,29017,1,0,0:0:0:0:
192,192,29080,1,0,0:0:0:0:
448,192,29143,1,0,0:0:0:0:
320,192,29207,1,0,0:0:0:0:
192,192,29270,1,0,0:0:0:0:
64,192,29333,1,2,0:0:0:0:
320,192,29333,128,4,29618:0:0:0:0:
448,192,29333,128,0,29618:0:0:0:0:
64,192,29523,1,0,0:0:0:0:
192,192,29618,1,0,0:0:0:0:
64,192,29713,128,8,29998:0:0:0:0:
320,192,29713,1,0,0:0:0:0:
448,192,29713,1,0,0:0:0:0:
320,192,29903,1,0,0:0:0:0:
64,192,30093,1,2,0:0:0:0:
448,192,30093,128,0,30378:0:0:0:0:
192,192,30283,1,0,0:0:0:0:
320,192,30378,1,0,0:0:0:0:
64,192,30473,128,8,30757:0:0:0:0:
192,192,30473,1,0,0:0:0:0:
448,192,30473,1,0,0:0:0:0:
320,192,30662,1,0,0:0:0:0:
192,192,30757,1,0,0:0:0:0:
320,192,30852,128,2,31137:0:0:0:0:
448,192,30852,128,0,31137:0:0:0:0:
64,192,31042,1,0,0:0:0:0:
192,192,31137,1,0,0:0:0:0:
64,192,31232,128,8,31327:0:0:0:0:
320,192,31232,1,0,0:0:0:0:
448,192,31232,128,0,31327:0:0:0:0:
192,192,31422,128,0,31517:0:0:0:0:
448,192,31422,128,0,31517:0:0:0:0:
320,192,31517,128,0,31612:0:0:0:0:
64,192,31612,128,0,31897:0:0:0:100:cowbell.wav
192,192,31612,1,0,0:0:0:0:
448,192,31802,128,0,32086:0:0:0:0:
64,192,31992,128,0,32276:0:0:0:100:cowbell.wav
192,192,31992,1,0,0:0:0:0:
448,192,32181,128,0,32371:0:0:0:0:
64,192,32371,128,2,32656:0:0:0:0:
192,192,32371,128,4,32656:0:0:0:0:
320,192,32371,1,0,0:0:0:0:
448,192,32561,1,0,0:0:0:0:
320,192,32656,1,0,0:0:0:0:
64,192,32751,1,2,0:0:0:0:
192,192,32751,1,4,0:1:0:0:
448,192,32751,1,0,0:0:0:0:
64,192,33131,128,2,33321:0:0:0:0:
448,192,33131,1,4,0:0:0:0:
320,192,33226,1,0,0:0:0:0:
192,192,33321,1,0,0:0:0:0:
320,192,33416,1,0,0:0:0:0:
64,192,33511,1,8,0:0:0:0:
448,192,33511,128,0,33700:0:0:0:0:
320,192,33700,1,0,0:0:0:0:
64,192,33890,128,2,34175:0:0:0:0:
192,192,33890,128,0,34175:0:0:0:0:
448,192,34080,1,0,0:0:0:0:
320,192,34175,1,0,0:0:0:0:
64,192,34270,1,8,0:0:0:0:
192,192,34270,1,0,0:0:0:0:
448,192,34270,1,0,0:0:0:0:
320,192,34460,1,0,0:0:0:0:
64,192,34555,1,0,0:0:0:0:
192,192,34650,1,2,0:0:0:0:
448,192,34650,1,0,0:0:0:0:
64,192,34745,1,0,0:0:0:0:
320,192,34840,1,0,0:0:0:0:
192,192,34935,1,0,0:0:0:0:
320,192,35029,1,2,0:0:0:0:
448,192,35029,1,0,0:0:0:0:
64,192,35093,1,0,0:0:0:0:
192,192,35156,1,0,0:0:0:0:
448,192,35219,1,0,0:0:0:0:
320,192,35283,1,0,0:0:0:0:
192,192,35346,1,0,0:0:0:0:
64,192,35409,1,2,0:0:0:0:
320,192,35409,128,4,35694:0:0:0:0:
448,192,35409,128,0,35694:0:0:0:0:
64,192,35599,1,0,0:0:0:0:
192,192,35694,1,0,0:0:0:0:
320,192,35789,1,8,0:0:0:0:
64,192,35789,128,0,36074:0:0:0:0:
448,192,35789,1,0,0:0:0:0:
192,192,35979,128,0,36074:0:0:0:0:
448,192,36169,128,2,36454:0:0:0:0:
320,192,36169,128,0,36359:0:0:0:0:
192,192,36359,1,0,0:0:0:0:
320,192,36454,1,0,0:0:0:0:
448,192,36548,1,8,0:0:0:0:
192,192,36548,128,0,36738:0:0:0:0:
64,192,36548,128,0,36833:0:0:0:0:
320,192,36738,1,0,0:0:0:0:
192,192,36833,1,0,0:0:0:0:
64,192,36928,1,2,0:0:0:0:
448,192,36928,1,0,0:0:0:0:
64,192,37118,1,0,0:0:0:0:
320,192,37118,1,0,0:0:0:0:
192,192,37308,1,8,0:1:0:0:
448,192,37308,1,0,0:0:0:0:
64,192,37498,1,0,0:0:0:0:
448,192,37498,1,0,0:0:0:0:
64,192,37688,128,0,38257:0:0:0:0:
192,192,37688,1,0,0:0:0:0:
448,192,37878,128,0,37973:0:0:0:0:
320,192,37973,128,0,38067:0:0:0:0:
448,192,38067,128,0,38162:0:0:0:0:
320,192,38162,128,0,38257:0:0:0:0:
192,192,38257,128,0,38352:0:0:0:0:
320,192,38352,128,0,38447:0:0:0:0:
64,192,38447,1,2,0:0:0:0:
192,192,38447,1,4,0:0:0:0:
448,192,38447,1,0,0:0:0:0:
320,192,38542,1,0,0:0:0:0:
64,192,38637,1,0,0:0:0:70:Hey!.wav
192,192,38732,1,0,0:0:0:0:
64,192,38827,1,8,0:0:0:0:
320,192,38827,1,0,0:0:0:0:
448,192,38827,1,0,0:0:0:0:
192,192,38922,1,0,0:0:0:0:
448,192,39017,1,0,0:0:0:70:Hey!.wav
320,192,39112,1,0,0:0:0:0:
64,192,39207,1,2,0:0:0:0:
192,192,39207,1,0,0:0:0:0:
448,192,39302,1,0,0:0:0:0:
192,192,39397,1,0,0:0:0:70:Hey!.wav
320,192,39492,1,0,0:0:0:0:
64,192,39586,1,8,0:0:0:0:
192,192,39586,1,0,0:0:0:0:
448,192,39586,1,0,0:0:0:0:
320,192,39681,1,0,0:0:0:0:
64,192,39776,1,0,0:0:0:70:Hey!.wav
448,192,39871,1,0,0:0:0:0:
192,192,39966,1,2,0:0:0:0:
320,192,39966,1,0,0:0:0:0:
64,192,40061,1,0,0:0:0:0:
448,192,40156,1,0,0:0:0:70:Hey!.wav
320,192,40251,1,0,0:0:0:0:
64,192,40346,1,8,0:0:0:0:
192,192,40346,1,0,0:0:0:0:
448,192,40346,1,0,0:0:0:0:
320,192,40441,1,0,0:0:0:0:
192,192,40536,1,0,0:0:0:70:Hey!.wav
320,192,40631,1,0,0:0:0:0:
64,192,40726,1,2,0:0:0:0:
448,192,40726,1,0,0:0:0:0:
192,192,40821,1,0,0:0:0:0:
320,192,40916,1,0,0:0:0:70:Hey!.wav
192,192,41011,1,0,0:0:0:0:
320,192,41105,1,8,0:0:0:0:
448,192,41105,1,0,0:0:0:0:
64,192,41169,1,0,0:0:0:0:
192,192,41232,1,0,0:0:0:0:
448,192,41295,1,0,0:0:0:0:
320,192,41359,1,0,0:0:0:0:
192,192,41422,1,0,0:0:0:0:
448,192,41485,1,2,0:0:0:0:
320,192,41485,1,4,0:0:0:0:
64,192,41485,128,0,41580:0:0:0:0:
192,192,41580,128,0,41675:0:0:0:0:
448,192,41675,128,0,41770:0:0:0:70:Hey!.wav
320,192,41770,128,0,41865:0:0:0:0:
64,192,41865,128,8,42055:0:0:0:0:
192,192,41865,1,0,0:0:0:0:
448,192,41865,1,0,0:0:0:0:
320,192,42055,128,0,42150:0:0:0:70:Hey!.wav
192,192,42150,128,0,42245:0:0:0:0:
64,192,42245,1,2,0:0:0:0:
448,192,42245,128,0,42340:0:0:0:0:
320,192,42340,128,0,42435:0:0:0:0:
192,192,42435,128,0,42624:0:0:0:70:Hey!.wav
64,192,42624,1,8,0:0:0:0:
320,192,42624,1,0,0:0:0:0:
448,192,42624,128,0,42814:0:0:0:0:
192,192,42814,1,0,0:0:0:70:Hey!.wav
320,192,42909,1,0,0:0:0:0:
64,192,43004,1,2,0:0:0:0:
448,192,43004,128,0,43099:0:0:0:0:
320,192,43099,128,0,43194:0:0:0:0:
192,192,43194,128,0,43289:0:0:0:70:Hey!.wav
320,192,43289,128,0,43384:0:0:0:0:
64,192,43384,128,8,43574:0:0:0:0:
192,192,43384,1,0,0:0:0:0:
448,192,43384,1,0,0:0:0:0:
320,192,43574,128,0,43669:0:0:0:70:Hey!.wav
192,192,43669,128,0,43764:0:0:0:0:
64,192,43764,1,4,0:0:0:0:
320,192,43764,1,2,0:0:0:0:
448,192,43764,1,0,0:0:0:0:
64,192,43954,1,0,0:0:0:100:cowbell.wav
320,192,43954,1,0,0:0:0:0:
64,192,44143,1,0,0:0:0:100:cowbell.wav
320,192,44143,1,0,0:0:0:0:
64,192,44333,1,0,0:0:0:100:cowbell.wav
320,192,44333,1,0,0:0:0:0:
192,192,44523,1,2,0:0:0:0:
320,192,44523,1,4,0:0:0:0:
448,192,44523,1,0,0:0:0:0:
64,192,44618,1,0,0:0:0:0:
448,192,44713,1,0,0:0:0:70:Hey!.wav
320,192,44808,1,0,0:0:0:0:
64,192,44903,1,8,0:0:0:0:
192,192,44903,1,0,0:0:0:0:
448,192,44903,1,0,0:0:0:0:
320,192,44998,1,0,0:0:0:0:
64,192,45093,1,0,0:0:0:70:Hey!.wav
192,192,45188,1,0,0:0:0:0:
320,192,45283,1,2,0:0:0:0:
448,192,45283,1,0,0:0:0:0:
64,192,45378,1,0,0:0:0:0:
448,192,45473,1,0,0:0:0:70:Hey!.wav
320,192,45567,1,0,0:0:0:0:
64,192,45662,1,8,0:0:0:0:
192,192,45662,1,0,0:0:0:0:
448,192,45726,1,0,0:0:0:0:
320,192,45789,1,0,0:0:0:0:
64,192,45852,1,0,0:0:0:70:Hey!.wav
192,192,45916,1,0,0:0:0:0:
320,192,45979,1,0,0:0:0:0:
192,192,46042,1,2,0:0:0:0:
448,192,46042,1,4,0:0:0:0:
64,192,46042,128,0,46137:0:0:0:0:
320,192,46137,128,0,46232:0:0:0:0:
192,192,46232,128,0,46327:0:0:0:0:
320,192,46327,128,0,46422:0:0:0:0:
64,192,46422,1,8,0:0:0:0:
192,192,46422,1,0,0:0:0:0:
448,192,46422,128,0,46612:0:0:0:0:
64,192,46612,128,0,46802:0:0:0:0:
320,192,46802,128,2,46897:0:0:0:0:
448,192,46802,1,0,0:0:0:0:
192,192,46897,128,0,46992:0:0:0:0:
64,192,46992,1,0,0:0:0:100:cowbell.wav
448,192,46992,128,0,47086:0:0:0:0:
320,192,47086,128,0,47181:0:0:0:0:
64,192,47181,1,8,0:0:0:0:
192,192,47181,128,0,47371:0:0:0:100:cowbell.wav
448,192,47181,1,0,0:0:0:0:
64,192,47371,1,0,0:0:0:100:cowbell.wav
320,192,47371,128,0,47561:0:0:0:0:
64,192,47561,1,2,0:0:0:0:
192,192,47561,1,4,0:0:0:0:
448,192,47561,1,0,0:0:0:0:
192,192,47751,1,2,0:0:0:0:
448,192,47751,1,0,0:0:0:0:
64,192,47846,1,0,0:0:0:0:
320,192,47941,1,2,0:0:0:0:
448,192,47941,1,0,0:0:0:0:
64,192,48131,1,2,0:0:0:0:
192,192,48131,128,0,48226:0:0:0:0:
320,192,48226,128,0,48321:0:0:0:0:
64,192,48321,1,2,0:0:0:0:
192,192,48321,128,4,48416:0:0:0:0:
448,192,48321,1,0,0:0:0:0:
320,192,48416,128,0,48511:0:0:0:0:
64,192,48511,1,2,0:0:0:0:
448,192,48511,128,0,48700:0:0:0:0:
192,192,48700,1,2,0:0:0:0:
320,192,48700,1,0,0:0:0:0:
448,192,48795,1,0,0:0:0:0:
64,192,48890,1,2,0:0:0:0:
192,192,48890,1,0,0:0:0:0:
320,192,48985,1,0,0:0:0:0:
64,192,49080,1,2,0:0:0:0:
448,192,49080,1,4,0:0:0:0:
192,192,49175,1,2,0:0:0:0:
320,192,49175,1,0,0:0:0:0:
64,192,49270,1,2,0:0:0:0:
448,192,49270,1,0,0:0:0:0:
192,192,49365,1,2,0:0:0:0:
320,192,49365,1,0,0:0:0:0:
64,192,49460,1,2,0:0:0:0:
448,192,49460,1,4,0:0:0:0:
192,192,49555,1,2,0:0:0:0:
320,192,49650,1,2,0:0:0:0:
448,192,49650,1,0,0:0:0:0:
64,192,49745,1,2,0:0:0:0:
192,192,49745,1,0,0:0:0:0:
320,192,49840,1,2,0:0:0:0:
448,192,49840,1,4,0:0:0:0:
64,192,49935,1,2,0:0:0:0:
192,192,49935,1,0,0:0:0:0:
320,192,50029,1,2,0:0:0:0:
448,192,50029,1,0,0:0:0:0:
64,192,50124,1,2,0:0:0:0:
192,192,50124,1,0,0:0:0:0:
320,192,50219,1,2,0:0:0:0:
448,192,50219,1,4,0:0:0:0:
320,192,50314,1,2,0:0:0:0:
448,192,50314,1,0,0:0:0:0:
64,192,50409,1,2,0:0:0:0:
192,192,50409,1,0,0:0:0:0:
64,192,50504,1,2,0:0:0:0:
192,192,50504,1,0,0:0:0:0:
320,192,50599,1,0,0:0:0:0:
448,192,50599,128,0,51359:0:0:0:0:
64,192,50789,1,0,0:0:0:0:
320,192,50884,1,0,0:0:0:0:
64,192,51074,1,0,0:0:0:0:
320,192,51169,1,0,0:0:0:0:
192,192,51264,1,0,0:0:0:0:
64,192,51359,128,0,51738:0:0:0:0:
320,192,51454,1,0,0:0:0:0:
192,192,51548,1,0,0:0:0:0:
448,192,51643,1,0,0:0:0:0:
320,192,51738,128,0,52118:0:0:0:0:
64,192,51833,1,0,0:0:0:0:
192,192,51928,1,0,0:0:0:0:
448,192,52023,1,0,0:0:0:0:
64,192,52118,1,0,0:0:0:0:
192,192,52118,128,0,52498:0:0:0:0:
448,192,52308,1,0,0:0:0:0:
64,192,52403,1,0,0:0:0:0:
448,192,52593,1,0,0:0:0:0:
192,192,52688,128,0,53637:0:0:0:0:
320,192,52783,1,0,0:0:0:0:
448,192,52878,1,0,0:0:0:0:
64,192,52973,1,0,0:0:0:0:
320,192,53067,1,0,0:0:0:0:
448,192,53162,1,0,0:0:0:0:
64,192,53257,1,0,0:0:0:0:
320,192,53352,1,0,0:0:0:0:
448,192,53447,1,0,0:0:0:0:
64,192,53542,1,0,0:0:0:0:
320,192,53637,1,0,0:0:0:0:
448,192,53637,1,0,0:0:0:0:
320,192,53827,1,0,0:0:0:0:
64,192,53922,1,0,0:0:0:0:
448,192,54017,128,0,54397:0:0:0:0:
320,192,54112,1,0,0:0:0:0:
64,192,54207,1,0,0:0:0:0:
192,192,54302,1,0,0:0:0:0:
320,192,54397,128,0,54776:0:0:0:0:
64,192,54492,1,0,0:0:0:0:
448,192,54586,1,0,0:0:0:0:
192,192,54681,1,0,0:0:0:0:
64,192,54776,128,0,55156:0:0:0:0:
448,192,54871,1,0,0:0:0:0:
192,192,54966,1,0,0:0:0:0:
320,192,55061,1,0,0:0:0:0:
192,192,55156,1,0,0:0:0:0:
448,192,55156,128,0,55536:0:0:0:0:
64,192,55346,1,0,0:0:0:0:
320,192,55441,1,0,0:0:0:0:
192,192,55536,1,0,0:0:0:0:
64,192,55631,1,0,0:0:0:0:
448,192,55726,128,0,56295:0:0:0:0:
320,192,55821,1,0,0:0:0:0:
64,192,55916,1,0,0:0:0:0:
192,192,56011,1,0,0:0:0:0:
320,192,56105,1,0,0:0:0:0:
192,192,56200,1,0,0:0:0:0:
64,192,56295,128,0,56675:0:0:0:0:
320,192,56390,1,0,0:0:0:0:
448,192,56485,1,0,0:0:0:0:
192,192,56580,1,0,0:0:0:0:
320,192,56675,1,0,0:0:0:0:
448,192,56675,1,0,0:0:0:0:
64,192,56865,1,0,0:0:0:0:
320,192,56960,1,0,0:0:0:0:
192,192,57055,128,0,57435:0:0:0:0:
64,192,57150,1,0,0:0:0:0:
448,192,57245,1,0,0:0:0:0:
64,192,57340,1,0,0:0:0:0:
320,192,57435,128,0,57814:0:0:0:0:
448,192,57529,1,0,0:0:0:0:
192,192,57624,1,0,0:0:0:0:
64,192,57719,1,0,0:0:0:0:
448,192,57814,128,0,58194:0:0:0:0:
192,192,57909,1,0,0:0:0:0:
320,192,58004,1,0,0:0:0:0:
192,192,58099,1,0,0:0:0:0:
64,192,58194,128,0,58574:0:0:0:0:
320,192,58194,1,0,0:0:0:0:
448,192,58384,1,0,0:0:0:0:
192,192,58479,1,0,0:0:0:0:
320,192,58669,1,0,0:0:0:0:
64,192,58764,128,0,59713:0:0:0:0:
448,192,58859,1,0,0:0:0:0:
320,192,58954,1,0,0:0:0:0:
192,192,59048,1,0,0:0:0:0:
448,192,59143,1,0,0:0:0:0:
320,192,59238,1,0,0:0:0:0:
448,192,59333,1,0,0:0:0:0:
192,192,59428,1,0,0:0:0:0:
320,192,59523,1,0,0:0:0:0:
448,192,59618,1,0,0:0:0:0:
192,192,59713,1,0,0:0:0:0:
320,192,59713,1,0,0:0:0:0:
64,192,59903,1,0,0:0:0:0:
448,192,59998,1,0,0:0:0:0:
320,192,60093,128,0,60473:0:0:0:0:
192,192,60188,1,0,0:0:0:0:
448,192,60283,1,0,0:0:0:0:
64,192,60378,1,0,0:0:0:0:
192,192,60473,128,0,60852:0:0:0:0:
448,192,60567,1,0,0:0:0:0:
64,192,60662,1,0,0:0:0:0:
320,192,60757,1,0,0:0:0:0:
448,192,60852,128,0,61232:0:0:0:0:
64,192,60947,1,0,0:0:0:0:
320,192,61042,1,0,0:0:0:0:
192,192,61137,1,0,0:0:0:0:
64,192,61232,1,0,0:0:0:0:
320,192,61232,128,0,62656:0:0:0:0:
448,192,61422,1,0,0:0:0:0:
64,192,61517,1,0,0:0:0:0:
192,192,61612,1,0,0:0:0:0:
448,192,61707,1,0,0:0:0:0:
64,192,61802,1,0,0:0:0:0:
448,192,61897,1,0,0:0:0:0:
192,192,61992,1,0,0:0:0:0:
64,192,62086,1,0,0:0:0:0:
448,192,62181,1,0,0:0:0:0:
64,192,62276,1,0,0:0:0:0:
192,192,62371,1,0,0:0:0:0:
448,192,62466,1,0,0:0:0:0:
64,192,62561,1,0,0:0:0:0:
192,192,62656,1,0,0:0:0:0:
64,192,62751,1,2,0:0:0:0:
320,192,62751,1,4,0:0:0:0:
448,192,62751,1,0,0:0:0:0:
192,192,62941,1,0,0:0:0:0:
320,192,63036,1,0,0:0:0:0:
64,192,63131,1,8,0:0:0:0:
192,192,63131,1,0,0:0:0:0:
448,192,63131,1,0,0:0:0:0:
320,192,63226,1,0,0:0:0:0:
64,192,63321,1,0,0:0:0:0:
192,192,63416,1,0,0:0:0:0:
320,192,63511,1,2,0:0:0:0:
448,192,63511,1,0,0:0:0:0:
64,192,63700,1,0,0:0:0:0:
192,192,63795,1,0,0:0:0:0:
64,192,63890,1,8,0:0:0:0:
320,192,63890,1,0,0:0:0:0:
448,192,63890,1,0,0:0:0:0:
192,192,63985,1,0,0:0:0:0:
448,192,64080,1,0,0:0:0:0:
320,192,64175,1,0,0:0:0:0:
64,192,64270,1,2,0:0:0:0:
192,192,64270,1,0,0:0:0:0:
320,192,64460,1,0,0:0:0:0:
192,192,64555,1,0,0:0:0:0:
64,192,64650,1,8,0:0:0:0:
320,192,64650,1,0,0:0:0:0:
448,192,64650,1,0,0:0:0:0:
192,192,64745,1,0,0:0:0:0:
320,192,64840,1,0,0:0:0:0:
64,192,64935,1,0,0:0:0:0:
192,192,65029,1,2,0:0:0:0:
448,192,65029,1,0,0:0:0:0:
320,192,65219,1,0,0:0:0:0:
192,192,65314,1,0,0:0:0:0:
64,192,65409,1,8,0:0:0:0:
320,192,65409,1,0,0:0:0:0:
448,192,65409,1,0,0:0:0:0:
192,192,65504,1,0,0:0:0:0:
448,192,65599,1,0,0:0:0:0:
320,192,65694,1,0,0:0:0:0:
64,192,65789,1,2,0:0:0:0:
192,192,65789,1,0,0:0:0:0:
320,192,65979,1,0,0:0:0:0:
448,192,66074,1,0,0:0:0:0:
64,192,66169,1,8,0:0:0:0:
192,192,66169,1,0,0:0:0:0:
320,192,66169,1,0,0:0:0:0:
448,192,66264,1,0,0:0:0:0:
192,192,66359,1,0,0:0:0:0:
320,192,66454,1,0,0:0:0:0:
64,192,66548,1,2,0:0:0:0:
448,192,66548,1,0,0:0:0:0:
192,192,66643,1,0,0:0:0:0:
448,192,66738,1,0,0:0:0:0:
320,192,66833,1,0,0:0:0:0:
64,192,66928,1,8,0:0:0:0:
192,192,66928,1,0,0:0:0:0:
448,192,66928,1,0,0:0:0:0:
320,192,67023,1,0,0:0:0:0:
64,192,67118,1,0,0:0:0:0:
192,192,67213,1,0,0:0:0:0:
320,192,67308,1,2,0:0:0:0:
448,192,67308,1,0,0:0:0:0:
192,192,67498,1,0,0:0:0:0:
320,192,67593,1,0,0:0:0:0:
64,192,67688,1,8,0:0:0:0:
192,192,67688,1,0,0:0:0:0:
448,192,67688,1,0,0:0:0:0:
320,192,67783,1,0,0:0:0:0:
64,192,67878,1,0,0:0:0:0:
192,192,67973,1,0,0:0:0:0:
320,192,68067,1,2,0:0:0:0:
448,192,68067,1,0,0:0:0:0:
64,192,68162,1,0,0:0:0:0:
448,192,68257,1,0,0:0:0:0:
64,192,68352,1,2,0:0:0:0:
320,192,68352,1,0,0:0:0:0:
192,192,68447,1,0,0:0:0:0:
320,192,68542,1,0,0:0:0:0:
64,192,68637,1,2,0:0:0:0:
192,192,68637,1,0,0:0:0:0:
320,192,68732,1,0,0:0:0:0:
64,192,68827,1,2,0:0:0:0:
192,192,68827,1,0,0:0:0:0:
448,192,68827,1,0,0:0:0:0:
320,192,69017,1,0,0:0:0:0:
192,192,69112,1,0,0:0:0:0:
64,192,69207,1,8,0:0:0:0:
320,192,69207,1,0,0:0:0:0:
448,192,69207,1,0,0:0:0:0:
192,192,69302,1,0,0:0:0:0:
448,192,69397,1,0,0:0:0:0:
320,192,69492,1,0,0:0:0:0:
64,192,69586,1,2,0:0:0:0:
192,192,69586,1,0,0:0:0:0:
448,192,69681,1,0,0:0:0:0:
64,192,69776,1,0,0:0:0:0:
192,192,69871,1,0,0:0:0:0:
64,192,69966,1,8,0:0:0:0:
320,192,69966,1,0,0:0:0:0:
448,192,69966,1,0,0:0:0:0:
192,192,70061,1,0,0:0:0:0:
320,192,70156,1,0,0:0:0:0:
64,192,70251,1,0,0:0:0:0:
192,192,70346,1,2,0:0:0:0:
448,192,70346,1,0,0:0:0:0:
320,192,70536,1,0,0:0:0:0:
192,192,70631,1,0,0:0:0:0:
64,192,70726,1,8,0:0:0:0:
320,192,70726,1,0,0:0:0:0:
448,192,70726,1,0,0:0:0:0:
192,192,70821,1,0,0:0:0:0:
320,192,70916,1,0,0:0:0:0:
64,192,71011,1,0,0:0:0:0:
192,192,71105,1,2,0:0:0:0:
448,192,71105,1,0,0:0:0:0:
320,192,71200,1,0,0:0:0:0:
64,192,71295,1,0,0:0:0:0:
192,192,71390,1,0,0:0:0:0:
64,192,71485,1,8,0:0:0:0:
320,192,71485,1,0,0:0:0:0:
448,192,71485,1,0,0:0:0:0:
192,192,71580,1,0,0:0:0:0:
448,192,71675,1,0,0:0:0:0:
320,192,71770,1,0,0:0:0:0:
64,192,71865,1,2,0:0:0:0:
192,192,71865,1,0,0:0:0:0:
320,192,72055,1,0,0:0:0:0:
448,192,72150,1,0,0:0:0:0:
64,192,72245,1,8,0:0:0:0:
192,192,72245,1,0,0:0:0:0:
320,192,72245,1,0,0:0:0:0:
448,192,72340,1,0,0:0:0:0:
192,192,72435,1,0,0:0:0:0:
320,192,72529,1,0,0:0:0:0:
64,192,72624,1,2,0:0:0:0:
448,192,72624,1,0,0:0:0:0:
192,192,72719,1,0,0:0:0:0:
320,192,72814,1,0,0:0:0:0:
64,192,72909,1,0,0:0:0:0:
192,192,73004,1,8,0:0:0:0:
320,192,73004,1,0,0:0:0:0:
448,192,73004,1,0,0:0:0:0:
64,192,73099,1,0,0:0:0:0:
448,192,73194,1,0,0:0:0:0:
192,192,73289,1,0,0:0:0:0:
64,192,73384,1,2,0:0:0:0:
320,192,73384,1,4,0:0:0:0:
448,192,73384,1,0,0:0:0:0:
192,192,73479,1,0,0:0:0:0:
320,192,73574,1,0,0:0:0:0:
64,192,73669,1,0,0:0:0:0:
192,192,73669,1,0,0:0:0:0:
320,192,73764,1,8,0:1:0:0:
448,192,73764,1,0,0:0:0:0:
64,192,73859,1,0,0:0:0:0:
192,192,73954,1,0,0:0:0:0:
448,192,73954,1,0,0:0:0:0:
320,192,74048,1,0,0:0:0:0:
64,192,74143,1,0,0:0:0:0:
192,192,74143,1,0,0:0:0:0:
448,192,74238,1,0,0:0:0:0:
64,192,74333,1,0,0:0:0:0:
192,192,74428,1,0,0:0:0:0:
320,192,74428,1,0,0:0:0:0:
64,192,74523,1,8,0:1:0:0:
448,192,74523,1,0,0:0:0:0:
192,192,74618,1,0,0:0:0:0:
320,192,74713,1,0,0:0:0:0:
448,192,74713,1,0,0:0:0:0:
192,192,74808,1,0,0:0:0:0:
64,192,74903,1,0,0:0:0:0:
320,192,74903,1,0,0:0:0:0:
448,192,74903,1,0,0:0:0:0:
192,192,74998,1,0,0:0:0:0:
64,192,75093,1,0,0:0:0:0:
320,192,75093,1,0,0:0:0:0:
192,192,75188,1,0,0:0:0:0:
448,192,75188,1,0,0:0:0:0:
64,192,75283,1,8,0:1:0:0:
320,192,75283,1,0,0:0:0:0:
448,192,75378,1,0,0:0:0:0:
64,192,75473,1,0,0:0:0:0:
192,192,75473,1,0,0:0:0:0:
320,192,75567,1,0,0:0:0:0:
64,192,75662,1,2,0:0:0:0:
448,192,75662,1,0,0:0:0:0:
192,192,75757,1,0,0:0:0:0:
320,192,75852,1,2,0:0:0:0:
448,192,75852,1,0,0:0:0:0:
64,192,75947,1,0,0:0:0:0:
192,192,75947,1,0,0:0:0:0:
320,192,76042,1,8,0:1:0:0:
448,192,76042,1,2,0:0:0:0:
64,192,76137,1,0,0:0:0:0:
192,192,76232,1,2,0:0:0:0:
320,192,76232,1,0,0:0:0:0:
448,192,76327,1,0,0:0:0:0:
64,192,76422,1,2,0:0:0:0:
192,192,76422,1,8,0:1:0:0:
320,192,76517,1,2,0:0:0:0:
448,192,76517,1,0,0:0:0:0:
64,192,76612,1,2,0:0:0:0:
192,192,76612,1,0,0:0:0:0:
320,192,76707,1,2,0:0:0:0:
448,192,76707,1,0,0:0:0:0:
64,192,76802,1,2,0:0:0:0:
192,192,76802,1,8,0:1:0:0:
320,192,76897,1,2,0:0:0:0:
192,192,76992,1,2,0:0:0:0:
448,192,76992,1,0,0:0:0:0:
64,192,77086,1,2,0:0:0:0:
320,192,77181,1,2,0:0:0:0:
448,192,77181,1,8,0:1:0:0:
64,192,77276,1,2,0:0:0:0:
192,192,77276,1,0,0:0:0:0:
320,192,77371,1,2,0:0:0:0:
448,192,77371,1,0,0:0:0:0:
64,192,77466,1,2,0:0:0:0:
192,192,77466,1,0,0:0:0:0:
320,192,77561,1,8,0:1:0:0:
448,192,77561,1,2,0:0:0:0:
64,192,77656,1,2,0:0:0:0:
192,192,77656,1,0,0:0:0:0:
320,192,77751,1,2,0:0:0:0:
448,192,77751,1,0,0:0:0:0:
192,192,77846,1,2,0:0:0:0:
64,192,77941,1,8,0:1:0:0:
320,192,77941,1,0,0:0:0:0:
448,192,77941,1,0,0:0:0:0:
192,192,78067,1,8,0:1:0:0:
320,192,78067,1,0,0:0:0:0:
448,192,78067,1,0,0:0:0:0:
64,192,78194,1,8,0:1:0:0:
192,192,78194,1,0,0:0:0:0:
448,192,78194,1,0,0:0:0:0:
64,192,78321,1,8,0:1:0:0:
192,192,78321,1,0,0:0:0:0:
320,192,78321,1,0,0:0:0:0:
64,192,78447,1,8,0:1:0:0:
320,192,78447,1,0,0:0:0:0:
448,192,78447,1,0,0:0:0:0:
192,192,78574,1,8,0:1:0:0:
320,192,78574,1,0,0:0:0:0:
448,192,78574,1,0,0:0:0:0:
64,192,78700,1,8,0:1:0:0:
192,192,78700,1,0,0:0:0:0:
448,192,78700,128,0,79365:0:0:0:0:
64,192,79080,128,0,79365:0:0:0:0:
64,192,79460,1,4,0:0:0:0:
192,192,79460,128,2,79745:0:0:0:0:
448,192,79460,1,0,0:0:0:0:
448,192,79650,1,0,0:0:0:0:
320,192,79745,1,0,0:0:0:0:
64,192,79840,1,8,0:0:0:0:
192,192,79840,1,0,0:0:0:0:
448,192,79840,1,0,0:0:0:0:
320,192,79935,1,0,0:0:0:0:
64,192,80029,128,0,80504:0:0:0:0:
192,192,80124,1,0,0:0:0:0:
320,192,80219,1,2,0:0:0:0:
448,192,80219,128,0,80504:0:0:0:0:
192,192,80409,1,0,0:0:0:0:
320,192,80504,1,0,0:0:0:0:
64,192,80599,1,8,0:0:0:0:
192,192,80599,128,0,80789:0:0:0:0:
448,192,80599,1,0,0:0:0:0:
320,192,80789,128,0,80979:0:0:0:0:
64,192,80979,128,2,81169:0:0:0:0:
448,192,80979,1,0,0:0:0:0:
320,192,81169,1,0,0:0:0:0:
192,192,81264,128,0,81454:0:0:0:0:
64,192,81359,1,8,0:0:0:0:
320,192,81359,1,0,0:0:0:0:
448,192,81359,1,0,0:0:0:0:
448,192,81548,128,0,82023:0:0:0:0:
320,192,81643,1,0,0:0:0:0:
64,192,81738,128,2,82023:0:0:0:0:
192,192,81738,1,0,0:0:0:0:
320,192,81928,128,0,82023:0:0:0:0:
192,192,82023,128,0,82118:0:0:0:0:
64,192,82118,1,2,0:0:0:0:
320,192,82118,128,0,82213:0:0:0:0:
448,192,82118,1,0,0:0:0:0:
192,192,82213,128,0,82308:0:0:0:0:
448,192,82308,128,0,82403:0:0:0:0:
320,192,82403,128,0,82498:0:0:0:0:
64,192,82498,128,2,82783:0:0:0:0:
192,192,82498,1,0,0:0:0:0:
320,192,82688,1,0,0:0:0:0:
192,192,82783,1,0,0:0:0:0:
64,192,82878,1,8,0:0:0:0:
320,192,82878,1,0,0:0:0:0:
448,192,82878,1,0,0:0:0:0:
192,192,82973,1,0,0:0:0:0:
320,192,83067,128,0,83542:0:0:0:0:
64,192,83162,1,0,0:0:0:0:
192,192,83257,1,2,0:0:0:0:
448,192,83257,128,0,83542:0:0:0:0:
64,192,83447,1,0,0:0:0:0:
192,192,83542,1,0,0:0:0:0:
64,192,83637,128,8,83827:0:0:0:0:
320,192,83637,1,0,0:0:0:0:
448,192,83637,1,0,0:0:0:0:
192,192,83827,128,0,84017:0:0:0:0:
320,192,84017,1,2,0:0:0:0:
448,192,84017,128,0,84207:0:0:0:0:
192,192,84207,1,0,0:0:0:0:
320,192,84302,128,0,84492:0:0:0:0:
64,192,84397,1,8,0:0:0:0:
192,192,84397,1,0,0:0:0:0:
448,192,84397,1,0,0:0:0:0:
64,192,84586,128,0,84966:0:0:0:0:
192,192,84681,1,0,0:0:0:0:
320,192,84776,128,2,84871:0:0:0:0:
448,192,84776,128,8,85061:0:1:0:0:
192,192,84871,128,0,84966:0:0:0:0:
320,192,84966,128,0,85061:0:0:0:0:
64,192,85061,128,8,85156:0:1:0:0:
192,192,85061,1,0,0:0:0:0:
320,192,85156,128,2,85251:0:0:0:0:
448,192,85156,1,0,0:0:0:0:
192,192,85251,128,0,85346:0:0:0:0:
64,192,85346,128,8,85441:0:1:0:0:
448,192,85346,1,0,0:0:0:0:
320,192,85441,128,0,85536:0:0:0:0:
64,192,85536,1,2,0:0:0:0:
192,192,85536,1,4,0:0:0:0:
448,192,85536,128,0,85821:0:0:0:0:
192,192,85726,1,0,0:0:0:0:
320,192,85821,1,0,0:0:0:0:
64,192,85916,1,8,0:0:0:0:
192,192,85916,1,0,0:0:0:0:
448,192,85916,1,0,0:0:0:0:
320,192,86011,1,0,0:0:0:0:
64,192,86105,128,0,86295:0:0:0:0:
192,192,86200,1,0,0:0:0:0:
320,192,86295,1,2,0:0:0:0:
448,192,86295,128,0,86485:0:0:0:0:
192,192,86485,1,0,0:0:0:0:
320,192,86580,128,0,86770:0:0:0:0:
64,192,86675,1,8,0:0:0:0:
192,192,86675,1,0,0:0:0:0:
448,192,86675,1,0,0:0:0:0:
192,192,86865,128,0,87055:0:0:0:0:
320,192,87055,1,2,0:0:0:0:
448,192,87055,128,0,87340:0:0:0:0:
64,192,87245,1,0,0:0:0:0:
192,192,87340,1,0,0:0:0:0:
64,192,87435,1,8,0:0:0:0:
320,192,87435,128,0,87719:0:0:0:0:
448,192,87435,1,0,0:0:0:0:
192,192,87624,1,0,0:0:0:0:
448,192,87719,1,0,0:0:0:0:
64,192,87814,128,2,88099:0:0:0:0:
320,192,87814,1,0,0:0:0:0:
192,192,87909,1,0,0:0:0:0:
448,192,88004,128,0,88099:0:0:0:0:
320,192,88099,128,0,88194:0:0:0:0:
64,192,88194,1,8,0:0:0:0:
192,192,88194,128,0,88289:0:0:0:0:
448,192,88194,1,0,0:0:0:0:
320,192,88289,128,0,88384:0:0:0:0:
64,192,88384,128,0,88479:0:0:0:0:
448,192,88384,128,0,88479:0:0:0:0:
192,192,88479,128,0,88574:0:0:0:0:
64,192,88574,1,2,0:0:0:0:
320,192,88574,128,4,88859:0:0:0:0:
448,192,88574,1,0,0:0:0:0:
448,192,88764,1,0,0:0:0:0:
64,192,88859,1,0,0:0:0:0:
192,192,89048,1,0,0:0:0:0:
448,192,89143,1,0,0:0:0:0:
320,192,89238,1,0,0:0:0:0:
64,192,89333,1,4,0:0:0:0:
192,192,89333,128,2,89618:0:0:0:0:
448,192,89333,1,0,0:0:0:0:
64,192,89523,1,0,0:0:0:0:
320,192,89618,1,0,0:0:0:0:
448,192,89713,1,0,0:0:0:0:
64,192,89808,1,0,0:0:0:0:
192,192,89855,1,0,0:0:0:0:
448,192,89903,1,0,0:0:0:0:
320,192,89950,1,0,0:0:0:0:
64,192,89998,1,0,0:0:0:0:
192,192,90045,1,0,0:0:0:0:
320,192,90093,1,4,0:0:0:0:
448,192,90093,128,2,90378:0:0:0:0:
64,192,90188,1,0,0:0:0:0:
320,192,90283,1,0,0:0:0:0:
192,192,90378,1,0,0:0:0:0:
320,192,90473,128,0,90757:0:0:0:0:
448,192,90473,1,0,0:0:0:0:
64,192,90567,1,0,0:0:0:0:
192,192,90662,1,0,0:0:0:0:
448,192,90757,1,0,0:0:0:0:
192,192,90852,128,0,91137:0:0:0:0:
320,192,90852,1,0,0:0:0:0:
64,192,90947,1,0,0:0:0:0:
448,192,91042,1,0,0:0:0:0:
320,192,91137,1,0,0:0:0:0:
64,192,91232,128,0,91517:0:0:0:0:
192,192,91232,1,0,0:0:0:0:
448,192,91327,1,0,0:0:0:0:
320,192,91422,1,0,0:0:0:0:
192,192,91517,1,0,0:0:0:0:
64,192,91612,1,2,0:0:0:0:
320,192,91612,128,4,91897:0:0:0:0:
448,192,91612,1,0,0:0:0:0:
64,192,91802,1,0,0:0:0:0:
192,192,91897,1,0,0:0:0:0:
64,192,91992,1,8,0:0:0:0:
320,192,91992,1,0,0:0:0:0:
448,192,91992,1,0,0:0:0:0:
192,192,92086,1,0,0:0:0:0:
448,192,92181,128,0,92656:0:0:0:0:
320,192,92276,1,0,0:0:0:0:
64,192,92371,128,2,92656:0:0:0:0:
192,192,92371,1,0,0:0:0:0:
320,192,92561,1,0,0:0:0:0:
192,192,92656,1,0,0:0:0:0:
64,192,92751,1,8,0:0:0:0:
320,192,92751,128,0,92941:0:0:0:0:
448,192,92751,1,0,0:0:0:0:
192,192,92941,128,0,93131:0:0:0:0:
64,192,93131,1,2,0:0:0:0:
448,192,93131,128,0,93321:0:0:0:0:
192,192,93321,1,0,0:0:0:0:
320,192,93416,128,0,93605:0:0:0:0:
64,192,93511,1,8,0:0:0:0:
192,192,93511,1,0,0:0:0:0:
448,192,93511,1,0,0:0:0:0:
64,192,93700,128,0,94175:0:0:0:0:
192,192,93795,1,0,0:0:0:0:
320,192,93890,1,2,0:0:0:0:
448,192,93890,128,0,94175:0:0:0:0:
192,192,94080,128,0,94175:0:0:0:0:
320,192,94175,128,0,94270:0:0:0:0:
64,192,94270,1,8,0:0:0:0:
192,192,94270,128,0,94365:0:0:0:0:
448,192,94270,1,0,0:0:0:0:
320,192,94365,128,0,94460:0:0:0:0:
64,192,94460,128,0,94555:0:0:0:0:
192,192,94555,128,0,94650:0:0:0:0:
320,192,94650,1,2,0:0:0:0:
448,192,94650,128,0,94935:0:0:0:0:
192,192,94840,1,0,0:0:0:0:
320,192,94935,1,0,0:0:0:0:
64,192,95029,1,8,0:0:0:0:
192,192,95029,1,0,0:0:0:0:
448,192,95029,1,0,0:0:0:0:
320,192,95124,1,0,0:0:0:0:
192,192,95219,128,0,95694:0:0:0:0:
448,192,95314,1,0,0:0:0:0:
64,192,95409,128,2,95694:0:0:0:0:
320,192,95409,1,0,0:0:0:0:
448,192,95599,1,0,0:0:0:0:
320,192,95694,1,0,0:0:0:0:
64,192,95789,1,8,0:0:0:0:
192,192,95789,1,0,0:0:0:0:
448,192,95789,128,0,95979:0:0:0:0:
320,192,95979,128,0,96169:0:0:0:0:
64,192,96169,128,2,96359:0:0:0:0:
192,192,96169,1,0,0:0:0:0:
320,192,96359,1,0,0:0:0:0:
192,192,96454,128,0,96643:0:0:0:0:
64,192,96548,1,8,0:0:0:0:
320,192,96548,1,0,0:0:0:0:
448,192,96548,1,0,0:0:0:0:
448,192,96738,128,0,97118:0:0:0:0:
320,192,96833,1,0,0:0:0:0:
64,192,96928,128,2,97213:0:0:0:0:
192,192,96928,128,0,97023:0:0:0:0:
320,192,97023,128,0,97118:0:0:0:0:
192,192,97118,128,0,97213:0:0:0:0:
320,192,97213,1,0,0:0:0:0:
448,192,97213,128,0,97308:0:0:0:0:
64,192,97308,1,8,0:0:0:0:
192,192,97308,128,0,97403:0:0:0:0:
320,192,97403,128,0,97498:0:0:0:0:
64,192,97498,1,0,0:0:0:0:
448,192,97498,128,0,97593:0:0:0:0:
192,192,97593,128,0,97688:0:0:0:0:
64,192,97688,128,2,97973:0:0:0:0:
320,192,97688,1,4,0:0:0:0:
448,192,97688,1,0,0:0:0:0:
320,192,97878,1,0,0:0:0:0:
192,192,97973,1,0,0:0:0:0:
64,192,98067,1,8,0:0:0:0:
320,192,98067,1,0,0:0:0:0:
448,192,98067,1,0,0:0:0:0:
192,192,98162,1,0,0:0:0:0:
448,192,98257,128,0,98447:0:0:0:0:
320,192,98352,1,0,0:0:0:0:
64,192,98447,128,2,98637:0:0:0:0:
192,192,98447,1,0,0:0:0:0:
320,192,98637,1,0,0:0:0:0:
192,192,98732,128,0,98922:0:0:0:0:
64,192,98827,1,8,0:0:0:0:
320,192,98827,1,0,0:0:0:0:
448,192,98827,1,0,0:0:0:0:
320,192,99017,128,0,99207:0:0:0:0:
64,192,99207,128,2,99492:0:0:0:0:
192,192,99207,1,0,0:0:0:0:
448,192,99397,1,0,0:0:0:0:
320,192,99492,1,0,0:0:0:0:
64,192,99586,1,8,0:0:0:0:
192,192,99586,128,0,99871:0:0:0:0:
448,192,99586,1,0,0:0:0:0:
320,192,99776,1,0,0:0:0:0:
64,192,99871,1,0,0:0:0:0:
192,192,99966,1,2,0:0:0:0:
448,192,99966,128,0,100251:0:0:0:0:
320,192,100061,1,0,0:0:0:0:
64,192,100156,128,0,100251:0:0:0:0:
192,192,100251,128,0,100346:0:0:0:0:
64,192,100346,1,8,0:0:0:0:
320,192,100346,128,0,100441:0:0:0:0:
448,192,100346,128,0,100441:0:0:0:0:
192,192,100441,128,0,100536:0:0:0:0:
64,192,100536,128,0,100631:0:0:0:0:
448,192,100536,128,0,100631:0:0:0:0:
320,192,100631,128,0,100726:0:0:0:0:
64,192,100726,128,2,101011:0:0:0:0:
192,192,100726,1,0,0:0:0:0:
320,192,100916,1,0,0:0:0:0:
192,192,101011,1,0,0:0:0:0:
64,192,101105,1,8,0:0:0:0:
320,192,101105,1,0,0:0:0:0:
448,192,101105,128,0,101390:0:0:0:0:
192,192,101200,1,0,0:0:0:0:
64,192,101295,1,0,0:0:0:0:
320,192,101390,1,0,0:0:0:0:
192,192,101485,128,2,101675:0:0:0:0:
448,192,101485,1,0,0:0:0:0:
320,192,101675,128,0,101865:0:0:0:0:
192,192,101770,1,0,0:0:0:0:
64,192,101865,128,8,102055:0:0:0:0:
448,192,101865,1,0,0:0:0:0:
192,192,102055,128,0,102245:0:0:0:0:
448,192,102150,1,0,0:0:0:0:
64,192,102245,1,2,0:0:0:0:
320,192,102245,128,0,103004:0:0:0:0:
192,192,102435,1,0,0:0:0:0:
448,192,102529,1,0,0:0:0:0:
64,192,102624,1,8,0:0:0:0:
192,192,102624,1,0,0:0:0:0:
448,192,102814,1,0,0:0:0:0:
192,192,102909,1,0,0:0:0:0:
64,192,103004,1,2,0:0:0:0:
448,192,103004,1,0,0:0:0:0:
320,192,103099,1,0,0:0:0:0:
192,192,103194,1,0,0:0:0:0:
320,192,103289,1,0,0:0:0:0:
64,192,103384,1,8,0:0:0:0:
192,192,103384,128,0,103574:0:0:0:0:
448,192,103384,1,0,0:0:0:0:
320,192,103574,128,0,103764:0:0:0:0:
64,192,103764,1,2,0:0:0:0:
192,192,103764,1,4,0:0:0:0:
448,192,103764,128,0,104048:0:0:0:0:
192,192,103954,1,0,0:0:0:0:
320,192,104048,1,0,0:0:0:0:
64,192,104143,128,8,104428:0:0:0:0:
192,192,104143,1,0,0:0:0:0:
448,192,104143,1,0,0:0:0:0:
320,192,104238,1,0,0:0:0:0:
448,192,104333,1,0,0:0:0:0:
192,192,104428,1,0,0:0:0:0:
320,192,104523,128,2,104713:0:0:0:0:
448,192,104523,1,0,0:0:0:0:
64,192,104618,1,0,0:0:0:0:
192,192,104713,128,0,104903:0:0:0:0:
320,192,104808,1,0,0:0:0:0:
64,192,104903,128,8,105093:0:0:0:0:
448,192,104903,1,0,0:0:0:0:
448,192,105093,128,0,105283:0:0:0:0:
64,192,105283,1,2,0:0:0:0:
192,192,105283,128,0,106042:0:0:0:0:
320,192,105473,1,0,0:0:0:0:
64,192,105567,1,0,0:0:0:0:
320,192,105662,1,8,0:0:0:0:
448,192,105662,1,0,0:0:0:0:
64,192,105852,1,0,0:0:0:0:
320,192,105947,1,0,0:0:0:0:
64,192,106042,1,2,0:0:0:0:
448,192,106042,1,0,0:0:0:0:
192,192,106137,1,0,0:0:0:0:
320,192,106232,1,0,0:0:0:0:
192,192,106327,1,0,0:0:0:0:
64,192,106422,1,8,0:0:0:0:
320,192,106422,128,0,106612:0:0:0:0:
448,192,106422,1,0,0:0:0:0:
192,192,106612,128,0,106802:0:0:0:0:
64,192,106802,1,2,0:0:0:0:
320,192,106802,1,4,0:0:0:0:
448,192,106802,128,0,107181:0:0:0:0:
192,192,107181,1,0,0:0:0:0:
320,192,107371,1,0,0:0:0:0:
192,192,107466,1,0,0:0:0:0:
64,192,107561,128,2,107751:0:0:0:0:
320,192,107561,1,4,0:0:0:0:
448,192,107561,1,0,0:0:0:0:
448,192,107751,128,0,107941:0:0:0:0:
320,192,107941,128,0,108131:0:0:0:0:
192,192,108131,128,0,108321:0:0:0:0:
64,192,108321,128,2,109840:0:0:0:0:
320,192,108321,1,4,0:0:0:0:
448,192,108321,1,0,0:0:0:0:
320,192,108700,1,0,0:0:0:0:
448,192,108890,1,0,0:0:0:0:
192,192,109080,1,0,0:0:0:0:
320,192,109270,1,0,0:0:0:0:
448,192,109460,1,0,0:0:0:0:
192,192,109650,1,0,0:0:0:0:
320,192,109840,1,2,0:0:0:0:
448,192,109840,128,0,110124:0:0:0:0:
192,192,109935,1,2,0:0:0:0:
64,192,110029,128,2,110314:0:0:0:0:
320,192,110124,1,2,0:0:0:0:
192,192,110219,1,2,0:0:0:0:
448,192,110219,128,0,110504:0:0:0:0:
320,192,110314,1,2,0:0:0:0:
64,192,110409,128,2,110599:0:0:0:0:
192,192,110504,1,2,0:0:0:0:
320,192,110599,1,2,0:0:0:0:
448,192,110599,1,0,0:0:0:0:
64,192,110694,1,2,0:0:0:0:
192,192,110694,1,0,0:0:0:0:
320,192,110789,1,2,0:0:0:0:
448,192,110789,1,0,0:0:0:0:
64,192,110884,1,2,0:0:0:0:
192,192,110884,1,0,0:0:0:0:
320,192,110979,1,2,0:0:0:0:
448,192,110979,1,0,0:0:0:0:
64,192,111074,1,2,0:0:0:0:
192,192,111074,1,0,0:0:0:0:
320,192,111169,1,2,0:0:0:0:
448,192,111169,1,0,0:0:0:0:
192,192,111264,1,2,0:0:0:0:
64,192,111359,1,4,0:0:0:0:
320,192,111359,128,2,111643:0:0:0:0:
448,192,111359,128,0,111643:0:0:0:0:
64,192,111548,1,0,0:0:0:0:
192,192,111643,1,0,0:0:0:0:
448,192,111738,1,8,0:0:0:0:
320,192,111738,1,0,0:0:0:0:
64,192,111738,128,0,112023:0:0:0:0:
320,192,111928,1,0,0:0:0:0:
64,192,112118,128,2,112403:0:0:0:0:
448,192,112118,128,0,112403:0:0:0:0:
320,192,112308,1,0,0:0:0:0:
192,192,112403,1,0,0:0:0:0:
64,192,112498,1,8,0:0:0:0:
320,192,112498,128,0,112783:0:0:0:0:
448,192,112498,1,0,0:0:0:0:
192,192,112688,1,0,0:0:0:0:
64,192,112878,1,2,0:1:0:0:
320,192,112878,1,0,0:0:0:0:
448,192,112878,1,0,0:0:0:0:
64,192,113067,1,2,0:1:0:0:
320,192,113067,1,0,0:0:0:0:
448,192,113067,1,0,0:0:0:0:
64,192,113257,1,2,0:1:0:0:
320,192,113257,1,0,0:0:0:0:
448,192,113257,1,0,0:0:0:0:
64,192,113447,1,2,0:1:0:0:
320,192,113447,1,0,0:0:0:0:
448,192,113447,1,0,0:0:0:0:
64,192,113637,1,2,0:1:0:0:
320,192,113637,1,0,0:0:0:0:
448,192,113637,1,0,0:0:0:0:
192,192,113732,1,0,0:0:0:0:
448,192,113827,1,0,0:0:0:0:
320,192,113922,1,0,0:0:0:0:
64,192,114017,1,2,0:0:0:0:
192,192,114017,1,0,0:0:0:0:
448,192,114080,1,0,0:0:0:0:
320,192,114143,1,0,0:0:0:0:
64,192,114207,1,0,0:0:0:0:
192,192,114270,1,0,0:0:0:0:
320,192,114333,1,0,0:0:0:0:
64,192,114397,128,2,114681:0:0:0:0:
192,192,114397,128,4,114681:0:0:0:0:
448,192,114397,1,0,0:0:0:0:
448,192,114586,1,0,0:0:0:0:
320,192,114681,1,0,0:0:0:0:
448,192,114776,128,8,115061:0:0:0:0:
192,192,114776,1,0,0:0:0:0:
64,192,114776,1,0,0:0:0:0:
192,192,114966,1,0,0:0:0:0:
448,192,115156,1,2,0:0:0:0:
64,192,115156,128,0,115441:0:0:0:0:
320,192,115346,1,0,0:0:0:0:
192,192,115441,1,0,0:0:0:0:
448,192,115536,128,8,115821:0:0:0:0:
320,192,115536,1,0,0:0:0:0:
64,192,115536,1,0,0:0:0:0:
192,192,115726,1,0,0:0:0:0:
320,192,115821,1,0,0:0:0:0:
448,192,115916,1,2,0:1:0:0:
192,192,115916,1,0,0:0:0:0:
64,192,115916,1,0,0:0:0:0:
448,192,116105,1,2,0:1:0:0:
192,192,116105,1,0,0:0:0:0:
64,192,116105,1,0,0:0:0:0:
448,192,116295,1,2,0:1:0:0:
192,192,116295,1,0,0:0:0:0:
64,192,116295,1,0,0:0:0:0:
448,192,116485,1,2,0:1:0:0:
192,192,116485,1,0,0:0:0:0:
64,192,116485,1,0,0:0:0:0:
320,192,116675,1,0,0:0:0:100:cowbell.wav
448,192,116675,128,0,116960:0:0:0:0:
64,192,116865,128,0,117150:0:0:0:0:
320,192,117055,1,0,0:0:0:100:cowbell.wav
448,192,117055,128,0,117340:0:0:0:0:
64,192,117245,128,0,117435:0:0:0:0:
192,192,117435,1,2,0:0:0:0:
320,192,117435,128,4,117719:0:0:0:0:
448,192,117435,128,0,117719:0:0:0:0:
64,192,117624,1,0,0:0:0:0:
192,192,117719,1,0,0:0:0:0:
64,192,117814,1,4,0:1:0:0:
320,192,117814,1,2,0:0:0:0:
448,192,117814,1,0,0:0:0:0:
64,192,118194,1,2,0:0:0:0:
448,192,118194,128,4,118384:0:0:0:0:
192,192,118289,1,0,0:0:0:0:
320,192,118384,1,0,0:0:0:0:
192,192,118479,1,0,0:0:0:0:
64,192,118574,128,8,118764:0:0:0:0:
448,192,118574,1,0,0:0:0:0:
192,192,118764,1,0,0:0:0:0:
320,192,118954,128,2,119238:0:0:0:0:
448,192,118954,128,0,119238:0:0:0:0:
64,192,119143,1,0,0:0:0:0:
192,192,119238,1,0,0:0:0:0:
64,192,119333,1,8,0:0:0:0:
320,192,119333,1,0,0:0:0:0:
448,192,119333,1,0,0:0:0:0:
192,192,119523,1,0,0:0:0:0:
320,192,119618,1,0,0:0:0:0:
64,192,119713,128,2,119998:0:0:0:0:
192,192,119713,128,0,119903:0:0:0:0:
448,192,119808,1,0,0:0:0:0:
320,192,119903,1,0,0:0:0:0:
192,192,119998,1,0,0:0:0:0:
320,192,120093,1,8,0:0:0:0:
448,192,120093,1,0,0:0:0:0:
64,192,120156,1,0,0:0:0:0:
192,192,120219,1,0,0:0:0:0:
448,192,120283,1,0,0:0:0:0:
320,192,120346,1,0,0:0:0:0:
192,192,120409,1,0,0:0:0:0:
64,192,120473,1,4,0:0:0:0:
320,192,120473,1,2,0:0:0:0:
448,192,120473,1,0,0:0:0:0:
64,192,120662,1,2,0:0:0:0:
192,192,120662,1,0,0:0:0:0:
192,192,120852,1,2,0:0:0:0:
320,192,120852,1,8,0:0:0:0:
320,192,121042,1,2,0:0:0:0:
448,192,121042,1,0,0:0:0:0:
192,192,121137,1,0,0:0:0:0:
64,192,121232,1,2,0:0:0:0:
448,192,121232,1,0,0:0:0:0:
320,192,121327,1,0,0:0:0:0:
64,192,121422,1,2,0:0:0:0:
192,192,121422,1,0,0:0:0:0:
320,192,121517,1,0,0:0:0:0:
64,192,121612,1,8,0:0:0:0:
448,192,121612,1,2,0:0:0:0:
192,192,121707,1,0,0:0:0:0:
320,192,121802,1,2,0:0:0:0:
448,192,121802,1,0,0:0:0:0:
192,192,121897,1,0,0:0:0:0:
64,192,121992,1,2,0:0:0:0:
448,192,121992,1,0,0:0:0:0:
320,192,122039,1,0,0:0:0:0:
192,192,122086,1,2,0:0:0:0:
64,192,122134,1,0,0:0:0:0:
320,192,122181,1,2,0:0:0:0:
448,192,122181,1,0,0:0:0:0:
64,192,122276,1,2,0:0:0:0:
192,192,122276,1,0,0:0:0:0:
320,192,122371,1,8,0:0:0:0:
448,192,122371,1,2,0:0:0:0:
64,192,122466,1,2,0:0:0:0:
192,192,122466,1,0,0:0:0:0:
448,192,122561,1,2,0:0:0:0:
320,192,122609,1,2,0:0:0:0:
192,192,122656,1,2,0:0:0:0:
64,192,122704,1,0,0:0:0:0:
320,192,122751,1,2,0:0:0:0:
448,192,122751,1,0,0:0:0:0:
64,192,122846,1,2,0:0:0:0:
192,192,122846,1,0,0:0:0:0:
320,192,122941,1,2,0:0:0:0:
448,192,122988,1,2,0:0:0:0:
64,192,123036,1,2,0:0:0:0:
192,192,123083,1,0,0:0:0:0:
320,192,123131,1,2,0:0:0:0:
448,192,123131,1,8,0:0:0:0:
64,192,123226,1,2,0:0:0:0:
192,192,123226,1,0,0:0:0:0:
448,192,123321,1,2,0:0:0:0:
320,192,123368,1,2,0:0:0:0:
192,192,123416,1,2,0:0:0:0:
64,192,123463,1,2,0:0:0:0:
320,192,123511,1,2,0:0:0:0:
448,192,123558,1,0,0:0:0:0:
64,192,123605,1,0,0:0:0:0:
192,192,123653,1,0,0:0:0:0:
320,192,123700,1,0,0:0:0:0:
448,192,123748,1,0,0:0:0:0:
64,192,123795,1,0,0:0:0:0:
192,192,123843,1,0,0:0:0:0:
448,192,123890,128,6,124270:0:0:0:0:
320,192,123890,128,4,124270:0:1:0:0:
