osu file format v14

[General]
AudioFilename: ONOMATO.mp3
AudioLeadIn: 0
PreviewTime: 78700
Countdown: 0
SampleSet: Soft
StackLeniency: 0.7
Mode: 3
LetterboxInBreaks: 0
SpecialStyle: 0
WidescreenStoryboard: 0

[Editor]
Bookmarks: 50414
DistanceSpacing: 0.9
BeatDivisor: 4
GridSize: 16
TimelineZoom: 1.500001

[Metadata]
Title:ONOMATO Pairing!!!
TitleUnicode:ONOMATO Pairing!!!
Artist:t+pazolite feat. Nanahira
ArtistUnicode:t+pazolite feat. ななひら
Creator:Syadow-
Version:BEGINNER
Source:WACCA Lily
Tags:electronic hardcore techno tano*c j-core jcore mirea chouyaa agayers rhezie japanese angki Marvelous MARVA-0003 tpazolite tpz Muse Dash
BeatmapID:2642861
BeatmapSetID:1271793

[Difficulty]
HPDrainRate:7
CircleSize:4
OverallDifficulty:7
ApproachRate:5
SliderMultiplier:1.4
SliderTickRate:1

[Events]
//Background and Video events
0,0,"ono2.jpg",0,0
//Break Periods
//Storyboard Layer 0 (Background)
//Storyboard Layer 1 (Fail)
//Storyboard Layer 2 (Pass)
//Storyboard Layer 3 (Foreground)
//Storyboard Layer 4 (Overlay)
//Storyboard Sound Samples
Sample,15473,0,"Hey!.wav",70
Sample,16992,0,"Hey!.wav",70
Sample,18511,0,"Hey!.wav",70
Sample,20789,0,"Hey!.wav",70
Sample,21548,0,"Hey!.wav",70
Sample,22308,0,"Hey!.wav",70
Sample,23067,0,"Hey!.wav",70
Sample,24207,0,"Hey!.wav",70
Sample,24586,0,"Hey!.wav",70
Sample,47181,0,"cowbell.wav",100
Sample,76042,0,"normal-hitclap.wav",50
Sample,76422,0,"normal-hitclap.wav",50
Sample,76802,0,"normal-hitclap.wav",50
Sample,77181,0,"normal-hitclap.wav",50
Sample,77561,0,"normal-hitclap.wav",50
Sample,84776,0,"normal-hitclap.wav",50

[TimingPoints]
3511,379.746835443038,4,2,1,50,1,0
79460,-100,4,2,1,50,0,1
88574,-100,4,2,1,50,0,0
91612,-100,4,2,1,50,0,1
106802,-100,4,2,1,50,0,0

[HitObjects]
64,192,662,128,0,3511:0:0:0:0:
192,192,3511,1,4,0:0:0:0:
448,192,3511,1,2,0:0:0:0:
64,192,5029,1,4,0:0:0:0:
320,192,5029,1,2,0:0:0:0:
192,192,6169,1,2,0:0:0:0:
320,192,6548,1,4,0:0:0:0:
448,192,6548,1,2,0:0:0:0:
64,192,8067,1,4,0:0:0:0:
192,192,8067,1,2,0:0:0:0:
192,192,8827,1,2,0:0:0:0:
448,192,8827,1,4,0:0:0:0:
320,192,9207,128,0,9586:0:0:0:0:
64,192,9586,1,4,0:0:0:0:
448,192,9586,1,2,0:0:0:0:
192,192,9966,1,2,0:0:0:0:
320,192,10346,1,2,0:0:0:0:
64,192,10726,1,2,0:0:0:0:
448,192,11105,1,2,0:0:0:0:
320,192,11485,1,2,0:0:0:0:
192,192,11865,1,2,0:0:0:0:
448,192,12245,1,2,0:0:0:0:
64,192,12624,128,2,13004:0:0:0:0:
320,192,13004,128,2,13384:0:0:0:0:
192,192,13384,128,2,13764:0:0:0:0:
448,192,13764,128,2,14143:0:0:0:0:
64,192,14143,1,2,0:0:0:0:
192,192,14143,1,4,0:0:0:0:
64,192,14523,1,2,0:0:0:0:
320,192,14903,1,2,0:0:0:0:
192,192,15188,1,2,0:0:0:0:
64,192,15473,1,2,0:0:0:0:
448,192,15662,1,2,0:0:0:0:
448,192,16042,1,2,0:0:0:0:
192,192,16422,1,2,0:0:0:0:
320,192,16707,1,2,0:0:0:0:
448,192,16992,1,2,0:0:0:0:
64,192,17181,1,2,0:0:0:0:
64,192,17561,1,2,0:0:0:0:
320,192,17941,1,2,0:0:0:0:
192,192,18226,1,2,0:0:0:0:
64,192,18511,1,2,0:0:0:0:
448,192,18700,1,2,0:0:0:0:
448,192,19080,1,2,0:0:0:0:
192,192,19460,1,2,0:0:0:0:
320,192,19840,1,0,0:0:0:70:bell.wav
64,192,20219,1,2,0:0:0:0:
192,192,20219,1,4,0:0:0:0:
448,192,20599,1,2,0:0:0:0:
64,192,20789,1,2,0:0:0:0:
448,192,20979,1,10,0:0:0:0:
192,192,21359,1,2,0:0:0:0:
320,192,21548,1,2,0:0:0:0:
448,192,21738,1,2,0:0:0:0:
64,192,22118,1,2,0:0:0:0:
448,192,22308,1,2,0:0:0:0:
64,192,22498,1,10,0:0:0:0:
320,192,22878,1,2,0:0:0:0:
192,192,23067,1,2,0:0:0:0:
64,192,23257,128,2,23637:0:0:0:0:
448,192,23637,128,2,24017:0:0:0:0:
64,192,24017,1,8,0:0:0:0:
192,192,24207,1,8,0:0:0:0:
448,192,24397,1,8,0:0:0:0:
320,192,24586,1,8,0:0:0:0:
192,192,24776,1,8,0:1:0:0:
448,192,25156,1,8,0:1:0:0:
64,192,25536,1,0,0:0:0:0:
192,192,26295,1,2,0:0:0:0:
448,192,26295,1,4,0:0:0:0:
320,192,26675,128,8,27055:0:0:0:0:
64,192,27055,1,2,0:0:0:0:
448,192,27435,128,8,27814:0:0:0:0:
192,192,27814,1,2,0:0:0:0:
320,192,28194,1,8,0:0:0:0:
64,192,28574,1,2,0:0:0:0:
448,192,28954,1,2,0:0:0:0:
320,192,29143,1,0,0:0:0:0:
64,192,29333,1,2,0:0:0:0:
192,192,29333,1,4,0:0:0:0:
320,192,29713,128,8,30093:0:0:0:0:
64,192,30093,1,2,0:0:0:0:
192,192,30473,128,8,30852:0:0:0:0:
448,192,30852,1,2,0:0:0:0:
320,192,31232,1,8,0:0:0:0:
64,192,31612,128,0,31992:0:0:0:100:cowbell.wav
448,192,31992,128,0,32371:0:0:0:100:cowbell.wav
64,192,32371,1,2,0:0:0:0:
192,192,32371,1,4,0:0:0:0:
320,192,32751,1,2,0:0:0:0:
448,192,32751,1,4,0:1:0:0:
192,192,33131,128,6,33511:0:0:0:0:
64,192,33511,128,8,33890:0:0:0:0:
448,192,33890,1,2,0:0:0:0:
192,192,34270,1,8,0:0:0:0:
320,192,34650,1,2,0:0:0:0:
64,192,35029,1,2,0:0:0:0:
192,192,35219,1,0,0:0:0:0:
320,192,35409,1,2,0:0:0:0:
448,192,35409,1,4,0:0:0:0:
64,192,35789,1,8,0:0:0:0:
320,192,36169,128,2,36548:0:0:0:0:
448,192,36548,128,8,36928:0:0:0:0:
64,192,36928,1,2,0:0:0:0:
192,192,37118,1,0,0:0:0:0:
448,192,37308,1,8,0:1:0:0:
320,192,37498,1,0,0:0:0:0:
192,192,37688,128,0,38067:0:0:0:0:
320,192,38067,128,0,38447:0:0:0:0:
64,192,38447,1,2,0:0:0:0:
448,192,38447,1,4,0:0:0:0:
192,192,38827,1,8,0:0:0:0:
320,192,39207,1,2,0:0:0:0:
64,192,39586,1,8,0:0:0:0:
448,192,39966,1,2,0:0:0:0:
320,192,40346,1,8,0:0:0:0:
192,192,40726,1,2,0:0:0:0:
448,192,41105,1,8,0:0:0:0:
320,192,41295,1,0,0:0:0:0:
64,192,41485,128,2,41865:0:0:0:0:
192,192,41485,1,4,0:0:0:0:
320,192,41865,1,8,0:0:0:0:
192,192,42245,128,2,42624:0:0:0:0:
448,192,42624,1,8,0:0:0:0:
320,192,43004,128,2,43384:0:0:0:0:
64,192,43384,1,8,0:0:0:0:
448,192,43764,1,6,0:0:0:0:
192,192,43954,1,0,0:0:0:100:cowbell.wav
320,192,44143,1,0,0:0:0:100:cowbell.wav
448,192,44333,1,0,0:0:0:100:cowbell.wav
64,192,44523,1,2,0:0:0:0:
192,192,44523,1,4,0:0:0:0:
320,192,44903,1,8,0:0:0:0:
448,192,45283,1,2,0:0:0:0:
64,192,45662,1,8,0:0:0:0:
192,192,45852,1,0,0:0:0:70:Hey!.wav
320,192,46042,1,2,0:0:0:0:
448,192,46042,128,4,46422:0:0:0:0:
192,192,46422,1,8,0:0:0:0:
320,192,46802,128,2,47181:0:0:0:0:
64,192,47181,1,8,0:0:0:0:
192,192,47561,1,2,0:0:0:0:
448,192,47561,1,4,0:0:0:0:
320,192,47941,1,2,0:0:0:0:
192,192,48131,1,2,0:0:0:0:
64,192,48321,1,2,0:0:0:0:
448,192,48321,1,4,0:0:0:0:
192,192,48700,1,2,0:0:0:0:
320,192,48890,1,2,0:0:0:0:
64,192,49080,128,2,49460:0:0:0:0:
192,192,49080,1,4,0:0:0:0:
448,192,49460,128,6,49840:0:0:0:0:
64,192,49840,1,6,0:0:0:0:
192,192,50029,1,2,0:0:0:0:
448,192,50219,1,6,0:0:0:0:
320,192,50409,1,2,0:0:0:0:
64,192,50599,1,0,0:0:0:0:
192,192,50599,1,0,0:0:0:0:
192,192,52118,1,0,0:0:0:0:
320,192,53637,1,0,0:0:0:0:
448,192,55156,1,0,0:0:0:0:
64,192,56675,1,0,0:0:0:0:
448,192,57055,128,0,57435:0:0:0:0:
320,192,57435,128,0,57814:0:0:0:0:
192,192,57814,128,0,58194:0:0:0:0:
64,192,58194,128,0,58764:0:0:0:0:
320,192,58764,128,0,59713:0:0:0:0:
192,192,59713,1,0,0:0:0:0:
64,192,60093,128,0,60473:0:0:0:0:
192,192,60473,128,0,60852:0:0:0:0:
320,192,60852,128,0,61232:0:0:0:0:
64,192,61232,128,0,62751:0:0:0:0:
448,192,62751,1,6,0:0:0:0:
192,192,63131,1,8,0:0:0:0:
448,192,63511,1,2,0:0:0:0:
192,192,63890,1,8,0:0:0:0:
320,192,64270,1,2,0:0:0:0:
64,192,64650,1,8,0:0:0:0:
320,192,65029,1,2,0:0:0:0:
64,192,65409,1,8,0:0:0:0:
448,192,65789,1,2,0:0:0:0:
192,192,66169,1,8,0:0:0:0:
448,192,66548,1,2,0:0:0:0:
192,192,66928,1,8,0:0:0:0:
320,192,67308,1,2,0:0:0:0:
64,192,67688,1,8,0:0:0:0:
320,192,68067,1,2,0:0:0:0:
192,192,68352,1,2,0:0:0:0:
64,192,68637,1,2,0:0:0:0:
448,192,68827,1,2,0:0:0:0:
192,192,69207,1,8,0:0:0:0:
448,192,69586,1,2,0:0:0:0:
192,192,69966,1,8,0:0:0:0:
320,192,70346,1,2,0:0:0:0:
64,192,70726,1,8,0:0:0:0:
320,192,71105,1,2,0:0:0:0:
64,192,71485,1,8,0:0:0:0:
448,192,71865,1,2,0:0:0:0:
192,192,72245,1,8,0:0:0:0:
448,192,72624,1,2,0:0:0:0:
192,192,73004,1,8,0:0:0:0:
320,192,73384,128,2,73764:0:0:0:0:
448,192,73384,1,4,0:0:0:0:
192,192,73764,128,8,74143:0:1:0:0:
448,192,74143,128,0,74523:0:0:0:0:
64,192,74523,128,8,74903:0:1:0:0:
320,192,74903,1,0,0:0:0:0:
192,192,75093,1,0,0:0:0:0:
64,192,75283,1,8,0:1:0:0:
448,192,75662,1,2,0:0:0:0:
320,192,75852,1,2,0:0:0:0:
192,192,76042,1,2,0:0:0:0:
64,192,76422,1,2,0:0:0:0:
192,192,76612,1,2,0:0:0:0:
320,192,76802,1,2,0:0:0:0:
192,192,77181,1,2,0:0:0:0:
320,192,77371,1,2,0:0:0:0:
448,192,77561,1,2,0:0:0:0:
64,192,77941,128,8,78321:0:1:0:0:
448,192,78321,128,8,78700:0:1:0:0:
64,192,78700,1,8,0:1:0:0:
64,192,79460,1,4,0:0:0:0:
192,192,79460,1,2,0:0:0:0:
448,192,79840,1,8,0:0:0:0:
192,192,80219,1,2,0:0:0:0:
320,192,80599,1,8,0:0:0:0:
64,192,80979,1,2,0:0:0:0:
192,192,81359,1,8,0:0:0:0:
448,192,81738,128,2,82118:0:0:0:0:
64,192,82118,128,2,82498:0:0:0:0:
320,192,82498,1,2,0:0:0:0:
192,192,82878,1,8,0:0:0:0:
448,192,83257,1,2,0:0:0:0:
320,192,83637,1,8,0:0:0:0:
64,192,84017,1,2,0:0:0:0:
192,192,84397,1,8,0:0:0:0:
320,192,84776,128,2,85156:0:0:0:0:
192,192,85156,128,2,85536:0:0:0:0:
64,192,85536,1,2,0:0:0:0:
448,192,85536,1,4,0:0:0:0:
320,192,85916,1,8,0:0:0:0:
64,192,86295,1,2,0:0:0:0:
192,192,86675,1,8,0:0:0:0:
448,192,87055,1,2,0:0:0:0:
64,192,87435,1,8,0:0:0:0:
320,192,87814,128,2,88194:0:0:0:0:
448,192,88194,128,8,88574:0:0:0:0:
64,192,88574,1,2,0:0:0:0:
192,192,88574,1,4,0:0:0:0:
320,192,89333,1,4,0:0:0:0:
448,192,89333,1,2,0:0:0:0:
64,192,90093,128,4,90473:0:0:0:0:
192,192,90093,1,2,0:0:0:0:
448,192,90473,128,0,90852:0:0:0:0:
320,192,90852,128,0,91232:0:0:0:0:
192,192,91232,128,0,91612:0:0:0:0:
320,192,91612,1,2,0:0:0:0:
448,192,91612,1,4,0:0:0:0:
64,192,91992,1,8,0:0:0:0:
320,192,92371,1,2,0:0:0:0:
192,192,92751,1,8,0:0:0:0:
448,192,93131,1,2,0:0:0:0:
320,192,93511,1,8,0:0:0:0:
64,192,93890,128,2,94270:0:0:0:0:
448,192,94270,128,8,94650:0:0:0:0:
192,192,94650,1,2,0:0:0:0:
320,192,95029,1,8,0:0:0:0:
64,192,95409,1,2,0:0:0:0:
192,192,95789,1,8,0:0:0:0:
448,192,96169,1,2,0:0:0:0:
320,192,96548,1,8,0:0:0:0:
192,192,96928,128,2,97308:0:0:0:0:
320,192,97308,128,8,97688:0:0:0:0:
64,192,97688,1,2,0:0:0:0:
448,192,97688,1,4,0:0:0:0:
192,192,98067,1,8,0:0:0:0:
448,192,98447,1,2,0:0:0:0:
320,192,98827,1,8,0:0:0:0:
64,192,99207,1,2,0:0:0:0:
448,192,99586,1,8,0:0:0:0:
192,192,99966,128,2,100346:0:0:0:0:
64,192,100346,128,8,100726:0:0:0:0:
448,192,100726,128,2,101105:0:0:0:0:
192,192,101105,1,8,0:0:0:0:
320,192,101485,128,2,101865:0:0:0:0:
64,192,101865,1,8,0:0:0:0:
192,192,102245,128,2,103004:0:0:0:0:
320,192,102624,1,8,0:0:0:0:
64,192,103004,1,2,0:0:0:0:
448,192,103384,1,8,0:0:0:0:
64,192,103764,128,2,104143:0:0:0:0:
192,192,103764,1,4,0:0:0:0:
320,192,104143,1,8,0:0:0:0:
192,192,104523,128,2,104903:0:0:0:0:
448,192,104903,1,8,0:0:0:0:
320,192,105283,128,2,106042:0:0:0:0:
192,192,105662,1,8,0:0:0:0:
448,192,106042,1,2,0:0:0:0:
64,192,106422,1,8,0:0:0:0:
192,192,106802,1,2,0:0:0:0:
448,192,106802,1,4,0:0:0:0:
64,192,107561,1,2,0:0:0:0:
320,192,107561,1,4,0:0:0:0:
64,192,108321,128,2,109840:0:0:0:0:
448,192,108321,1,4,0:0:0:0:
320,192,109840,1,2,0:0:0:0:
192,192,110219,1,2,0:0:0:0:
448,192,110599,1,2,0:0:0:0:
320,192,110789,1,2,0:0:0:0:
64,192,110979,1,2,0:0:0:0:
192,192,111169,1,2,0:0:0:0:
320,192,111359,1,4,0:0:0:0:
448,192,111359,1,2,0:0:0:0:
192,192,111738,128,8,112118:0:0:0:0:
448,192,112118,1,2,0:0:0:0:
320,192,112498,128,8,112878:0:0:0:0:
64,192,112878,1,2,0:1:0:0:
448,192,113067,1,2,0:1:0:0:
64,192,113257,1,2,0:1:0:0:
448,192,113447,1,2,0:1:0:0:
192,192,113637,128,2,114017:0:1:0:0:
448,192,114017,128,2,114397:0:0:0:0:
64,192,114397,1,2,0:0:0:0:
192,192,114397,1,4,0:0:0:0:
320,192,114776,128,8,115156:0:0:0:0:
192,192,115156,1,2,0:0:0:0:
64,192,115536,128,8,115916:0:0:0:0:
320,192,115916,1,2,0:1:0:0:
192,192,116105,1,2,0:1:0:0:
320,192,116295,1,2,0:1:0:0:
192,192,116485,1,2,0:1:0:0:
448,192,116675,128,0,117055:0:0:0:100:cowbell.wav
64,192,117055,128,0,117435:0:0:0:100:cowbell.wav
320,192,117435,1,2,0:0:0:0:
448,192,117435,1,4,0:0:0:0:
64,192,117814,1,4,0:1:0:0:
192,192,117814,1,2,0:0:0:0:
320,192,118194,128,6,118574:0:0:0:0:
448,192,118574,128,8,118954:0:0:0:0:
64,192,118954,1,2,0:0:0:0:
320,192,119333,1,8,0:0:0:0:
192,192,119713,128,2,120093:0:0:0:0:
64,192,120093,128,8,120473:0:0:0:0:
320,192,120473,1,4,0:0:0:0:
448,192,120473,1,2,0:0:0:0:
192,192,120852,1,10,0:0:0:0:
448,192,121042,1,2,0:0:0:0:
192,192,121232,1,2,0:0:0:0:
320,192,121612,1,10,0:0:0:0:
64,192,121802,1,2,0:0:0:0:
320,192,121992,128,2,122371:0:0:0:0:
192,192,122371,128,10,122751:0:0:0:0:
448,192,122751,1,2,0:0:0:0:
320,192,122941,1,2,0:0:0:0:
64,192,123131,1,10,0:0:0:0:
192,192,123321,1,2,0:0:0:0:
320,192,123511,128,2,123890:0:0:0:0:
64,192,123890,1,6,0:0:0:0:
448,192,123890,1,4,0:1:0:0:
