osu file format v14

[General]
AudioFilename: audio.mp3
AudioLeadIn: 0
PreviewTime: 134850
Countdown: 0
SampleSet: Soft
StackLeniency: 0.7
Mode: 3
LetterboxInBreaks: 0
SpecialStyle: 0
WidescreenStoryboard: 0

[Editor]
Bookmarks: 10312,29512,77512,87112,96712,105112
DistanceSpacing: 0.8
BeatDivisor: 4
GridSize: 32
TimelineZoom: 1.2

[Metadata]
Title:Niesonae
TitleUnicode:ニエソナエ
Artist:t+pazolite feat. Nanahira
ArtistUnicode:t+pazolite feat. ななひら
Creator:[TCD] Dzar03
Version:Moon Party
Source:
Tags:tpz t+pz C.H.S Cute and Headshaking Sounds CHS-0035 画​竜​顕​現​エ​ト​セ​ト​ラ Garyokengen GARYU KENGEN ET CETERA etc electronic dance music edm kawaii future bass denpa-kei hardcore j-core j-pop jpop female vocal japanese おむたつ omutatsu
BeatmapID:4377560
BeatmapSetID:2088933

[Difficulty]
HPDrainRate:8
CircleSize:4
OverallDifficulty:8
ApproachRate:5
SliderMultiplier:1.4
SliderTickRate:1

[Events]
//Background and Video events
0,0,"bg.jpg",0,0
//Break Periods
//Storyboard Layer 0 (Background)
//Storyboard Layer 1 (Fail)
//Storyboard Layer 2 (Pass)
//Storyboard Layer 3 (Foreground)
//Storyboard Layer 4 (Overlay)
//Storyboard Sound Samples

[TimingPoints]
712,300,4,2,1,80,1,0
48712,-100,4,2,1,85,0,1
57112,-100,4,2,1,90,0,0
58312,-100,4,2,1,85,0,1
66712,-100,4,2,1,80,0,0
115912,-100,4,2,1,90,0,1
133912,-100,4,2,1,95,0,0
135112,-100,4,2,1,85,0,1
143812,-100,4,2,1,90,0,0
144712,-100,4,2,1,85,0,1
153112,-100,4,2,1,90,0,0
154312,-100,4,2,1,85,0,1
163012,-100,4,2,1,90,0,0
163912,-100,4,2,1,85,0,1
172312,-100,4,2,1,80,0,0

[HitObjects]
64,192,412,128,0,562:0:0:0:0:
192,192,562,128,0,712:0:0:0:0:
448,192,712,128,0,1012:0:0:0:0:
320,192,712,1,0,0:0:0:0:
64,192,1012,128,0,1312:0:0:0:0:
192,192,1312,128,0,1612:0:0:0:0:
320,192,1612,128,0,1912:0:0:0:0:
448,192,1912,128,0,2512:0:0:0:0:
192,192,2062,1,0,0:0:0:0:
320,192,2137,1,0,0:0:0:0:
64,192,2287,1,0,0:0:0:0:
192,192,2362,1,0,0:0:0:0:
64,192,2512,1,0,0:0:0:0:
192,192,2587,1,0,0:0:0:0:
448,192,2662,1,0,0:0:0:0:
320,192,2737,1,0,0:0:0:0:
64,192,2812,128,0,2962:0:0:0:0:
320,192,2962,128,0,3112:0:0:0:0:
448,192,3112,128,0,3412:0:0:0:0:
192,192,3112,1,0,0:0:0:0:
64,192,3412,128,0,3712:0:0:0:0:
192,192,3712,128,0,4012:0:0:0:0:
320,192,4012,128,0,4312:0:0:0:0:
448,192,4312,128,0,4912:0:0:0:0:
64,192,4462,1,0,0:0:0:0:
192,192,4537,1,0,0:0:0:0:
64,192,4687,1,0,0:0:0:0:
192,192,4762,1,0,0:0:0:0:
64,192,4912,1,0,0:0:0:0:
192,192,4987,1,0,0:0:0:0:
448,192,5062,1,0,0:0:0:0:
64,192,5137,1,0,0:0:0:0:
320,192,5212,128,0,5362:0:0:0:0:
448,192,5362,128,0,5512:0:0:0:0:
192,192,5512,1,0,0:0:0:0:
64,192,5512,128,0,5812:0:0:0:0:
448,192,5812,128,0,6112:0:0:0:0:
320,192,6112,128,0,6412:0:0:0:0:
192,192,6412,128,0,6712:0:0:0:0:
64,192,6712,128,0,7162:0:0:0:0:
448,192,6862,1,0,0:0:0:0:
320,192,6937,1,0,0:0:0:0:
448,192,7087,1,0,0:0:0:0:
320,192,7162,1,0,0:0:0:0:
192,192,7312,128,0,7462:0:0:0:0:
64,192,7612,128,0,7762:0:0:0:0:
320,192,7762,128,0,7912:0:0:0:0:
192,192,7912,128,0,8362:0:0:0:0:
448,192,7912,1,0,0:0:0:0:
320,192,8062,1,0,0:0:0:0:
448,192,8212,1,0,0:0:0:0:
64,192,8362,1,0,0:0:0:0:
320,192,8512,128,0,8962:0:0:0:0:
64,192,8662,1,0,0:0:0:0:
192,192,8812,1,0,0:0:0:0:
64,192,8887,1,0,0:0:0:0:
448,192,9112,128,0,9712:0:0:0:0:
320,192,9112,1,0,0:0:0:0:
64,192,9262,1,0,0:0:0:0:
192,192,9337,1,0,0:0:0:0:
64,192,9487,1,0,0:0:0:0:
192,192,9562,1,0,0:0:0:0:
64,192,9712,1,0,0:0:0:0:
192,192,9787,1,0,0:0:0:0:
448,192,9862,1,0,0:0:0:0:
192,192,10012,128,0,10162:0:0:0:0:
448,192,10162,128,0,10312:0:0:0:0:
64,192,10312,128,0,10612:0:0:0:0:
192,192,10312,1,0,0:0:0:0:
320,192,10412,1,0,0:0:0:0:
448,192,10462,1,0,0:0:0:0:
448,192,10612,128,0,10762:0:0:0:0:
192,192,10612,1,0,0:0:0:0:
320,192,10762,1,0,0:0:0:0:
64,192,10762,1,0,0:0:0:0:
320,192,10912,128,0,11062:0:0:0:0:
192,192,11062,1,0,0:0:0:0:
192,192,11212,128,0,11362:0:0:0:0:
448,192,11362,1,0,0:0:0:0:
64,192,11362,1,0,0:0:0:0:
64,192,11512,128,0,11662:0:0:0:0:
448,192,11662,1,0,0:0:0:0:
320,192,11737,1,0,0:0:0:0:
192,192,11812,1,0,0:0:0:0:
448,192,11887,1,0,0:0:0:0:
64,192,11962,1,0,0:0:0:0:
320,192,11962,1,0,0:0:0:0:
192,192,12112,128,0,12187:0:0:0:0:
448,192,12112,128,0,12187:0:0:0:0:
64,192,12262,1,0,0:0:0:0:
448,192,12362,1,0,0:0:0:0:
320,192,12412,1,0,0:0:0:0:
64,192,12562,1,0,0:0:0:0:
192,192,12562,1,0,0:0:0:0:
448,192,12712,128,0,13012:0:0:0:0:
320,192,12712,1,0,0:0:0:0:
64,192,12862,1,0,0:0:0:0:
64,192,13012,128,0,13162:0:0:0:0:
192,192,13162,1,0,0:0:0:0:
192,192,13312,128,0,13462:0:0:0:0:
448,192,13312,1,0,0:0:0:0:
320,192,13462,1,0,0:0:0:0:
64,192,13462,1,0,0:0:0:0:
320,192,13612,128,0,13762:0:0:0:0:
448,192,13762,1,0,0:0:0:0:
448,192,13912,128,0,14062:0:0:0:0:
64,192,14062,1,0,0:0:0:0:
192,192,14062,1,0,0:0:0:0:
320,192,14137,1,0,0:0:0:0:
448,192,14212,1,0,0:0:0:0:
192,192,14287,1,0,0:0:0:0:
448,192,14362,1,0,0:0:0:0:
64,192,14362,1,0,0:0:0:0:
192,192,14512,128,0,14587:0:0:0:0:
320,192,14512,128,0,14587:0:0:0:0:
448,192,14662,1,0,0:0:0:0:
64,192,14762,1,0,0:0:0:0:
192,192,14812,1,0,0:0:0:0:
448,192,14962,1,0,0:0:0:0:
320,192,14962,1,0,0:0:0:0:
64,192,15112,128,0,15412:0:0:0:0:
192,192,15112,1,0,0:0:0:0:
320,192,15212,1,0,0:0:0:0:
448,192,15262,1,0,0:0:0:0:
448,192,15412,128,0,15562:0:0:0:0:
320,192,15562,1,0,0:0:0:0:
64,192,15562,1,0,0:0:0:0:
320,192,15712,128,0,15862:0:0:0:0:
192,192,15862,1,0,0:0:0:0:
192,192,16012,128,0,16162:0:0:0:0:
448,192,16012,1,0,0:0:0:0:
64,192,16162,1,0,0:0:0:0:
64,192,16312,128,0,16462:0:0:0:0:
320,192,16462,1,0,0:0:0:0:
448,192,16537,1,0,0:0:0:0:
64,192,16612,1,0,0:0:0:0:
320,192,16762,1,0,0:0:0:0:
192,192,16762,1,0,0:0:0:0:
64,192,16912,128,0,17362:0:0:0:0:
448,192,16912,1,0,0:0:0:0:
192,192,17062,1,0,0:0:0:0:
448,192,17162,1,0,0:0:0:0:
320,192,17212,1,0,0:0:0:0:
192,192,17362,1,0,0:0:0:0:
448,192,17362,1,0,0:0:0:0:
192,192,17512,128,0,17812:0:0:0:0:
320,192,17512,1,0,0:0:0:0:
64,192,17662,1,0,0:0:0:0:
448,192,17812,1,0,0:0:0:0:
320,192,17962,1,0,0:0:0:0:
64,192,18112,128,0,18187:0:0:0:0:
448,192,18112,128,0,18187:0:0:0:0:
192,192,18262,1,0,0:0:0:0:
64,192,18262,1,0,0:0:0:0:
320,192,18412,1,0,0:0:0:0:
64,192,18562,1,0,0:0:0:0:
192,192,18712,1,0,0:0:0:0:
320,192,18862,1,0,0:0:0:0:
448,192,18862,1,0,0:0:0:0:
64,192,19012,1,0,0:0:0:0:
192,192,19162,1,0,0:0:0:0:
320,192,19162,1,0,0:0:0:0:
64,192,19312,128,0,19387:0:0:0:0:
192,192,19312,128,0,19387:0:0:0:0:
448,192,19462,1,0,0:0:0:0:
192,192,19562,1,0,0:0:0:0:
320,192,19612,1,0,0:0:0:0:
64,192,19762,1,0,0:0:0:0:
448,192,19762,1,0,0:0:0:0:
448,192,19912,1,0,0:0:0:0:
320,192,19912,128,0,20212:0:0:0:0:
192,192,20012,1,0,0:0:0:0:
64,192,20062,1,0,0:0:0:0:
64,192,20212,128,0,20362:0:0:0:0:
192,192,20362,1,0,0:0:0:0:
448,192,20362,1,0,0:0:0:0:
192,192,20512,128,0,20662:0:0:0:0:
320,192,20662,1,0,0:0:0:0:
320,192,20812,128,0,20962:0:0:0:0:
64,192,20812,1,0,0:0:0:0:
448,192,20962,1,0,0:0:0:0:
448,192,21112,128,0,21262:0:0:0:0:
192,192,21262,1,0,0:0:0:0:
64,192,21337,1,0,0:0:0:0:
320,192,21412,1,0,0:0:0:0:
192,192,21487,1,0,0:0:0:0:
320,192,21562,1,0,0:0:0:0:
448,192,21562,1,0,0:0:0:0:
192,192,21712,128,0,21787:0:0:0:0:
64,192,21712,128,0,21787:0:0:0:0:
448,192,21862,1,0,0:0:0:0:
64,192,21962,1,0,0:0:0:0:
192,192,22012,1,0,0:0:0:0:
320,192,22162,1,0,0:0:0:0:
448,192,22162,1,0,0:0:0:0:
64,192,22312,128,0,22612:0:0:0:0:
192,192,22312,1,0,0:0:0:0:
448,192,22462,1,0,0:0:0:0:
448,192,22612,128,0,22762:0:0:0:0:
320,192,22762,1,0,0:0:0:0:
320,192,22912,128,0,23062:0:0:0:0:
64,192,22912,1,0,0:0:0:0:
192,192,23062,1,0,0:0:0:0:
448,192,23062,1,0,0:0:0:0:
192,192,23212,128,0,23362:0:0:0:0:
64,192,23362,1,0,0:0:0:0:
64,192,23512,128,0,23662:0:0:0:0:
192,192,23662,1,0,0:0:0:0:
448,192,23662,1,0,0:0:0:0:
320,192,23812,1,0,0:0:0:0:
64,192,23887,1,0,0:0:0:0:
448,192,23962,1,0,0:0:0:0:
192,192,23962,1,0,0:0:0:0:
64,192,24112,128,0,24187:0:0:0:0:
448,192,24112,128,0,24187:0:0:0:0:
320,192,24262,1,0,0:0:0:0:
64,192,24412,1,0,0:0:0:0:
192,192,24412,1,0,0:0:0:0:
448,192,24562,1,0,0:0:0:0:
64,192,24562,1,0,0:0:0:0:
448,192,24712,128,0,25012:0:0:0:0:
192,192,24712,1,0,0:0:0:0:
320,192,24812,1,0,0:0:0:0:
192,192,24862,1,0,0:0:0:0:
64,192,24862,1,0,0:0:0:0:
64,192,25012,128,0,25162:0:0:0:0:
320,192,25012,1,0,0:0:0:0:
448,192,25162,1,0,0:0:0:0:
192,192,25162,1,0,0:0:0:0:
192,192,25312,128,0,25462:0:0:0:0:
64,192,25312,128,0,25387:0:0:0:0:
320,192,25462,1,0,0:0:0:0:
448,192,25462,1,0,0:0:0:0:
192,192,25612,1,0,0:0:0:0:
320,192,25612,128,0,25762:0:0:0:0:
64,192,25762,1,0,0:0:0:0:
448,192,25762,1,0,0:0:0:0:
320,192,25912,1,0,0:0:0:0:
448,192,25912,128,0,26062:0:0:0:0:
64,192,26062,1,0,0:0:0:0:
320,192,26062,1,0,0:0:0:0:
64,192,26212,1,0,0:0:0:0:
192,192,26212,1,0,0:0:0:0:
320,192,26362,1,0,0:0:0:0:
192,192,26362,1,0,0:0:0:0:
64,192,26512,128,0,26587:0:0:0:0:
448,192,26512,128,0,26587:0:0:0:0:
192,192,26662,1,0,0:0:0:0:
64,192,26662,1,0,0:0:0:0:
192,192,26812,1,0,0:0:0:0:
320,192,26812,1,0,0:0:0:0:
320,192,26962,1,0,0:0:0:0:
448,192,26962,1,0,0:0:0:0:
64,192,27112,1,0,0:0:0:0:
192,192,27112,1,0,0:0:0:0:
320,192,27187,1,0,0:0:0:0:
448,192,27187,1,0,0:0:0:0:
192,192,27262,1,0,0:0:0:0:
64,192,27262,1,0,0:0:0:0:
320,192,27337,1,0,0:0:0:0:
448,192,27337,1,0,0:0:0:0:
64,192,27412,128,0,27487:0:0:0:0:
192,192,27412,1,0,0:0:0:0:
320,192,27487,1,0,0:0:0:0:
192,192,27562,1,0,0:0:0:0:
320,192,27637,1,0,0:0:0:0:
448,192,27712,128,0,27787:0:0:0:0:
64,192,27712,1,0,0:0:0:0:
320,192,27787,1,0,0:0:0:0:
448,192,27862,1,0,0:0:0:0:
64,192,28012,128,0,28087:0:0:0:0:
64,192,28162,1,0,0:0:0:0:
448,192,28312,1,0,0:0:0:0:
64,192,28312,1,0,0:0:0:0:
320,192,28312,1,0,0:0:0:0:
192,192,28312,128,0,28387:0:0:0:0:
448,192,28612,1,0,0:0:0:0:
320,192,28612,1,0,0:0:0:0:
64,192,28612,1,0,0:0:0:0:
192,192,28612,1,0,0:0:0:0:
64,192,28912,128,0,29412:0:0:0:0:
192,192,28962,128,0,29412:0:0:0:0:
320,192,29012,128,0,29412:0:0:0:0:
448,192,29062,128,0,29412:0:0:0:0:
64,192,29512,128,0,29662:0:0:0:0:
192,192,29512,128,0,29662:0:0:0:0:
320,192,29512,128,0,29587:0:0:0:0:
448,192,29512,128,0,29587:0:0:0:0:
320,192,29662,1,0,0:0:0:0:
448,192,29812,1,0,0:0:0:0:
192,192,29812,1,0,0:0:0:0:
320,192,29812,1,0,0:0:0:0:
64,192,29962,1,0,0:0:0:0:
192,192,29962,1,0,0:0:0:0:
448,192,30112,1,0,0:0:0:0:
320,192,30112,1,0,0:0:0:0:
64,192,30112,1,0,0:0:0:0:
448,192,30262,1,0,0:0:0:0:
320,192,30262,1,0,0:0:0:0:
192,192,30412,1,0,0:0:0:0:
64,192,30412,1,0,0:0:0:0:
448,192,30412,1,0,0:0:0:0:
320,192,30487,1,0,0:0:0:0:
192,192,30562,1,0,0:0:0:0:
64,192,30562,1,0,0:0:0:0:
448,192,30637,1,0,0:0:0:0:
64,192,30712,128,0,30787:0:0:0:0:
320,192,30712,1,0,0:0:0:0:
192,192,30712,128,0,30862:0:0:0:0:
64,192,30862,128,0,31012:0:0:0:0:
448,192,31012,128,0,31087:0:0:0:0:
320,192,31012,128,0,31162:0:0:0:0:
448,192,31162,128,0,31312:0:0:0:0:
192,192,31312,128,0,31462:0:0:0:0:
64,192,31312,128,0,31462:0:0:0:0:
320,192,31312,1,0,0:0:0:0:
448,192,31462,1,0,0:0:0:0:
320,192,31612,1,0,0:0:0:0:
64,192,31612,128,0,31762:0:0:0:0:
192,192,31612,128,0,31687:0:0:0:0:
320,192,31762,1,0,0:0:0:0:
64,192,31912,128,0,32062:0:0:0:0:
448,192,31912,128,0,31987:0:0:0:0:
192,192,31912,128,0,32062:0:0:0:0:
320,192,31912,128,0,31987:0:0:0:0:
448,192,32062,1,0,0:0:0:0:
192,192,32212,1,0,0:0:0:0:
320,192,32212,1,0,0:0:0:0:
64,192,32212,1,0,0:0:0:0:
320,192,32362,1,0,0:0:0:0:
448,192,32362,1,0,0:0:0:0:
448,192,32512,1,0,0:0:0:0:
192,192,32512,1,0,0:0:0:0:
64,192,32512,1,0,0:0:0:0:
64,192,32662,1,0,0:0:0:0:
192,192,32662,1,0,0:0:0:0:
64,192,32812,1,0,0:0:0:0:
448,192,32812,1,0,0:0:0:0:
320,192,32812,1,0,0:0:0:0:
192,192,32887,1,0,0:0:0:0:
448,192,32962,1,0,0:0:0:0:
320,192,32962,1,0,0:0:0:0:
64,192,33037,1,0,0:0:0:0:
320,192,33112,128,0,33262:0:0:0:0:
448,192,33112,128,0,33187:0:0:0:0:
192,192,33112,1,0,0:0:0:0:
448,192,33262,128,0,33412:0:0:0:0:
320,192,33412,128,0,33562:0:0:0:0:
192,192,33412,128,0,33487:0:0:0:0:
192,192,33562,128,0,33712:0:0:0:0:
64,192,33712,128,0,33862:0:0:0:0:
448,192,33712,128,0,33862:0:0:0:0:
320,192,33712,1,0,0:0:0:0:
320,192,33862,128,0,34012:0:0:0:0:
64,192,34012,128,0,34162:0:0:0:0:
192,192,34012,1,0,0:0:0:0:
448,192,34162,128,0,34312:0:0:0:0:
64,192,34312,1,0,0:0:0:0:
192,192,34312,1,0,0:0:0:0:
320,192,34387,1,0,0:0:0:0:
64,192,34462,1,0,0:0:0:0:
448,192,34462,1,0,0:0:0:0:
192,192,34537,1,0,0:0:0:0:
448,192,34612,1,0,0:0:0:0:
320,192,34612,1,0,0:0:0:0:
192,192,34687,1,0,0:0:0:0:
64,192,34687,1,0,0:0:0:0:
320,192,34762,1,0,0:0:0:0:
448,192,34762,1,0,0:0:0:0:
192,192,34837,1,0,0:0:0:0:
64,192,34837,1,0,0:0:0:0:
320,192,34912,128,0,35062:0:0:0:0:
448,192,34912,128,0,35062:0:0:0:0:
64,192,35062,1,0,0:0:0:0:
320,192,35212,1,0,0:0:0:0:
192,192,35212,1,0,0:0:0:0:
448,192,35212,1,0,0:0:0:0:
64,192,35287,1,0,0:0:0:0:
192,192,35362,1,0,0:0:0:0:
320,192,35437,1,0,0:0:0:0:
64,192,35512,1,0,0:0:0:0:
192,192,35512,128,0,35662:0:0:0:0:
448,192,35512,128,0,35587:0:0:0:0:
448,192,35662,128,0,35812:0:0:0:0:
192,192,35812,128,0,35962:0:0:0:0:
320,192,35812,128,0,35887:0:0:0:0:
320,192,35962,128,0,36112:0:0:0:0:
64,192,36112,128,0,36262:0:0:0:0:
192,192,36112,128,0,36262:0:0:0:0:
448,192,36112,1,0,0:0:0:0:
320,192,36262,1,0,0:0:0:0:
64,192,36412,128,0,36562:0:0:0:0:
192,192,36412,128,0,36487:0:0:0:0:
448,192,36412,1,0,0:0:0:0:
192,192,36562,1,0,0:0:0:0:
64,192,36712,128,0,36862:0:0:0:0:
192,192,36712,128,0,36862:0:0:0:0:
320,192,36712,128,0,36787:0:0:0:0:
448,192,36712,128,0,36787:0:0:0:0:
448,192,36862,1,0,0:0:0:0:
320,192,37012,1,0,0:0:0:0:
192,192,37012,1,0,0:0:0:0:
64,192,37012,1,0,0:0:0:0:
320,192,37162,1,0,0:0:0:0:
448,192,37162,1,0,0:0:0:0:
192,192,37312,1,0,0:0:0:0:
320,192,37312,1,0,0:0:0:0:
448,192,37312,1,0,0:0:0:0:
320,192,37462,1,0,0:0:0:0:
448,192,37462,1,0,0:0:0:0:
64,192,37612,1,0,0:0:0:0:
320,192,37612,1,0,0:0:0:0:
448,192,37612,1,0,0:0:0:0:
320,192,37762,1,0,0:0:0:0:
448,192,37762,1,0,0:0:0:0:
64,192,37912,128,0,38512:0:0:0:0:
448,192,38062,128,0,38212:0:0:0:0:
192,192,38212,1,0,0:0:0:0:
320,192,38212,1,0,0:0:0:0:
192,192,38362,1,0,0:0:0:0:
320,192,38362,1,0,0:0:0:0:
448,192,38512,128,0,39037:0:0:0:0:
192,192,38662,1,0,0:0:0:0:
320,192,38662,1,0,0:0:0:0:
320,192,38812,1,0,0:0:0:0:
192,192,38812,1,0,0:0:0:0:
64,192,38962,128,0,39037:0:0:0:0:
448,192,39112,128,0,39262:0:0:0:0:
64,192,39112,128,0,39187:0:0:0:0:
192,192,39112,128,0,39187:0:0:0:0:
320,192,39112,128,0,39262:0:0:0:0:
192,192,39262,1,0,0:0:0:0:
320,192,39412,1,0,0:0:0:0:
448,192,39412,1,0,0:0:0:0:
64,192,39412,1,0,0:0:0:0:
64,192,39562,1,0,0:0:0:0:
192,192,39562,1,0,0:0:0:0:
320,192,39712,1,0,0:0:0:0:
448,192,39712,1,0,0:0:0:0:
192,192,39712,1,0,0:0:0:0:
320,192,39862,1,0,0:0:0:0:
448,192,39862,1,0,0:0:0:0:
192,192,40012,1,0,0:0:0:0:
64,192,40012,1,0,0:0:0:0:
320,192,40012,1,0,0:0:0:0:
448,192,40087,1,0,0:0:0:0:
64,192,40162,1,0,0:0:0:0:
320,192,40162,1,0,0:0:0:0:
192,192,40237,1,0,0:0:0:0:
64,192,40312,128,0,40387:0:0:0:0:
448,192,40312,1,0,0:0:0:0:
320,192,40312,128,0,40462:0:0:0:0:
64,192,40462,128,0,40612:0:0:0:0:
320,192,40612,128,0,40762:0:0:0:0:
192,192,40612,128,0,40687:0:0:0:0:
192,192,40762,128,0,40912:0:0:0:0:
448,192,40912,128,0,41062:0:0:0:0:
320,192,40912,128,0,41062:0:0:0:0:
64,192,40912,1,0,0:0:0:0:
64,192,41062,1,0,0:0:0:0:
320,192,41212,1,0,0:0:0:0:
448,192,41212,128,0,41362:0:0:0:0:
192,192,41212,128,0,41287:0:0:0:0:
192,192,41362,1,0,0:0:0:0:
448,192,41512,128,0,41662:0:0:0:0:
320,192,41512,128,0,41662:0:0:0:0:
192,192,41512,128,0,41587:0:0:0:0:
64,192,41512,128,0,41587:0:0:0:0:
64,192,41662,1,0,0:0:0:0:
448,192,41812,1,0,0:0:0:0:
192,192,41812,1,0,0:0:0:0:
320,192,41812,1,0,0:0:0:0:
320,192,41962,1,0,0:0:0:0:
448,192,41962,1,0,0:0:0:0:
320,192,42112,1,0,0:0:0:0:
64,192,42112,1,0,0:0:0:0:
192,192,42112,1,0,0:0:0:0:
64,192,42262,1,0,0:0:0:0:
192,192,42262,1,0,0:0:0:0:
64,192,42412,1,0,0:0:0:0:
448,192,42412,1,0,0:0:0:0:
320,192,42412,1,0,0:0:0:0:
192,192,42487,1,0,0:0:0:0:
448,192,42562,1,0,0:0:0:0:
320,192,42562,1,0,0:0:0:0:
192,192,42637,1,0,0:0:0:0:
64,192,42712,128,0,42862:0:0:0:0:
448,192,42712,128,0,42787:0:0:0:0:
320,192,42712,1,0,0:0:0:0:
448,192,42862,128,0,43012:0:0:0:0:
320,192,43012,128,0,43162:0:0:0:0:
64,192,43012,128,0,43087:0:0:0:0:
64,192,43162,128,0,43312:0:0:0:0:
192,192,43312,128,0,43462:0:0:0:0:
320,192,43312,128,0,43462:0:0:0:0:
448,192,43312,1,0,0:0:0:0:
448,192,43462,128,0,43612:0:0:0:0:
64,192,43612,128,0,43762:0:0:0:0:
192,192,43612,1,0,0:0:0:0:
320,192,43762,128,0,43912:0:0:0:0:
64,192,43912,1,0,0:0:0:0:
192,192,43912,1,0,0:0:0:0:
320,192,43987,1,0,0:0:0:0:
448,192,44062,1,0,0:0:0:0:
64,192,44062,1,0,0:0:0:0:
192,192,44137,1,0,0:0:0:0:
448,192,44212,1,0,0:0:0:0:
320,192,44212,1,0,0:0:0:0:
192,192,44287,1,0,0:0:0:0:
64,192,44287,1,0,0:0:0:0:
320,192,44362,1,0,0:0:0:0:
448,192,44362,1,0,0:0:0:0:
64,192,44437,1,0,0:0:0:0:
192,192,44437,1,0,0:0:0:0:
448,192,44512,128,0,44662:0:0:0:0:
320,192,44512,128,0,44662:0:0:0:0:
192,192,44662,1,0,0:0:0:0:
64,192,44812,1,0,0:0:0:0:
320,192,44812,1,0,0:0:0:0:
192,192,44812,1,0,0:0:0:0:
448,192,44887,1,0,0:0:0:0:
320,192,44962,1,0,0:0:0:0:
192,192,45037,1,0,0:0:0:0:
64,192,45112,128,0,45187:0:0:0:0:
448,192,45112,128,0,45262:0:0:0:0:
320,192,45112,1,0,0:0:0:0:
64,192,45262,128,0,45412:0:0:0:0:
192,192,45412,128,0,45562:0:0:0:0:
320,192,45412,128,0,45487:0:0:0:0:
320,192,45562,128,0,45712:0:0:0:0:
192,192,45712,128,0,45862:0:0:0:0:
64,192,45712,1,0,0:0:0:0:
448,192,45712,128,0,45862:0:0:0:0:
320,192,45862,1,0,0:0:0:0:
64,192,46012,1,0,0:0:0:0:
192,192,46012,128,0,46087:0:0:0:0:
448,192,46012,128,0,46162:0:0:0:0:
192,192,46162,1,0,0:0:0:0:
448,192,46312,128,0,46462:0:0:0:0:
320,192,46312,128,0,46462:0:0:0:0:
192,192,46312,128,0,46387:0:0:0:0:
64,192,46312,128,0,46387:0:0:0:0:
64,192,46462,1,0,0:0:0:0:
448,192,46612,1,0,0:0:0:0:
64,192,46612,1,0,0:0:0:0:
192,192,46612,1,0,0:0:0:0:
448,192,46762,1,0,0:0:0:0:
320,192,46762,1,0,0:0:0:0:
320,192,46912,1,0,0:0:0:0:
448,192,46912,1,0,0:0:0:0:
64,192,46912,1,0,0:0:0:0:
448,192,47062,1,0,0:0:0:0:
320,192,47062,1,0,0:0:0:0:
448,192,47212,1,0,0:0:0:0:
192,192,47212,1,0,0:0:0:0:
320,192,47212,1,0,0:0:0:0:
448,192,47362,1,0,0:0:0:0:
320,192,47362,1,0,0:0:0:0:
448,192,47512,1,0,0:0:0:0:
320,192,47512,1,0,0:0:0:0:
64,192,47512,1,0,0:0:0:0:
192,192,47512,1,0,0:0:0:0:
320,192,47812,1,0,0:0:0:0:
192,192,47812,1,0,0:0:0:0:
64,192,47812,1,0,0:0:0:0:
448,192,47812,1,0,0:0:0:0:
448,192,48112,128,0,48612:0:0:0:0:
320,192,48162,128,0,48612:0:0:0:0:
192,192,48212,128,0,48612:0:0:0:0:
64,192,48262,128,0,48612:0:0:0:0:
320,192,48712,1,0,0:0:0:0:
64,192,48712,128,0,49612:0:0:0:0:
192,192,48712,128,0,48787:0:0:0:0:
192,192,48862,128,0,48937:0:0:0:0:
320,192,49012,128,0,49162:0:0:0:0:
448,192,49012,128,0,49087:0:0:0:0:
448,192,49162,128,0,49237:0:0:0:0:
192,192,49312,128,0,49462:0:0:0:0:
320,192,49312,128,0,49387:0:0:0:0:
320,192,49462,128,0,49537:0:0:0:0:
448,192,49612,128,0,49762:0:0:0:0:
320,192,49612,128,0,49762:0:0:0:0:
192,192,49612,1,0,0:0:0:0:
192,192,49762,128,0,49837:0:0:0:0:
64,192,49912,128,0,50512:0:0:0:0:
448,192,49912,1,0,0:0:0:0:
192,192,49912,128,0,49987:0:0:0:0:
320,192,50062,128,0,50137:0:0:0:0:
448,192,50212,128,0,50287:0:0:0:0:
192,192,50212,1,0,0:0:0:0:
448,192,50362,128,0,50437:0:0:0:0:
192,192,50512,1,0,0:0:0:0:
448,192,50512,128,0,51112:0:0:0:0:
320,192,50512,128,0,50587:0:0:0:0:
320,192,50662,128,0,50737:0:0:0:0:
64,192,50812,1,0,0:0:0:0:
192,192,50812,128,0,50887:0:0:0:0:
192,192,50962,128,0,51037:0:0:0:0:
320,192,51112,1,0,0:0:0:0:
64,192,51112,128,0,51262:0:0:0:0:
192,192,51112,1,0,0:0:0:0:
448,192,51262,1,0,0:0:0:0:
320,192,51412,1,0,0:0:0:0:
192,192,51412,128,0,51562:0:0:0:0:
64,192,51412,1,0,0:0:0:0:
320,192,51562,1,0,0:0:0:0:
448,192,51712,1,0,0:0:0:0:
64,192,51712,128,0,51862:0:0:0:0:
192,192,51712,1,0,0:0:0:0:
448,192,51862,1,0,0:0:0:0:
320,192,52012,1,0,0:0:0:0:
64,192,52012,1,0,0:0:0:0:
192,192,52012,128,0,52162:0:0:0:0:
448,192,52162,1,0,0:0:0:0:
320,192,52237,1,0,0:0:0:0:
192,192,52312,1,0,0:0:0:0:
448,192,52312,128,0,52462:0:0:0:0:
64,192,52312,1,0,0:0:0:0:
192,192,52462,1,0,0:0:0:0:
64,192,52612,1,0,0:0:0:0:
320,192,52612,1,0,0:0:0:0:
448,192,52612,1,0,0:0:0:0:
320,192,52762,1,0,0:0:0:0:
192,192,52912,1,0,0:0:0:0:
64,192,52912,1,0,0:0:0:0:
448,192,52912,1,0,0:0:0:0:
192,192,53062,1,0,0:0:0:0:
64,192,53212,1,0,0:0:0:0:
320,192,53212,1,0,0:0:0:0:
448,192,53212,1,0,0:0:0:0:
320,192,53362,1,0,0:0:0:0:
448,192,53512,1,0,0:0:0:0:
192,192,53512,1,0,0:0:0:0:
64,192,53512,1,0,0:0:0:0:
448,192,53662,1,0,0:0:0:0:
320,192,53812,1,0,0:0:0:0:
192,192,53812,128,0,53962:0:0:0:0:
64,192,53812,1,0,0:0:0:0:
320,192,53962,1,0,0:0:0:0:
448,192,54112,1,0,0:0:0:0:
192,192,54112,1,0,0:0:0:0:
64,192,54112,128,0,54262:0:0:0:0:
192,192,54262,1,0,0:0:0:0:
64,192,54412,1,0,0:0:0:0:
320,192,54412,128,0,54562:0:0:0:0:
448,192,54412,1,0,0:0:0:0:
448,192,54562,1,0,0:0:0:0:
320,192,54712,1,0,0:0:0:0:
64,192,54712,128,0,54862:0:0:0:0:
192,192,54712,1,0,0:0:0:0:
192,192,54862,1,0,0:0:0:0:
64,192,55012,1,0,0:0:0:0:
320,192,55012,1,0,0:0:0:0:
448,192,55012,1,0,0:0:0:0:
320,192,55162,1,0,0:0:0:0:
192,192,55312,1,0,0:0:0:0:
64,192,55312,1,0,0:0:0:0:
448,192,55312,1,0,0:0:0:0:
448,192,55462,1,0,0:0:0:0:
320,192,55612,1,0,0:0:0:0:
192,192,55612,1,0,0:0:0:0:
64,192,55612,1,0,0:0:0:0:
320,192,55762,1,0,0:0:0:0:
192,192,55912,1,0,0:0:0:0:
64,192,55912,1,0,0:0:0:0:
448,192,55912,1,0,0:0:0:0:
192,192,56062,1,0,0:0:0:0:
64,192,56212,128,0,56362:0:0:0:0:
320,192,56212,1,0,0:0:0:0:
448,192,56212,1,0,0:0:0:0:
320,192,56362,1,0,0:0:0:0:
64,192,56512,1,0,0:0:0:0:
448,192,56512,1,0,0:0:0:0:
192,192,56512,128,0,56662:0:0:0:0:
64,192,56662,1,0,0:0:0:0:
192,192,56812,1,0,0:0:0:0:
320,192,56812,1,0,0:0:0:0:
448,192,56812,128,0,56962:0:0:0:0:
192,192,56962,1,0,0:0:0:0:
64,192,57037,1,0,0:0:0:0:
448,192,57112,128,0,57712:0:0:0:0:
64,192,57412,1,0,0:0:0:0:
192,192,57412,1,0,0:0:0:0:
192,192,57562,1,0,0:0:0:0:
64,192,57562,1,0,0:0:0:0:
64,192,57712,128,0,58162:0:0:0:0:
320,192,57862,1,0,0:0:0:0:
448,192,57862,1,0,0:0:0:0:
320,192,58012,1,0,0:0:0:0:
448,192,58012,1,0,0:0:0:0:
192,192,58162,128,0,58312:0:0:0:0:
64,192,58312,1,0,0:0:0:0:
448,192,58312,128,0,59212:0:0:0:0:
320,192,58312,128,0,58387:0:0:0:0:
320,192,58462,128,0,58537:0:0:0:0:
192,192,58612,128,0,58762:0:0:0:0:
64,192,58612,128,0,58687:0:0:0:0:
64,192,58762,128,0,58837:0:0:0:0:
320,192,58912,128,0,59062:0:0:0:0:
192,192,58912,128,0,58987:0:0:0:0:
192,192,59062,128,0,59137:0:0:0:0:
64,192,59212,128,0,59362:0:0:0:0:
192,192,59212,128,0,59362:0:0:0:0:
320,192,59212,1,0,0:0:0:0:
448,192,59362,128,0,59437:0:0:0:0:
448,192,59512,128,0,60712:0:0:0:0:
64,192,59512,1,0,0:0:0:0:
320,192,59512,128,0,59587:0:0:0:0:
320,192,59662,128,0,59737:0:0:0:0:
192,192,59812,1,0,0:0:0:0:
64,192,59812,128,0,59887:0:0:0:0:
64,192,59962,128,0,60037:0:0:0:0:
320,192,60112,1,0,0:0:0:0:
192,192,60112,128,0,60187:0:0:0:0:
192,192,60262,128,0,60337:0:0:0:0:
64,192,60412,1,0,0:0:0:0:
320,192,60412,128,0,60487:0:0:0:0:
320,192,60562,128,0,60637:0:0:0:0:
320,192,60712,1,0,0:0:0:0:
192,192,60712,1,0,0:0:0:0:
64,192,60712,1,0,0:0:0:0:
64,192,60862,1,0,0:0:0:0:
320,192,61012,128,0,61162:0:0:0:0:
448,192,61012,1,0,0:0:0:0:
192,192,61012,1,0,0:0:0:0:
192,192,61162,1,0,0:0:0:0:
448,192,61312,128,0,61462:0:0:0:0:
320,192,61312,1,0,0:0:0:0:
64,192,61312,1,0,0:0:0:0:
320,192,61462,1,0,0:0:0:0:
448,192,61612,1,0,0:0:0:0:
64,192,61612,128,0,61762:0:0:0:0:
192,192,61612,1,0,0:0:0:0:
320,192,61762,1,0,0:0:0:0:
192,192,61837,1,0,0:0:0:0:
64,192,61912,1,0,0:0:0:0:
448,192,61912,128,0,62062:0:0:0:0:
320,192,61912,1,0,0:0:0:0:
64,192,62062,1,0,0:0:0:0:
192,192,62212,1,0,0:0:0:0:
320,192,62212,1,0,0:0:0:0:
448,192,62212,1,0,0:0:0:0:
192,192,62362,1,0,0:0:0:0:
64,192,62512,1,0,0:0:0:0:
320,192,62512,1,0,0:0:0:0:
448,192,62512,1,0,0:0:0:0:
320,192,62662,1,0,0:0:0:0:
448,192,62812,1,0,0:0:0:0:
192,192,62812,1,0,0:0:0:0:
64,192,62812,1,0,0:0:0:0:
64,192,62962,1,0,0:0:0:0:
192,192,63112,1,0,0:0:0:0:
320,192,63112,1,0,0:0:0:0:
448,192,63112,1,0,0:0:0:0:
448,192,63262,1,0,0:0:0:0:
192,192,63262,1,0,0:0:0:0:
320,192,63412,128,0,63562:0:0:0:0:
64,192,63412,1,0,0:0:0:0:
448,192,63412,1,0,0:0:0:0:
64,192,63562,1,0,0:0:0:0:
192,192,63562,1,0,0:0:0:0:
192,192,63712,128,0,63862:0:0:0:0:
320,192,63712,1,0,0:0:0:0:
64,192,63712,1,0,0:0:0:0:
320,192,63862,1,0,0:0:0:0:
448,192,63862,1,0,0:0:0:0:
192,192,64012,1,0,0:0:0:0:
320,192,64012,128,0,64162:0:0:0:0:
64,192,64012,1,0,0:0:0:0:
448,192,64162,1,0,0:0:0:0:
64,192,64162,1,0,0:0:0:0:
320,192,64312,1,0,0:0:0:0:
448,192,64312,1,0,0:0:0:0:
192,192,64312,128,0,64462:0:0:0:0:
320,192,64462,1,0,0:0:0:0:
64,192,64462,1,0,0:0:0:0:
64,192,64612,1,0,0:0:0:0:
448,192,64612,1,0,0:0:0:0:
320,192,64612,1,0,0:0:0:0:
192,192,64762,1,0,0:0:0:0:
64,192,64762,1,0,0:0:0:0:
192,192,64912,1,0,0:0:0:0:
320,192,64912,1,0,0:0:0:0:
448,192,64912,1,0,0:0:0:0:
448,192,65062,1,0,0:0:0:0:
320,192,65062,1,0,0:0:0:0:
192,192,65212,1,0,0:0:0:0:
64,192,65212,1,0,0:0:0:0:
448,192,65212,1,0,0:0:0:0:
320,192,65362,1,0,0:0:0:0:
192,192,65362,1,0,0:0:0:0:
64,192,65512,1,0,0:0:0:0:
192,192,65512,1,0,0:0:0:0:
320,192,65587,1,0,0:0:0:0:
448,192,65587,1,0,0:0:0:0:
192,192,65662,1,0,0:0:0:0:
64,192,65662,1,0,0:0:0:0:
320,192,65737,1,0,0:0:0:0:
448,192,65737,1,0,0:0:0:0:
192,192,65812,1,0,0:0:0:0:
64,192,65812,128,0,65887:0:0:0:0:
448,192,65887,1,0,0:0:0:0:
64,192,65962,1,0,0:0:0:0:
448,192,66037,1,0,0:0:0:0:
192,192,66112,1,0,0:0:0:0:
320,192,66112,128,0,66187:0:0:0:0:
64,192,66187,1,0,0:0:0:0:
320,192,66262,1,0,0:0:0:0:
64,192,66337,1,0,0:0:0:0:
192,192,66412,128,0,66487:0:0:0:0:
448,192,66412,1,0,0:0:0:0:
320,192,66562,128,0,66637:0:0:0:0:
448,192,66637,128,0,66712:0:0:0:0:
64,192,66712,1,0,0:0:0:0:
192,192,66712,128,0,66787:0:0:0:0:
320,192,66862,1,0,0:0:0:0:
448,192,66937,1,0,0:0:0:0:
192,192,67012,1,0,0:0:0:0:
64,192,67012,128,0,67162:0:0:0:0:
320,192,67162,1,0,0:0:0:0:
192,192,67237,1,0,0:0:0:0:
320,192,67312,1,0,0:0:0:0:
64,192,67312,1,0,0:0:0:0:
448,192,67312,1,0,0:0:0:0:
64,192,67612,128,0,67762:0:0:0:0:
192,192,67762,128,0,67912:0:0:0:0:
448,192,67912,128,0,68212:0:0:0:0:
320,192,67912,1,0,0:0:0:0:
192,192,68212,128,0,68512:0:0:0:0:
448,192,68512,128,0,68812:0:0:0:0:
192,192,68812,128,0,69112:0:0:0:0:
64,192,69112,128,0,69712:0:0:0:0:
320,192,69262,1,0,0:0:0:0:
448,192,69337,1,0,0:0:0:0:
320,192,69487,1,0,0:0:0:0:
448,192,69562,1,0,0:0:0:0:
320,192,69712,1,0,0:0:0:0:
448,192,69787,1,0,0:0:0:0:
192,192,69862,1,0,0:0:0:0:
64,192,69937,1,0,0:0:0:0:
320,192,70012,128,0,70162:0:0:0:0:
192,192,70162,128,0,70312:0:0:0:0:
64,192,70312,128,0,70612:0:0:0:0:
448,192,70312,1,0,0:0:0:0:
192,192,70462,1,0,0:0:0:0:
320,192,70612,128,0,70912:0:0:0:0:
448,192,70762,1,0,0:0:0:0:
64,192,70912,128,0,71212:0:0:0:0:
320,192,71212,128,0,71512:0:0:0:0:
448,192,71512,128,0,72112:0:0:0:0:
192,192,71662,1,0,0:0:0:0:
64,192,71737,1,0,0:0:0:0:
192,192,71887,1,0,0:0:0:0:
64,192,71962,1,0,0:0:0:0:
192,192,72112,1,0,0:0:0:0:
64,192,72187,1,0,0:0:0:0:
320,192,72262,1,0,0:0:0:0:
448,192,72337,1,0,0:0:0:0:
192,192,72412,128,0,72562:0:0:0:0:
320,192,72562,128,0,72712:0:0:0:0:
448,192,72712,1,0,0:0:0:0:
64,192,72712,128,0,73012:0:0:0:0:
448,192,73012,128,0,73312:0:0:0:0:
192,192,73312,128,0,73612:0:0:0:0:
320,192,73612,128,0,73912:0:0:0:0:
64,192,73912,128,0,74362:0:0:0:0:
448,192,74062,1,0,0:0:0:0:
320,192,74137,1,0,0:0:0:0:
448,192,74287,1,0,0:0:0:0:
320,192,74362,1,0,0:0:0:0:
192,192,74512,128,0,74662:0:0:0:0:
320,192,74812,128,0,74962:0:0:0:0:
448,192,74962,128,0,75112:0:0:0:0:
192,192,75112,128,0,75562:0:0:0:0:
64,192,75112,1,0,0:0:0:0:
320,192,75262,1,0,0:0:0:0:
448,192,75412,1,0,0:0:0:0:
320,192,75562,1,0,0:0:0:0:
448,192,75712,128,0,76162:0:0:0:0:
64,192,75862,1,0,0:0:0:0:
320,192,76012,1,0,0:0:0:0:
192,192,76312,128,0,76912:0:0:0:0:
64,192,76312,1,0,0:0:0:0:
448,192,76462,1,0,0:0:0:0:
320,192,76537,1,0,0:0:0:0:
448,192,76687,1,0,0:0:0:0:
320,192,76762,1,0,0:0:0:0:
64,192,76912,1,0,0:0:0:0:
448,192,76987,1,0,0:0:0:0:
320,192,77062,1,0,0:0:0:0:
192,192,77212,128,0,77362:0:0:0:0:
64,192,77362,128,0,77512:0:0:0:0:
320,192,77512,1,0,0:0:0:0:
448,192,77512,128,0,77812:0:0:0:0:
192,192,77612,1,0,0:0:0:0:
64,192,77662,1,0,0:0:0:0:
320,192,77812,1,0,0:0:0:0:
64,192,77812,128,0,77962:0:0:0:0:
192,192,77962,1,0,0:0:0:0:
448,192,77962,1,0,0:0:0:0:
192,192,78112,128,0,78262:0:0:0:0:
320,192,78262,1,0,0:0:0:0:
320,192,78412,128,0,78562:0:0:0:0:
448,192,78562,1,0,0:0:0:0:
448,192,78712,128,0,78862:0:0:0:0:
192,192,78862,1,0,0:0:0:0:
320,192,78937,1,0,0:0:0:0:
64,192,79012,1,0,0:0:0:0:
448,192,79087,1,0,0:0:0:0:
192,192,79162,1,0,0:0:0:0:
64,192,79162,1,0,0:0:0:0:
320,192,79312,128,0,79387:0:0:0:0:
448,192,79312,128,0,79387:0:0:0:0:
64,192,79462,1,0,0:0:0:0:
320,192,79562,1,0,0:0:0:0:
192,192,79612,1,0,0:0:0:0:
448,192,79762,1,0,0:0:0:0:
64,192,79762,1,0,0:0:0:0:
64,192,79912,1,0,0:0:0:0:
192,192,79912,128,0,80212:0:0:0:0:
448,192,80062,1,0,0:0:0:0:
448,192,80212,128,0,80362:0:0:0:0:
320,192,80362,1,0,0:0:0:0:
320,192,80512,128,0,80662:0:0:0:0:
64,192,80512,1,0,0:0:0:0:
192,192,80662,1,0,0:0:0:0:
192,192,80812,128,0,80962:0:0:0:0:
64,192,80962,1,0,0:0:0:0:
64,192,81112,128,0,81262:0:0:0:0:
320,192,81262,1,0,0:0:0:0:
192,192,81262,1,0,0:0:0:0:
448,192,81412,1,0,0:0:0:0:
64,192,81562,1,0,0:0:0:0:
192,192,81562,1,0,0:0:0:0:
320,192,81712,128,0,81787:0:0:0:0:
64,192,81712,128,0,81787:0:0:0:0:
448,192,81862,1,0,0:0:0:0:
192,192,81962,1,0,0:0:0:0:
320,192,82012,1,0,0:0:0:0:
448,192,82162,1,0,0:0:0:0:
64,192,82162,1,0,0:0:0:0:
320,192,82312,1,0,0:0:0:0:
448,192,82312,128,0,82612:0:0:0:0:
192,192,82412,1,0,0:0:0:0:
64,192,82462,1,0,0:0:0:0:
64,192,82612,128,0,82762:0:0:0:0:
192,192,82762,1,0,0:0:0:0:
448,192,82762,1,0,0:0:0:0:
192,192,82912,128,0,83062:0:0:0:0:
64,192,82912,1,0,0:0:0:0:
320,192,83062,1,0,0:0:0:0:
320,192,83212,128,0,83362:0:0:0:0:
448,192,83362,1,0,0:0:0:0:
448,192,83512,128,0,83662:0:0:0:0:
320,192,83662,1,0,0:0:0:0:
64,192,83737,1,0,0:0:0:0:
192,192,83812,1,0,0:0:0:0:
448,192,83962,1,0,0:0:0:0:
320,192,83962,1,0,0:0:0:0:
64,192,84112,128,0,84562:0:0:0:0:
448,192,84262,1,0,0:0:0:0:
192,192,84362,1,0,0:0:0:0:
320,192,84412,1,0,0:0:0:0:
448,192,84562,1,0,0:0:0:0:
192,192,84562,1,0,0:0:0:0:
64,192,84712,1,0,0:0:0:0:
448,192,84712,128,0,85012:0:0:0:0:
320,192,84862,1,0,0:0:0:0:
64,192,85012,1,0,0:0:0:0:
320,192,85162,1,0,0:0:0:0:
192,192,85312,128,0,85387:0:0:0:0:
448,192,85312,128,0,85387:0:0:0:0:
320,192,85462,1,0,0:0:0:0:
192,192,85462,1,0,0:0:0:0:
64,192,85612,1,0,0:0:0:0:
448,192,85762,1,0,0:0:0:0:
64,192,85912,1,0,0:0:0:0:
192,192,86062,1,0,0:0:0:0:
320,192,86062,1,0,0:0:0:0:
448,192,86212,1,0,0:0:0:0:
64,192,86362,1,0,0:0:0:0:
192,192,86362,1,0,0:0:0:0:
320,192,86512,128,0,86587:0:0:0:0:
192,192,86512,128,0,86587:0:0:0:0:
448,192,86662,1,0,0:0:0:0:
64,192,86762,1,0,0:0:0:0:
192,192,86812,1,0,0:0:0:0:
320,192,86962,1,0,0:0:0:0:
448,192,86962,1,0,0:0:0:0:
192,192,87037,1,0,0:0:0:0:
64,192,87112,128,0,89512:0:0:0:0:
320,192,87262,128,0,87412:0:0:0:0:
448,192,87412,128,0,87712:0:0:0:0:
320,192,87712,128,0,87862:0:0:0:0:
192,192,87862,128,0,88012:0:0:0:0:
320,192,88012,128,0,88162:0:0:0:0:
448,192,88162,128,0,88462:0:0:0:0:
320,192,88462,128,0,88612:0:0:0:0:
192,192,88612,128,0,88762:0:0:0:0:
448,192,88762,128,0,88912:0:0:0:0:
192,192,88912,128,0,89062:0:0:0:0:
320,192,89062,128,0,89212:0:0:0:0:
448,192,89212,128,0,89512:0:0:0:0:
320,192,89512,128,0,91312:0:0:0:0:
192,192,89662,128,0,89812:0:0:0:0:
448,192,89812,128,0,90112:0:0:0:0:
192,192,90112,128,0,90262:0:0:0:0:
64,192,90262,128,0,90412:0:0:0:0:
192,192,90412,128,0,90562:0:0:0:0:
448,192,90562,128,0,90862:0:0:0:0:
64,192,90862,128,0,91012:0:0:0:0:
192,192,91012,128,0,91162:0:0:0:0:
448,192,91162,128,0,91312:0:0:0:0:
192,192,91312,128,0,91912:0:0:0:0:
320,192,91462,128,0,91612:0:0:0:0:
64,192,91612,128,0,91762:0:0:0:0:
448,192,91762,128,0,91912:0:0:0:0:
320,192,91912,128,0,93712:0:0:0:0:
64,192,92062,128,0,92212:0:0:0:0:
448,192,92212,128,0,92512:0:0:0:0:
192,192,92512,128,0,92662:0:0:0:0:
64,192,92662,128,0,92812:0:0:0:0:
448,192,92962,128,0,93262:0:0:0:0:
64,192,93262,128,0,93412:0:0:0:0:
192,192,93412,128,0,93562:0:0:0:0:
448,192,93562,128,0,93712:0:0:0:0:
192,192,93712,128,0,94312:0:0:0:0:
64,192,93862,128,0,94012:0:0:0:0:
320,192,94012,128,0,94312:0:0:0:0:
448,192,94312,128,0,95512:0:0:0:0:
64,192,94462,128,0,94612:0:0:0:0:
320,192,94612,128,0,94912:0:0:0:0:
64,192,94912,128,0,95062:0:0:0:0:
192,192,95062,128,0,95212:0:0:0:0:
64,192,95212,128,0,95362:0:0:0:0:
320,192,95362,128,0,95512:0:0:0:0:
64,192,95512,128,0,96412:0:0:0:0:
192,192,95662,128,0,95812:0:0:0:0:
320,192,95812,128,0,95962:0:0:0:0:
448,192,95962,128,0,96112:0:0:0:0:
320,192,96112,128,0,96262:0:0:0:0:
192,192,96262,128,0,96412:0:0:0:0:
448,192,96412,128,0,96562:0:0:0:0:
320,192,96562,128,0,96712:0:0:0:0:
192,192,96712,1,0,0:0:0:0:
64,192,96712,128,0,96862:0:0:0:0:
448,192,96712,1,0,0:0:0:0:
192,192,96862,128,0,97012:0:0:0:0:
448,192,97012,128,0,97312:0:0:0:0:
192,192,97162,1,0,0:0:0:0:
64,192,97312,128,0,97462:0:0:0:0:
320,192,97312,1,0,0:0:0:0:
192,192,97462,128,0,97612:0:0:0:0:
64,192,97612,1,0,0:0:0:0:
320,192,97612,1,0,0:0:0:0:
448,192,97612,128,0,97762:0:0:0:0:
64,192,97762,128,0,98062:0:0:0:0:
448,192,97912,1,0,0:0:0:0:
320,192,97912,1,0,0:0:0:0:
192,192,98062,128,0,98212:0:0:0:0:
448,192,98212,1,0,0:0:0:0:
320,192,98212,128,0,98362:0:0:0:0:
192,192,98362,128,0,98512:0:0:0:0:
448,192,98512,128,0,98662:0:0:0:0:
64,192,98512,1,0,0:0:0:0:
64,192,98662,128,0,98812:0:0:0:0:
448,192,98812,128,0,99112:0:0:0:0:
192,192,98812,1,0,0:0:0:0:
192,192,98962,1,0,0:0:0:0:
320,192,99112,128,0,99262:0:0:0:0:
64,192,99112,1,0,0:0:0:0:
192,192,99262,128,0,99412:0:0:0:0:
448,192,99262,1,0,0:0:0:0:
320,192,99412,1,0,0:0:0:0:
448,192,99412,1,0,0:0:0:0:
64,192,99412,128,0,99712:0:0:0:0:
320,192,99562,1,0,0:0:0:0:
448,192,99712,128,0,99862:0:0:0:0:
192,192,99712,1,0,0:0:0:0:
64,192,99862,128,0,100012:0:0:0:0:
320,192,100012,1,0,0:0:0:0:
448,192,100012,128,0,100162:0:0:0:0:
192,192,100012,1,0,0:0:0:0:
64,192,100162,128,0,100462:0:0:0:0:
320,192,100312,1,0,0:0:0:0:
448,192,100312,1,0,0:0:0:0:
192,192,100462,128,0,100612:0:0:0:0:
64,192,100612,1,0,0:0:0:0:
448,192,100612,128,0,100762:0:0:0:0:
320,192,100762,128,0,100912:0:0:0:0:
64,192,100912,1,0,0:0:0:0:
448,192,100912,1,0,0:0:0:0:
192,192,100912,128,0,101062:0:0:0:0:
320,192,101062,128,0,101212:0:0:0:0:
64,192,101212,128,0,101362:0:0:0:0:
448,192,101362,128,0,101512:0:0:0:0:
320,192,101362,1,0,0:0:0:0:
320,192,101512,128,0,101662:0:0:0:0:
192,192,101512,128,0,101662:0:0:0:0:
64,192,101512,1,0,0:0:0:0:
64,192,101662,128,0,101812:0:0:0:0:
320,192,101812,128,0,102112:0:0:0:0:
448,192,101812,1,0,0:0:0:0:
192,192,101962,1,0,0:0:0:0:
64,192,101962,1,0,0:0:0:0:
192,192,102112,128,0,102262:0:0:0:0:
64,192,102112,128,0,102262:0:0:0:0:
448,192,102112,1,0,0:0:0:0:
448,192,102262,128,0,102412:0:0:0:0:
192,192,102412,128,0,102562:0:0:0:0:
64,192,102562,1,0,0:0:0:0:
320,192,102562,128,0,102862:0:0:0:0:
64,192,102712,1,0,0:0:0:0:
448,192,102712,1,0,0:0:0:0:
192,192,102862,128,0,103012:0:0:0:0:
64,192,103012,128,0,103162:0:0:0:0:
448,192,103012,1,0,0:0:0:0:
448,192,103162,128,0,103312:0:0:0:0:
320,192,103162,1,0,0:0:0:0:
64,192,103312,1,0,0:0:0:0:
192,192,103312,128,0,103462:0:0:0:0:
448,192,103462,1,0,0:0:0:0:
320,192,103462,128,0,103612:0:0:0:0:
192,192,103612,1,0,0:0:0:0:
64,192,103612,128,0,103912:0:0:0:0:
448,192,103762,1,0,0:0:0:0:
192,192,103762,1,0,0:0:0:0:
320,192,103912,1,0,0:0:0:0:
448,192,103912,1,0,0:0:0:0:
192,192,103987,1,0,0:0:0:0:
64,192,104062,1,0,0:0:0:0:
448,192,104062,1,0,0:0:0:0:
320,192,104137,1,0,0:0:0:0:
64,192,104212,1,0,0:0:0:0:
192,192,104287,1,0,0:0:0:0:
320,192,104362,1,0,0:0:0:0:
448,192,104437,1,0,0:0:0:0:
192,192,104512,1,0,0:0:0:0:
64,192,104587,1,0,0:0:0:0:
448,192,104662,1,0,0:0:0:0:
320,192,104737,1,0,0:0:0:0:
448,192,104812,1,0,0:0:0:0:
192,192,104812,1,0,0:0:0:0:
64,192,104887,1,0,0:0:0:0:
320,192,104962,1,0,0:0:0:0:
192,192,105037,1,0,0:0:0:0:
64,192,105112,128,0,105412:0:0:0:0:
448,192,106312,1,0,0:0:0:0:
64,192,106312,128,0,106612:0:0:0:0:
192,192,106412,1,0,0:0:0:0:
320,192,106462,1,0,0:0:0:0:
192,192,106612,1,0,0:0:0:0:
320,192,106762,1,0,0:0:0:0:
448,192,106762,1,0,0:0:0:0:
64,192,106912,128,0,106987:0:0:0:0:
192,192,106912,128,0,106987:0:0:0:0:
448,192,107062,1,0,0:0:0:0:
320,192,107212,1,0,0:0:0:0:
448,192,107362,1,0,0:0:0:0:
64,192,107362,1,0,0:0:0:0:
192,192,107512,1,0,0:0:0:0:
320,192,107662,1,0,0:0:0:0:
448,192,107737,1,0,0:0:0:0:
64,192,107812,1,0,0:0:0:0:
320,192,107962,1,0,0:0:0:0:
448,192,107962,1,0,0:0:0:0:
192,192,108112,128,0,108187:0:0:0:0:
64,192,108112,128,0,108187:0:0:0:0:
64,192,108262,1,0,0:0:0:0:
320,192,108362,1,0,0:0:0:0:
448,192,108412,1,0,0:0:0:0:
320,192,108562,1,0,0:0:0:0:
192,192,108562,1,0,0:0:0:0:
64,192,108712,1,0,0:0:0:0:
448,192,108712,128,0,109012:0:0:0:0:
192,192,108862,1,0,0:0:0:0:
320,192,109012,1,0,0:0:0:0:
192,192,109162,1,0,0:0:0:0:
320,192,109312,128,0,109387:0:0:0:0:
448,192,109312,128,0,109387:0:0:0:0:
192,192,109462,1,0,0:0:0:0:
64,192,109612,1,0,0:0:0:0:
448,192,109762,1,0,0:0:0:0:
320,192,109912,1,0,0:0:0:0:
448,192,110062,1,0,0:0:0:0:
64,192,110062,1,0,0:0:0:0:
192,192,110212,1,0,0:0:0:0:
320,192,110362,1,0,0:0:0:0:
448,192,110362,1,0,0:0:0:0:
192,192,110512,128,0,110587:0:0:0:0:
64,192,110512,128,0,110587:0:0:0:0:
448,192,110662,1,0,0:0:0:0:
192,192,110762,1,0,0:0:0:0:
320,192,110812,1,0,0:0:0:0:
448,192,110812,1,0,0:0:0:0:
64,192,110962,1,0,0:0:0:0:
192,192,110962,1,0,0:0:0:0:
320,192,111112,1,0,0:0:0:0:
448,192,111112,128,0,111412:0:0:0:0:
64,192,111212,1,0,0:0:0:0:
192,192,111262,1,0,0:0:0:0:
320,192,111262,1,0,0:0:0:0:
64,192,111412,1,0,0:0:0:0:
192,192,111412,1,0,0:0:0:0:
448,192,111562,1,0,0:0:0:0:
320,192,111562,1,0,0:0:0:0:
192,192,111712,128,0,111787:0:0:0:0:
64,192,111712,128,0,111787:0:0:0:0:
320,192,111862,1,0,0:0:0:0:
64,192,111862,1,0,0:0:0:0:
448,192,112012,1,0,0:0:0:0:
320,192,112012,1,0,0:0:0:0:
192,192,112162,1,0,0:0:0:0:
448,192,112162,1,0,0:0:0:0:
64,192,112312,1,0,0:0:0:0:
192,192,112312,1,0,0:0:0:0:
64,192,112462,1,0,0:0:0:0:
448,192,112462,1,0,0:0:0:0:
448,192,112612,1,0,0:0:0:0:
192,192,112612,1,0,0:0:0:0:
320,192,112762,1,0,0:0:0:0:
192,192,112762,1,0,0:0:0:0:
448,192,112912,128,0,112987:0:0:0:0:
64,192,112912,128,0,112987:0:0:0:0:
448,192,113062,1,0,0:0:0:0:
320,192,113062,1,0,0:0:0:0:
64,192,113212,1,0,0:0:0:0:
320,192,113212,1,0,0:0:0:0:
192,192,113362,1,0,0:0:0:0:
64,192,113362,1,0,0:0:0:0:
320,192,113512,1,0,0:0:0:0:
448,192,113512,1,0,0:0:0:0:
192,192,113587,1,0,0:0:0:0:
64,192,113587,1,0,0:0:0:0:
320,192,113662,1,0,0:0:0:0:
448,192,113662,1,0,0:0:0:0:
192,192,113737,1,0,0:0:0:0:
64,192,113737,1,0,0:0:0:0:
320,192,113812,1,0,0:0:0:0:
448,192,113812,1,0,0:0:0:0:
64,192,113887,1,0,0:0:0:0:
192,192,113887,1,0,0:0:0:0:
320,192,113962,1,0,0:0:0:0:
448,192,113962,1,0,0:0:0:0:
192,192,114037,1,0,0:0:0:0:
64,192,114037,1,0,0:0:0:0:
320,192,114112,1,0,0:0:0:0:
448,192,114112,1,0,0:0:0:0:
192,192,114187,1,0,0:0:0:0:
320,192,114262,1,0,0:0:0:0:
192,192,114337,1,0,0:0:0:0:
448,192,114412,1,0,0:0:0:0:
64,192,114487,1,0,0:0:0:0:
448,192,114562,1,0,0:0:0:0:
64,192,114637,1,0,0:0:0:0:
448,192,114712,128,0,115312:0:0:0:0:
320,192,115912,1,0,0:0:0:0:
448,192,115912,1,0,0:0:0:0:
192,192,115912,1,0,0:0:0:0:
64,192,115912,1,0,0:0:0:0:
320,192,116062,1,0,0:0:0:0:
64,192,116212,1,0,0:0:0:0:
448,192,116212,1,0,0:0:0:0:
192,192,116212,128,0,116362:0:0:0:0:
320,192,116212,1,0,0:0:0:0:
64,192,116362,1,0,0:0:0:0:
64,192,116512,1,0,0:0:0:0:
320,192,116512,1,0,0:0:0:0:
192,192,116512,1,0,0:0:0:0:
448,192,116512,128,0,116662:0:0:0:0:
320,192,116662,1,0,0:0:0:0:
320,192,116812,1,0,0:0:0:0:
64,192,116812,1,0,0:0:0:0:
448,192,116812,1,0,0:0:0:0:
192,192,116812,128,0,116962:0:0:0:0:
448,192,116962,1,0,0:0:0:0:
192,192,117112,1,0,0:0:0:0:
64,192,117112,1,0,0:0:0:0:
320,192,117112,1,0,0:0:0:0:
448,192,117112,128,0,117262:0:0:0:0:
64,192,117262,1,0,0:0:0:0:
64,192,117412,1,0,0:0:0:0:
320,192,117412,1,0,0:0:0:0:
192,192,117412,1,0,0:0:0:0:
448,192,117412,1,0,0:0:0:0:
320,192,117562,1,0,0:0:0:0:
64,192,117712,1,0,0:0:0:0:
448,192,117712,1,0,0:0:0:0:
320,192,117712,1,0,0:0:0:0:
192,192,117712,1,0,0:0:0:0:
192,192,117862,1,0,0:0:0:0:
320,192,118012,1,0,0:0:0:0:
192,192,118012,1,0,0:0:0:0:
448,192,118012,1,0,0:0:0:0:
64,192,118012,1,0,0:0:0:0:
64,192,118162,1,0,0:0:0:0:
320,192,118312,1,0,0:0:0:0:
192,192,118312,1,0,0:0:0:0:
64,192,118312,1,0,0:0:0:0:
448,192,118312,1,0,0:0:0:0:
448,192,118462,1,0,0:0:0:0:
448,192,118612,1,0,0:0:0:0:
192,192,118612,1,0,0:0:0:0:
320,192,118612,1,0,0:0:0:0:
64,192,118612,128,0,118762:0:0:0:0:
192,192,118762,1,0,0:0:0:0:
448,192,118912,1,0,0:0:0:0:
320,192,118912,1,0,0:0:0:0:
64,192,118912,1,0,0:0:0:0:
192,192,118912,128,0,119062:0:0:0:0:
320,192,119062,1,0,0:0:0:0:
192,192,119212,1,0,0:0:0:0:
448,192,119212,1,0,0:0:0:0:
64,192,119212,1,0,0:0:0:0:
320,192,119212,128,0,119362:0:0:0:0:
64,192,119362,128,0,119437:0:0:0:0:
192,192,119362,128,0,119437:0:0:0:0:
320,192,119437,128,0,119512:0:0:0:0:
448,192,119437,128,0,119512:0:0:0:0:
192,192,119512,128,0,119662:0:0:0:0:
64,192,119512,128,0,119662:0:0:0:0:
448,192,119662,1,0,0:0:0:0:
448,192,119812,1,0,0:0:0:0:
64,192,119812,1,0,0:0:0:0:
320,192,119812,1,0,0:0:0:0:
192,192,119812,1,0,0:0:0:0:
64,192,119962,1,0,0:0:0:0:
64,192,120112,1,0,0:0:0:0:
448,192,120112,1,0,0:0:0:0:
320,192,120112,1,0,0:0:0:0:
192,192,120112,1,0,0:0:0:0:
448,192,120262,1,0,0:0:0:0:
320,192,120412,1,0,0:0:0:0:
192,192,120412,1,0,0:0:0:0:
448,192,120412,1,0,0:0:0:0:
64,192,120412,1,0,0:0:0:0:
320,192,120562,1,0,0:0:0:0:
320,192,120712,1,0,0:0:0:0:
192,192,120712,1,0,0:0:0:0:
64,192,120712,1,0,0:0:0:0:
448,192,120712,1,0,0:0:0:0:
192,192,120862,1,0,0:0:0:0:
448,192,121012,1,0,0:0:0:0:
64,192,121012,1,0,0:0:0:0:
192,192,121012,1,0,0:0:0:0:
320,192,121012,128,0,121162:0:0:0:0:
64,192,121162,1,0,0:0:0:0:
64,192,121312,1,0,0:0:0:0:
448,192,121312,1,0,0:0:0:0:
320,192,121312,1,0,0:0:0:0:
192,192,121312,128,0,121462:0:0:0:0:
448,192,121462,1,0,0:0:0:0:
192,192,121612,1,0,0:0:0:0:
448,192,121612,1,0,0:0:0:0:
64,192,121612,1,0,0:0:0:0:
320,192,121612,128,0,121762:0:0:0:0:
192,192,121762,1,0,0:0:0:0:
320,192,121912,1,0,0:0:0:0:
64,192,121912,1,0,0:0:0:0:
448,192,121912,1,0,0:0:0:0:
192,192,121912,128,0,122062:0:0:0:0:
320,192,122062,1,0,0:0:0:0:
320,192,122212,1,0,0:0:0:0:
192,192,122212,1,0,0:0:0:0:
448,192,122212,1,0,0:0:0:0:
64,192,122212,1,0,0:0:0:0:
192,192,122362,1,0,0:0:0:0:
320,192,122512,1,0,0:0:0:0:
192,192,122512,1,0,0:0:0:0:
64,192,122512,1,0,0:0:0:0:
448,192,122512,1,0,0:0:0:0:
448,192,122662,1,0,0:0:0:0:
448,192,122812,1,0,0:0:0:0:
64,192,122812,1,0,0:0:0:0:
320,192,122812,1,0,0:0:0:0:
192,192,122812,1,0,0:0:0:0:
64,192,122962,1,0,0:0:0:0:
64,192,123112,1,0,0:0:0:0:
448,192,123112,1,0,0:0:0:0:
320,192,123112,1,0,0:0:0:0:
192,192,123112,1,0,0:0:0:0:
320,192,123262,1,0,0:0:0:0:
192,192,123412,1,0,0:0:0:0:
448,192,123412,1,0,0:0:0:0:
320,192,123412,1,0,0:0:0:0:
64,192,123412,128,0,123562:0:0:0:0:
448,192,123562,1,0,0:0:0:0:
320,192,123712,1,0,0:0:0:0:
64,192,123712,1,0,0:0:0:0:
192,192,123712,1,0,0:0:0:0:
448,192,123712,128,0,123862:0:0:0:0:
64,192,123862,1,0,0:0:0:0:
448,192,124012,1,0,0:0:0:0:
320,192,124012,1,0,0:0:0:0:
192,192,124012,1,0,0:0:0:0:
64,192,124012,128,0,124162:0:0:0:0:
192,192,124162,128,0,124237:0:0:0:0:
320,192,124162,128,0,124237:0:0:0:0:
448,192,124237,128,0,124312:0:0:0:0:
64,192,124237,128,0,124312:0:0:0:0:
320,192,124312,128,0,124462:0:0:0:0:
192,192,124312,128,0,124462:0:0:0:0:
448,192,124462,1,0,0:0:0:0:
448,192,124612,1,0,0:0:0:0:
320,192,124612,1,0,0:0:0:0:
192,192,124612,1,0,0:0:0:0:
64,192,124612,1,0,0:0:0:0:
64,192,124762,1,0,0:0:0:0:
320,192,124912,1,0,0:0:0:0:
192,192,124912,1,0,0:0:0:0:
64,192,124912,1,0,0:0:0:0:
448,192,124912,1,0,0:0:0:0:
320,192,125062,1,0,0:0:0:0:
320,192,125212,1,0,0:0:0:0:
192,192,125212,1,0,0:0:0:0:
448,192,125212,1,0,0:0:0:0:
64,192,125212,1,0,0:0:0:0:
64,192,125362,1,0,0:0:0:0:
320,192,125512,1,0,0:0:0:0:
192,192,125512,1,0,0:0:0:0:
64,192,125512,1,0,0:0:0:0:
448,192,125512,1,0,0:0:0:0:
320,192,125662,1,0,0:0:0:0:
64,192,125812,1,0,0:0:0:0:
192,192,125812,128,0,125962:0:0:0:0:
448,192,125812,1,0,0:0:0:0:
320,192,125812,1,0,0:0:0:0:
448,192,125962,1,0,0:0:0:0:
320,192,126112,1,0,0:0:0:0:
192,192,126112,1,0,0:0:0:0:
448,192,126112,128,0,126262:0:0:0:0:
64,192,126112,1,0,0:0:0:0:
192,192,126262,1,0,0:0:0:0:
320,192,126412,1,0,0:0:0:0:
448,192,126412,1,0,0:0:0:0:
64,192,126412,1,0,0:0:0:0:
192,192,126412,128,0,126562:0:0:0:0:
448,192,126562,1,0,0:0:0:0:
320,192,126712,1,0,0:0:0:0:
192,192,126712,1,0,0:0:0:0:
64,192,126712,1,0,0:0:0:0:
448,192,126712,128,0,126862:0:0:0:0:
192,192,126862,1,0,0:0:0:0:
448,192,127012,1,0,0:0:0:0:
64,192,127012,1,0,0:0:0:0:
320,192,127012,1,0,0:0:0:0:
192,192,127012,1,0,0:0:0:0:
64,192,127162,1,0,0:0:0:0:
64,192,127312,1,0,0:0:0:0:
448,192,127312,1,0,0:0:0:0:
320,192,127312,1,0,0:0:0:0:
192,192,127312,1,0,0:0:0:0:
320,192,127462,1,0,0:0:0:0:
320,192,127612,1,0,0:0:0:0:
192,192,127612,1,0,0:0:0:0:
448,192,127612,1,0,0:0:0:0:
64,192,127612,1,0,0:0:0:0:
192,192,127762,1,0,0:0:0:0:
320,192,127912,1,0,0:0:0:0:
192,192,127912,1,0,0:0:0:0:
64,192,127912,1,0,0:0:0:0:
448,192,127912,1,0,0:0:0:0:
448,192,128062,1,0,0:0:0:0:
448,192,128212,1,0,0:0:0:0:
64,192,128212,1,0,0:0:0:0:
192,192,128212,1,0,0:0:0:0:
320,192,128212,128,0,128362:0:0:0:0:
192,192,128362,1,0,0:0:0:0:
448,192,128512,1,0,0:0:0:0:
320,192,128512,1,0,0:0:0:0:
192,192,128512,1,0,0:0:0:0:
64,192,128512,128,0,128662:0:0:0:0:
448,192,128662,1,0,0:0:0:0:
448,192,128812,1,0,0:0:0:0:
64,192,128812,1,0,0:0:0:0:
320,192,128812,1,0,0:0:0:0:
192,192,128812,128,0,128962:0:0:0:0:
64,192,128962,128,0,129037:0:0:0:0:
320,192,128962,128,0,129037:0:0:0:0:
192,192,129037,128,0,129112:0:0:0:0:
448,192,129037,128,0,129112:0:0:0:0:
64,192,129112,128,0,129262:0:0:0:0:
320,192,129112,128,0,129262:0:0:0:0:
448,192,129262,1,0,0:0:0:0:
448,192,129412,1,0,0:0:0:0:
64,192,129412,1,0,0:0:0:0:
320,192,129412,1,0,0:0:0:0:
192,192,129412,1,0,0:0:0:0:
64,192,129562,1,0,0:0:0:0:
64,192,129712,1,0,0:0:0:0:
448,192,129712,1,0,0:0:0:0:
320,192,129712,1,0,0:0:0:0:
192,192,129712,1,0,0:0:0:0:
448,192,129862,1,0,0:0:0:0:
448,192,130012,1,0,0:0:0:0:
320,192,130012,1,0,0:0:0:0:
192,192,130012,1,0,0:0:0:0:
64,192,130012,1,0,0:0:0:0:
192,192,130162,1,0,0:0:0:0:
64,192,130312,1,0,0:0:0:0:
192,192,130312,1,0,0:0:0:0:
320,192,130312,1,0,0:0:0:0:
448,192,130312,1,0,0:0:0:0:
320,192,130462,1,0,0:0:0:0:
448,192,130612,1,0,0:0:0:0:
320,192,130612,1,0,0:0:0:0:
192,192,130612,1,0,0:0:0:0:
64,192,130612,128,0,130762:0:0:0:0:
192,192,130762,1,0,0:0:0:0:
448,192,130912,128,0,131062:0:0:0:0:
192,192,130912,1,0,0:0:0:0:
64,192,130912,1,0,0:0:0:0:
320,192,130912,1,0,0:0:0:0:
64,192,131062,1,0,0:0:0:0:
64,192,131212,1,0,0:0:0:0:
320,192,131212,1,0,0:0:0:0:
448,192,131212,1,0,0:0:0:0:
192,192,131212,128,0,131362:0:0:0:0:
320,192,131362,1,0,0:0:0:0:
448,192,131362,1,0,0:0:0:0:
320,192,131512,128,0,131662:0:0:0:0:
64,192,131512,1,0,0:0:0:0:
448,192,131512,1,0,0:0:0:0:
192,192,131512,1,0,0:0:0:0:
192,192,131662,1,0,0:0:0:0:
64,192,131662,1,0,0:0:0:0:
64,192,131812,1,0,0:0:0:0:
192,192,131812,1,0,0:0:0:0:
448,192,131812,1,0,0:0:0:0:
320,192,131812,1,0,0:0:0:0:
320,192,131962,1,0,0:0:0:0:
448,192,131962,1,0,0:0:0:0:
192,192,132112,1,0,0:0:0:0:
64,192,132112,1,0,0:0:0:0:
320,192,132112,1,0,0:0:0:0:
448,192,132112,1,0,0:0:0:0:
64,192,132262,1,0,0:0:0:0:
192,192,132262,1,0,0:0:0:0:
64,192,132412,1,0,0:0:0:0:
192,192,132412,1,0,0:0:0:0:
320,192,132412,1,0,0:0:0:0:
448,192,132412,1,0,0:0:0:0:
448,192,132562,1,0,0:0:0:0:
192,192,132562,1,0,0:0:0:0:
64,192,132712,1,0,0:0:0:0:
448,192,132712,1,0,0:0:0:0:
320,192,132712,1,0,0:0:0:0:
192,192,132787,1,0,0:0:0:0:
320,192,132862,1,0,0:0:0:0:
448,192,132937,1,0,0:0:0:0:
64,192,133012,1,0,0:0:0:0:
192,192,133012,1,0,0:0:0:0:
320,192,133012,1,0,0:0:0:0:
448,192,133087,1,0,0:0:0:0:
64,192,133162,1,0,0:0:0:0:
192,192,133237,1,0,0:0:0:0:
320,192,133312,1,0,0:0:0:0:
64,192,133312,1,0,0:0:0:0:
448,192,133312,1,0,0:0:0:0:
192,192,133387,1,0,0:0:0:0:
320,192,133462,1,0,0:0:0:0:
448,192,133537,1,0,0:0:0:0:
320,192,133612,1,0,0:0:0:0:
192,192,133612,1,0,0:0:0:0:
64,192,133612,1,0,0:0:0:0:
448,192,133687,1,0,0:0:0:0:
64,192,133762,1,0,0:0:0:0:
192,192,133837,1,0,0:0:0:0:
448,192,133912,1,0,0:0:0:0:
64,192,133912,1,0,0:0:0:0:
320,192,133912,1,0,0:0:0:0:
448,192,134212,1,0,0:0:0:0:
320,192,134212,1,0,0:0:0:0:
64,192,134212,1,0,0:0:0:0:
64,192,134512,128,0,135012:0:0:0:0:
192,192,134562,128,0,135012:0:0:0:0:
320,192,134612,128,0,135012:0:0:0:0:
448,192,134662,128,0,135012:0:0:0:0:
64,192,135112,1,0,0:0:0:0:
320,192,135112,128,0,135187:0:0:0:0:
448,192,135112,128,0,135412:0:0:0:0:
320,192,135262,128,0,135337:0:0:0:0:
64,192,135412,128,0,135712:0:0:0:0:
192,192,135412,128,0,135487:0:0:0:0:
192,192,135562,128,0,135637:0:0:0:0:
448,192,135712,128,0,135787:0:0:0:0:
320,192,135712,128,0,136012:0:0:0:0:
448,192,135862,128,0,135937:0:0:0:0:
64,192,136012,128,0,136087:0:0:0:0:
192,192,136012,128,0,136312:0:0:0:0:
64,192,136162,128,0,136237:0:0:0:0:
320,192,136312,128,0,136387:0:0:0:0:
448,192,136312,128,0,136912:0:0:0:0:
320,192,136462,128,0,136537:0:0:0:0:
64,192,136612,1,0,0:0:0:0:
192,192,136612,128,0,136687:0:0:0:0:
192,192,136762,128,0,136837:0:0:0:0:
320,192,136912,1,0,0:0:0:0:
64,192,136912,128,0,136987:0:0:0:0:
192,192,136912,1,0,0:0:0:0:
64,192,137062,128,0,137137:0:0:0:0:
192,192,137212,1,0,0:0:0:0:
320,192,137212,1,0,0:0:0:0:
448,192,137212,128,0,137287:0:0:0:0:
448,192,137362,128,0,137437:0:0:0:0:
320,192,137512,1,0,0:0:0:0:
192,192,137512,1,0,0:0:0:0:
64,192,137512,1,0,0:0:0:0:
192,192,137662,1,0,0:0:0:0:
64,192,137812,1,0,0:0:0:0:
448,192,137812,1,0,0:0:0:0:
320,192,137812,1,0,0:0:0:0:
320,192,137962,1,0,0:0:0:0:
192,192,138112,1,0,0:0:0:0:
64,192,138112,1,0,0:0:0:0:
448,192,138112,1,0,0:0:0:0:
64,192,138262,1,0,0:0:0:0:
192,192,138412,1,0,0:0:0:0:
320,192,138412,1,0,0:0:0:0:
448,192,138412,1,0,0:0:0:0:
448,192,138562,1,0,0:0:0:0:
64,192,138712,1,0,0:0:0:0:
192,192,138712,128,0,138787:0:0:0:0:
320,192,138712,128,0,138862:0:0:0:0:
192,192,138862,128,0,139012:0:0:0:0:
448,192,139012,128,0,139087:0:0:0:0:
64,192,139012,128,0,139162:0:0:0:0:
448,192,139162,128,0,139312:0:0:0:0:
320,192,139312,128,0,139462:0:0:0:0:
192,192,139312,128,0,139462:0:0:0:0:
64,192,139312,1,0,0:0:0:0:
448,192,139462,1,0,0:0:0:0:
64,192,139612,128,0,139687:0:0:0:0:
448,192,139612,1,0,0:0:0:0:
192,192,139687,128,0,139762:0:0:0:0:
320,192,139762,128,0,139837:0:0:0:0:
448,192,139837,128,0,139912:0:0:0:0:
64,192,139912,1,0,0:0:0:0:
320,192,139912,1,0,0:0:0:0:
192,192,139912,1,0,0:0:0:0:
64,192,140062,1,0,0:0:0:0:
320,192,140212,1,0,0:0:0:0:
448,192,140212,1,0,0:0:0:0:
192,192,140212,1,0,0:0:0:0:
448,192,140362,1,0,0:0:0:0:
320,192,140512,1,0,0:0:0:0:
192,192,140512,1,0,0:0:0:0:
64,192,140512,1,0,0:0:0:0:
64,192,140662,1,0,0:0:0:0:
192,192,140812,1,0,0:0:0:0:
320,192,140812,1,0,0:0:0:0:
448,192,140812,1,0,0:0:0:0:
320,192,140962,1,0,0:0:0:0:
192,192,141112,1,0,0:0:0:0:
64,192,141112,1,0,0:0:0:0:
448,192,141112,1,0,0:0:0:0:
448,192,141262,1,0,0:0:0:0:
320,192,141412,1,0,0:0:0:0:
192,192,141412,1,0,0:0:0:0:
64,192,141412,1,0,0:0:0:0:
192,192,141562,1,0,0:0:0:0:
64,192,141712,1,0,0:0:0:0:
448,192,141712,1,0,0:0:0:0:
320,192,141712,1,0,0:0:0:0:
64,192,141862,128,0,142012:0:0:0:0:
320,192,142012,1,0,0:0:0:0:
448,192,142012,128,0,142162:0:0:0:0:
192,192,142012,1,0,0:0:0:0:
192,192,142162,128,0,142312:0:0:0:0:
448,192,142312,1,0,0:0:0:0:
320,192,142312,1,0,0:0:0:0:
64,192,142312,1,0,0:0:0:0:
320,192,142462,1,0,0:0:0:0:
192,192,142612,1,0,0:0:0:0:
448,192,142612,1,0,0:0:0:0:
64,192,142612,1,0,0:0:0:0:
448,192,142762,1,0,0:0:0:0:
320,192,142912,1,0,0:0:0:0:
192,192,142912,1,0,0:0:0:0:
64,192,142912,1,0,0:0:0:0:
192,192,143062,1,0,0:0:0:0:
320,192,143212,1,0,0:0:0:0:
64,192,143212,1,0,0:0:0:0:
448,192,143212,1,0,0:0:0:0:
320,192,143362,1,0,0:0:0:0:
192,192,143512,1,0,0:0:0:0:
64,192,143512,1,0,0:0:0:0:
448,192,143512,1,0,0:0:0:0:
320,192,143587,1,0,0:0:0:0:
192,192,143662,1,0,0:0:0:0:
64,192,143737,1,0,0:0:0:0:
192,192,143812,128,0,143887:0:0:0:0:
320,192,143812,128,0,143962:0:0:0:0:
448,192,143812,128,0,144037:0:0:0:0:
192,192,144112,128,0,144187:0:0:0:0:
320,192,144112,128,0,144262:0:0:0:0:
448,192,144112,128,0,144337:0:0:0:0:
64,192,144412,128,0,144562:0:0:0:0:
192,192,144412,128,0,144487:0:0:0:0:
320,192,144412,1,0,0:0:0:0:
320,192,144562,128,0,144712:0:0:0:0:
64,192,144712,128,0,145012:0:0:0:0:
448,192,144712,128,0,144787:0:0:0:0:
192,192,144712,1,0,0:0:0:0:
448,192,144862,128,0,144937:0:0:0:0:
320,192,145012,128,0,145312:0:0:0:0:
192,192,145012,128,0,145087:0:0:0:0:
192,192,145162,128,0,145237:0:0:0:0:
64,192,145312,128,0,145387:0:0:0:0:
448,192,145312,128,0,145612:0:0:0:0:
64,192,145462,128,0,145537:0:0:0:0:
320,192,145612,128,0,145687:0:0:0:0:
192,192,145612,128,0,145912:0:0:0:0:
320,192,145762,128,0,145837:0:0:0:0:
448,192,145912,128,0,146812:0:0:0:0:
64,192,145912,128,0,145987:0:0:0:0:
64,192,146062,128,0,146137:0:0:0:0:
320,192,146212,1,0,0:0:0:0:
192,192,146212,128,0,146287:0:0:0:0:
192,192,146362,128,0,146437:0:0:0:0:
64,192,146512,128,0,146587:0:0:0:0:
320,192,146512,1,0,0:0:0:0:
64,192,146662,128,0,146737:0:0:0:0:
320,192,146812,128,0,146887:0:0:0:0:
64,192,146812,1,0,0:0:0:0:
192,192,146812,1,0,0:0:0:0:
320,192,146962,128,0,147037:0:0:0:0:
192,192,147112,1,0,0:0:0:0:
64,192,147112,1,0,0:0:0:0:
448,192,147112,1,0,0:0:0:0:
192,192,147262,1,0,0:0:0:0:
64,192,147412,1,0,0:0:0:0:
320,192,147412,1,0,0:0:0:0:
448,192,147412,1,0,0:0:0:0:
320,192,147562,1,0,0:0:0:0:
64,192,147712,1,0,0:0:0:0:
192,192,147712,1,0,0:0:0:0:
448,192,147712,1,0,0:0:0:0:
192,192,147862,1,0,0:0:0:0:
64,192,148012,1,0,0:0:0:0:
320,192,148012,1,0,0:0:0:0:
448,192,148012,1,0,0:0:0:0:
64,192,148162,1,0,0:0:0:0:
192,192,148312,128,0,148462:0:0:0:0:
320,192,148312,128,0,148387:0:0:0:0:
448,192,148312,1,0,0:0:0:0:
320,192,148462,128,0,148612:0:0:0:0:
448,192,148612,128,0,148762:0:0:0:0:
64,192,148612,128,0,148687:0:0:0:0:
64,192,148762,128,0,148912:0:0:0:0:
448,192,148912,128,0,149062:0:0:0:0:
192,192,148912,1,0,0:0:0:0:
320,192,148912,128,0,149062:0:0:0:0:
192,192,149062,1,0,0:0:0:0:
64,192,149212,1,0,0:0:0:0:
448,192,149212,128,0,149287:0:0:0:0:
320,192,149287,128,0,149362:0:0:0:0:
192,192,149362,128,0,149437:0:0:0:0:
64,192,149437,128,0,149512:0:0:0:0:
320,192,149512,1,0,0:0:0:0:
448,192,149512,1,0,0:0:0:0:
192,192,149512,1,0,0:0:0:0:
448,192,149662,1,0,0:0:0:0:
64,192,149812,1,0,0:0:0:0:
320,192,149812,1,0,0:0:0:0:
192,192,149812,1,0,0:0:0:0:
64,192,149962,1,0,0:0:0:0:
320,192,150112,1,0,0:0:0:0:
192,192,150112,1,0,0:0:0:0:
448,192,150112,1,0,0:0:0:0:
320,192,150262,1,0,0:0:0:0:
192,192,150412,1,0,0:0:0:0:
64,192,150412,1,0,0:0:0:0:
448,192,150412,1,0,0:0:0:0:
64,192,150562,1,0,0:0:0:0:
192,192,150712,1,0,0:0:0:0:
320,192,150712,1,0,0:0:0:0:
448,192,150712,1,0,0:0:0:0:
448,192,150862,1,0,0:0:0:0:
320,192,151012,1,0,0:0:0:0:
192,192,151012,1,0,0:0:0:0:
64,192,151012,1,0,0:0:0:0:
192,192,151162,1,0,0:0:0:0:
64,192,151312,1,0,0:0:0:0:
320,192,151312,1,0,0:0:0:0:
448,192,151312,1,0,0:0:0:0:
448,192,151462,128,0,151612:0:0:0:0:
192,192,151612,1,0,0:0:0:0:
64,192,151612,1,0,0:0:0:0:
320,192,151612,128,0,151762:0:0:0:0:
64,192,151762,128,0,151912:0:0:0:0:
320,192,151912,1,0,0:0:0:0:
448,192,151912,1,0,0:0:0:0:
192,192,151912,1,0,0:0:0:0:
64,192,151987,1,0,0:0:0:0:
448,192,152062,1,0,0:0:0:0:
320,192,152137,1,0,0:0:0:0:
192,192,152212,1,0,0:0:0:0:
64,192,152212,1,0,0:0:0:0:
448,192,152212,1,0,0:0:0:0:
320,192,152287,1,0,0:0:0:0:
64,192,152362,1,0,0:0:0:0:
192,192,152437,1,0,0:0:0:0:
320,192,152512,1,0,0:0:0:0:
448,192,152512,1,0,0:0:0:0:
64,192,152512,1,0,0:0:0:0:
192,192,152587,1,0,0:0:0:0:
320,192,152662,1,0,0:0:0:0:
192,192,152737,1,0,0:0:0:0:
448,192,152812,1,0,0:0:0:0:
64,192,152812,1,0,0:0:0:0:
320,192,152812,1,0,0:0:0:0:
192,192,152962,1,0,0:0:0:0:
64,192,153112,1,0,0:0:0:0:
192,192,153112,1,0,0:0:0:0:
320,192,153112,1,0,0:0:0:0:
448,192,153112,1,0,0:0:0:0:
320,192,153412,1,0,0:0:0:0:
192,192,153412,1,0,0:0:0:0:
64,192,153412,1,0,0:0:0:0:
448,192,153412,1,0,0:0:0:0:
320,192,153712,1,0,0:0:0:0:
192,192,153712,1,0,0:0:0:0:
64,192,153712,1,0,0:0:0:0:
448,192,153712,1,0,0:0:0:0:
320,192,154012,1,0,0:0:0:0:
192,192,154012,1,0,0:0:0:0:
64,192,154012,1,0,0:0:0:0:
448,192,154012,1,0,0:0:0:0:
192,192,154312,128,0,154387:0:0:0:0:
320,192,154312,1,0,0:0:0:0:
64,192,154312,128,0,154462:0:0:0:0:
448,192,154462,128,0,154537:0:0:0:0:
448,192,154612,128,0,154762:0:0:0:0:
320,192,154612,128,0,154762:0:0:0:0:
192,192,154762,1,0,0:0:0:0:
448,192,154912,1,0,0:0:0:0:
64,192,154912,128,0,155062:0:0:0:0:
320,192,154912,1,0,0:0:0:0:
192,192,155062,128,0,155212:0:0:0:0:
64,192,155212,1,0,0:0:0:0:
320,192,155212,1,0,0:0:0:0:
448,192,155212,1,0,0:0:0:0:
64,192,155362,128,0,155512:0:0:0:0:
192,192,155512,128,0,155587:0:0:0:0:
448,192,155512,1,0,0:0:0:0:
320,192,155512,1,0,0:0:0:0:
192,192,155662,128,0,155812:0:0:0:0:
320,192,155812,1,0,0:0:0:0:
448,192,155812,128,0,155887:0:0:0:0:
64,192,155812,1,0,0:0:0:0:
448,192,155962,128,0,156112:0:0:0:0:
320,192,156112,1,0,0:0:0:0:
192,192,156112,128,0,156187:0:0:0:0:
64,192,156112,1,0,0:0:0:0:
192,192,156262,128,0,156412:0:0:0:0:
320,192,156412,128,0,156562:0:0:0:0:
448,192,156412,128,0,156562:0:0:0:0:
64,192,156412,128,0,156562:0:0:0:0:
192,192,156562,128,0,156712:0:0:0:0:
320,192,156712,128,0,156787:0:0:0:0:
448,192,156712,128,0,156862:0:0:0:0:
64,192,156712,1,0,0:0:0:0:
320,192,156862,1,0,0:0:0:0:
64,192,157012,128,0,157162:0:0:0:0:
192,192,157012,128,0,157162:0:0:0:0:
320,192,157162,1,0,0:0:0:0:
448,192,157312,1,0,0:0:0:0:
320,192,157312,128,0,157462:0:0:0:0:
64,192,157312,1,0,0:0:0:0:
64,192,157462,1,0,0:0:0:0:
448,192,157612,1,0,0:0:0:0:
192,192,157612,1,0,0:0:0:0:
320,192,157612,1,0,0:0:0:0:
192,192,157762,128,0,157912:0:0:0:0:
448,192,157912,128,0,157987:0:0:0:0:
320,192,157912,128,0,158062:0:0:0:0:
64,192,157912,1,0,0:0:0:0:
448,192,158062,128,0,158212:0:0:0:0:
320,192,158212,128,0,158287:0:0:0:0:
192,192,158212,128,0,158362:0:0:0:0:
320,192,158362,128,0,158512:0:0:0:0:
192,192,158512,128,0,158662:0:0:0:0:
64,192,158512,128,0,158662:0:0:0:0:
448,192,158512,1,0,0:0:0:0:
448,192,158662,1,0,0:0:0:0:
64,192,158812,128,0,158962:0:0:0:0:
192,192,158812,128,0,158887:0:0:0:0:
320,192,158812,1,0,0:0:0:0:
448,192,158887,128,0,158962:0:0:0:0:
320,192,158962,128,0,159037:0:0:0:0:
192,192,159037,128,0,159112:0:0:0:0:
448,192,159112,128,0,159262:0:0:0:0:
64,192,159112,128,0,159187:0:0:0:0:
320,192,159112,1,0,0:0:0:0:
64,192,159262,1,0,0:0:0:0:
192,192,159412,128,0,159562:0:0:0:0:
320,192,159412,128,0,159562:0:0:0:0:
448,192,159562,1,0,0:0:0:0:
320,192,159712,1,0,0:0:0:0:
448,192,159712,128,0,159862:0:0:0:0:
64,192,159712,1,0,0:0:0:0:
64,192,159862,1,0,0:0:0:0:
448,192,160012,1,0,0:0:0:0:
320,192,160012,1,0,0:0:0:0:
192,192,160012,1,0,0:0:0:0:
192,192,160162,128,0,160237:0:0:0:0:
64,192,160312,1,0,0:0:0:0:
448,192,160312,1,0,0:0:0:0:
192,192,160312,128,0,160462:0:0:0:0:
448,192,160462,128,0,160537:0:0:0:0:
320,192,160612,1,0,0:0:0:0:
64,192,160612,1,0,0:0:0:0:
448,192,160612,128,0,160762:0:0:0:0:
64,192,160762,128,0,160837:0:0:0:0:
64,192,160912,128,0,161062:0:0:0:0:
192,192,160912,1,0,0:0:0:0:
448,192,160912,1,0,0:0:0:0:
320,192,161062,128,0,161212:0:0:0:0:
448,192,161212,128,0,161362:0:0:0:0:
192,192,161212,128,0,161362:0:0:0:0:
64,192,161212,128,0,161362:0:0:0:0:
320,192,161362,128,0,161512:0:0:0:0:
64,192,161512,128,0,161587:0:0:0:0:
192,192,161512,128,0,161662:0:0:0:0:
448,192,161512,1,0,0:0:0:0:
64,192,161662,1,0,0:0:0:0:
448,192,161812,128,0,161962:0:0:0:0:
320,192,161812,128,0,161962:0:0:0:0:
64,192,161962,1,0,0:0:0:0:
448,192,162112,1,0,0:0:0:0:
64,192,162112,128,0,162262:0:0:0:0:
192,192,162112,1,0,0:0:0:0:
192,192,162262,1,0,0:0:0:0:
320,192,162412,1,0,0:0:0:0:
448,192,162412,1,0,0:0:0:0:
64,192,162412,1,0,0:0:0:0:
320,192,162562,128,0,162637:0:0:0:0:
64,192,162712,1,0,0:0:0:0:
448,192,162712,1,0,0:0:0:0:
320,192,162712,128,0,162862:0:0:0:0:
192,192,162862,1,0,0:0:0:0:
64,192,163012,128,0,163087:0:0:0:0:
320,192,163012,128,0,163162:0:0:0:0:
448,192,163012,128,0,163237:0:0:0:0:
64,192,163312,128,0,163387:0:0:0:0:
320,192,163312,128,0,163462:0:0:0:0:
448,192,163312,128,0,163537:0:0:0:0:
64,192,163612,128,0,163762:0:0:0:0:
448,192,163612,1,0,0:0:0:0:
192,192,163612,128,0,163687:0:0:0:0:
448,192,163762,128,0,163912:0:0:0:0:
64,192,163912,1,0,0:0:0:0:
320,192,163912,128,0,163987:0:0:0:0:
192,192,163912,128,0,164062:0:0:0:0:
448,192,164062,128,0,164137:0:0:0:0:
64,192,164212,128,0,164362:0:0:0:0:
448,192,164212,128,0,164362:0:0:0:0:
320,192,164362,1,0,0:0:0:0:
448,192,164512,1,0,0:0:0:0:
64,192,164512,1,0,0:0:0:0:
192,192,164512,128,0,164662:0:0:0:0:
320,192,164662,128,0,164812:0:0:0:0:
64,192,164812,1,0,0:0:0:0:
448,192,164812,1,0,0:0:0:0:
192,192,164812,1,0,0:0:0:0:
448,192,164962,128,0,165112:0:0:0:0:
192,192,165112,1,0,0:0:0:0:
64,192,165112,128,0,165187:0:0:0:0:
320,192,165112,1,0,0:0:0:0:
64,192,165262,128,0,165412:0:0:0:0:
320,192,165412,1,0,0:0:0:0:
448,192,165412,1,0,0:0:0:0:
192,192,165412,128,0,165487:0:0:0:0:
192,192,165562,128,0,165712:0:0:0:0:
64,192,165712,1,0,0:0:0:0:
320,192,165712,128,0,165787:0:0:0:0:
448,192,165712,1,0,0:0:0:0:
320,192,165862,128,0,166012:0:0:0:0:
192,192,166012,128,0,166162:0:0:0:0:
64,192,166012,128,0,166162:0:0:0:0:
448,192,166012,128,0,166162:0:0:0:0:
320,192,166162,128,0,166312:0:0:0:0:
64,192,166312,1,0,0:0:0:0:
192,192,166312,128,0,166387:0:0:0:0:
448,192,166312,128,0,166462:0:0:0:0:
192,192,166462,1,0,0:0:0:0:
64,192,166612,128,0,166762:0:0:0:0:
320,192,166612,128,0,166762:0:0:0:0:
192,192,166762,1,0,0:0:0:0:
64,192,166912,1,0,0:0:0:0:
448,192,166912,1,0,0:0:0:0:
192,192,166912,128,0,167062:0:0:0:0:
64,192,167062,1,0,0:0:0:0:
192,192,167212,1,0,0:0:0:0:
448,192,167212,1,0,0:0:0:0:
320,192,167212,1,0,0:0:0:0:
448,192,167362,128,0,167512:0:0:0:0:
320,192,167512,1,0,0:0:0:0:
64,192,167512,128,0,167587:0:0:0:0:
192,192,167512,128,0,167662:0:0:0:0:
64,192,167662,128,0,167812:0:0:0:0:
192,192,167812,128,0,167887:0:0:0:0:
320,192,167812,128,0,167962:0:0:0:0:
192,192,167962,128,0,168112:0:0:0:0:
320,192,168112,128,0,168262:0:0:0:0:
448,192,168112,128,0,168262:0:0:0:0:
64,192,168112,1,0,0:0:0:0:
64,192,168262,1,0,0:0:0:0:
448,192,168412,128,0,168562:0:0:0:0:
320,192,168412,128,0,168487:0:0:0:0:
192,192,168412,1,0,0:0:0:0:
64,192,168487,128,0,168562:0:0:0:0:
192,192,168562,128,0,168637:0:0:0:0:
320,192,168637,128,0,168712:0:0:0:0:
64,192,168712,128,0,168862:0:0:0:0:
192,192,168712,1,0,0:0:0:0:
448,192,168712,128,0,168787:0:0:0:0:
448,192,168862,1,0,0:0:0:0:
192,192,169012,128,0,169162:0:0:0:0:
320,192,169012,128,0,169162:0:0:0:0:
64,192,169162,1,0,0:0:0:0:
192,192,169312,1,0,0:0:0:0:
320,192,169312,1,0,0:0:0:0:
448,192,169312,128,0,169462:0:0:0:0:
192,192,169462,1,0,0:0:0:0:
64,192,169612,1,0,0:0:0:0:
320,192,169612,1,0,0:0:0:0:
448,192,169612,1,0,0:0:0:0:
448,192,169762,128,0,169837:0:0:0:0:
64,192,169912,1,0,0:0:0:0:
448,192,169912,128,0,170062:0:0:0:0:
192,192,169912,1,0,0:0:0:0:
64,192,170062,128,0,170137:0:0:0:0:
448,192,170212,1,0,0:0:0:0:
64,192,170212,128,0,170362:0:0:0:0:
320,192,170212,1,0,0:0:0:0:
320,192,170362,128,0,170437:0:0:0:0:
64,192,170512,1,0,0:0:0:0:
320,192,170512,128,0,170662:0:0:0:0:
192,192,170512,1,0,0:0:0:0:
448,192,170662,128,0,170812:0:0:0:0:
64,192,170812,128,0,170962:0:0:0:0:
192,192,170812,128,0,170962:0:0:0:0:
320,192,170812,128,0,170962:0:0:0:0:
448,192,170962,128,0,171112:0:0:0:0:
64,192,171112,128,0,171187:0:0:0:0:
320,192,171112,128,0,171262:0:0:0:0:
192,192,171112,1,0,0:0:0:0:
64,192,171262,1,0,0:0:0:0:
448,192,171412,128,0,171562:0:0:0:0:
192,192,171412,128,0,171562:0:0:0:0:
64,192,171562,1,0,0:0:0:0:
448,192,171712,1,0,0:0:0:0:
64,192,171712,1,0,0:0:0:0:
320,192,171712,128,0,171862:0:0:0:0:
192,192,171862,1,0,0:0:0:0:
64,192,172012,1,0,0:0:0:0:
448,192,172012,1,0,0:0:0:0:
320,192,172012,1,0,0:0:0:0:
448,192,172162,1,0,0:0:0:0:
192,192,172312,1,0,0:0:0:0:
64,192,172312,1,0,0:0:0:0:
320,192,172312,1,0,0:0:0:0:
448,192,172312,1,0,0:0:0:0:
448,192,172612,1,0,0:0:0:0:
320,192,172612,1,0,0:0:0:0:
192,192,172612,1,0,0:0:0:0:
64,192,172612,1,0,0:0:0:0:
448,192,172912,128,0,173412:0:0:0:0:
320,192,172962,128,0,173412:0:0:0:0:
192,192,173012,128,0,173412:0:0:0:0:
64,192,173062,128,0,173412:0:0:0:0:
64,192,173512,128,0,173587:0:0:0:0:
192,192,173512,128,0,173587:0:0:0:0:
320,192,173512,128,0,173662:0:0:0:0:
448,192,173512,128,0,173662:0:0:0:0:
64,192,173662,1,0,0:0:0:0:
320,192,173812,1,0,0:0:0:0:
192,192,173812,1,0,0:0:0:0:
448,192,173812,1,0,0:0:0:0:
448,192,173962,1,0,0:0:0:0:
320,192,173962,1,0,0:0:0:0:
64,192,174112,1,0,0:0:0:0:
192,192,174112,1,0,0:0:0:0:
448,192,174112,1,0,0:0:0:0:
192,192,174262,1,0,0:0:0:0:
64,192,174262,1,0,0:0:0:0:
448,192,174412,1,0,0:0:0:0:
320,192,174412,1,0,0:0:0:0:
64,192,174412,1,0,0:0:0:0:
192,192,174487,1,0,0:0:0:0:
320,192,174562,1,0,0:0:0:0:
448,192,174562,1,0,0:0:0:0:
64,192,174637,1,0,0:0:0:0:
320,192,174712,128,0,174862:0:0:0:0:
192,192,174712,1,0,0:0:0:0:
448,192,174712,128,0,174787:0:0:0:0:
448,192,174862,128,0,175012:0:0:0:0:
192,192,175012,128,0,175087:0:0:0:0:
320,192,175012,128,0,175162:0:0:0:0:
192,192,175162,128,0,175312:0:0:0:0:
448,192,175312,128,0,175462:0:0:0:0:
64,192,175312,128,0,175462:0:0:0:0:
320,192,175312,1,0,0:0:0:0:
192,192,175462,1,0,0:0:0:0:
448,192,175612,128,0,175687:0:0:0:0:
64,192,175612,128,0,175762:0:0:0:0:
320,192,175612,1,0,0:0:0:0:
448,192,175762,1,0,0:0:0:0:
448,192,175912,128,0,176062:0:0:0:0:
320,192,175912,128,0,176062:0:0:0:0:
192,192,175912,128,0,175987:0:0:0:0:
64,192,175912,128,0,175987:0:0:0:0:
64,192,176062,1,0,0:0:0:0:
192,192,176212,1,0,0:0:0:0:
320,192,176212,1,0,0:0:0:0:
448,192,176212,1,0,0:0:0:0:
192,192,176362,1,0,0:0:0:0:
64,192,176362,1,0,0:0:0:0:
320,192,176512,1,0,0:0:0:0:
448,192,176512,1,0,0:0:0:0:
64,192,176512,1,0,0:0:0:0:
320,192,176662,1,0,0:0:0:0:
448,192,176662,1,0,0:0:0:0:
192,192,176812,1,0,0:0:0:0:
448,192,176812,1,0,0:0:0:0:
64,192,176812,1,0,0:0:0:0:
320,192,176887,1,0,0:0:0:0:
192,192,176962,1,0,0:0:0:0:
64,192,176962,1,0,0:0:0:0:
448,192,177037,1,0,0:0:0:0:
192,192,177112,128,0,177262:0:0:0:0:
320,192,177112,1,0,0:0:0:0:
64,192,177112,128,0,177187:0:0:0:0:
64,192,177262,128,0,177412:0:0:0:0:
192,192,177412,128,0,177562:0:0:0:0:
320,192,177412,128,0,177487:0:0:0:0:
320,192,177562,128,0,177712:0:0:0:0:
192,192,177712,1,0,0:0:0:0:
64,192,177712,128,0,177862:0:0:0:0:
448,192,177712,128,0,177862:0:0:0:0:
192,192,177862,128,0,178012:0:0:0:0:
320,192,178012,128,0,178162:0:0:0:0:
64,192,178012,1,0,0:0:0:0:
448,192,178162,128,0,178312:0:0:0:0:
64,192,178312,1,0,0:0:0:0:
320,192,178312,1,0,0:0:0:0:
64,192,178462,1,0,0:0:0:0:
192,192,178462,1,0,0:0:0:0:
320,192,178612,1,0,0:0:0:0:
448,192,178612,1,0,0:0:0:0:
192,192,178687,1,0,0:0:0:0:
64,192,178687,1,0,0:0:0:0:
320,192,178762,1,0,0:0:0:0:
448,192,178762,1,0,0:0:0:0:
192,192,178837,1,0,0:0:0:0:
64,192,178837,1,0,0:0:0:0:
320,192,178912,128,0,179062:0:0:0:0:
448,192,178912,128,0,179062:0:0:0:0:
192,192,179062,1,0,0:0:0:0:
64,192,179212,1,0,0:0:0:0:
320,192,179212,1,0,0:0:0:0:
192,192,179212,1,0,0:0:0:0:
448,192,179287,1,0,0:0:0:0:
320,192,179362,1,0,0:0:0:0:
192,192,179437,1,0,0:0:0:0:
64,192,179512,128,0,179587:0:0:0:0:
320,192,179512,128,0,179662:0:0:0:0:
448,192,179512,1,0,0:0:0:0:
64,192,179662,128,0,179812:0:0:0:0:
192,192,179812,128,0,179887:0:0:0:0:
320,192,179812,128,0,179962:0:0:0:0:
192,192,179962,128,0,180112:0:0:0:0:
320,192,180112,128,0,180262:0:0:0:0:
448,192,180112,128,0,180262:0:0:0:0:
64,192,180112,1,0,0:0:0:0:
192,192,180262,1,0,0:0:0:0:
448,192,180412,128,0,180562:0:0:0:0:
320,192,180412,128,0,180487:0:0:0:0:
64,192,180412,1,0,0:0:0:0:
320,192,180562,1,0,0:0:0:0:
64,192,180712,128,0,180787:0:0:0:0:
192,192,180712,128,0,180787:0:0:0:0:
320,192,180712,128,0,180862:0:0:0:0:
448,192,180712,128,0,180862:0:0:0:0:
192,192,180862,1,0,0:0:0:0:
64,192,181012,1,0,0:0:0:0:
192,192,181012,1,0,0:0:0:0:
448,192,181012,1,0,0:0:0:0:
320,192,181162,1,0,0:0:0:0:
448,192,181162,1,0,0:0:0:0:
320,192,181312,1,0,0:0:0:0:
448,192,181312,1,0,0:0:0:0:
64,192,181312,1,0,0:0:0:0:
320,192,181462,1,0,0:0:0:0:
448,192,181462,1,0,0:0:0:0:
192,192,181612,1,0,0:0:0:0:
320,192,181612,1,0,0:0:0:0:
448,192,181612,1,0,0:0:0:0:
320,192,181762,1,0,0:0:0:0:
448,192,181762,1,0,0:0:0:0:
192,192,181912,128,0,182512:0:0:0:0:
64,192,182062,128,0,182212:0:0:0:0:
320,192,182212,1,0,0:0:0:0:
448,192,182212,1,0,0:0:0:0:
320,192,182362,1,0,0:0:0:0:
448,192,182362,1,0,0:0:0:0:
320,192,182512,128,0,183037:0:0:0:0:
192,192,182662,1,0,0:0:0:0:
64,192,182662,1,0,0:0:0:0:
192,192,182812,1,0,0:0:0:0:
64,192,182812,1,0,0:0:0:0:
448,192,182962,128,0,183037:0:0:0:0:
64,192,183112,128,0,183262:0:0:0:0:
192,192,183112,128,0,183262:0:0:0:0:
320,192,183112,128,0,183187:0:0:0:0:
448,192,183112,128,0,183187:0:0:0:0:
320,192,183262,1,0,0:0:0:0:
192,192,183412,1,0,0:0:0:0:
448,192,183412,1,0,0:0:0:0:
64,192,183412,1,0,0:0:0:0:
448,192,183562,1,0,0:0:0:0:
320,192,183562,1,0,0:0:0:0:
64,192,183712,1,0,0:0:0:0:
192,192,183712,1,0,0:0:0:0:
320,192,183712,1,0,0:0:0:0:
192,192,183862,1,0,0:0:0:0:
64,192,183862,1,0,0:0:0:0:
448,192,184012,1,0,0:0:0:0:
320,192,184012,1,0,0:0:0:0:
192,192,184012,1,0,0:0:0:0:
64,192,184087,1,0,0:0:0:0:
448,192,184162,1,0,0:0:0:0:
320,192,184162,1,0,0:0:0:0:
192,192,184237,1,0,0:0:0:0:
320,192,184312,128,0,184462:0:0:0:0:
64,192,184312,1,0,0:0:0:0:
448,192,184312,128,0,184387:0:0:0:0:
448,192,184462,128,0,184612:0:0:0:0:
192,192,184462,1,0,0:0:0:0:
320,192,184612,128,0,184687:0:0:0:0:
192,192,184612,128,0,184762:0:0:0:0:
320,192,184762,128,0,184912:0:0:0:0:
192,192,184912,128,0,185062:0:0:0:0:
448,192,184912,1,0,0:0:0:0:
64,192,184912,128,0,185062:0:0:0:0:
320,192,185062,1,0,0:0:0:0:
448,192,185212,1,0,0:0:0:0:
64,192,185212,128,0,185362:0:0:0:0:
192,192,185212,128,0,185287:0:0:0:0:
192,192,185362,1,0,0:0:0:0:
64,192,185512,128,0,185662:0:0:0:0:
192,192,185512,128,0,185662:0:0:0:0:
320,192,185512,128,0,185587:0:0:0:0:
448,192,185512,128,0,185587:0:0:0:0:
320,192,185662,1,0,0:0:0:0:
192,192,185812,1,0,0:0:0:0:
64,192,185812,1,0,0:0:0:0:
448,192,185812,1,0,0:0:0:0:
64,192,185962,1,0,0:0:0:0:
192,192,185962,1,0,0:0:0:0:
448,192,186112,1,0,0:0:0:0:
320,192,186112,1,0,0:0:0:0:
64,192,186112,1,0,0:0:0:0:
320,192,186262,1,0,0:0:0:0:
448,192,186262,1,0,0:0:0:0:
192,192,186412,1,0,0:0:0:0:
64,192,186412,1,0,0:0:0:0:
448,192,186412,1,0,0:0:0:0:
320,192,186487,1,0,0:0:0:0:
192,192,186562,1,0,0:0:0:0:
64,192,186562,1,0,0:0:0:0:
320,192,186637,1,0,0:0:0:0:
64,192,186712,128,0,186787:0:0:0:0:
192,192,186712,1,0,0:0:0:0:
448,192,186712,128,0,186862:0:0:0:0:
64,192,186862,128,0,187012:0:0:0:0:
192,192,187012,128,0,187162:0:0:0:0:
448,192,187012,128,0,187087:0:0:0:0:
448,192,187162,128,0,187312:0:0:0:0:
64,192,187312,1,0,0:0:0:0:
192,192,187312,128,0,187462:0:0:0:0:
320,192,187312,128,0,187462:0:0:0:0:
448,192,187462,128,0,187612:0:0:0:0:
192,192,187612,128,0,187762:0:0:0:0:
320,192,187612,1,0,0:0:0:0:
64,192,187762,128,0,187912:0:0:0:0:
448,192,187912,1,0,0:0:0:0:
320,192,187912,1,0,0:0:0:0:
192,192,187987,1,0,0:0:0:0:
64,192,188062,1,0,0:0:0:0:
448,192,188062,1,0,0:0:0:0:
320,192,188137,1,0,0:0:0:0:
192,192,188212,1,0,0:0:0:0:
64,192,188212,1,0,0:0:0:0:
448,192,188287,1,0,0:0:0:0:
320,192,188287,1,0,0:0:0:0:
192,192,188362,1,0,0:0:0:0:
64,192,188362,1,0,0:0:0:0:
448,192,188437,1,0,0:0:0:0:
320,192,188437,1,0,0:0:0:0:
192,192,188512,128,0,188662:0:0:0:0:
64,192,188512,128,0,188662:0:0:0:0:
448,192,188662,1,0,0:0:0:0:
64,192,188812,1,0,0:0:0:0:
192,192,188812,1,0,0:0:0:0:
320,192,188812,1,0,0:0:0:0:
448,192,188887,1,0,0:0:0:0:
320,192,188962,1,0,0:0:0:0:
192,192,189037,1,0,0:0:0:0:
448,192,189112,128,0,189187:0:0:0:0:
320,192,189112,1,0,0:0:0:0:
64,192,189112,128,0,189262:0:0:0:0:
448,192,189262,128,0,189412:0:0:0:0:
64,192,189412,128,0,189487:0:0:0:0:
320,192,189412,128,0,189562:0:0:0:0:
64,192,189562,128,0,189712:0:0:0:0:
320,192,189712,128,0,189862:0:0:0:0:
448,192,189712,1,0,0:0:0:0:
192,192,189712,128,0,189862:0:0:0:0:
64,192,189862,1,0,0:0:0:0:
192,192,190012,128,0,190162:0:0:0:0:
320,192,190012,128,0,190087:0:0:0:0:
448,192,190012,1,0,0:0:0:0:
320,192,190162,1,0,0:0:0:0:
64,192,190312,128,0,190462:0:0:0:0:
192,192,190312,128,0,190462:0:0:0:0:
320,192,190312,128,0,190387:0:0:0:0:
448,192,190312,128,0,190387:0:0:0:0:
448,192,190462,1,0,0:0:0:0:
448,192,190612,1,0,0:0:0:0:
192,192,190612,1,0,0:0:0:0:
320,192,190612,1,0,0:0:0:0:
192,192,190762,1,0,0:0:0:0:
64,192,190762,1,0,0:0:0:0:
192,192,190912,1,0,0:0:0:0:
64,192,190912,1,0,0:0:0:0:
320,192,190912,1,0,0:0:0:0:
192,192,191062,1,0,0:0:0:0:
64,192,191062,1,0,0:0:0:0:
192,192,191212,1,0,0:0:0:0:
64,192,191212,1,0,0:0:0:0:
448,192,191212,1,0,0:0:0:0:
64,192,191362,1,0,0:0:0:0:
192,192,191362,1,0,0:0:0:0:
448,192,191512,1,0,0:0:0:0:
320,192,191512,1,0,0:0:0:0:
64,192,191512,1,0,0:0:0:0:
192,192,191512,1,0,0:0:0:0:
448,192,191812,1,0,0:0:0:0:
320,192,191812,1,0,0:0:0:0:
192,192,191812,1,0,0:0:0:0:
64,192,191812,1,0,0:0:0:0:
64,192,192112,128,0,196312:0:0:0:0:
192,192,192162,128,0,195912:0:0:0:0:
320,192,192212,128,0,195512:0:0:0:0:
448,192,192262,128,0,195112:0:0:0:0:
448,192,196312,128,0,197512:0:0:0:0:
320,192,197062,128,0,197512:0:0:0:0:
