osu file format v14

[General]
AudioFilename: audio.mp3
AudioLeadIn: 0
PreviewTime: 10646
Countdown: 0
SampleSet: Soft
StackLeniency: 0.7
Mode: 0
LetterboxInBreaks: 0
WidescreenStoryboard: 1

[Editor]
DistanceSpacing: 1
BeatDivisor: 4
GridSize: 32
TimelineZoom: 2.1

[Metadata]
Title:OPENING
TitleUnicode:OPENING
Artist:t+pazolite feat. Kabocha
ArtistUnicode:t+pazolite feat. かぼけゃ
Creator:wafer
Version:NORMALYEAH!!!!
Source:
Tags:instrumental electronic japanese featured artist fa mappersguild mpg mappers guild goopert kami no kotoba KAKATTEKOYEAH!!!!
BeatmapID:4425819
BeatmapSetID:2108634

[Difficulty]
HPDrainRate:3
CircleSize:3
OverallDifficulty:4
ApproachRate:5.5
SliderMultiplier:1.2
SliderTickRate:1

[Events]
//Background and Video events
0,0,"tpaz.png",0,0
//Break Periods
//Storyboard Layer 0 (Background)
//Storyboard Layer 1 (Fail)
//Storyboard Layer 2 (Pass)
//Storyboard Layer 3 (Foreground)
//Storyboard Layer 4 (Overlay)
//Storyboard Sound Samples

[TimingPoints]
63,333.333333333333,4,2,0,65,1,0
63,-111.111111111111,4,2,0,65,0,0
5396,-100,4,2,0,70,0,0
10729,-111.111111111111,4,2,0,60,0,0
21396,-105.263157894737,4,2,0,65,0,0
22367,-105.263157894737,4,2,0,65,0,0
32062,-90.9090909090909,4,2,0,75,0,0
37396,-90.9090909090909,4,2,0,78,0,0
40062,-90.9090909090909,4,2,0,85,0,0
44062,-90.9090909090909,4,2,0,5,0,0

[Colours]
Combo1 : 191,255,191
Combo2 : 128,191,255
Combo3 : 255,128,128
Combo4 : 255,255,179

[HitObjects]
1,38,63,5,0,1:0:0:0:
70,120,396,2,2,L|188:109,1,107.999996704102,8|2,3:0|3:0,0:1:0:0:
244,155,979,2,0,L|228:250,1,80.9999975280763,2|2,3:0|3:0,0:0:0:0:
248,286,1396,2,0,L|346:270,2,80.9999975280763,2|2|2,3:0|3:0|3:0,0:0:0:0:
211,326,2062,2,0,P|160:331|90:254,1,161.999995056153,2|2,3:0|3:0,0:0:0:0:
36,255,2729,5,0,1:0:0:0:
99,168,3062,2,2,P|154:159|214:189,1,107.999996704102,8|2,3:0|3:0,0:1:0:0:
280,196,3646,2,0,L|296:101,1,80.9999975280763,2|2,3:0|3:0,0:0:0:0:
264,70,4063,2,0,L|166:86,2,80.9999975280763,2|2|2,3:0|3:0|3:0,0:0:0:0:
295,26,4729,2,0,P|352:30|408:114,1,161.999995056153,2|2,3:0|3:0,0:0:0:0:
462,137,5396,5,6,1:0:0:0:
383,227,5729,2,0,L|390:306,1,60,10|0,1:0|0:0,0:0:0:0:
365,342,6062,1,0,1:0:0:0:
252,300,6396,2,0,L|173:314,1,60,0|2,1:0|3:0,0:0:0:0:
147,349,6729,2,0,P|116:292|138:220,1,120,2|8,1:0|1:0,0:0:0:0:
230,180,7396,2,0,P|237:121|208:70,1,120,2|0,1:0|1:0,0:0:0:0:
153,46,7896,5,2,3:0:0:0:
153,46,8062,1,6,1:0:0:0:
39,86,8396,2,0,P|31:124|44:165,1,60,10|0,1:0|0:0,0:0:0:0:
5,197,8729,1,0,1:0:0:0:
124,206,9062,2,0,P|132:244|119:285,1,60,0|2,1:0|3:0,0:0:0:0:
101,318,9396,2,0,P|56:310|8:352,2,90,10|0|2,1:0|3:0|3:0,0:0:0:0:
148,354,10062,2,0,L|220:341,1,60,8|8,1:2|1:2,0:0:0:0:
253,304,10396,6,2,L|267:181,1,120,2|4,3:0|1:0,3:0:0:0:
370,154,11062,1,2,0:0:0:0:
288,82,11396,2,0,B|207:71|216:114|118:115,1,161.999995056153,2|2,0:0|0:0,0:0:0:0:
85,87,12062,2,2,L|98:-15,2,80.9999975280763
37,112,12729,2,2,L|24:214,2,80.9999975280763
85,87,13396,5,2,0:0:0:0:
187,121,13729,1,2,0:0:0:0:
294,112,14062,2,0,B|408:107|395:142|465:137,1,161.999995056153,2|2,0:0|0:0,0:0:0:0:
480,183,14729,6,2,P|483:231|474:278,2,80.9999975280763
452,137,15396,1,2,0:0:0:0:
372,152,15646,2,0,P|346:157|281:150,1,80.9999975280763,2|2,0:0|0:0,0:0:0:0:
242,130,16062,1,2,0:0:0:0:
155,195,16396,5,0,0:0:0:0:
205,292,16729,2,0,B|286:281|277:324|375:325,1,161.999995056153,2|2,0:0|0:0,0:0:0:0:
400,287,17396,2,2,L|387:185,2,80.9999975280763
453,297,18063,2,2,L|440:399,2,80.9999975280763
502,275,18730,5,2,0:0:0:0:
468,172,19063,1,2,0:0:0:0:
362,148,19396,2,0,B|248:143|261:178|191:173,1,161.999995056153,2|2,0:0|0:0,0:0:0:0:
171,217,20063,6,2,P|168:265|177:312,2,80.9999975280763
203,173,20730,1,2,0:0:0:0:
138,124,20980,1,2,0:0:0:0:
58,112,21229,1,2,0:0:0:0:
58,112,21396,5,4,1:0:0:0:
124,19,21729,1,2,1:0:0:0:
237,21,22062,1,0,1:0:0:0:
303,114,22395,1,2,1:0:0:0:
253,216,22729,2,0,P|205:218|167:204,2,85.4999977169037,0|2|2,1:0|3:0|3:0,0:0:0:0:
284,263,23396,2,0,P|332:261|370:275,2,85.4999977169037,2|2|2,1:0|3:0|3:0,0:0:0:0:
262,315,24062,5,2,1:0:0:0:
156,356,24396,1,2,1:0:0:0:
55,313,24729,1,2,1:0:0:0:
67,199,25062,1,2,1:0:0:0:
170,150,25395,6,0,P|174:110|152:51,2,85.4999977169037,2|2|2,1:0|3:0|3:0,0:0:0:0:
215,184,26062,1,2,1:0:0:0:
299,196,26312,1,2,3:0:0:0:
364,140,26562,1,2,3:0:0:0:
364,140,26729,5,6,1:0:0:0:
458,202,27062,1,2,1:0:0:0:
451,315,27395,1,0,1:0:0:0:
340,343,27728,1,2,1:0:0:0:
249,273,28062,2,0,P|247:225|261:187,2,85.4999977169037,2|2|2,1:0|3:0|3:0,0:0:0:0:
199,301,28729,2,0,P|201:349|187:387,2,85.4999977169037,2|2|2,1:0|3:0|3:0,0:0:0:0:
147,276,29395,5,2,1:0:0:0:
37,244,29729,1,2,1:0:0:0:
16,132,30062,2,0,L|86:117,1,56.9999984779358,2|0,1:0|1:0,0:0:0:0:
96,68,30396,2,0,L|166:53,1,56.9999984779358,2|10,1:0|1:0,0:0:0:0:
194,18,30729,5,6,1:0:0:0:
252,115,31062,2,0,L|235:231,2,113.999996955872,2|0|12,0:0|0:0|1:0,0:0:0:0:
364,45,32062,5,6,1:0:0:0:
442,104,32312,1,2,0:0:0:0:
431,202,32562,1,2,0:0:0:0:
431,202,32729,2,0,P|416:264|422:322,2,99.0000030212403,10|2|2,1:0|0:0|0:0,0:0:0:0:
493,180,33396,5,10,1:0:0:0:
440,95,33646,1,2,0:0:0:0:
336,113,33896,1,2,0:0:0:0:
336,113,34062,1,10,1:0:0:0:
258,219,34396,2,0,L|251:292,1,66.0000020141602,2|2,1:0|3:0,0:0:0:0:
206,318,34729,6,0,P|150:336|69:311,1,132.00000402832,2|8,1:0|1:0,0:0:0:0:
18,201,35396,1,10,1:0:0:0:
71,116,35646,1,2,0:0:0:0:
175,134,35896,1,2,0:0:0:0:
175,134,36062,1,10,1:0:0:0:
282,210,36396,2,0,L|355:203,1,66.0000020141602,8|2,1:0|0:0,0:0:0:0:
394,156,36729,2,0,L|518:184,2,99.0000030212403,10|2|2,1:0|3:0|3:0,0:0:0:0:
365,96,37396,5,6,1:0:0:0:
257,30,37729,2,0,L|250:100,1,66.0000020141602,8|2,1:0|1:0,0:0:0:0:
238,160,38062,1,10,1:0:0:0:
149,204,38312,1,2,0:0:0:0:
53,179,38562,1,2,1:0:0:0:
3,222,38729,5,10,1:0:0:0:
117,287,39062,2,0,L|124:357,1,66.0000020141602,8|2,1:0|1:0,0:0:0:0:
186,384,39395,1,10,1:0:0:0:
264,323,39646,2,0,L|370:338,1,99.0000030212403,0|2,0:0|3:0,0:0:0:0:
417,301,40062,5,10,1:0:0:0:
335,196,40396,2,0,L|262:188,1,66.0000020141602,10|8,1:0|1:0,0:0:0:0:
233,133,40729,1,8,1:0:0:0:
233,133,40896,2,0,L|97:116,1,132.00000402832,8|8,1:0|1:0,0:0:0:0:
36,111,41396,5,0,1:0:0:0:
130,218,41729,1,0,1:0:0:0:
130,218,41896,1,0,1:0:0:0:
130,218,42062,2,0,L|135:297,1,66.0000020141602,0|0,1:0|1:0,0:0:0:0:
199,297,42396,2,0,L|204:376,1,66.0000020141602,0|0,1:0|1:0,1:0:0:0:
268,374,42729,5,4,1:0:0:0:
256,192,42812,12,0,46062,0:0:0:0:
