osu file format v14

[General]
AudioFilename: audio.mp3
AudioLeadIn: 0
PreviewTime: 41010
Countdown: 1
SampleSet: Normal
StackLeniency: 0.7
Mode: 3
LetterboxInBreaks: 0
SpecialStyle: 0
WidescreenStoryboard: 0

[Editor]
DistanceSpacing: 1
BeatDivisor: 4
GridSize: 4
TimelineZoom: 3.099999

[Metadata]
Title:to Luv me, I xxx for u. (reprise)
TitleUnicode:to Luv me, I xxx for u. (reprise)
Artist:t+pazolite
ArtistUnicode:t+pazolite
Creator:BluOxy
Version:xxx
Source:songs for X Girlz
Tags:
BeatmapID:1291149
BeatmapSetID:611685

[Difficulty]
HPDrainRate:7
CircleSize:4
OverallDifficulty:7
ApproachRate:5
SliderMultiplier:1.4
SliderTickRate:1

[Events]
//Background and Video events
0,0,"kaberen25876.jpg",0,0
//Break Periods
//Storyboard Layer 0 (Background)
//Storyboard Layer 1 (Fail)
//Storyboard Layer 2 (Pass)
//Storyboard Layer 3 (Foreground)
//Storyboard Sound Samples

[TimingPoints]
330,545.454545454546,4,1,0,50,1,0
330,-50,4,1,0,50,0,0
15057,333.333333333333,4,1,0,50,1,0
15057,-71.4285714285714,4,1,0,50,0,0
15390,-66.6666666666667,4,1,0,50,0,0
15723,344.827586206897,4,1,0,50,1,0
15723,-79.3650793650794,4,1,0,50,0,0
17102,291.26213592233,7,1,0,50,1,0
17102,-93.4579439252336,7,1,0,50,0,0
19140,181.818181818182,4,1,0,50,1,0
19140,-151.515151515152,4,1,0,50,0,0
19737,136.363636363636,4,1,0,50,1,0
19737,-200,4,1,0,50,0,0
21373,272.727272727273,4,1,0,50,1,0
22465,272.727272727273,4,1,0,50,1,0
41010,-100,4,1,0,50,0,1
58465,-100,4,1,0,50,0,0
93374,-100,4,1,0,50,0,1
110828,-100,4,1,0,50,0,0
130465,-100,4,1,0,50,0,1
145737,-100,4,1,0,50,0,0
202465,-100,4,1,0,50,0,1
219919,-100,4,1,0,50,0,0
228646,-100,4,1,0,50,0,1
237374,-100,4,1,0,50,0,0
239555,481.927710843374,4,1,0,50,1,0
239555,-56.4971751412429,4,1,0,50,0,0
265820,-200,4,1,0,50,0,0

[HitObjects]
320,192,330,128,0,875:0:0:0:0:
192,192,534,128,0,807:0:0:0:0:
64,192,875,128,0,1420:0:0:0:0:
448,192,1420,128,0,1966:0:0:0:0:
320,192,1420,1,0,0:0:0:0:
64,192,1830,128,0,1966:0:0:0:0:
192,192,1966,128,0,2511:0:0:0:0:
448,192,2477,1,0,0:0:0:0:
320,192,2511,128,0,3057:0:0:0:0:
64,192,2648,128,0,2920:0:0:0:0:
192,192,3057,128,0,3330:0:0:0:0:
320,192,3330,128,0,3534:0:0:0:0:
448,192,3500,1,0,0:0:0:0:
64,192,3534,128,0,4011:0:0:0:0:
192,192,3739,128,0,4011:0:0:0:0:
320,192,4148,128,0,4557:0:0:0:0:
448,192,4625,1,0,0:0:0:0:
320,192,4659,1,0,0:0:0:0:
192,192,4693,128,0,5239:0:0:0:0:
320,192,4830,128,0,5239:0:0:0:0:
448,192,5239,128,0,5784:0:0:0:0:
64,192,5239,1,0,0:0:0:0:
64,192,5784,128,0,6057:0:0:0:0:
192,192,5784,128,0,6057:0:0:0:0:
320,192,6193,128,0,6602:0:0:0:0:
448,192,6193,128,0,6602:0:0:0:0:
192,192,6602,128,0,6875:0:0:0:0:
64,192,6875,128,0,7011:0:0:0:0:
448,192,7011,128,0,7148:0:0:0:0:
320,192,7148,128,0,7284:0:0:0:0:
192,192,7284,128,0,7420:0:0:0:0:
448,192,7420,128,0,7557:0:0:0:0:
64,192,7557,128,0,7693:0:0:0:0:
192,192,7693,128,0,7830:0:0:0:0:
320,192,7830,128,0,7966:0:0:0:0:
448,192,7966,128,0,8375:0:0:0:0:
64,192,7966,1,0,0:0:0:0:
320,192,8420,1,0,0:0:0:0:
192,192,8466,1,0,0:0:0:0:
64,192,8511,128,0,8920:0:0:0:0:
448,192,8920,128,0,9057:0:0:0:0:
320,192,9193,128,0,9602:0:0:0:0:
64,192,9193,1,0,0:0:0:0:
64,192,9602,128,0,10011:0:0:0:0:
448,192,9602,1,0,0:0:0:0:
192,192,10114,1,0,0:0:0:0:
448,192,10148,128,0,10557:0:0:0:0:
64,192,10557,1,0,0:0:0:0:
192,192,10557,128,0,11239:0:0:0:0:
448,192,11205,1,0,0:0:0:0:
320,192,11239,128,0,11784:0:0:0:0:
64,192,11375,128,0,11784:0:0:0:0:
192,192,11784,128,0,12057:0:0:0:0:
448,192,11784,1,0,0:0:0:0:
64,192,12057,128,0,12330:0:0:0:0:
192,192,12330,128,0,12739:0:0:0:0:
320,192,12330,1,0,0:0:0:0:
448,192,12466,128,0,12739:0:0:0:0:
320,192,12875,128,0,13284:0:0:0:0:
448,192,13352,1,0,0:0:0:0:
320,192,13386,1,0,0:0:0:0:
192,192,13420,128,0,13966:0:0:0:0:
320,192,13557,128,0,13830:0:0:0:0:
448,192,13932,1,0,0:0:0:0:
64,192,13966,128,0,14239:0:0:0:0:
320,192,13966,128,0,14239:0:0:0:0:
448,192,14239,128,0,14511:0:0:0:0:
320,192,14511,128,0,14920:0:0:0:0:
192,192,14511,128,0,14784:0:0:0:0:
64,192,15057,128,0,15223:0:0:0:0:
448,192,15057,1,0,0:0:0:0:
64,192,15723,128,0,15895:0:0:0:0:
448,192,15723,1,0,0:0:0:0:
192,192,15895,128,0,16067:0:0:0:0:
320,192,16067,128,0,16240:0:0:0:0:
448,192,16240,128,0,16412:0:0:0:0:
64,192,16412,128,0,16929:0:0:0:0:
192,192,16929,128,0,17016:0:0:0:0:
320,192,17016,128,0,17102:0:0:0:0:
448,192,17102,128,0,17174:0:0:0:0:
320,192,17320,128,0,17393:0:0:0:0:
448,192,17393,128,0,17466:0:0:0:0:
320,192,17611,128,0,17684:0:0:0:0:
448,192,17684,128,0,17757:0:0:0:0:
320,192,17902,128,0,17975:0:0:0:0:
448,192,17975,128,0,18048:0:0:0:0:
320,192,18194,128,0,18267:0:0:0:0:
448,192,18267,128,0,18339:0:0:0:0:
320,192,18485,128,0,18558:0:0:0:0:
448,192,18558,128,0,18631:0:0:0:0:
320,192,18776,128,0,18849:0:0:0:0:
448,192,18849,128,0,18922:0:0:0:0:
320,192,19068,128,0,19140:0:0:0:0:
448,192,19140,1,0,0:0:0:0:
192,192,19140,128,0,19230:0:0:0:0:
64,192,19276,128,0,19367:0:0:0:0:
320,192,19412,128,0,19458:0:0:0:0:
448,192,19503,128,0,19549:0:0:0:0:
192,192,19594,128,0,19640:0:0:0:0:
64,192,19685,128,0,19730:0:0:0:0:
320,192,19771,128,0,19805:0:0:0:0:
448,192,19873,128,0,19907:0:0:0:0:
192,192,19941,128,0,19975:0:0:0:0:
64,192,20009,128,0,20043:0:0:0:0:
320,192,20077,128,0,20112:0:0:0:0:
448,192,20146,128,0,20180:0:0:0:0:
192,192,20214,128,0,20248:0:0:0:0:
448,192,20282,1,0,0:0:0:0:
64,192,20282,128,0,20316:0:0:0:0:
320,192,20316,1,0,0:0:0:0:
192,192,20350,1,0,0:0:0:0:
64,192,20384,1,0,0:0:0:0:
448,192,20418,1,0,0:0:0:0:
320,192,20452,1,0,0:0:0:0:
192,192,20486,1,0,0:0:0:0:
64,192,20521,1,0,0:0:0:0:
448,192,20555,1,0,0:0:0:0:
320,192,20589,1,0,0:0:0:0:
192,192,20623,1,0,0:0:0:0:
64,192,20657,1,0,0:0:0:0:
448,192,20691,1,0,0:0:0:0:
320,192,20725,1,0,0:0:0:0:
192,192,20759,1,0,0:0:0:0:
64,192,20793,1,0,0:0:0:0:
320,192,20827,1,0,0:0:0:0:
448,192,20861,1,0,0:0:0:0:
64,192,20896,1,0,0:0:0:0:
192,192,20930,1,0,0:0:0:0:
320,192,20964,1,0,0:0:0:0:
448,192,20998,1,0,0:0:0:0:
64,192,21032,1,0,0:0:0:0:
192,192,21066,1,0,0:0:0:0:
320,192,21100,1,0,0:0:0:0:
448,192,21134,1,0,0:0:0:0:
64,192,21168,1,0,0:0:0:0:
192,192,21202,1,0,0:0:0:0:
320,192,21236,1,0,0:0:0:0:
448,192,21271,1,0,0:0:0:0:
64,192,21305,1,0,0:0:0:0:
192,192,21339,1,0,0:0:0:0:
448,192,21373,1,8,0:0:0:0:
320,192,21373,1,0,0:0:0:0:
192,192,21407,1,0,0:0:0:0:
64,192,21441,1,0,0:0:0:0:
320,192,21475,1,0,0:0:0:0:
448,192,21509,1,0,0:0:0:0:
192,192,21543,1,0,0:0:0:0:
64,192,21577,1,0,0:0:0:0:
320,192,21611,1,0,0:0:0:0:
64,192,21645,1,0,0:0:0:0:
192,192,21645,1,8,0:0:0:0:
448,192,21645,1,0,0:0:0:0:
320,192,21679,1,0,0:0:0:0:
448,192,21713,1,0,0:0:0:0:
192,192,21748,1,0,0:0:0:0:
64,192,21782,1,0,0:0:0:0:
320,192,21816,1,0,0:0:0:0:
448,192,21850,1,0,0:0:0:0:
64,192,21884,1,0,0:0:0:0:
192,192,21918,1,0,0:0:0:0:
320,192,21918,1,8,0:0:0:0:
448,192,21918,1,0,0:0:0:0:
64,192,21952,1,0,0:0:0:0:
192,192,21986,1,0,0:0:0:0:
448,192,22020,1,0,0:0:0:0:
64,192,22054,1,8,0:0:0:0:
320,192,22054,1,0,0:0:0:0:
192,192,22088,1,0,0:0:0:0:
448,192,22123,1,0,0:0:0:0:
320,192,22157,1,0,0:0:0:0:
192,192,22191,1,8,0:0:0:0:
64,192,22191,1,0,0:0:0:0:
448,192,22191,1,0,0:0:0:0:
320,192,22225,1,0,0:0:0:0:
64,192,22259,1,0,0:0:0:0:
192,192,22293,1,0,0:0:0:0:
448,192,22327,1,8,0:0:0:0:
320,192,22327,1,0,0:0:0:0:
64,192,22361,1,0,0:0:0:0:
192,192,22395,1,0,0:0:0:0:
448,192,22429,1,0,0:0:0:0:
64,192,22463,1,4,0:0:0:0:
320,192,22465,128,0,22533:0:0:0:0:
192,192,22465,128,0,22533:0:0:0:0:
64,192,22601,1,0,0:0:0:0:
192,192,22737,1,0,0:0:0:0:
320,192,22874,1,0,0:0:0:0:
64,192,23010,128,0,23078:0:0:0:0:
448,192,23010,128,0,23078:0:0:0:0:
192,192,23146,1,0,0:0:0:0:
320,192,23283,1,0,0:0:0:0:
448,192,23419,1,0,0:0:0:0:
64,192,23555,128,0,23624:0:0:0:0:
192,192,23555,128,0,23624:0:0:0:0:
320,192,23692,1,0,0:0:0:0:
64,192,23828,1,0,0:0:0:0:
448,192,23965,1,0,0:0:0:0:
192,192,24101,128,0,24169:0:0:0:0:
320,192,24101,128,0,24169:0:0:0:0:
64,192,24237,1,0,0:0:0:0:
448,192,24374,1,0,0:0:0:0:
192,192,24510,1,0,0:0:0:0:
320,192,24646,128,0,24715:0:0:0:0:
448,192,24646,128,0,24715:0:0:0:0:
64,192,24783,1,0,0:0:0:0:
192,192,24919,1,0,0:0:0:0:
320,192,25055,1,0,0:0:0:0:
192,192,25192,128,0,25260:0:0:0:0:
448,192,25192,128,0,25260:0:0:0:0:
64,192,25328,1,0,0:0:0:0:
448,192,25465,1,0,0:0:0:0:
320,192,25601,1,0,0:0:0:0:
192,192,25737,128,0,25805:0:0:0:0:
64,192,25737,128,0,25805:0:0:0:0:
448,192,25874,1,0,0:0:0:0:
320,192,26010,1,0,0:0:0:0:
192,192,26146,1,0,0:0:0:0:
320,192,26283,128,0,26351:0:0:0:0:
64,192,26283,128,0,26351:0:0:0:0:
320,192,26419,128,0,26487:0:0:0:0:
192,192,26419,128,0,26487:0:0:0:0:
448,192,26555,128,0,26624:0:0:0:0:
320,192,26555,128,0,26624:0:0:0:0:
192,192,26692,128,0,26760:0:0:0:0:
320,192,26692,128,0,26760:0:0:0:0:
192,192,26828,128,0,26896:0:0:0:0:
64,192,26828,128,0,26896:0:0:0:0:
448,192,26965,1,0,0:0:0:0:
320,192,27101,1,0,0:0:0:0:
192,192,27237,1,0,0:0:0:0:
64,192,27374,128,0,27442:0:0:0:0:
448,192,27374,128,0,27442:0:0:0:0:
320,192,27510,1,0,0:0:0:0:
192,192,27646,1,0,0:0:0:0:
64,192,27783,1,0,0:0:0:0:
448,192,27919,128,0,27987:0:0:0:0:
320,192,27919,128,0,27987:0:0:0:0:
192,192,28055,1,0,0:0:0:0:
448,192,28192,1,0,0:0:0:0:
64,192,28328,1,0,0:0:0:0:
192,192,28465,128,0,28533:0:0:0:0:
320,192,28465,128,0,28533:0:0:0:0:
448,192,28601,1,0,0:0:0:0:
64,192,28737,1,0,0:0:0:0:
320,192,28874,1,0,0:0:0:0:
192,192,29010,128,0,29078:0:0:0:0:
64,192,29010,128,0,29078:0:0:0:0:
448,192,29146,1,0,0:0:0:0:
320,192,29283,1,0,0:0:0:0:
192,192,29419,1,0,0:0:0:0:
320,192,29555,128,0,29624:0:0:0:0:
64,192,29555,128,0,29624:0:0:0:0:
448,192,29692,1,0,0:0:0:0:
64,192,29828,1,0,0:0:0:0:
192,192,29965,1,0,0:0:0:0:
320,192,30101,128,0,30169:0:0:0:0:
448,192,30101,128,0,30169:0:0:0:0:
192,192,30237,128,0,30305:0:0:0:0:
64,192,30237,128,0,30305:0:0:0:0:
192,192,30374,128,0,30442:0:0:0:0:
320,192,30374,128,0,30442:0:0:0:0:
448,192,30510,128,0,30578:0:0:0:0:
320,192,30510,128,0,30578:0:0:0:0:
448,192,30646,1,0,0:0:0:0:
64,192,30646,128,0,30715:0:0:0:0:
192,192,30646,128,0,30715:0:0:0:0:
192,192,30783,128,0,30851:0:0:0:0:
320,192,30783,128,0,30851:0:0:0:0:
64,192,30919,1,0,0:0:0:0:
320,192,30919,128,0,30987:0:0:0:0:
448,192,30919,128,0,30987:0:0:0:0:
192,192,31055,128,0,31124:0:0:0:0:
320,192,31055,128,0,31124:0:0:0:0:
448,192,31192,1,0,0:0:0:0:
64,192,31192,128,0,31260:0:0:0:0:
192,192,31192,128,0,31260:0:0:0:0:
320,192,31328,1,0,0:0:0:0:
192,192,31465,1,0,0:0:0:0:
64,192,31601,1,0,0:0:0:0:
192,192,31737,128,0,31805:0:0:0:0:
448,192,31737,128,0,31805:0:0:0:0:
320,192,31874,1,0,0:0:0:0:
448,192,32010,1,0,0:0:0:0:
64,192,32146,1,0,0:0:0:0:
192,192,32283,128,0,32351:0:0:0:0:
320,192,32283,128,0,32351:0:0:0:0:
448,192,32419,1,0,0:0:0:0:
64,192,32555,1,0,0:0:0:0:
192,192,32692,1,0,0:0:0:0:
320,192,32828,128,0,32896:0:0:0:0:
64,192,32828,128,0,32896:0:0:0:0:
448,192,32965,1,0,0:0:0:0:
64,192,33101,1,0,0:0:0:0:
192,192,33237,1,0,0:0:0:0:
320,192,33374,128,0,33442:0:0:0:0:
448,192,33374,128,0,33442:0:0:0:0:
192,192,33510,1,0,0:0:0:0:
320,192,33646,1,0,0:0:0:0:
448,192,33783,1,0,0:0:0:0:
192,192,33919,128,0,33987:0:0:0:0:
320,192,33919,128,0,33987:0:0:0:0:
64,192,34055,1,0,0:0:0:0:
192,192,34192,1,0,0:0:0:0:
320,192,34328,1,0,0:0:0:0:
64,192,34465,128,0,34533:0:0:0:0:
192,192,34465,128,0,34533:0:0:0:0:
448,192,34601,1,0,0:0:0:0:
64,192,34737,1,0,0:0:0:0:
192,192,34874,1,0,0:0:0:0:
320,192,35010,128,0,35078:0:0:0:0:
448,192,35010,128,0,35078:0:0:0:0:
192,192,35146,128,0,35215:0:0:0:0:
320,192,35146,128,0,35215:0:0:0:0:
64,192,35283,128,0,35351:0:0:0:0:
192,192,35283,128,0,35351:0:0:0:0:
192,192,35419,128,0,35487:0:0:0:0:
320,192,35419,128,0,35487:0:0:0:0:
320,192,35555,128,0,35624:0:0:0:0:
448,192,35555,128,0,35624:0:0:0:0:
192,192,35692,1,0,0:0:0:0:
320,192,35828,1,0,0:0:0:0:
448,192,35965,1,0,0:0:0:0:
64,192,36101,128,0,36169:0:0:0:0:
320,192,36101,128,0,36169:0:0:0:0:
192,192,36237,1,0,0:0:0:0:
64,192,36374,1,0,0:0:0:0:
448,192,36510,1,0,0:0:0:0:
192,192,36646,128,0,36715:0:0:0:0:
320,192,36646,128,0,36715:0:0:0:0:
64,192,36783,1,0,0:0:0:0:
448,192,36919,1,0,0:0:0:0:
320,192,37055,1,0,0:0:0:0:
192,192,37192,128,0,37260:0:0:0:0:
448,192,37192,128,0,37260:0:0:0:0:
64,192,37328,1,0,0:0:0:0:
448,192,37465,1,0,0:0:0:0:
320,192,37601,1,0,0:0:0:0:
64,192,37737,128,0,37805:0:0:0:0:
192,192,37737,128,0,37805:0:0:0:0:
320,192,37874,1,0,0:0:0:0:
192,192,38010,1,0,0:0:0:0:
64,192,38146,1,0,0:0:0:0:
192,192,38283,128,0,38351:0:0:0:0:
320,192,38283,128,0,38351:0:0:0:0:
448,192,38419,1,0,0:0:0:0:
320,192,38555,1,0,0:0:0:0:
192,192,38692,1,0,0:0:0:0:
448,192,38828,128,0,38896:0:0:0:0:
320,192,38828,128,0,38896:0:0:0:0:
64,192,38965,128,0,39033:0:0:0:0:
192,192,38965,128,0,39033:0:0:0:0:
448,192,39101,128,0,39169:0:0:0:0:
320,192,39101,128,0,39169:0:0:0:0:
192,192,39237,128,0,39305:0:0:0:0:
320,192,39237,128,0,39305:0:0:0:0:
448,192,39374,1,0,0:0:0:0:
64,192,39374,128,0,39442:0:0:0:0:
192,192,39374,128,0,39442:0:0:0:0:
192,192,39510,128,0,39578:0:0:0:0:
320,192,39510,128,0,39578:0:0:0:0:
64,192,39646,1,0,0:0:0:0:
320,192,39646,128,0,39715:0:0:0:0:
448,192,39646,128,0,39715:0:0:0:0:
192,192,39783,128,0,39851:0:0:0:0:
320,192,39783,128,0,39851:0:0:0:0:
192,192,39919,128,0,39987:0:0:0:0:
64,192,39919,128,0,39987:0:0:0:0:
448,192,39919,128,0,39987:0:0:0:0:
320,192,39987,128,0,40055:0:0:0:0:
192,192,40055,128,0,40124:0:0:0:0:
64,192,40124,128,0,40192:0:0:0:0:
192,192,40192,1,0,0:0:0:0:
448,192,40192,128,0,40260:0:0:0:0:
320,192,40260,128,0,40328:0:0:0:0:
192,192,40328,128,0,40396:0:0:0:0:
320,192,40396,1,0,0:0:0:0:
64,192,40396,128,0,40465:0:0:0:0:
192,192,40465,1,0,0:0:0:0:
448,192,40465,1,0,0:0:0:0:
64,192,40533,1,0,0:0:0:0:
320,192,40533,1,0,0:0:0:0:
192,192,40601,1,0,0:0:0:0:
448,192,40601,1,0,0:0:0:0:
320,192,40669,1,0,0:0:0:0:
192,192,40737,1,0,0:0:0:0:
64,192,40737,1,0,0:0:0:0:
320,192,40805,1,0,0:0:0:0:
448,192,40805,1,0,0:0:0:0:
64,192,40874,1,0,0:0:0:0:
192,192,40874,1,0,0:0:0:0:
320,192,40908,1,0,0:0:0:0:
448,192,40942,1,0,0:0:0:0:
192,192,40942,1,0,0:0:0:0:
64,192,40942,1,0,0:0:0:0:
320,192,40976,1,0,0:0:0:0:
448,192,41010,1,0,0:0:0:0:
192,192,41010,1,0,0:0:0:0:
64,192,41010,1,0,0:0:0:0:
64,192,41146,1,0,0:0:0:0:
192,192,41146,1,0,0:0:0:0:
320,192,41146,1,0,0:0:0:0:
192,192,41283,1,0,0:0:0:0:
320,192,41283,1,0,0:0:0:0:
448,192,41283,1,0,0:0:0:0:
448,192,41419,1,0,0:0:0:0:
320,192,41419,1,0,0:0:0:0:
64,192,41419,1,0,0:0:0:0:
320,192,41555,1,0,0:0:0:0:
192,192,41555,1,0,0:0:0:0:
64,192,41555,1,0,0:0:0:0:
64,192,41692,1,0,0:0:0:0:
192,192,41692,1,0,0:0:0:0:
448,192,41692,1,0,0:0:0:0:
192,192,41828,1,0,0:0:0:0:
320,192,41828,1,0,0:0:0:0:
448,192,41828,1,0,0:0:0:0:
320,192,41965,1,0,0:0:0:0:
448,192,41965,1,0,0:0:0:0:
64,192,41965,1,0,0:0:0:0:
448,192,42101,1,0,0:0:0:0:
192,192,42101,1,0,0:0:0:0:
64,192,42101,1,0,0:0:0:0:
192,192,42237,1,0,0:0:0:0:
64,192,42237,1,0,0:0:0:0:
320,192,42237,1,0,0:0:0:0:
320,192,42374,1,0,0:0:0:0:
448,192,42374,1,0,0:0:0:0:
64,192,42374,1,0,0:0:0:0:
320,192,42510,1,0,0:0:0:0:
448,192,42510,1,0,0:0:0:0:
192,192,42510,1,0,0:0:0:0:
192,192,42646,1,0,0:0:0:0:
64,192,42646,1,0,0:0:0:0:
448,192,42646,1,0,0:0:0:0:
64,192,42783,1,0,0:0:0:0:
192,192,42783,1,0,0:0:0:0:
320,192,42783,1,0,0:0:0:0:
192,192,42919,1,0,0:0:0:0:
320,192,42919,1,0,0:0:0:0:
448,192,42919,1,0,0:0:0:0:
64,192,42987,1,0,0:0:0:0:
448,192,43055,1,0,0:0:0:0:
192,192,43055,1,0,0:0:0:0:
320,192,43055,1,0,0:0:0:0:
64,192,43124,1,0,0:0:0:0:
192,192,43192,1,0,0:0:0:0:
448,192,43192,1,0,0:0:0:0:
320,192,43192,1,0,0:0:0:0:
448,192,43328,1,0,0:0:0:0:
320,192,43328,1,0,0:0:0:0:
64,192,43328,1,0,0:0:0:0:
320,192,43465,1,0,0:0:0:0:
192,192,43465,1,0,0:0:0:0:
64,192,43465,1,0,0:0:0:0:
64,192,43601,1,0,0:0:0:0:
192,192,43601,1,0,0:0:0:0:
448,192,43601,1,0,0:0:0:0:
192,192,43737,1,0,0:0:0:0:
320,192,43737,1,0,0:0:0:0:
448,192,43737,1,0,0:0:0:0:
320,192,43874,1,0,0:0:0:0:
448,192,43874,1,0,0:0:0:0:
64,192,43874,1,0,0:0:0:0:
192,192,44010,1,0,0:0:0:0:
64,192,44010,1,0,0:0:0:0:
320,192,44010,1,0,0:0:0:0:
192,192,44146,1,0,0:0:0:0:
64,192,44146,1,0,0:0:0:0:
448,192,44146,1,0,0:0:0:0:
320,192,44283,1,0,0:0:0:0:
448,192,44283,1,0,0:0:0:0:
192,192,44283,1,0,0:0:0:0:
64,192,44351,1,0,0:0:0:0:
192,192,44419,1,0,0:0:0:0:
448,192,44419,1,0,0:0:0:0:
64,192,44453,1,0,0:0:0:0:
320,192,44487,1,0,0:0:0:0:
448,192,44521,1,0,0:0:0:0:
64,192,44555,1,0,0:0:0:0:
192,192,44555,1,0,0:0:0:0:
320,192,44590,1,0,0:0:0:0:
448,192,44624,1,0,0:0:0:0:
192,192,44658,1,0,0:0:0:0:
64,192,44692,1,0,0:0:0:0:
320,192,44692,1,0,0:0:0:0:
192,192,44760,1,0,0:0:0:0:
64,192,44828,1,0,0:0:0:0:
320,192,44828,128,0,45101:0:0:0:0:
448,192,44828,128,0,45101:0:0:0:0:
64,192,45101,1,0,0:0:0:0:
192,192,45135,1,0,0:0:0:0:
448,192,45169,1,0,0:0:0:0:
320,192,45203,1,0,0:0:0:0:
64,192,45237,1,0,0:0:0:0:
192,192,45271,1,0,0:0:0:0:
448,192,45305,1,0,0:0:0:0:
320,192,45340,1,0,0:0:0:0:
448,192,45374,1,0,0:0:0:0:
192,192,45374,1,0,0:0:0:0:
64,192,45374,1,0,0:0:0:0:
64,192,45510,1,0,0:0:0:0:
192,192,45510,1,0,0:0:0:0:
320,192,45510,1,0,0:0:0:0:
192,192,45646,1,0,0:0:0:0:
320,192,45646,1,0,0:0:0:0:
448,192,45646,1,0,0:0:0:0:
448,192,45783,1,0,0:0:0:0:
320,192,45783,1,0,0:0:0:0:
64,192,45783,1,0,0:0:0:0:
320,192,45919,1,0,0:0:0:0:
64,192,45919,1,0,0:0:0:0:
192,192,45919,1,0,0:0:0:0:
64,192,46055,1,0,0:0:0:0:
192,192,46055,1,0,0:0:0:0:
448,192,46055,1,0,0:0:0:0:
192,192,46192,1,0,0:0:0:0:
320,192,46192,1,0,0:0:0:0:
448,192,46192,1,0,0:0:0:0:
320,192,46328,1,0,0:0:0:0:
448,192,46328,1,0,0:0:0:0:
64,192,46328,1,0,0:0:0:0:
192,192,46465,1,0,0:0:0:0:
64,192,46465,1,0,0:0:0:0:
448,192,46465,1,0,0:0:0:0:
192,192,46601,1,0,0:0:0:0:
64,192,46601,1,0,0:0:0:0:
320,192,46601,1,0,0:0:0:0:
64,192,46737,1,0,0:0:0:0:
320,192,46737,1,0,0:0:0:0:
448,192,46737,1,0,0:0:0:0:
320,192,46874,1,0,0:0:0:0:
448,192,46874,1,0,0:0:0:0:
192,192,46874,1,0,0:0:0:0:
192,192,47010,1,0,0:0:0:0:
64,192,47010,1,4,0:0:0:0:
448,192,47010,1,0,0:0:0:0:
320,192,47010,1,0,0:0:0:0:
64,192,47146,1,0,0:0:0:0:
192,192,47146,1,0,0:0:0:0:
192,192,47215,1,4,0:0:0:0:
448,192,47215,1,0,0:0:0:0:
320,192,47215,1,0,0:0:0:0:
64,192,47215,1,0,0:0:0:0:
320,192,47351,1,0,0:0:0:0:
448,192,47351,1,0,0:0:0:0:
192,192,47419,1,0,0:0:0:0:
64,192,47419,1,0,0:0:0:0:
320,192,47419,1,4,0:0:0:0:
448,192,47419,1,0,0:0:0:0:
192,192,47555,1,0,0:0:0:0:
448,192,47555,1,4,0:0:0:0:
64,192,47555,1,0,0:0:0:0:
320,192,47555,1,0,0:0:0:0:
320,192,47692,1,0,0:0:0:0:
192,192,47692,1,0,0:0:0:0:
448,192,47692,1,0,0:0:0:0:
192,192,47828,1,0,0:0:0:0:
64,192,47828,1,0,0:0:0:0:
448,192,47828,1,0,0:0:0:0:
320,192,47965,1,0,0:0:0:0:
192,192,47965,1,0,0:0:0:0:
64,192,47965,1,0,0:0:0:0:
64,192,48101,1,0,0:0:0:0:
448,192,48101,1,0,0:0:0:0:
320,192,48101,1,4,0:0:0:0:
192,192,48101,1,0,0:0:0:0:
320,192,48237,1,0,0:0:0:0:
448,192,48237,1,0,0:0:0:0:
64,192,48237,1,0,0:0:0:0:
192,192,48374,1,4,0:0:0:0:
64,192,48374,1,0,0:0:0:0:
448,192,48374,1,0,0:0:0:0:
320,192,48374,1,0,0:0:0:0:
64,192,48510,1,0,0:0:0:0:
192,192,48510,1,0,0:0:0:0:
448,192,48510,1,0,0:0:0:0:
320,192,48646,1,0,0:0:0:0:
448,192,48646,1,4,0:0:0:0:
192,192,48646,1,0,0:0:0:0:
64,192,48715,1,0,0:0:0:0:
448,192,48783,1,0,0:0:0:0:
192,192,48783,1,0,0:0:0:0:
320,192,48851,1,0,0:0:0:0:
192,192,48919,1,0,0:0:0:0:
64,192,48919,1,0,0:0:0:0:
320,192,48953,1,0,0:0:0:0:
448,192,48987,1,0,0:0:0:0:
192,192,49021,1,0,0:0:0:0:
320,192,49055,1,0,0:0:0:0:
64,192,49055,1,0,0:0:0:0:
448,192,49090,1,0,0:0:0:0:
192,192,49124,1,0,0:0:0:0:
64,192,49158,1,0,0:0:0:0:
320,192,49192,1,0,0:0:0:0:
448,192,49192,1,4,0:0:0:0:
192,192,49192,1,0,0:0:0:0:
64,192,49260,1,0,0:0:0:0:
192,192,49328,1,0,0:0:0:0:
448,192,49328,1,0,0:0:0:0:
320,192,49396,1,0,0:0:0:0:
192,192,49465,1,0,0:0:0:0:
64,192,49465,1,0,0:0:0:0:
320,192,49499,1,0,0:0:0:0:
448,192,49533,1,0,0:0:0:0:
192,192,49567,1,0,0:0:0:0:
64,192,49601,1,0,0:0:0:0:
320,192,49601,1,0,0:0:0:0:
448,192,49635,1,0,0:0:0:0:
320,192,49669,1,0,0:0:0:0:
192,192,49703,1,0,0:0:0:0:
448,192,49737,1,0,0:0:0:0:
64,192,49737,1,0,0:0:0:0:
320,192,49737,1,0,0:0:0:0:
448,192,49874,1,0,0:0:0:0:
320,192,49874,1,0,0:0:0:0:
192,192,49874,1,0,0:0:0:0:
64,192,50010,1,0,0:0:0:0:
192,192,50010,1,0,0:0:0:0:
320,192,50010,1,0,0:0:0:0:
64,192,50146,1,0,0:0:0:0:
192,192,50146,1,0,0:0:0:0:
448,192,50146,1,0,0:0:0:0:
448,192,50283,1,0,0:0:0:0:
320,192,50283,1,0,0:0:0:0:
192,192,50283,1,0,0:0:0:0:
448,192,50419,1,0,0:0:0:0:
320,192,50419,1,0,0:0:0:0:
64,192,50419,1,0,0:0:0:0:
320,192,50555,1,0,0:0:0:0:
192,192,50555,1,0,0:0:0:0:
64,192,50555,1,0,0:0:0:0:
192,192,50692,1,0,0:0:0:0:
64,192,50692,1,0,0:0:0:0:
448,192,50692,1,0,0:0:0:0:
64,192,50828,1,0,0:0:0:0:
320,192,50828,1,0,0:0:0:0:
448,192,50828,1,0,0:0:0:0:
320,192,50965,1,0,0:0:0:0:
448,192,50965,1,0,0:0:0:0:
192,192,50965,1,0,0:0:0:0:
192,192,51101,1,0,0:0:0:0:
64,192,51101,1,0,0:0:0:0:
448,192,51101,1,0,0:0:0:0:
192,192,51237,1,0,0:0:0:0:
64,192,51237,1,0,0:0:0:0:
320,192,51237,1,0,0:0:0:0:
320,192,51374,1,0,0:0:0:0:
64,192,51374,1,0,0:0:0:0:
448,192,51374,1,0,0:0:0:0:
448,192,51510,1,0,0:0:0:0:
320,192,51510,1,0,0:0:0:0:
192,192,51510,1,0,0:0:0:0:
192,192,51646,1,0,0:0:0:0:
64,192,51646,1,0,0:0:0:0:
320,192,51646,1,0,0:0:0:0:
448,192,51715,1,0,0:0:0:0:
192,192,51783,1,0,0:0:0:0:
320,192,51783,1,0,0:0:0:0:
64,192,51783,1,0,0:0:0:0:
448,192,51851,1,0,0:0:0:0:
192,192,51919,1,0,0:0:0:0:
320,192,51919,1,0,0:0:0:0:
64,192,51919,1,0,0:0:0:0:
64,192,52055,1,0,0:0:0:0:
192,192,52055,1,0,0:0:0:0:
448,192,52055,1,0,0:0:0:0:
320,192,52192,1,0,0:0:0:0:
192,192,52192,1,0,0:0:0:0:
448,192,52192,1,0,0:0:0:0:
448,192,52328,1,0,0:0:0:0:
320,192,52328,1,0,0:0:0:0:
64,192,52328,1,0,0:0:0:0:
64,192,52465,1,0,0:0:0:0:
192,192,52465,1,0,0:0:0:0:
320,192,52465,1,0,0:0:0:0:
192,192,52601,1,0,0:0:0:0:
64,192,52601,1,0,0:0:0:0:
448,192,52601,1,0,0:0:0:0:
448,192,52737,1,0,0:0:0:0:
320,192,52737,1,0,0:0:0:0:
192,192,52737,1,0,0:0:0:0:
320,192,52874,1,0,0:0:0:0:
448,192,52874,1,0,0:0:0:0:
64,192,52874,1,0,0:0:0:0:
192,192,53010,1,0,0:0:0:0:
64,192,53010,1,0,0:0:0:0:
320,192,53010,1,0,0:0:0:0:
448,192,53078,1,0,0:0:0:0:
64,192,53146,1,0,0:0:0:0:
320,192,53146,1,0,0:0:0:0:
448,192,53180,1,0,0:0:0:0:
192,192,53215,1,0,0:0:0:0:
64,192,53249,1,0,0:0:0:0:
320,192,53283,1,0,0:0:0:0:
448,192,53283,1,0,0:0:0:0:
192,192,53317,1,0,0:0:0:0:
64,192,53351,1,0,0:0:0:0:
320,192,53385,1,0,0:0:0:0:
448,192,53419,1,0,0:0:0:0:
192,192,53419,1,0,0:0:0:0:
320,192,53487,1,0,0:0:0:0:
192,192,53555,128,0,53828:0:0:0:0:
448,192,53555,1,0,0:0:0:0:
64,192,53555,128,0,53828:0:0:0:0:
448,192,53828,1,0,0:0:0:0:
320,192,53862,1,0,0:0:0:0:
192,192,53862,1,0,0:0:0:0:
64,192,53896,1,0,0:0:0:0:
192,192,53930,1,0,0:0:0:0:
448,192,53965,1,0,0:0:0:0:
320,192,53965,1,0,0:0:0:0:
192,192,53999,1,0,0:0:0:0:
64,192,54033,1,0,0:0:0:0:
320,192,54033,1,0,0:0:0:0:
448,192,54033,1,0,0:0:0:0:
192,192,54067,1,0,0:0:0:0:
64,192,54101,1,0,0:0:0:0:
320,192,54101,1,0,0:0:0:0:
448,192,54101,1,0,0:0:0:0:
448,192,54237,1,0,0:0:0:0:
320,192,54237,1,0,0:0:0:0:
192,192,54237,1,0,0:0:0:0:
192,192,54374,1,0,0:0:0:0:
320,192,54374,1,0,0:0:0:0:
64,192,54374,1,0,0:0:0:0:
64,192,54510,1,0,0:0:0:0:
192,192,54510,1,0,0:0:0:0:
448,192,54510,1,0,0:0:0:0:
320,192,54646,1,0,0:0:0:0:
192,192,54646,1,0,0:0:0:0:
448,192,54646,1,0,0:0:0:0:
448,192,54783,1,0,0:0:0:0:
320,192,54783,1,0,0:0:0:0:
64,192,54783,1,0,0:0:0:0:
320,192,54919,1,0,0:0:0:0:
64,192,54919,1,0,0:0:0:0:
192,192,54919,1,0,0:0:0:0:
192,192,55055,1,0,0:0:0:0:
64,192,55055,1,0,0:0:0:0:
448,192,55055,1,0,0:0:0:0:
448,192,55192,1,0,0:0:0:0:
320,192,55192,1,0,0:0:0:0:
64,192,55192,1,0,0:0:0:0:
320,192,55328,1,0,0:0:0:0:
448,192,55328,1,0,0:0:0:0:
192,192,55328,1,0,0:0:0:0:
192,192,55465,1,0,0:0:0:0:
448,192,55465,1,0,0:0:0:0:
64,192,55465,1,0,0:0:0:0:
192,192,55601,1,0,0:0:0:0:
64,192,55601,1,0,0:0:0:0:
320,192,55601,1,0,0:0:0:0:
320,192,55737,1,0,0:0:0:0:
64,192,55737,1,0,0:0:0:0:
192,192,55737,1,0,0:0:0:0:
448,192,55737,1,0,0:0:0:0:
448,192,55874,1,0,0:0:0:0:
320,192,55874,1,0,0:0:0:0:
320,192,55942,1,0,0:0:0:0:
64,192,55942,1,0,0:0:0:0:
192,192,55942,1,0,0:0:0:0:
448,192,55942,1,0,0:0:0:0:
64,192,56078,1,0,0:0:0:0:
192,192,56078,1,0,0:0:0:0:
448,192,56146,1,0,0:0:0:0:
192,192,56146,1,0,0:0:0:0:
320,192,56146,1,0,0:0:0:0:
64,192,56146,1,0,0:0:0:0:
320,192,56283,1,0,0:0:0:0:
192,192,56283,1,0,0:0:0:0:
64,192,56283,1,0,0:0:0:0:
448,192,56283,1,0,0:0:0:0:
192,192,56419,1,0,0:0:0:0:
64,192,56419,1,0,0:0:0:0:
320,192,56419,1,0,0:0:0:0:
448,192,56555,1,0,0:0:0:0:
320,192,56555,1,0,0:0:0:0:
64,192,56555,1,0,0:0:0:0:
320,192,56692,1,0,0:0:0:0:
448,192,56692,1,0,0:0:0:0:
192,192,56692,1,0,0:0:0:0:
448,192,56828,1,0,0:0:0:0:
192,192,56828,1,0,0:0:0:0:
320,192,56828,1,0,0:0:0:0:
64,192,56828,1,0,0:0:0:0:
192,192,56965,1,0,0:0:0:0:
64,192,56965,1,0,0:0:0:0:
448,192,56965,1,0,0:0:0:0:
320,192,57101,1,0,0:0:0:0:
64,192,57101,1,0,0:0:0:0:
448,192,57101,1,0,0:0:0:0:
192,192,57101,1,0,0:0:0:0:
448,192,57237,1,0,0:0:0:0:
320,192,57237,1,0,0:0:0:0:
64,192,57237,1,0,0:0:0:0:
320,192,57374,128,0,57510:0:0:0:0:
192,192,57374,128,0,57510:0:0:0:0:
64,192,57374,128,0,57510:0:0:0:0:
448,192,57646,1,0,0:0:0:0:
320,192,57646,1,0,0:0:0:0:
192,192,57646,1,0,0:0:0:0:
64,192,57715,1,0,0:0:0:0:
448,192,57783,1,0,0:0:0:0:
192,192,57783,1,0,0:0:0:0:
320,192,57851,1,0,0:0:0:0:
64,192,57919,1,0,0:0:0:0:
192,192,57919,1,0,0:0:0:0:
448,192,57919,1,0,0:0:0:0:
448,192,57987,1,0,0:0:0:0:
64,192,58055,1,0,0:0:0:0:
320,192,58055,1,0,0:0:0:0:
192,192,58124,1,0,0:0:0:0:
448,192,58192,1,0,0:0:0:0:
320,192,58192,1,0,0:0:0:0:
64,192,58192,1,0,0:0:0:0:
64,192,58260,1,0,0:0:0:0:
448,192,58328,1,0,0:0:0:0:
320,192,58328,1,0,0:0:0:0:
192,192,58362,1,0,0:0:0:0:
448,192,58396,1,0,0:0:0:0:
320,192,58396,1,0,0:0:0:0:
64,192,58396,1,0,0:0:0:0:
192,192,58430,1,0,0:0:0:0:
448,192,58465,128,0,58737:0:0:0:0:
64,192,58465,1,0,0:0:0:0:
320,192,58465,1,0,0:0:0:0:
192,192,58601,128,0,58737:0:0:0:0:
64,192,58737,1,0,0:0:0:0:
320,192,58737,128,0,59010:0:0:0:0:
448,192,59010,1,0,0:0:0:0:
64,192,59010,128,0,59215:0:0:0:0:
320,192,59146,128,0,59215:0:0:0:0:
192,192,59215,128,0,59419:0:0:0:0:
448,192,59351,128,0,59419:0:0:0:0:
320,192,59419,128,0,59555:0:0:0:0:
192,192,59555,1,0,0:0:0:0:
64,192,59555,128,0,59760:0:0:0:0:
320,192,59692,128,0,59760:0:0:0:0:
192,192,59760,128,0,59965:0:0:0:0:
448,192,59896,128,0,59965:0:0:0:0:
320,192,59965,128,0,60101:0:0:0:0:
448,192,60101,128,0,60305:0:0:0:0:
64,192,60101,1,0,0:0:0:0:
192,192,60237,128,0,60305:0:0:0:0:
320,192,60305,128,0,60510:0:0:0:0:
64,192,60442,128,0,60510:0:0:0:0:
192,192,60510,128,0,60646:0:0:0:0:
64,192,60646,128,0,60919:0:0:0:0:
448,192,60646,1,0,0:0:0:0:
320,192,60783,128,0,60919:0:0:0:0:
192,192,60919,128,0,61192:0:0:0:0:
448,192,60919,1,0,0:0:0:0:
448,192,61192,128,0,61396:0:0:0:0:
64,192,61192,1,0,0:0:0:0:
192,192,61328,128,0,61396:0:0:0:0:
320,192,61396,128,0,61601:0:0:0:0:
64,192,61533,128,0,61601:0:0:0:0:
192,192,61601,128,0,61737:0:0:0:0:
448,192,61737,128,0,62010:0:0:0:0:
320,192,61737,1,0,0:0:0:0:
192,192,61874,128,0,62010:0:0:0:0:
320,192,62010,128,0,62283:0:0:0:0:
64,192,62010,1,0,0:0:0:0:
192,192,62078,1,0,0:0:0:0:
192,192,62146,1,0,0:0:0:0:
64,192,62215,1,0,0:0:0:0:
64,192,62283,128,0,62487:0:0:0:0:
448,192,62283,1,0,0:0:0:0:
320,192,62419,128,0,62487:0:0:0:0:
192,192,62487,128,0,62692:0:0:0:0:
448,192,62624,128,0,62692:0:0:0:0:
320,192,62692,128,0,62828:0:0:0:0:
448,192,62828,128,0,63101:0:0:0:0:
64,192,62828,1,0,0:0:0:0:
192,192,62965,128,0,63101:0:0:0:0:
320,192,63101,128,0,63374:0:0:0:0:
64,192,63101,1,0,0:0:0:0:
64,192,63374,128,0,63578:0:0:0:0:
448,192,63374,1,0,0:0:0:0:
320,192,63510,128,0,63578:0:0:0:0:
192,192,63578,128,0,63783:0:0:0:0:
448,192,63715,128,0,63783:0:0:0:0:
320,192,63783,128,0,63919:0:0:0:0:
64,192,63919,128,0,64124:0:0:0:0:
192,192,63919,1,0,0:0:0:0:
320,192,64055,128,0,64124:0:0:0:0:
192,192,64124,128,0,64328:0:0:0:0:
448,192,64260,128,0,64328:0:0:0:0:
320,192,64328,128,0,64465:0:0:0:0:
448,192,64465,128,0,64669:0:0:0:0:
64,192,64465,1,0,0:0:0:0:
192,192,64601,128,0,64669:0:0:0:0:
320,192,64669,128,0,64874:0:0:0:0:
64,192,64805,128,0,64874:0:0:0:0:
192,192,64874,128,0,65010:0:0:0:0:
64,192,65010,128,0,65283:0:0:0:0:
448,192,65010,1,0,0:0:0:0:
320,192,65146,128,0,65283:0:0:0:0:
192,192,65283,128,0,65555:0:0:0:0:
448,192,65283,1,0,0:0:0:0:
448,192,65555,128,0,65760:0:0:0:0:
64,192,65555,1,0,0:0:0:0:
192,192,65692,128,0,65760:0:0:0:0:
320,192,65760,128,0,65965:0:0:0:0:
64,192,65896,128,0,65965:0:0:0:0:
192,192,65965,128,0,66101:0:0:0:0:
448,192,66101,128,0,66305:0:0:0:0:
320,192,66101,1,0,0:0:0:0:
64,192,66237,128,0,66305:0:0:0:0:
192,192,66305,128,0,66510:0:0:0:0:
448,192,66442,128,0,66510:0:0:0:0:
64,192,66510,128,0,66646:0:0:0:0:
192,192,66646,128,0,66851:0:0:0:0:
448,192,66646,1,0,0:0:0:0:
64,192,66783,128,0,66851:0:0:0:0:
320,192,66851,128,0,67055:0:0:0:0:
192,192,66987,128,0,67055:0:0:0:0:
448,192,67055,128,0,67192:0:0:0:0:
192,192,67192,128,0,67465:0:0:0:0:
320,192,67192,1,0,0:0:0:0:
64,192,67192,1,0,0:0:0:0:
448,192,67328,128,0,67465:0:0:0:0:
320,192,67465,128,0,67737:0:0:0:0:
64,192,67465,1,0,0:0:0:0:
64,192,67737,128,0,68010:0:0:0:0:
192,192,67737,1,0,0:0:0:0:
448,192,67874,128,0,67942:0:0:0:0:
320,192,67942,1,0,0:0:0:0:
192,192,68010,128,0,68283:0:0:0:0:
320,192,68078,128,0,68146:0:0:0:0:
448,192,68146,1,0,0:0:0:0:
320,192,68283,128,0,68555:0:0:0:0:
448,192,68283,1,0,0:0:0:0:
192,192,68419,128,0,68555:0:0:0:0:
64,192,68555,128,0,68828:0:0:0:0:
448,192,68555,1,0,0:0:0:0:
192,192,68828,128,0,69101:0:0:0:0:
448,192,68828,1,0,0:0:0:0:
320,192,68965,128,0,69033:0:0:0:0:
448,192,69033,1,0,0:0:0:0:
320,192,69101,128,0,69374:0:0:0:0:
64,192,69169,128,0,69237:0:0:0:0:
192,192,69237,1,0,0:0:0:0:
192,192,69374,128,0,69646:0:0:0:0:
448,192,69374,1,0,0:0:0:0:
64,192,69510,128,0,69646:0:0:0:0:
320,192,69646,128,0,69919:0:0:0:0:
448,192,69646,1,0,0:0:0:0:
64,192,69919,128,0,70192:0:0:0:0:
192,192,69919,1,0,0:0:0:0:
448,192,70055,128,0,70124:0:0:0:0:
320,192,70124,1,0,0:0:0:0:
192,192,70192,128,0,70465:0:0:0:0:
320,192,70260,128,0,70328:0:0:0:0:
448,192,70328,1,0,0:0:0:0:
320,192,70465,128,0,70737:0:0:0:0:
448,192,70465,1,0,0:0:0:0:
64,192,70601,128,0,70737:0:0:0:0:
192,192,70737,128,0,71010:0:0:0:0:
448,192,70737,1,0,0:0:0:0:
64,192,71010,128,0,71283:0:0:0:0:
320,192,71010,1,0,0:0:0:0:
448,192,71146,128,0,71215:0:0:0:0:
320,192,71215,1,0,0:0:0:0:
192,192,71283,128,0,71555:0:0:0:0:
320,192,71351,128,0,71419:0:0:0:0:
448,192,71419,1,0,0:0:0:0:
320,192,71555,128,0,71828:0:0:0:0:
448,192,71555,1,0,0:0:0:0:
64,192,71692,128,0,71828:0:0:0:0:
192,192,71828,128,0,72101:0:0:0:0:
448,192,71828,1,0,0:0:0:0:
448,192,72101,128,0,72374:0:0:0:0:
320,192,72101,1,0,0:0:0:0:
64,192,72237,128,0,72305:0:0:0:0:
192,192,72305,1,0,0:0:0:0:
320,192,72374,128,0,72646:0:0:0:0:
192,192,72442,128,0,72510:0:0:0:0:
64,192,72510,1,0,0:0:0:0:
192,192,72646,128,0,72919:0:0:0:0:
64,192,72646,1,0,0:0:0:0:
320,192,72783,128,0,72919:0:0:0:0:
448,192,72919,128,0,73192:0:0:0:0:
64,192,72919,1,0,0:0:0:0:
320,192,73192,128,0,73465:0:0:0:0:
64,192,73192,1,0,0:0:0:0:
192,192,73328,128,0,73396:0:0:0:0:
64,192,73396,1,0,0:0:0:0:
192,192,73465,128,0,73737:0:0:0:0:
448,192,73533,128,0,73601:0:0:0:0:
320,192,73601,1,0,0:0:0:0:
320,192,73737,128,0,74010:0:0:0:0:
64,192,73737,1,0,0:0:0:0:
448,192,73874,128,0,74010:0:0:0:0:
192,192,74010,128,0,74283:0:0:0:0:
64,192,74010,1,0,0:0:0:0:
448,192,74283,128,0,74555:0:0:0:0:
320,192,74283,1,0,0:0:0:0:
64,192,74419,128,0,74487:0:0:0:0:
192,192,74487,1,0,0:0:0:0:
320,192,74555,128,0,74828:0:0:0:0:
192,192,74624,128,0,74692:0:0:0:0:
64,192,74692,1,0,0:0:0:0:
448,192,74828,128,0,75101:0:0:0:0:
192,192,74828,128,0,74965:0:0:0:0:
320,192,75101,128,0,75374:0:0:0:0:
192,192,75101,128,0,75237:0:0:0:0:
448,192,75374,128,0,75646:0:0:0:0:
64,192,75374,128,0,75510:0:0:0:0:
320,192,75646,128,0,75919:0:0:0:0:
64,192,75646,128,0,75783:0:0:0:0:
64,192,75919,5,0,0:0:0:0:
192,192,75919,1,0,0:0:0:0:
448,192,75919,1,0,0:0:0:0:
64,192,76192,1,0,0:0:0:0:
320,192,76192,1,0,0:0:0:0:
448,192,76192,1,0,0:0:0:0:
192,192,76465,1,0,0:0:0:0:
320,192,76465,1,0,0:0:0:0:
448,192,76465,1,0,0:0:0:0:
320,192,76737,1,0,0:0:0:0:
64,192,76737,1,0,0:0:0:0:
192,192,76737,1,0,0:0:0:0:
320,192,76874,1,0,0:0:0:0:
192,192,77010,1,0,0:0:0:0:
64,192,77010,1,0,0:0:0:0:
448,192,77010,1,0,0:0:0:0:
64,192,77283,1,0,0:0:0:0:
320,192,77283,1,0,0:0:0:0:
448,192,77283,1,0,0:0:0:0:
192,192,77555,1,0,0:0:0:0:
320,192,77555,1,0,0:0:0:0:
448,192,77555,1,0,0:0:0:0:
448,192,77692,1,0,0:0:0:0:
320,192,77760,1,0,0:0:0:0:
448,192,77828,1,0,0:0:0:0:
192,192,77828,1,0,0:0:0:0:
64,192,77828,1,0,0:0:0:0:
320,192,77896,1,0,0:0:0:0:
64,192,77965,1,0,0:0:0:0:
192,192,78033,1,0,0:0:0:0:
64,192,78101,1,0,0:0:0:0:
320,192,78101,1,0,0:0:0:0:
448,192,78101,1,0,0:0:0:0:
192,192,78374,1,0,0:0:0:0:
64,192,78374,1,0,0:0:0:0:
448,192,78374,1,0,0:0:0:0:
320,192,78646,1,0,0:0:0:0:
192,192,78646,1,0,0:0:0:0:
64,192,78646,1,0,0:0:0:0:
192,192,78919,1,0,0:0:0:0:
320,192,78919,1,0,0:0:0:0:
448,192,78919,1,0,0:0:0:0:
192,192,79055,1,0,0:0:0:0:
64,192,79192,1,0,0:0:0:0:
320,192,79192,1,0,0:0:0:0:
448,192,79192,1,0,0:0:0:0:
448,192,79465,1,0,0:0:0:0:
192,192,79465,1,0,0:0:0:0:
64,192,79465,1,0,0:0:0:0:
320,192,79737,1,0,0:0:0:0:
192,192,79737,1,0,0:0:0:0:
64,192,79737,1,0,0:0:0:0:
448,192,79874,1,0,0:0:0:0:
320,192,79942,1,0,0:0:0:0:
64,192,80010,1,0,0:0:0:0:
192,192,80010,1,0,0:0:0:0:
448,192,80010,1,0,0:0:0:0:
320,192,80078,1,0,0:0:0:0:
64,192,80146,1,0,0:0:0:0:
192,192,80215,1,0,0:0:0:0:
448,192,80283,1,0,0:0:0:0:
320,192,80283,1,0,0:0:0:0:
64,192,80283,1,0,0:0:0:0:
192,192,80555,1,0,0:0:0:0:
320,192,80555,1,0,0:0:0:0:
448,192,80555,1,0,0:0:0:0:
192,192,80828,1,0,0:0:0:0:
448,192,80828,1,0,0:0:0:0:
64,192,80828,1,0,0:0:0:0:
192,192,81101,1,0,0:0:0:0:
320,192,81101,1,0,0:0:0:0:
448,192,81101,1,0,0:0:0:0:
320,192,81237,1,0,0:0:0:0:
192,192,81374,1,0,0:0:0:0:
64,192,81374,1,0,0:0:0:0:
448,192,81374,1,0,0:0:0:0:
192,192,81646,1,0,0:0:0:0:
320,192,81646,1,0,0:0:0:0:
448,192,81646,1,0,0:0:0:0:
192,192,81919,1,0,0:0:0:0:
64,192,81919,1,0,0:0:0:0:
448,192,81919,1,0,0:0:0:0:
448,192,82055,1,0,0:0:0:0:
320,192,82124,1,0,0:0:0:0:
64,192,82192,1,0,0:0:0:0:
448,192,82192,1,0,0:0:0:0:
192,192,82192,1,0,0:0:0:0:
320,192,82260,1,0,0:0:0:0:
64,192,82328,1,0,0:0:0:0:
192,192,82396,1,0,0:0:0:0:
448,192,82465,1,0,0:0:0:0:
64,192,82465,1,0,0:0:0:0:
320,192,82465,1,0,0:0:0:0:
192,192,82737,1,0,0:0:0:0:
320,192,82737,1,0,0:0:0:0:
448,192,82737,1,0,0:0:0:0:
448,192,83010,1,0,0:0:0:0:
64,192,83010,1,0,0:0:0:0:
192,192,83010,1,0,0:0:0:0:
448,192,83283,1,0,0:0:0:0:
192,192,83283,1,0,0:0:0:0:
320,192,83283,1,0,0:0:0:0:
320,192,83419,1,0,0:0:0:0:
448,192,83555,1,0,0:0:0:0:
64,192,83555,1,0,0:0:0:0:
192,192,83555,1,0,0:0:0:0:
64,192,83692,1,0,0:0:0:0:
448,192,83692,1,0,0:0:0:0:
320,192,83692,1,0,0:0:0:0:
448,192,83828,1,0,0:0:0:0:
192,192,83828,1,0,0:0:0:0:
320,192,83828,1,0,0:0:0:0:
192,192,84101,1,0,0:0:0:0:
64,192,84101,1,0,0:0:0:0:
448,192,84101,1,0,0:0:0:0:
448,192,84237,1,0,0:0:0:0:
320,192,84237,1,0,0:0:0:0:
192,192,84305,1,0,0:0:0:0:
64,192,84305,1,0,0:0:0:0:
64,192,84374,1,0,0:0:0:0:
320,192,84374,1,0,0:0:0:0:
448,192,84374,1,0,0:0:0:0:
64,192,84510,1,0,0:0:0:0:
192,192,84510,1,0,0:0:0:0:
320,192,84578,1,0,0:0:0:0:
448,192,84578,1,0,0:0:0:0:
64,192,84646,1,0,0:0:0:0:
192,192,84646,1,0,0:0:0:0:
448,192,84646,1,4,0:0:0:0:
192,192,84783,1,0,0:0:0:0:
448,192,84919,1,0,0:0:0:0:
320,192,84919,1,0,0:0:0:0:
64,192,84919,1,0,0:0:0:0:
64,192,85055,1,0,0:0:0:0:
192,192,85192,1,0,0:0:0:0:
320,192,85192,1,0,0:0:0:0:
448,192,85192,1,0,0:0:0:0:
448,192,85328,1,0,0:0:0:0:
320,192,85465,1,0,0:0:0:0:
192,192,85465,1,0,0:0:0:0:
64,192,85465,1,0,0:0:0:0:
320,192,85601,1,0,0:0:0:0:
192,192,85737,1,0,0:0:0:0:
64,192,85737,1,0,0:0:0:0:
448,192,85737,1,0,0:0:0:0:
192,192,85874,1,0,0:0:0:0:
64,192,86010,1,0,0:0:0:0:
320,192,86010,1,0,0:0:0:0:
448,192,86010,1,0,0:0:0:0:
64,192,86146,1,0,0:0:0:0:
192,192,86283,1,0,0:0:0:0:
320,192,86283,1,0,0:0:0:0:
448,192,86283,1,0,0:0:0:0:
448,192,86419,1,0,0:0:0:0:
320,192,86487,1,0,0:0:0:0:
64,192,86555,1,0,0:0:0:0:
192,192,86555,1,0,0:0:0:0:
448,192,86555,1,0,0:0:0:0:
320,192,86624,1,0,0:0:0:0:
64,192,86692,1,0,0:0:0:0:
448,192,86692,1,0,0:0:0:0:
192,192,86760,1,0,0:0:0:0:
64,192,86828,1,0,0:0:0:0:
448,192,86828,1,0,0:0:0:0:
320,192,86828,1,0,0:0:0:0:
320,192,86965,1,0,0:0:0:0:
192,192,87101,1,0,0:0:0:0:
64,192,87101,1,0,0:0:0:0:
448,192,87101,1,0,0:0:0:0:
448,192,87237,1,0,0:0:0:0:
320,192,87374,1,0,0:0:0:0:
192,192,87374,1,0,0:0:0:0:
64,192,87374,1,0,0:0:0:0:
64,192,87510,1,0,0:0:0:0:
192,192,87646,1,0,0:0:0:0:
320,192,87646,1,0,0:0:0:0:
448,192,87646,1,0,0:0:0:0:
192,192,87783,1,0,0:0:0:0:
320,192,87919,1,0,0:0:0:0:
448,192,87919,1,0,0:0:0:0:
64,192,87919,1,0,0:0:0:0:
320,192,88055,1,0,0:0:0:0:
448,192,88192,1,0,0:0:0:0:
192,192,88192,1,0,0:0:0:0:
64,192,88192,1,0,0:0:0:0:
448,192,88328,1,0,0:0:0:0:
64,192,88465,1,0,0:0:0:0:
192,192,88465,1,0,0:0:0:0:
320,192,88465,1,0,0:0:0:0:
64,192,88601,1,0,0:0:0:0:
192,192,88669,1,0,0:0:0:0:
64,192,88737,1,0,0:0:0:0:
320,192,88737,1,0,0:0:0:0:
448,192,88737,1,0,0:0:0:0:
192,192,88805,1,0,0:0:0:0:
64,192,88874,1,0,0:0:0:0:
448,192,88874,1,0,0:0:0:0:
320,192,88942,1,0,0:0:0:0:
448,192,89010,1,0,0:0:0:0:
64,192,89010,1,0,0:0:0:0:
192,192,89010,1,0,0:0:0:0:
64,192,89146,1,0,0:0:0:0:
448,192,89283,1,0,0:0:0:0:
192,192,89283,1,0,0:0:0:0:
320,192,89283,1,0,0:0:0:0:
320,192,89419,1,0,0:0:0:0:
192,192,89555,1,0,0:0:0:0:
64,192,89555,1,0,0:0:0:0:
448,192,89555,1,0,0:0:0:0:
64,192,89692,1,0,0:0:0:0:
320,192,89828,1,0,0:0:0:0:
192,192,89828,1,0,0:0:0:0:
448,192,89828,1,0,0:0:0:0:
320,192,89965,1,0,0:0:0:0:
448,192,90101,1,0,0:0:0:0:
64,192,90101,1,0,0:0:0:0:
192,192,90101,1,0,0:0:0:0:
64,192,90237,1,0,0:0:0:0:
448,192,90374,1,0,0:0:0:0:
192,192,90374,1,0,0:0:0:0:
320,192,90374,1,0,0:0:0:0:
320,192,90510,1,0,0:0:0:0:
192,192,90646,1,0,0:0:0:0:
64,192,90646,1,0,0:0:0:0:
448,192,90646,1,0,0:0:0:0:
64,192,90783,1,0,0:0:0:0:
192,192,90851,1,0,0:0:0:0:
320,192,90919,1,0,0:0:0:0:
448,192,90919,1,0,0:0:0:0:
64,192,90919,1,0,0:0:0:0:
192,192,90987,1,0,0:0:0:0:
64,192,91055,1,0,0:0:0:0:
448,192,91055,1,0,0:0:0:0:
320,192,91124,1,0,0:0:0:0:
448,192,91192,1,0,0:0:0:0:
192,192,91192,1,0,0:0:0:0:
64,192,91192,1,0,0:0:0:0:
64,192,91328,1,0,0:0:0:0:
192,192,91328,1,0,0:0:0:0:
320,192,91328,1,0,0:0:0:0:
192,192,91465,1,0,0:0:0:0:
320,192,91465,1,0,0:0:0:0:
448,192,91465,1,0,0:0:0:0:
320,192,91601,1,0,0:0:0:0:
192,192,91737,1,0,0:0:0:0:
64,192,91737,1,0,0:0:0:0:
448,192,91737,1,0,0:0:0:0:
448,192,91874,1,0,0:0:0:0:
192,192,91874,1,0,0:0:0:0:
64,192,91874,1,0,0:0:0:0:
192,192,91942,1,0,0:0:0:0:
320,192,91942,1,0,0:0:0:0:
64,192,92010,1,0,0:0:0:0:
320,192,92010,1,0,0:0:0:0:
448,192,92010,1,0,0:0:0:0:
448,192,92146,1,0,0:0:0:0:
320,192,92146,1,0,0:0:0:0:
192,192,92146,1,0,0:0:0:0:
192,192,92283,1,0,0:0:0:0:
320,192,92283,1,0,0:0:0:0:
64,192,92283,128,0,92555:0:0:0:0:
192,192,92555,128,0,92828:0:0:0:0:
320,192,92828,128,0,93101:0:0:0:0:
64,192,92828,1,0,0:0:0:0:
448,192,92828,1,0,0:0:0:0:
448,192,93101,128,0,93374:0:0:0:0:
192,192,93101,1,0,0:0:0:0:
64,192,93101,1,0,0:0:0:0:
320,192,93374,1,0,0:0:0:0:
192,192,93374,1,0,0:0:0:0:
64,192,93374,1,0,0:0:0:0:
192,192,93510,1,0,0:0:0:0:
64,192,93510,1,0,0:0:0:0:
320,192,93510,1,0,0:0:0:0:
64,192,93646,1,0,0:0:0:0:
320,192,93646,1,0,0:0:0:0:
448,192,93646,1,0,0:0:0:0:
320,192,93783,1,0,0:0:0:0:
64,192,93783,1,0,0:0:0:0:
448,192,93783,1,0,0:0:0:0:
448,192,93919,1,0,0:0:0:0:
192,192,93919,1,0,0:0:0:0:
64,192,93919,1,0,0:0:0:0:
448,192,94055,1,0,0:0:0:0:
64,192,94055,1,0,0:0:0:0:
192,192,94055,1,0,0:0:0:0:
320,192,94192,1,0,0:0:0:0:
448,192,94192,1,0,0:0:0:0:
192,192,94192,1,0,0:0:0:0:
192,192,94328,1,0,0:0:0:0:
448,192,94328,1,0,0:0:0:0:
320,192,94328,1,0,0:0:0:0:
64,192,94465,1,0,0:0:0:0:
192,192,94465,1,0,0:0:0:0:
320,192,94465,1,0,0:0:0:0:
64,192,94601,1,0,0:0:0:0:
320,192,94601,1,0,0:0:0:0:
192,192,94601,1,0,0:0:0:0:
448,192,94737,1,0,0:0:0:0:
320,192,94737,1,0,0:0:0:0:
64,192,94737,1,0,0:0:0:0:
320,192,94874,1,0,0:0:0:0:
448,192,94874,1,0,0:0:0:0:
64,192,94874,1,0,0:0:0:0:
192,192,95010,1,0,0:0:0:0:
448,192,95010,1,0,0:0:0:0:
64,192,95010,1,0,0:0:0:0:
64,192,95146,1,0,0:0:0:0:
192,192,95146,1,0,0:0:0:0:
448,192,95146,1,0,0:0:0:0:
192,192,95283,1,0,0:0:0:0:
448,192,95283,1,0,0:0:0:0:
320,192,95283,1,0,0:0:0:0:
64,192,95351,1,0,0:0:0:0:
320,192,95419,1,0,0:0:0:0:
192,192,95419,1,0,0:0:0:0:
448,192,95419,1,0,0:0:0:0:
64,192,95487,1,0,0:0:0:0:
192,192,95555,1,0,0:0:0:0:
320,192,95555,1,0,0:0:0:0:
448,192,95555,1,0,0:0:0:0:
320,192,95692,1,0,0:0:0:0:
192,192,95692,1,0,0:0:0:0:
64,192,95760,1,0,0:0:0:0:
448,192,95760,1,0,0:0:0:0:
192,192,95828,1,0,0:0:0:0:
320,192,95828,1,0,0:0:0:0:
64,192,95896,1,0,0:0:0:0:
448,192,95896,1,0,0:0:0:0:
320,192,95965,1,0,0:0:0:0:
192,192,95965,1,0,0:0:0:0:
192,192,96101,1,0,0:0:0:0:
64,192,96101,1,0,0:0:0:0:
320,192,96101,1,0,0:0:0:0:
448,192,96101,1,0,0:0:0:0:
448,192,96237,1,0,0:0:0:0:
192,192,96237,1,0,0:0:0:0:
320,192,96305,1,0,0:0:0:0:
64,192,96305,1,0,0:0:0:0:
192,192,96374,1,0,0:0:0:0:
448,192,96374,1,0,0:0:0:0:
64,192,96442,1,0,0:0:0:0:
320,192,96442,1,0,0:0:0:0:
448,192,96510,1,0,0:0:0:0:
192,192,96510,1,0,0:0:0:0:
320,192,96646,1,0,0:0:0:0:
448,192,96646,1,0,0:0:0:0:
64,192,96680,1,0,0:0:0:0:
192,192,96715,1,0,0:0:0:0:
448,192,96715,1,0,0:0:0:0:
320,192,96749,1,0,0:0:0:0:
192,192,96783,1,0,0:0:0:0:
64,192,96783,1,0,0:0:0:0:
448,192,96817,1,0,0:0:0:0:
320,192,96851,1,0,0:0:0:0:
64,192,96851,1,0,0:0:0:0:
192,192,96885,1,0,0:0:0:0:
320,192,96919,1,0,0:0:0:0:
448,192,96919,1,0,0:0:0:0:
64,192,96953,1,0,0:0:0:0:
192,192,96987,1,0,0:0:0:0:
448,192,96987,1,0,0:0:0:0:
320,192,97021,1,0,0:0:0:0:
64,192,97055,1,0,0:0:0:0:
192,192,97055,1,0,0:0:0:0:
448,192,97090,1,0,0:0:0:0:
320,192,97124,1,0,0:0:0:0:
64,192,97124,1,0,0:0:0:0:
192,192,97158,1,0,0:0:0:0:
448,192,97192,1,0,0:0:0:0:
64,192,97192,128,0,97328:0:0:0:0:
320,192,97192,128,0,97328:0:0:0:0:
192,192,97465,128,0,97601:0:0:0:0:
448,192,97465,128,0,97601:0:0:0:0:
448,192,97737,1,0,0:0:0:0:
192,192,97737,1,0,0:0:0:0:
320,192,97737,1,0,0:0:0:0:
64,192,97737,1,0,0:0:0:0:
448,192,97874,1,0,0:0:0:0:
320,192,97874,1,0,0:0:0:0:
192,192,97874,1,0,0:0:0:0:
192,192,98010,1,0,0:0:0:0:
64,192,98010,1,0,0:0:0:0:
448,192,98010,1,0,0:0:0:0:
64,192,98146,1,0,0:0:0:0:
192,192,98146,1,0,0:0:0:0:
448,192,98146,1,0,0:0:0:0:
320,192,98283,1,0,0:0:0:0:
64,192,98283,1,0,0:0:0:0:
448,192,98283,1,0,0:0:0:0:
320,192,98419,1,0,0:0:0:0:
64,192,98419,1,0,0:0:0:0:
448,192,98419,1,0,0:0:0:0:
192,192,98555,1,0,0:0:0:0:
320,192,98555,1,0,0:0:0:0:
64,192,98555,1,0,0:0:0:0:
320,192,98692,1,0,0:0:0:0:
192,192,98692,1,0,0:0:0:0:
64,192,98692,1,0,0:0:0:0:
192,192,98828,1,0,0:0:0:0:
448,192,98828,1,0,0:0:0:0:
320,192,98828,1,0,0:0:0:0:
192,192,98965,1,0,0:0:0:0:
320,192,98965,1,0,0:0:0:0:
448,192,98965,1,0,0:0:0:0:
192,192,99101,1,0,0:0:0:0:
448,192,99101,1,0,0:0:0:0:
64,192,99101,1,0,0:0:0:0:
64,192,99237,1,0,0:0:0:0:
448,192,99237,1,0,0:0:0:0:
192,192,99237,1,0,0:0:0:0:
64,192,99374,1,0,0:0:0:0:
320,192,99374,1,0,0:0:0:0:
448,192,99374,1,0,0:0:0:0:
64,192,99510,1,0,0:0:0:0:
320,192,99510,1,0,0:0:0:0:
448,192,99510,1,0,0:0:0:0:
320,192,99646,1,0,0:0:0:0:
64,192,99646,1,0,0:0:0:0:
192,192,99646,1,0,0:0:0:0:
448,192,99715,1,0,0:0:0:0:
64,192,99783,1,0,0:0:0:0:
192,192,99783,1,0,0:0:0:0:
320,192,99783,1,0,0:0:0:0:
448,192,99851,1,0,0:0:0:0:
64,192,99919,1,0,0:0:0:0:
192,192,99919,1,0,0:0:0:0:
320,192,99919,1,0,0:0:0:0:
192,192,100055,1,0,0:0:0:0:
320,192,100055,1,0,0:0:0:0:
448,192,100124,1,0,0:0:0:0:
64,192,100124,1,0,0:0:0:0:
192,192,100192,1,0,0:0:0:0:
320,192,100192,1,0,0:0:0:0:
448,192,100260,1,0,0:0:0:0:
64,192,100260,1,0,0:0:0:0:
192,192,100328,1,0,0:0:0:0:
320,192,100328,1,0,0:0:0:0:
192,192,100465,1,0,0:0:0:0:
320,192,100465,1,0,0:0:0:0:
448,192,100465,1,0,0:0:0:0:
64,192,100465,1,0,0:0:0:0:
320,192,100601,1,0,0:0:0:0:
64,192,100601,1,0,0:0:0:0:
448,192,100669,1,0,0:0:0:0:
192,192,100669,1,0,0:0:0:0:
320,192,100737,1,0,0:0:0:0:
64,192,100737,1,0,0:0:0:0:
448,192,100805,1,0,0:0:0:0:
192,192,100805,1,0,0:0:0:0:
64,192,100874,1,0,0:0:0:0:
320,192,100874,1,0,0:0:0:0:
192,192,101010,1,0,0:0:0:0:
64,192,101010,1,0,0:0:0:0:
448,192,101044,1,0,0:0:0:0:
64,192,101078,1,0,0:0:0:0:
320,192,101078,1,0,0:0:0:0:
192,192,101112,1,0,0:0:0:0:
448,192,101146,1,0,0:0:0:0:
320,192,101146,1,0,0:0:0:0:
64,192,101180,1,0,0:0:0:0:
192,192,101215,1,0,0:0:0:0:
448,192,101215,1,0,0:0:0:0:
320,192,101249,1,0,0:0:0:0:
192,192,101283,1,0,0:0:0:0:
64,192,101283,1,0,0:0:0:0:
448,192,101317,1,0,0:0:0:0:
64,192,101351,1,0,0:0:0:0:
320,192,101351,1,0,0:0:0:0:
192,192,101385,1,0,0:0:0:0:
320,192,101419,1,0,0:0:0:0:
448,192,101419,1,0,0:0:0:0:
64,192,101453,1,0,0:0:0:0:
448,192,101487,1,0,0:0:0:0:
192,192,101487,1,0,0:0:0:0:
320,192,101521,1,0,0:0:0:0:
192,192,101555,128,0,101692:0:0:0:0:
448,192,101555,128,0,101692:0:0:0:0:
64,192,101555,1,0,0:0:0:0:
320,192,101828,128,0,101965:0:0:0:0:
64,192,101828,128,0,101965:0:0:0:0:
448,192,101828,1,0,0:0:0:0:
64,192,102101,1,0,0:0:0:0:
320,192,102101,1,0,0:0:0:0:
448,192,102101,1,0,0:0:0:0:
192,192,102101,1,0,0:0:0:0:
448,192,102237,1,0,0:0:0:0:
320,192,102237,1,0,0:0:0:0:
64,192,102237,1,0,0:0:0:0:
320,192,102374,1,0,0:0:0:0:
192,192,102374,1,0,0:0:0:0:
448,192,102374,1,0,0:0:0:0:
64,192,102374,1,0,0:0:0:0:
192,192,102510,1,0,0:0:0:0:
320,192,102510,1,0,0:0:0:0:
448,192,102510,1,0,0:0:0:0:
192,192,102646,1,0,0:0:0:0:
64,192,102646,1,0,0:0:0:0:
448,192,102646,1,0,0:0:0:0:
320,192,102646,1,0,0:0:0:0:
64,192,102783,1,0,0:0:0:0:
192,192,102783,1,0,0:0:0:0:
448,192,102783,1,0,0:0:0:0:
320,192,102919,1,0,0:0:0:0:
192,192,102919,1,0,0:0:0:0:
64,192,102919,1,0,0:0:0:0:
448,192,102919,1,0,0:0:0:0:
192,192,103055,1,0,0:0:0:0:
320,192,103055,1,0,0:0:0:0:
64,192,103055,1,0,0:0:0:0:
64,192,103192,1,0,0:0:0:0:
192,192,103192,1,0,0:0:0:0:
448,192,103192,1,0,0:0:0:0:
320,192,103192,1,0,0:0:0:0:
192,192,103328,1,0,0:0:0:0:
64,192,103328,1,0,0:0:0:0:
448,192,103328,1,0,0:0:0:0:
192,192,103465,1,0,0:0:0:0:
320,192,103465,1,0,0:0:0:0:
448,192,103465,1,0,0:0:0:0:
64,192,103465,1,0,0:0:0:0:
448,192,103601,1,0,0:0:0:0:
320,192,103601,1,0,0:0:0:0:
192,192,103601,1,0,0:0:0:0:
64,192,103737,1,0,0:0:0:0:
448,192,103737,1,0,0:0:0:0:
320,192,103737,1,0,0:0:0:0:
192,192,103737,1,0,0:0:0:0:
64,192,103874,1,0,0:0:0:0:
320,192,103874,1,0,0:0:0:0:
448,192,103874,1,0,0:0:0:0:
192,192,104010,1,0,0:0:0:0:
64,192,104010,1,0,0:0:0:0:
448,192,104010,1,0,0:0:0:0:
320,192,104010,1,0,0:0:0:0:
192,192,104146,1,0,0:0:0:0:
64,192,104146,1,0,0:0:0:0:
448,192,104146,1,0,0:0:0:0:
320,192,104283,1,0,0:0:0:0:
192,192,104283,1,0,0:0:0:0:
64,192,104283,1,0,0:0:0:0:
448,192,104283,1,0,0:0:0:0:
64,192,104419,1,0,0:0:0:0:
192,192,104419,1,0,0:0:0:0:
320,192,104487,1,0,0:0:0:0:
448,192,104487,1,0,0:0:0:0:
192,192,104555,1,0,0:0:0:0:
64,192,104555,1,0,0:0:0:0:
320,192,104624,1,0,0:0:0:0:
448,192,104624,1,0,0:0:0:0:
192,192,104692,1,0,0:0:0:0:
64,192,104692,1,0,0:0:0:0:
64,192,104828,1,0,0:0:0:0:
192,192,104828,1,0,0:0:0:0:
448,192,104828,1,0,0:0:0:0:
320,192,104828,1,0,0:0:0:0:
448,192,104965,1,0,0:0:0:0:
320,192,104965,1,0,0:0:0:0:
64,192,105033,1,0,0:0:0:0:
192,192,105033,1,0,0:0:0:0:
448,192,105101,1,0,0:0:0:0:
320,192,105101,1,0,0:0:0:0:
64,192,105169,1,0,0:0:0:0:
192,192,105169,1,0,0:0:0:0:
320,192,105237,1,0,0:0:0:0:
448,192,105237,1,0,0:0:0:0:
192,192,105374,1,0,0:0:0:0:
64,192,105374,1,0,0:0:0:0:
448,192,105408,1,0,0:0:0:0:
64,192,105442,1,0,0:0:0:0:
320,192,105442,1,0,0:0:0:0:
192,192,105476,1,0,0:0:0:0:
320,192,105510,1,0,0:0:0:0:
448,192,105510,1,0,0:0:0:0:
64,192,105544,1,0,0:0:0:0:
192,192,105578,1,0,0:0:0:0:
448,192,105578,1,0,0:0:0:0:
320,192,105612,1,0,0:0:0:0:
192,192,105646,1,0,0:0:0:0:
64,192,105646,1,0,0:0:0:0:
448,192,105680,1,0,0:0:0:0:
320,192,105715,1,0,0:0:0:0:
64,192,105715,1,0,0:0:0:0:
192,192,105749,1,0,0:0:0:0:
320,192,105783,1,0,0:0:0:0:
448,192,105783,1,0,0:0:0:0:
64,192,105817,1,0,0:0:0:0:
448,192,105851,1,0,0:0:0:0:
192,192,105851,1,0,0:0:0:0:
320,192,105885,1,0,0:0:0:0:
64,192,105919,128,0,106055:0:0:0:0:
192,192,105919,128,0,106055:0:0:0:0:
448,192,105919,1,0,0:0:0:0:
64,192,106192,1,0,0:0:0:0:
320,192,106192,128,0,106328:0:0:0:0:
448,192,106192,128,0,106328:0:0:0:0:
64,192,106465,1,0,0:0:0:0:
192,192,106465,1,0,0:0:0:0:
448,192,106465,1,0,0:0:0:0:
320,192,106465,1,0,0:0:0:0:
448,192,106601,1,0,0:0:0:0:
192,192,106601,1,0,0:0:0:0:
64,192,106601,1,0,0:0:0:0:
64,192,106737,1,0,0:0:0:0:
320,192,106737,1,0,0:0:0:0:
192,192,106737,1,0,0:0:0:0:
448,192,106737,1,0,0:0:0:0:
64,192,106874,1,0,0:0:0:0:
320,192,106874,1,0,0:0:0:0:
192,192,106874,1,0,0:0:0:0:
320,192,107010,1,0,0:0:0:0:
64,192,107010,1,0,0:0:0:0:
448,192,107010,1,0,0:0:0:0:
192,192,107010,1,0,0:0:0:0:
320,192,107146,1,0,0:0:0:0:
64,192,107146,1,0,0:0:0:0:
448,192,107146,1,0,0:0:0:0:
448,192,107283,1,0,0:0:0:0:
320,192,107283,1,0,0:0:0:0:
192,192,107283,1,0,0:0:0:0:
64,192,107283,1,0,0:0:0:0:
192,192,107419,1,0,0:0:0:0:
320,192,107419,1,0,0:0:0:0:
448,192,107419,1,0,0:0:0:0:
64,192,107555,1,0,0:0:0:0:
320,192,107555,1,0,0:0:0:0:
448,192,107555,1,0,0:0:0:0:
192,192,107555,1,0,0:0:0:0:
320,192,107692,1,0,0:0:0:0:
448,192,107692,1,0,0:0:0:0:
64,192,107692,1,0,0:0:0:0:
192,192,107828,1,0,0:0:0:0:
64,192,107828,1,0,0:0:0:0:
320,192,107828,1,0,0:0:0:0:
448,192,107828,1,0,0:0:0:0:
192,192,107965,1,0,0:0:0:0:
64,192,107965,1,0,0:0:0:0:
320,192,107965,1,0,0:0:0:0:
64,192,108101,1,0,0:0:0:0:
448,192,108101,1,0,0:0:0:0:
192,192,108101,1,0,0:0:0:0:
320,192,108101,1,0,0:0:0:0:
448,192,108237,1,0,0:0:0:0:
64,192,108237,1,0,0:0:0:0:
192,192,108237,1,0,0:0:0:0:
320,192,108374,1,0,0:0:0:0:
448,192,108374,1,0,0:0:0:0:
64,192,108374,1,0,0:0:0:0:
192,192,108374,1,0,0:0:0:0:
448,192,108510,1,0,0:0:0:0:
64,192,108510,1,0,0:0:0:0:
320,192,108510,1,0,0:0:0:0:
320,192,108646,1,0,0:0:0:0:
448,192,108646,1,0,0:0:0:0:
64,192,108646,1,0,0:0:0:0:
192,192,108646,1,0,0:0:0:0:
448,192,108783,1,0,0:0:0:0:
320,192,108783,1,0,0:0:0:0:
192,192,108851,1,0,0:0:0:0:
64,192,108851,1,0,0:0:0:0:
448,192,108919,1,0,0:0:0:0:
320,192,108919,1,0,0:0:0:0:
64,192,108987,1,0,0:0:0:0:
192,192,108987,1,0,0:0:0:0:
448,192,109055,1,0,0:0:0:0:
320,192,109055,1,0,0:0:0:0:
64,192,109192,1,0,0:0:0:0:
320,192,109192,1,0,0:0:0:0:
192,192,109192,1,0,0:0:0:0:
448,192,109192,1,0,0:0:0:0:
64,192,109328,1,0,0:0:0:0:
192,192,109328,1,0,0:0:0:0:
320,192,109396,1,0,0:0:0:0:
448,192,109396,1,0,0:0:0:0:
192,192,109465,1,0,0:0:0:0:
64,192,109465,1,0,0:0:0:0:
448,192,109533,1,0,0:0:0:0:
320,192,109533,1,0,0:0:0:0:
192,192,109601,1,0,0:0:0:0:
64,192,109601,1,0,0:0:0:0:
448,192,109737,1,0,0:0:0:0:
320,192,109737,1,0,0:0:0:0:
64,192,109771,1,0,0:0:0:0:
192,192,109805,1,0,0:0:0:0:
448,192,109805,1,0,0:0:0:0:
320,192,109840,1,0,0:0:0:0:
64,192,109874,1,0,0:0:0:0:
192,192,109874,1,0,0:0:0:0:
448,192,109908,1,0,0:0:0:0:
64,192,109942,1,0,0:0:0:0:
320,192,109942,1,0,0:0:0:0:
192,192,109976,1,0,0:0:0:0:
320,192,110010,1,0,0:0:0:0:
448,192,110010,1,0,0:0:0:0:
64,192,110044,1,0,0:0:0:0:
192,192,110078,1,0,0:0:0:0:
448,192,110078,1,0,0:0:0:0:
320,192,110112,1,0,0:0:0:0:
192,192,110146,1,0,0:0:0:0:
64,192,110146,1,0,0:0:0:0:
448,192,110180,1,0,0:0:0:0:
64,192,110215,1,0,0:0:0:0:
320,192,110215,1,0,0:0:0:0:
192,192,110249,1,0,0:0:0:0:
448,192,110283,1,0,0:0:0:0:
320,192,110283,1,0,0:0:0:0:
64,192,110317,1,0,0:0:0:0:
448,192,110351,1,0,0:0:0:0:
192,192,110351,1,0,0:0:0:0:
320,192,110385,1,0,0:0:0:0:
192,192,110419,1,0,0:0:0:0:
64,192,110419,1,0,0:0:0:0:
448,192,110453,1,0,0:0:0:0:
320,192,110487,1,0,0:0:0:0:
64,192,110487,1,0,0:0:0:0:
192,192,110521,1,0,0:0:0:0:
448,192,110555,1,0,0:0:0:0:
320,192,110555,1,0,0:0:0:0:
64,192,110590,1,0,0:0:0:0:
192,192,110624,1,0,0:0:0:0:
448,192,110624,1,0,0:0:0:0:
320,192,110658,1,0,0:0:0:0:
192,192,110692,1,0,0:0:0:0:
64,192,110692,1,0,0:0:0:0:
448,192,110726,1,0,0:0:0:0:
320,192,110760,1,0,0:0:0:0:
64,192,110760,1,0,0:0:0:0:
192,192,110794,1,0,0:0:0:0:
448,192,110828,1,0,0:0:0:0:
64,192,110828,128,0,113010:0:0:0:0:
320,192,110828,128,0,111919:0:0:0:0:
320,192,113010,128,0,113555:0:0:0:0:
448,192,113010,1,0,0:0:0:0:
64,192,113283,1,0,0:0:0:0:
192,192,113419,1,0,0:0:0:0:
64,192,113555,128,0,114101:0:0:0:0:
448,192,113555,128,0,113828:0:0:0:0:
320,192,114101,128,0,114646:0:0:0:0:
192,192,114101,1,0,0:0:0:0:
64,192,114237,1,0,0:0:0:0:
192,192,114374,1,0,0:0:0:0:
64,192,114510,1,0,0:0:0:0:
192,192,114646,128,0,115124:0:0:0:0:
448,192,114646,128,0,114919:0:0:0:0:
320,192,115124,128,0,115192:0:0:0:0:
192,192,115192,128,0,115737:0:0:0:0:
64,192,115192,1,0,0:0:0:0:
320,192,115465,1,0,0:0:0:0:
448,192,115601,1,0,0:0:0:0:
320,192,115737,128,0,116010:0:0:0:0:
64,192,115737,128,0,116010:0:0:0:0:
448,192,116010,128,0,116283:0:0:0:0:
320,192,116283,128,0,116828:0:0:0:0:
64,192,116283,1,0,0:0:0:0:
192,192,116419,1,0,0:0:0:0:
64,192,116555,1,0,0:0:0:0:
192,192,116692,1,0,0:0:0:0:
448,192,116828,128,0,117305:0:0:0:0:
64,192,116828,128,0,117101:0:0:0:0:
320,192,117305,128,0,117374:0:0:0:0:
192,192,117374,128,0,117919:0:0:0:0:
64,192,117374,1,0,0:0:0:0:
448,192,117646,1,0,0:0:0:0:
320,192,117783,1,0,0:0:0:0:
448,192,117919,128,0,118465:0:0:0:0:
64,192,117919,128,0,118192:0:0:0:0:
320,192,118465,128,0,119010:0:0:0:0:
64,192,118465,1,0,0:0:0:0:
192,192,118601,1,0,0:0:0:0:
64,192,118737,1,0,0:0:0:0:
192,192,118874,1,0,0:0:0:0:
448,192,119010,128,0,119487:0:0:0:0:
64,192,119010,128,0,119283:0:0:0:0:
192,192,119487,128,0,119555:0:0:0:0:
320,192,119555,128,0,120101:0:0:0:0:
448,192,119555,1,0,0:0:0:0:
192,192,119828,1,0,0:0:0:0:
64,192,119965,1,0,0:0:0:0:
448,192,120101,128,0,120374:0:0:0:0:
192,192,120101,128,0,120374:0:0:0:0:
320,192,120374,128,0,120646:0:0:0:0:
192,192,120646,128,0,121192:0:0:0:0:
64,192,120646,1,0,0:0:0:0:
448,192,120783,1,0,0:0:0:0:
320,192,120919,1,0,0:0:0:0:
448,192,121055,1,0,0:0:0:0:
320,192,121192,128,0,121669:0:0:0:0:
64,192,121192,128,0,121465:0:0:0:0:
64,192,121669,128,0,121737:0:0:0:0:
192,192,121737,128,0,122283:0:0:0:0:
320,192,121737,1,4,0:0:0:0:
448,192,122010,1,0,0:0:0:0:
320,192,122146,1,0,0:0:0:0:
448,192,122283,128,0,122828:0:0:0:0:
64,192,122283,128,0,122555:0:0:0:0:
192,192,122828,128,0,123374:0:0:0:0:
320,192,122828,1,0,0:0:0:0:
448,192,122965,1,0,0:0:0:0:
320,192,123101,1,0,0:0:0:0:
448,192,123237,1,0,0:0:0:0:
320,192,123374,128,0,123851:0:0:0:0:
64,192,123374,128,0,123646:0:0:0:0:
192,192,123851,128,0,123919:0:0:0:0:
64,192,123919,128,0,124465:0:0:0:0:
320,192,123919,1,0,0:0:0:0:
448,192,124192,1,0,0:0:0:0:
320,192,124328,1,0,0:0:0:0:
192,192,124465,128,0,124737:0:0:0:0:
448,192,124465,128,0,124737:0:0:0:0:
320,192,124737,128,0,125010:0:0:0:0:
448,192,125010,128,0,125555:0:0:0:0:
192,192,125010,1,0,0:0:0:0:
64,192,125146,1,0,0:0:0:0:
192,192,125283,1,0,0:0:0:0:
64,192,125419,1,0,0:0:0:0:
320,192,125555,128,0,126033:0:0:0:0:
192,192,125555,128,0,125828:0:0:0:0:
64,192,126033,128,0,126101:0:0:0:0:
192,192,126101,128,0,126646:0:0:0:0:
320,192,126101,1,0,0:0:0:0:
320,192,126374,1,0,0:0:0:0:
448,192,126510,1,0,0:0:0:0:
64,192,126646,128,0,126919:0:0:0:0:
320,192,126646,128,0,126919:0:0:0:0:
192,192,126919,128,0,127192:0:0:0:0:
448,192,127192,128,0,127737:0:0:0:0:
320,192,127192,1,0,0:0:0:0:
192,192,127328,1,0,0:0:0:0:
64,192,127465,1,0,0:0:0:0:
192,192,127601,1,0,0:0:0:0:
320,192,127737,128,0,128215:0:0:0:0:
64,192,127737,128,0,128010:0:0:0:0:
64,192,128215,128,0,128283:0:0:0:0:
192,192,128283,128,0,128828:0:0:0:0:
320,192,128283,1,0,0:0:0:0:
320,192,128555,1,0,0:0:0:0:
448,192,128692,1,0,0:0:0:0:
64,192,128828,128,0,129305:0:0:0:0:
320,192,128828,128,0,129101:0:0:0:0:
192,192,129305,128,0,129374:0:0:0:0:
320,192,129374,1,0,0:0:0:0:
448,192,129374,1,0,0:0:0:0:
64,192,129374,1,0,0:0:0:0:
192,192,129442,1,0,0:0:0:0:
64,192,129510,1,0,0:0:0:0:
448,192,129510,1,0,0:0:0:0:
320,192,129578,1,0,0:0:0:0:
192,192,129578,1,0,0:0:0:0:
64,192,129646,1,0,0:0:0:0:
448,192,129646,1,0,0:0:0:0:
320,192,129715,1,0,0:0:0:0:
192,192,129783,1,0,0:0:0:0:
64,192,129783,1,0,0:0:0:0:
320,192,129851,1,0,0:0:0:0:
192,192,129919,1,0,0:0:0:0:
448,192,129919,1,0,0:0:0:0:
64,192,129987,1,0,0:0:0:0:
320,192,129987,1,0,0:0:0:0:
192,192,130055,1,0,0:0:0:0:
448,192,130055,1,0,0:0:0:0:
320,192,130124,1,0,0:0:0:0:
448,192,130192,1,0,0:0:0:0:
192,192,130192,1,0,0:0:0:0:
64,192,130192,1,0,0:0:0:0:
64,192,130328,1,0,0:0:0:0:
192,192,130345,1,0,0:0:0:0:
320,192,130362,1,0,0:0:0:0:
448,192,130379,1,0,0:0:0:0:
64,192,130396,1,0,0:0:0:0:
192,192,130413,1,0,0:0:0:0:
320,192,130430,1,0,0:0:0:0:
448,192,130447,1,0,0:0:0:0:
192,192,130465,1,0,0:0:0:0:
64,192,130465,1,0,0:0:0:0:
448,192,130533,1,0,0:0:0:0:
192,192,130601,1,0,0:0:0:0:
64,192,130601,1,0,0:0:0:0:
320,192,130669,1,0,0:0:0:0:
448,192,130737,1,0,0:0:0:0:
192,192,130737,1,0,0:0:0:0:
192,192,130874,1,0,0:0:0:0:
64,192,130874,1,0,0:0:0:0:
448,192,130942,1,0,0:0:0:0:
320,192,130942,1,0,0:0:0:0:
192,192,131010,1,0,0:0:0:0:
64,192,131010,1,0,0:0:0:0:
320,192,131078,1,0,0:0:0:0:
448,192,131146,1,0,0:0:0:0:
192,192,131146,1,0,0:0:0:0:
192,192,131283,1,0,0:0:0:0:
64,192,131283,1,0,0:0:0:0:
192,192,131419,1,0,0:0:0:0:
320,192,131419,1,0,0:0:0:0:
320,192,131555,1,0,0:0:0:0:
448,192,131555,1,0,0:0:0:0:
64,192,131624,1,0,0:0:0:0:
320,192,131692,1,0,0:0:0:0:
448,192,131692,1,0,0:0:0:0:
192,192,131760,1,0,0:0:0:0:
64,192,131828,1,0,0:0:0:0:
320,192,131828,1,0,0:0:0:0:
320,192,131965,1,0,0:0:0:0:
448,192,131965,1,0,0:0:0:0:
64,192,132033,1,0,0:0:0:0:
192,192,132033,1,0,0:0:0:0:
320,192,132101,1,0,0:0:0:0:
448,192,132101,1,0,0:0:0:0:
320,192,132237,1,0,0:0:0:0:
192,192,132237,1,0,0:0:0:0:
192,192,132374,1,0,0:0:0:0:
64,192,132391,1,0,0:0:0:0:
320,192,132408,1,0,0:0:0:0:
448,192,132425,1,0,0:0:0:0:
192,192,132442,1,0,0:0:0:0:
64,192,132459,1,0,0:0:0:0:
320,192,132476,1,0,0:0:0:0:
448,192,132493,1,0,0:0:0:0:
192,192,132510,1,0,0:0:0:0:
320,192,132578,1,0,0:0:0:0:
192,192,132646,1,0,0:0:0:0:
64,192,132646,1,0,0:0:0:0:
448,192,132646,1,0,0:0:0:0:
320,192,132715,1,0,0:0:0:0:
192,192,132783,1,0,0:0:0:0:
64,192,132783,1,0,0:0:0:0:
448,192,132783,1,0,0:0:0:0:
320,192,132919,1,0,0:0:0:0:
448,192,132919,1,0,0:0:0:0:
192,192,132987,1,0,0:0:0:0:
320,192,133055,1,0,0:0:0:0:
64,192,133055,1,0,0:0:0:0:
448,192,133055,1,0,0:0:0:0:
192,192,133124,1,0,0:0:0:0:
320,192,133192,1,0,0:0:0:0:
64,192,133192,1,0,0:0:0:0:
448,192,133192,1,0,0:0:0:0:
192,192,133328,1,0,0:0:0:0:
320,192,133345,1,0,0:0:0:0:
64,192,133362,1,0,0:0:0:0:
448,192,133379,1,0,0:0:0:0:
192,192,133396,1,0,0:0:0:0:
320,192,133413,1,0,0:0:0:0:
64,192,133430,1,0,0:0:0:0:
448,192,133447,128,0,133669:0:0:0:0:
192,192,133601,1,0,0:0:0:0:
64,192,133601,1,0,0:0:0:0:
448,192,133737,1,0,0:0:0:0:
320,192,133737,1,0,0:0:0:0:
64,192,133805,1,0,0:0:0:0:
192,192,133805,1,0,0:0:0:0:
320,192,133874,1,0,0:0:0:0:
192,192,133942,1,0,0:0:0:0:
64,192,133942,1,0,0:0:0:0:
448,192,134010,1,0,0:0:0:0:
192,192,134078,1,0,0:0:0:0:
64,192,134078,1,0,0:0:0:0:
320,192,134146,1,0,0:0:0:0:
448,192,134215,1,0,0:0:0:0:
192,192,134283,1,0,0:0:0:0:
64,192,134283,1,0,0:0:0:0:
320,192,134283,1,0,0:0:0:0:
448,192,134351,1,0,0:0:0:0:
192,192,134419,1,0,0:0:0:0:
64,192,134419,1,0,0:0:0:0:
320,192,134487,1,0,0:0:0:0:
64,192,134555,1,0,0:0:0:0:
192,192,134555,1,0,0:0:0:0:
448,192,134555,1,0,0:0:0:0:
64,192,134692,1,0,0:0:0:0:
192,192,134709,1,0,0:0:0:0:
448,192,134726,1,0,0:0:0:0:
320,192,134743,1,0,0:0:0:0:
64,192,134760,1,0,0:0:0:0:
192,192,134777,1,0,0:0:0:0:
448,192,134794,1,0,0:0:0:0:
320,192,134811,1,0,0:0:0:0:
192,192,134828,1,0,0:0:0:0:
64,192,134828,1,0,0:0:0:0:
448,192,134896,1,0,0:0:0:0:
192,192,134965,1,0,0:0:0:0:
64,192,134965,1,0,0:0:0:0:
320,192,135033,1,0,0:0:0:0:
192,192,135101,1,0,0:0:0:0:
64,192,135101,1,0,0:0:0:0:
320,192,135237,1,0,0:0:0:0:
192,192,135237,1,0,0:0:0:0:
64,192,135374,1,0,0:0:0:0:
320,192,135374,1,0,0:0:0:0:
192,192,135442,1,0,0:0:0:0:
448,192,135442,1,0,0:0:0:0:
320,192,135510,1,0,0:0:0:0:
64,192,135510,1,0,0:0:0:0:
448,192,135578,1,0,0:0:0:0:
192,192,135578,1,0,0:0:0:0:
320,192,135646,1,0,0:0:0:0:
64,192,135646,1,0,0:0:0:0:
448,192,135783,1,0,0:0:0:0:
192,192,135783,1,0,0:0:0:0:
64,192,135783,1,0,0:0:0:0:
320,192,135919,1,0,0:0:0:0:
448,192,135919,1,0,0:0:0:0:
64,192,136055,1,0,0:0:0:0:
192,192,136055,1,0,0:0:0:0:
320,192,136124,1,0,0:0:0:0:
192,192,136192,1,0,0:0:0:0:
64,192,136192,1,0,0:0:0:0:
320,192,136328,1,0,0:0:0:0:
64,192,136328,1,0,0:0:0:0:
192,192,136396,1,0,0:0:0:0:
448,192,136396,1,0,0:0:0:0:
320,192,136465,1,0,0:0:0:0:
64,192,136465,1,0,0:0:0:0:
192,192,136601,1,0,0:0:0:0:
64,192,136601,1,0,0:0:0:0:
320,192,136635,1,0,0:0:0:0:
448,192,136669,1,0,0:0:0:0:
320,192,136686,1,0,0:0:0:0:
64,192,136703,1,0,0:0:0:0:
192,192,136720,1,0,0:0:0:0:
448,192,136737,1,0,0:0:0:0:
320,192,136754,1,0,0:0:0:0:
64,192,136771,1,0,0:0:0:0:
192,192,136788,1,0,0:0:0:0:
448,192,136805,128,0,136874:0:0:0:0:
320,192,136805,128,0,136874:0:0:0:0:
192,192,136874,1,0,0:0:0:0:
64,192,136874,1,0,0:0:0:0:
64,192,137010,1,0,0:0:0:0:
192,192,137010,1,0,0:0:0:0:
448,192,137010,1,0,0:0:0:0:
320,192,137078,1,0,0:0:0:0:
64,192,137146,1,0,0:0:0:0:
448,192,137146,1,0,0:0:0:0:
192,192,137215,1,0,0:0:0:0:
320,192,137283,1,0,0:0:0:0:
64,192,137283,1,0,0:0:0:0:
448,192,137283,1,0,0:0:0:0:
192,192,137351,1,0,0:0:0:0:
448,192,137419,1,0,0:0:0:0:
64,192,137419,1,0,0:0:0:0:
320,192,137487,1,0,0:0:0:0:
192,192,137555,1,0,0:0:0:0:
448,192,137555,1,0,0:0:0:0:
64,192,137555,1,0,0:0:0:0:
320,192,137624,1,0,0:0:0:0:
64,192,137692,1,0,0:0:0:0:
448,192,137692,1,0,0:0:0:0:
192,192,137760,1,0,0:0:0:0:
320,192,137828,1,0,0:0:0:0:
64,192,137828,1,0,0:0:0:0:
448,192,137828,1,0,0:0:0:0:
192,192,137896,1,0,0:0:0:0:
448,192,137965,1,0,0:0:0:0:
64,192,137965,1,0,0:0:0:0:
320,192,138033,1,0,0:0:0:0:
192,192,138101,1,0,0:0:0:0:
64,192,138101,1,0,0:0:0:0:
448,192,138169,128,0,138237:0:0:0:0:
320,192,138169,128,0,138237:0:0:0:0:
192,192,138237,1,0,0:0:0:0:
448,192,138305,128,0,138374:0:0:0:0:
320,192,138305,128,0,138374:0:0:0:0:
64,192,138374,1,0,0:0:0:0:
320,192,138442,128,0,138510:0:0:0:0:
448,192,138442,128,0,138510:0:0:0:0:
192,192,138510,1,0,0:0:0:0:
320,192,138578,1,0,0:0:0:0:
64,192,138646,1,0,0:0:0:0:
448,192,138646,1,0,0:0:0:0:
192,192,138646,1,0,0:0:0:0:
320,192,138715,1,0,0:0:0:0:
64,192,138783,1,0,0:0:0:0:
192,192,138783,1,0,0:0:0:0:
448,192,138783,1,0,0:0:0:0:
320,192,138851,1,0,0:0:0:0:
192,192,138919,1,0,0:0:0:0:
64,192,138936,1,0,0:0:0:0:
320,192,138953,1,0,0:0:0:0:
448,192,138970,1,0,0:0:0:0:
192,192,138987,1,0,0:0:0:0:
64,192,139004,1,0,0:0:0:0:
320,192,139021,1,0,0:0:0:0:
448,192,139038,1,0,0:0:0:0:
192,192,139055,1,0,0:0:0:0:
64,192,139072,1,0,0:0:0:0:
320,192,139090,1,0,0:0:0:0:
448,192,139107,1,0,0:0:0:0:
192,192,139124,1,0,0:0:0:0:
64,192,139141,1,0,0:0:0:0:
320,192,139158,1,0,0:0:0:0:
448,192,139175,1,0,0:0:0:0:
64,192,139192,1,0,0:0:0:0:
192,192,139192,1,0,0:0:0:0:
448,192,139260,1,0,0:0:0:0:
192,192,139328,1,0,0:0:0:0:
64,192,139328,1,0,0:0:0:0:
320,192,139396,1,0,0:0:0:0:
192,192,139465,1,0,0:0:0:0:
448,192,139465,1,0,0:0:0:0:
192,192,139601,1,0,0:0:0:0:
64,192,139601,1,0,0:0:0:0:
448,192,139669,1,0,0:0:0:0:
320,192,139669,1,0,0:0:0:0:
64,192,139737,1,0,0:0:0:0:
192,192,139737,1,0,0:0:0:0:
320,192,139805,1,0,0:0:0:0:
192,192,139874,1,0,0:0:0:0:
448,192,139874,1,0,0:0:0:0:
64,192,140010,1,0,0:0:0:0:
192,192,140010,1,0,0:0:0:0:
320,192,140146,1,0,0:0:0:0:
192,192,140146,1,0,0:0:0:0:
448,192,140283,1,0,0:0:0:0:
320,192,140283,1,0,0:0:0:0:
64,192,140351,1,0,0:0:0:0:
448,192,140419,1,0,0:0:0:0:
320,192,140419,1,0,0:0:0:0:
192,192,140487,1,0,0:0:0:0:
320,192,140555,1,0,0:0:0:0:
64,192,140555,1,0,0:0:0:0:
320,192,140692,1,0,0:0:0:0:
448,192,140692,1,0,0:0:0:0:
192,192,140760,1,0,0:0:0:0:
64,192,140760,1,0,0:0:0:0:
448,192,140828,1,0,0:0:0:0:
320,192,140828,1,0,0:0:0:0:
192,192,140965,1,0,0:0:0:0:
320,192,140965,1,0,0:0:0:0:
64,192,141101,1,0,0:0:0:0:
192,192,141118,1,0,0:0:0:0:
320,192,141135,1,0,0:0:0:0:
448,192,141152,1,0,0:0:0:0:
64,192,141169,1,0,0:0:0:0:
192,192,141186,1,0,0:0:0:0:
320,192,141203,1,0,0:0:0:0:
448,192,141220,1,0,0:0:0:0:
192,192,141237,1,0,0:0:0:0:
320,192,141305,1,0,0:0:0:0:
448,192,141374,1,0,0:0:0:0:
192,192,141374,1,0,0:0:0:0:
64,192,141374,1,0,0:0:0:0:
320,192,141442,1,0,0:0:0:0:
192,192,141510,1,0,0:0:0:0:
64,192,141510,1,0,0:0:0:0:
448,192,141510,1,0,0:0:0:0:
320,192,141646,1,0,0:0:0:0:
448,192,141646,1,0,0:0:0:0:
192,192,141715,1,0,0:0:0:0:
64,192,141783,1,0,0:0:0:0:
448,192,141783,1,0,0:0:0:0:
320,192,141783,1,0,0:0:0:0:
192,192,141851,1,0,0:0:0:0:
320,192,141919,1,0,0:0:0:0:
448,192,141919,1,0,0:0:0:0:
64,192,141919,1,0,0:0:0:0:
192,192,142055,1,0,0:0:0:0:
320,192,142072,1,0,0:0:0:0:
64,192,142090,1,0,0:0:0:0:
448,192,142107,1,0,0:0:0:0:
192,192,142124,1,0,0:0:0:0:
320,192,142141,1,0,0:0:0:0:
64,192,142158,1,0,0:0:0:0:
448,192,142175,128,0,142396:0:0:0:0:
192,192,142328,1,0,0:0:0:0:
64,192,142328,1,0,0:0:0:0:
448,192,142465,1,0,0:0:0:0:
320,192,142465,1,0,0:0:0:0:
192,192,142533,1,0,0:0:0:0:
64,192,142533,1,0,0:0:0:0:
320,192,142601,1,0,0:0:0:0:
64,192,142669,1,0,0:0:0:0:
192,192,142669,1,0,0:0:0:0:
448,192,142737,1,0,0:0:0:0:
64,192,142805,1,0,0:0:0:0:
192,192,142805,1,0,0:0:0:0:
320,192,142874,1,0,0:0:0:0:
448,192,142942,1,0,0:0:0:0:
192,192,143010,1,0,0:0:0:0:
64,192,143010,1,0,0:0:0:0:
320,192,143010,1,0,0:0:0:0:
448,192,143078,1,0,0:0:0:0:
64,192,143146,1,0,0:0:0:0:
192,192,143146,1,0,0:0:0:0:
320,192,143215,1,0,0:0:0:0:
64,192,143283,1,0,0:0:0:0:
448,192,143283,1,0,0:0:0:0:
192,192,143283,1,0,0:0:0:0:
64,192,143419,1,0,0:0:0:0:
192,192,143436,1,0,0:0:0:0:
448,192,143453,1,0,0:0:0:0:
320,192,143470,1,0,0:0:0:0:
64,192,143487,1,0,0:0:0:0:
192,192,143504,1,0,0:0:0:0:
448,192,143521,1,0,0:0:0:0:
320,192,143538,1,0,0:0:0:0:
192,192,143555,1,0,0:0:0:0:
64,192,143555,1,0,0:0:0:0:
448,192,143624,1,0,0:0:0:0:
192,192,143692,1,0,0:0:0:0:
64,192,143692,1,0,0:0:0:0:
320,192,143760,1,0,0:0:0:0:
192,192,143828,1,0,0:0:0:0:
64,192,143828,1,0,0:0:0:0:
192,192,143965,1,0,0:0:0:0:
320,192,143965,1,0,0:0:0:0:
64,192,144101,1,0,0:0:0:0:
320,192,144101,1,0,0:0:0:0:
192,192,144169,1,0,0:0:0:0:
448,192,144169,1,0,0:0:0:0:
320,192,144237,1,0,0:0:0:0:
64,192,144237,1,0,0:0:0:0:
192,192,144305,1,0,0:0:0:0:
448,192,144305,1,0,0:0:0:0:
320,192,144374,1,0,0:0:0:0:
64,192,144374,1,0,0:0:0:0:
192,192,144510,1,0,0:0:0:0:
64,192,144510,1,0,0:0:0:0:
448,192,144510,1,0,0:0:0:0:
448,192,144646,1,0,0:0:0:0:
320,192,144646,1,0,0:0:0:0:
64,192,144783,1,0,0:0:0:0:
192,192,144783,1,0,0:0:0:0:
320,192,144851,1,0,0:0:0:0:
64,192,144919,1,0,0:0:0:0:
192,192,144919,1,0,0:0:0:0:
320,192,145055,1,0,0:0:0:0:
64,192,145055,1,0,0:0:0:0:
448,192,145124,1,0,0:0:0:0:
192,192,145124,1,0,0:0:0:0:
64,192,145192,1,0,0:0:0:0:
320,192,145192,1,0,0:0:0:0:
448,192,145328,1,0,0:0:0:0:
320,192,145345,1,0,0:0:0:0:
192,192,145362,1,0,0:0:0:0:
64,192,145379,1,0,0:0:0:0:
448,192,145396,1,0,0:0:0:0:
320,192,145413,1,0,0:0:0:0:
192,192,145430,1,0,0:0:0:0:
64,192,145447,1,0,0:0:0:0:
448,192,145465,128,0,145601:0:0:0:0:
320,192,145465,128,0,145601:0:0:0:0:
64,192,145601,1,0,0:0:0:0:
192,192,145601,1,0,0:0:0:0:
448,192,145737,128,0,146760:0:0:0:0:
320,192,145737,128,0,146760:0:0:0:0:
192,192,145737,128,0,146760:0:0:0:0:
64,192,146828,1,0,0:0:0:0:
192,192,146828,1,0,0:0:0:0:
448,192,146828,1,0,0:0:0:0:
192,192,146965,1,0,0:0:0:0:
320,192,146965,1,0,0:0:0:0:
64,192,146965,1,0,0:0:0:0:
320,192,147101,1,0,0:0:0:0:
448,192,147101,1,0,0:0:0:0:
64,192,147101,1,0,0:0:0:0:
192,192,147237,1,0,0:0:0:0:
320,192,147237,1,0,0:0:0:0:
448,192,147237,1,0,0:0:0:0:
448,192,147374,1,0,0:0:0:0:
64,192,147374,1,0,0:0:0:0:
192,192,147374,1,0,0:0:0:0:
64,192,147510,1,0,0:0:0:0:
320,192,147510,1,0,0:0:0:0:
192,192,147510,1,0,0:0:0:0:
320,192,147646,1,0,0:0:0:0:
192,192,147646,1,0,0:0:0:0:
448,192,147646,1,0,0:0:0:0:
320,192,147783,1,0,0:0:0:0:
64,192,147783,1,0,0:0:0:0:
448,192,147783,1,0,0:0:0:0:
192,192,147919,1,0,0:0:0:0:
448,192,147919,1,0,0:0:0:0:
320,192,147919,128,0,148465:0:0:0:0:
64,192,147919,1,0,0:0:0:0:
64,192,148192,1,0,0:0:0:0:
64,192,148465,128,0,149010:0:0:0:0:
448,192,148465,1,0,0:0:0:0:
320,192,148737,1,0,0:0:0:0:
320,192,148874,128,0,149010:0:0:0:0:
192,192,149010,1,0,0:0:0:0:
320,192,149146,128,0,149283:0:0:0:0:
192,192,149283,1,0,0:0:0:0:
192,192,149555,128,0,149828:0:0:0:0:
64,192,149555,1,0,0:0:0:0:
320,192,149828,1,0,0:0:0:0:
192,192,150101,128,0,150374:0:0:0:0:
64,192,150101,1,0,0:0:0:0:
320,192,150374,128,0,150510:0:0:0:0:
64,192,150374,1,0,0:0:0:0:
448,192,150510,128,0,150646:0:0:0:0:
320,192,150646,128,0,150919:0:0:0:0:
64,192,150646,1,0,0:0:0:0:
64,192,150919,128,0,151055:0:0:0:0:
448,192,150919,1,0,0:0:0:0:
192,192,151055,128,0,151192:0:0:0:0:
64,192,151192,128,0,151328:0:0:0:0:
320,192,151192,1,0,0:0:0:0:
192,192,151328,128,0,151465:0:0:0:0:
448,192,151465,1,0,0:0:0:0:
448,192,151737,128,0,152010:0:0:0:0:
64,192,151737,1,0,0:0:0:0:
192,192,152010,1,0,0:0:0:0:
192,192,152146,128,0,152215:0:0:0:0:
320,192,152215,128,0,152283:0:0:0:0:
192,192,152283,128,0,152555:0:0:0:0:
448,192,152283,1,0,0:0:0:0:
448,192,152555,128,0,152692:0:0:0:0:
64,192,152555,1,0,0:0:0:0:
320,192,152692,128,0,152828:0:0:0:0:
448,192,152828,128,0,153101:0:0:0:0:
192,192,152828,1,0,0:0:0:0:
320,192,153101,128,0,153237:0:0:0:0:
192,192,153237,128,0,153646:0:0:0:0:
64,192,153237,1,0,0:0:0:0:
448,192,153374,1,0,0:0:0:0:
448,192,153646,1,0,0:0:0:0:
64,192,153646,128,0,153919:0:0:0:0:
448,192,153919,128,0,154465:0:0:0:0:
320,192,154192,1,0,0:0:0:0:
320,192,154465,128,0,155010:0:0:0:0:
192,192,154465,1,0,0:0:0:0:
192,192,154737,1,0,0:0:0:0:
64,192,154874,1,0,0:0:0:0:
448,192,155010,128,0,155283:0:0:0:0:
192,192,155283,128,0,155419:0:0:0:0:
64,192,155419,128,0,155555:0:0:0:0:
192,192,155555,128,0,156101:0:0:0:0:
320,192,155555,1,0,0:0:0:0:
448,192,155692,1,0,0:0:0:0:
320,192,155828,1,0,0:0:0:0:
448,192,155965,1,0,0:0:0:0:
320,192,156101,128,0,156646:0:0:0:0:
64,192,156101,1,0,0:0:0:0:
192,192,156237,1,0,0:0:0:0:
64,192,156374,1,0,0:0:0:0:
192,192,156510,1,0,0:0:0:0:
64,192,156646,1,0,0:0:0:0:
448,192,156646,128,0,157192:0:0:0:0:
192,192,156783,1,0,0:0:0:0:
320,192,156919,1,0,0:0:0:0:
192,192,157055,1,0,0:0:0:0:
64,192,157192,128,0,157601:0:0:0:0:
320,192,157192,1,0,0:0:0:0:
448,192,157328,1,0,0:0:0:0:
192,192,157465,1,0,0:0:0:0:
320,192,157601,128,0,157737:0:0:0:0:
448,192,157601,1,0,0:0:0:0:
192,192,157737,1,0,0:0:0:0:
320,192,157874,128,0,158010:0:0:0:0:
64,192,157874,1,0,0:0:0:0:
192,192,158010,1,0,0:0:0:0:
448,192,158146,1,0,0:0:0:0:
64,192,158283,128,0,158828:0:0:0:0:
320,192,158283,1,0,0:0:0:0:
192,192,158419,1,0,0:0:0:0:
320,192,158555,1,0,0:0:0:0:
448,192,158692,1,0,0:0:0:0:
320,192,158828,128,0,158965:0:0:0:0:
192,192,158828,1,0,0:0:0:0:
64,192,158965,1,0,0:0:0:0:
448,192,159101,1,0,0:0:0:0:
192,192,159237,128,0,159374:0:0:0:0:
320,192,159237,1,0,0:0:0:0:
448,192,159374,1,0,0:0:0:0:
320,192,159510,1,0,0:0:0:0:
64,192,159646,128,0,159783:0:0:0:0:
192,192,159646,1,0,0:0:0:0:
320,192,159783,1,0,0:0:0:0:
192,192,159919,128,0,160055:0:0:0:0:
448,192,159919,1,0,0:0:0:0:
64,192,160055,128,0,160192:0:0:0:0:
320,192,160055,1,0,0:0:0:0:
192,192,160192,1,0,0:0:0:0:
64,192,160328,1,0,0:0:0:0:
320,192,160465,128,0,160601:0:0:0:0:
192,192,160465,1,0,0:0:0:0:
64,192,160601,1,0,0:0:0:0:
192,192,160737,1,0,0:0:0:0:
320,192,160874,128,0,161010:0:0:0:0:
448,192,160874,1,0,0:0:0:0:
192,192,161010,128,0,161146:0:0:0:0:
64,192,161010,1,0,0:0:0:0:
320,192,161146,128,0,161283:0:0:0:0:
448,192,161146,1,0,0:0:0:0:
192,192,161283,128,0,161419:0:0:0:0:
64,192,161283,1,0,0:0:0:0:
448,192,161419,1,0,0:0:0:0:
320,192,161555,128,0,161692:0:0:0:0:
64,192,161555,1,0,0:0:0:0:
448,192,161692,1,0,0:0:0:0:
192,192,161828,128,0,161965:0:0:0:0:
64,192,161828,1,0,0:0:0:0:
320,192,161965,1,0,0:0:0:0:
64,192,162101,128,0,162237:0:0:0:0:
192,192,162101,1,0,0:0:0:0:
448,192,162237,1,0,0:0:0:0:
320,192,162374,1,0,0:0:0:0:
192,192,162510,128,0,162646:0:0:0:0:
64,192,162510,1,0,0:0:0:0:
448,192,162646,1,0,0:0:0:0:
320,192,162783,1,0,0:0:0:0:
192,192,162919,1,0,0:0:0:0:
64,192,163055,1,0,0:0:0:0:
320,192,163192,128,0,163328:0:0:0:0:
192,192,163192,1,0,0:0:0:0:
64,192,163328,1,0,0:0:0:0:
448,192,163465,1,0,0:0:0:0:
320,192,163601,1,0,0:0:0:0:
64,192,163737,1,0,0:0:0:0:
192,192,163874,1,0,0:0:0:0:
320,192,164010,1,0,0:0:0:0:
448,192,164146,128,0,164215:0:0:0:0:
320,192,164215,128,0,164283:0:0:0:0:
192,192,164283,1,8,0:0:0:0:
64,192,164317,1,0,0:0:0:0:
320,192,164351,1,0,0:0:0:0:
448,192,164385,1,0,0:0:0:0:
192,192,164419,1,0,0:0:0:0:
64,192,164453,1,0,0:0:0:0:
320,192,164487,1,0,0:0:0:0:
448,192,164521,1,0,0:0:0:0:
64,192,164555,1,8,0:0:0:0:
192,192,164590,1,0,0:0:0:0:
448,192,164624,1,0,0:0:0:0:
320,192,164658,1,0,0:0:0:0:
64,192,164692,1,0,0:0:0:0:
192,192,164726,1,0,0:0:0:0:
448,192,164760,1,0,0:0:0:0:
320,192,164794,1,0,0:0:0:0:
64,192,164828,1,8,0:0:0:0:
192,192,164828,1,8,0:0:0:0:
448,192,164828,1,0,0:0:0:0:
320,192,164965,1,8,0:0:0:0:
448,192,164965,1,8,0:0:0:0:
64,192,165101,1,0,0:0:0:0:
448,192,165101,1,8,0:0:0:0:
320,192,165101,1,8,0:0:0:0:
192,192,165237,1,8,0:0:0:0:
64,192,165237,1,8,0:0:0:0:
64,192,165374,1,8,0:0:0:0:
192,192,165374,1,8,0:0:0:0:
448,192,165374,128,4,165646:0:0:0:0:
192,192,165646,1,0,0:0:0:0:
64,192,165646,1,0,0:0:0:0:
192,192,165919,128,0,166192:0:0:0:0:
320,192,165919,1,0,0:0:0:0:
448,192,165919,1,0,0:0:0:0:
320,192,166192,1,0,0:0:0:0:
448,192,166192,1,0,0:0:0:0:
448,192,166328,128,0,166465:0:0:0:0:
64,192,166465,1,0,0:0:0:0:
192,192,166465,1,0,0:0:0:0:
448,192,166601,128,0,166737:0:0:0:0:
192,192,166737,1,0,0:0:0:0:
64,192,166737,1,0,0:0:0:0:
192,192,167010,128,0,167283:0:0:0:0:
320,192,167010,1,0,0:0:0:0:
448,192,167010,1,0,0:0:0:0:
64,192,167010,1,0,0:0:0:0:
448,192,167283,1,0,0:0:0:0:
320,192,167317,1,0,0:0:0:0:
192,192,167351,1,0,0:0:0:0:
64,192,167385,1,0,0:0:0:0:
448,192,167419,1,0,0:0:0:0:
320,192,167453,1,0,0:0:0:0:
192,192,167487,1,0,0:0:0:0:
64,192,167521,1,0,0:0:0:0:
320,192,167555,128,0,167692:0:0:0:0:
448,192,167555,1,0,0:0:0:0:
320,192,167828,128,0,167965:0:0:0:0:
64,192,167828,1,0,0:0:0:0:
192,192,167828,1,0,0:0:0:0:
192,192,167965,128,0,168101:0:0:0:0:
320,192,168101,128,0,168237:0:0:0:0:
448,192,168101,1,0,0:0:0:0:
64,192,168101,1,0,0:0:0:0:
320,192,168374,128,0,168510:0:0:0:0:
64,192,168374,1,0,0:0:0:0:
448,192,168374,1,0,0:0:0:0:
192,192,168510,128,0,168646:0:0:0:0:
320,192,168646,1,0,0:0:0:0:
448,192,168646,1,0,0:0:0:0:
192,192,168783,128,0,168919:0:0:0:0:
320,192,168783,1,0,0:0:0:0:
448,192,168783,1,0,0:0:0:0:
448,192,168919,128,0,169055:0:0:0:0:
320,192,168919,128,0,169055:0:0:0:0:
448,192,169192,128,0,169328:0:0:0:0:
64,192,169192,1,0,0:0:0:0:
192,192,169192,1,0,0:0:0:0:
320,192,169396,1,0,0:0:0:0:
192,192,169465,1,0,0:0:0:0:
64,192,169465,1,0,0:0:0:0:
320,192,169601,128,0,169669:0:0:0:0:
192,192,169669,128,0,169737:0:0:0:0:
320,192,169737,128,0,169874:0:0:0:0:
448,192,169737,1,0,0:0:0:0:
64,192,169737,1,0,0:0:0:0:
320,192,170010,128,0,170146:0:0:0:0:
448,192,170010,1,0,0:0:0:0:
64,192,170010,1,0,0:0:0:0:
448,192,170283,128,0,170419:0:0:0:0:
192,192,170283,1,0,0:0:0:0:
320,192,170283,1,0,0:0:0:0:
192,192,170555,1,0,0:0:0:0:
320,192,170555,1,0,0:0:0:0:
320,192,170692,128,0,170828:0:0:0:0:
192,192,170828,1,0,0:0:0:0:
64,192,170828,1,0,0:0:0:0:
320,192,171101,128,0,171237:0:0:0:0:
192,192,171101,1,0,0:0:0:0:
64,192,171101,1,0,0:0:0:0:
448,192,171374,128,0,171510:0:0:0:0:
192,192,171374,1,0,0:0:0:0:
320,192,171374,1,0,0:0:0:0:
192,192,171646,1,0,0:0:0:0:
320,192,171646,1,0,0:0:0:0:
320,192,171919,128,0,172055:0:0:0:0:
192,192,171919,1,0,0:0:0:0:
448,192,171919,1,0,0:0:0:0:
448,192,172192,1,0,0:0:0:0:
192,192,172192,1,0,0:0:0:0:
192,192,172465,128,0,172601:0:0:0:0:
320,192,172465,1,0,0:0:0:0:
192,192,172737,128,0,172874:0:0:0:0:
320,192,172737,1,0,0:0:0:0:
64,192,172874,128,0,173010:0:0:0:0:
448,192,173010,1,0,0:0:0:0:
192,192,173010,128,0,173146:0:0:0:0:
64,192,173146,128,0,173283:0:0:0:0:
320,192,173146,1,0,0:0:0:0:
448,192,173283,1,0,0:0:0:0:
192,192,173283,1,0,0:0:0:0:
320,192,173419,1,0,0:0:0:0:
192,192,173555,128,0,173692:0:0:0:0:
448,192,173555,1,0,0:0:0:0:
64,192,173692,1,0,0:0:0:0:
320,192,173692,1,0,0:0:0:0:
192,192,173828,1,0,0:0:0:0:
320,192,173862,1,0,0:0:0:0:
64,192,173896,1,0,0:0:0:0:
448,192,173930,1,0,0:0:0:0:
192,192,173965,1,0,0:0:0:0:
320,192,173999,1,0,0:0:0:0:
64,192,174033,1,0,0:0:0:0:
448,192,174067,1,0,0:0:0:0:
320,192,174101,1,0,0:0:0:0:
64,192,174101,128,0,174374:0:0:0:0:
192,192,174101,1,0,0:0:0:0:
448,192,174374,128,0,174646:0:0:0:0:
320,192,174374,1,0,0:0:0:0:
320,192,174646,128,0,174919:0:0:0:0:
192,192,174646,128,0,174783:0:0:0:0:
64,192,174783,128,0,174919:0:0:0:0:
192,192,174919,1,0,0:0:0:0:
448,192,174919,128,0,175055:0:0:0:0:
64,192,175055,128,0,175192:0:0:0:0:
320,192,175055,128,0,175192:0:0:0:0:
192,192,175192,1,0,0:0:0:0:
448,192,175192,128,0,175328:0:0:0:0:
64,192,175328,128,0,175465:0:0:0:0:
320,192,175328,128,0,175465:0:0:0:0:
448,192,175465,1,0,0:0:0:0:
192,192,175465,128,0,175601:0:0:0:0:
64,192,175601,128,0,175737:0:0:0:0:
320,192,175737,128,0,176010:0:0:0:0:
192,192,175737,128,0,175874:0:0:0:0:
448,192,175737,1,0,0:0:0:0:
64,192,175874,128,0,176010:0:0:0:0:
192,192,176010,1,0,0:0:0:0:
448,192,176010,1,0,0:0:0:0:
320,192,176283,128,0,176419:0:0:0:0:
64,192,176283,1,0,0:0:0:0:
448,192,176283,1,0,0:0:0:0:
320,192,176555,1,0,0:0:0:0:
448,192,176692,128,0,176828:0:0:0:0:
64,192,176692,128,0,176965:0:0:0:0:
192,192,176828,1,0,0:0:0:0:
192,192,176965,128,0,177101:0:0:0:0:
448,192,177101,128,0,177237:0:0:0:0:
320,192,177101,1,0,0:0:0:0:
64,192,177101,128,0,177237:0:0:0:0:
320,192,177237,128,0,177374:0:0:0:0:
192,192,177374,1,0,0:0:0:0:
64,192,177374,1,0,0:0:0:0:
448,192,177374,128,0,177510:0:0:0:0:
320,192,177510,128,0,177646:0:0:0:0:
192,192,177510,128,0,177646:0:0:0:0:
448,192,177646,1,0,0:0:0:0:
64,192,177646,128,0,177783:0:0:0:0:
448,192,177783,128,0,177919:0:0:0:0:
192,192,177919,128,0,178055:0:0:0:0:
320,192,177919,128,0,178055:0:0:0:0:
64,192,177919,1,0,0:0:0:0:
64,192,178055,128,0,178192:0:0:0:0:
448,192,178192,1,0,0:0:0:0:
192,192,178192,1,0,0:0:0:0:
320,192,178328,128,0,178465:0:0:0:0:
192,192,178465,128,0,178601:0:0:0:0:
64,192,178465,1,0,0:0:0:0:
448,192,178465,1,0,0:0:0:0:
320,192,178601,128,0,178737:0:0:0:0:
192,192,178737,128,0,178874:0:0:0:0:
448,192,178737,1,0,0:0:0:0:
192,192,179010,128,0,179146:0:0:0:0:
320,192,179010,1,0,0:0:0:0:
64,192,179010,1,0,0:0:0:0:
320,192,179283,128,0,179419:0:0:0:0:
192,192,179283,1,0,0:0:0:0:
448,192,179555,128,0,179692:0:0:0:0:
64,192,179555,1,0,0:0:0:0:
192,192,179555,1,0,0:0:0:0:
192,192,179828,1,0,0:0:0:0:
448,192,179965,128,0,180101:0:0:0:0:
64,192,180101,1,0,0:0:0:0:
320,192,180101,1,0,0:0:0:0:
192,192,180374,1,0,0:0:0:0:
448,192,180646,128,0,180783:0:0:0:0:
320,192,180646,1,0,0:0:0:0:
64,192,180646,1,0,0:0:0:0:
192,192,180646,1,0,0:0:0:0:
64,192,180783,1,0,0:0:0:0:
192,192,180919,1,0,0:0:0:0:
448,192,180919,1,0,0:0:0:0:
320,192,180919,1,0,0:0:0:0:
192,192,181055,1,0,0:0:0:0:
448,192,181192,1,0,0:0:0:0:
320,192,181192,1,0,0:0:0:0:
64,192,181192,1,0,0:0:0:0:
320,192,181328,1,0,0:0:0:0:
64,192,181465,1,0,0:0:0:0:
448,192,181465,1,0,0:0:0:0:
192,192,181465,1,0,0:0:0:0:
448,192,181601,128,0,181669:0:0:0:0:
192,192,181601,1,0,0:0:0:0:
320,192,181669,128,0,181737:0:0:0:0:
64,192,181669,1,0,0:0:0:0:
448,192,181737,128,0,181874:0:0:0:0:
192,192,181737,1,0,0:0:0:0:
320,192,181874,1,0,0:0:0:0:
64,192,181874,1,0,0:0:0:0:
448,192,181942,1,0,0:0:0:0:
192,192,181942,1,0,0:0:0:0:
320,192,182010,1,0,0:0:0:0:
64,192,182010,1,0,0:0:0:0:
320,192,182146,1,0,0:0:0:0:
448,192,182146,1,0,0:0:0:0:
192,192,182215,1,0,0:0:0:0:
64,192,182215,1,0,0:0:0:0:
320,192,182283,1,0,0:0:0:0:
448,192,182283,1,0,0:0:0:0:
64,192,182419,1,0,0:0:0:0:
192,192,182419,1,0,0:0:0:0:
320,192,182487,1,0,0:0:0:0:
448,192,182487,1,0,0:0:0:0:
192,192,182555,1,0,0:0:0:0:
64,192,182555,1,0,0:0:0:0:
192,192,182692,1,0,0:0:0:0:
320,192,182692,1,0,0:0:0:0:
64,192,182760,1,0,0:0:0:0:
448,192,182760,1,0,0:0:0:0:
192,192,182828,1,0,0:0:0:0:
320,192,182828,128,0,183033:0:0:0:0:
64,192,182896,1,0,0:0:0:0:
192,192,182965,1,0,0:0:0:0:
64,192,183033,1,0,0:0:0:0:
192,192,183055,1,0,0:0:0:0:
320,192,183078,1,0,0:0:0:0:
448,192,183101,1,0,0:0:0:0:
64,192,183124,1,0,0:0:0:0:
192,192,183146,1,0,0:0:0:0:
320,192,183169,128,0,183374:0:0:0:0:
448,192,183192,128,0,183374:0:0:0:0:
64,192,183374,1,0,0:0:0:0:
448,192,183408,1,0,0:0:0:0:
192,192,183442,1,0,0:0:0:0:
320,192,183476,1,0,0:0:0:0:
64,192,183510,1,0,0:0:0:0:
448,192,183544,1,0,0:0:0:0:
192,192,183578,1,0,0:0:0:0:
320,192,183612,128,0,183783:0:0:0:0:
64,192,183646,1,0,0:0:0:0:
64,192,183783,1,0,0:0:0:0:
192,192,183783,1,0,0:0:0:0:
448,192,183851,1,0,0:0:0:0:
320,192,183874,1,0,0:0:0:0:
192,192,183896,1,0,0:0:0:0:
64,192,183919,1,0,0:0:0:0:
448,192,183919,128,0,183987:0:0:0:0:
320,192,183919,128,0,183987:0:0:0:0:
192,192,184055,1,0,0:0:0:0:
64,192,184192,1,0,0:0:0:0:
192,192,184328,1,0,0:0:0:0:
64,192,184465,128,0,184533:0:0:0:0:
448,192,184465,128,0,184533:0:0:0:0:
320,192,184601,1,0,0:0:0:0:
448,192,184737,1,0,0:0:0:0:
320,192,184874,1,0,0:0:0:0:
64,192,185010,128,0,185078:0:0:0:0:
448,192,185010,128,0,185078:0:0:0:0:
192,192,185146,1,0,0:0:0:0:
64,192,185283,128,0,185351:0:0:0:0:
448,192,185283,128,0,185351:0:0:0:0:
320,192,185419,1,0,0:0:0:0:
64,192,185555,128,0,185624:0:0:0:0:
448,192,185555,128,0,185624:0:0:0:0:
192,192,185692,1,0,0:0:0:0:
320,192,185828,1,0,0:0:0:0:
448,192,185965,1,0,0:0:0:0:
192,192,186101,128,0,186169:0:0:0:0:
320,192,186101,128,0,186169:0:0:0:0:
64,192,186237,1,0,0:0:0:0:
192,192,186374,1,0,0:0:0:0:
320,192,186510,1,0,0:0:0:0:
64,192,186646,128,0,186715:0:0:0:0:
448,192,186646,128,0,186715:0:0:0:0:
192,192,186783,1,0,0:0:0:0:
320,192,186919,1,0,0:0:0:0:
448,192,187055,1,0,0:0:0:0:
192,192,187192,128,0,187260:0:0:0:0:
320,192,187192,128,0,187260:0:0:0:0:
64,192,187328,1,0,0:0:0:0:
192,192,187465,128,0,187533:0:0:0:0:
320,192,187465,128,0,187533:0:0:0:0:
448,192,187601,1,0,0:0:0:0:
192,192,187737,128,0,187805:0:0:0:0:
320,192,187737,128,0,187805:0:0:0:0:
64,192,187874,128,0,187942:0:0:0:0:
192,192,187874,128,0,187942:0:0:0:0:
192,192,188010,128,0,188078:0:0:0:0:
320,192,188010,128,0,188078:0:0:0:0:
320,192,188146,128,0,188215:0:0:0:0:
448,192,188146,128,0,188215:0:0:0:0:
192,192,188283,128,0,188351:0:0:0:0:
320,192,188283,128,0,188351:0:0:0:0:
64,192,188419,1,0,0:0:0:0:
448,192,188555,1,0,0:0:0:0:
320,192,188692,1,0,0:0:0:0:
64,192,188828,128,0,188896:0:0:0:0:
192,192,188828,128,0,188896:0:0:0:0:
320,192,188965,1,0,0:0:0:0:
448,192,189101,1,0,0:0:0:0:
64,192,189237,1,0,0:0:0:0:
192,192,189374,128,0,189442:0:0:0:0:
320,192,189374,128,0,189442:0:0:0:0:
64,192,189510,1,0,0:0:0:0:
320,192,189646,128,0,189715:0:0:0:0:
448,192,189646,128,0,189715:0:0:0:0:
192,192,189783,1,0,0:0:0:0:
64,192,189919,128,0,189987:0:0:0:0:
448,192,189919,128,0,189987:0:0:0:0:
320,192,190055,1,0,0:0:0:0:
192,192,190192,1,0,0:0:0:0:
64,192,190328,1,0,0:0:0:0:
192,192,190465,128,0,190533:0:0:0:0:
320,192,190465,128,0,190533:0:0:0:0:
64,192,190601,1,0,0:0:0:0:
448,192,190737,1,0,0:0:0:0:
64,192,190874,1,0,0:0:0:0:
320,192,191010,128,0,191078:0:0:0:0:
192,192,191010,128,0,191078:0:0:0:0:
448,192,191146,1,0,0:0:0:0:
64,192,191283,1,0,0:0:0:0:
448,192,191419,1,0,0:0:0:0:
320,192,191555,1,0,0:0:0:0:
192,192,191555,128,0,191624:0:0:0:0:
64,192,191555,128,0,191624:0:0:0:0:
192,192,191692,128,0,191760:0:0:0:0:
320,192,191692,128,0,191760:0:0:0:0:
192,192,191828,1,0,0:0:0:0:
320,192,191828,128,0,191896:0:0:0:0:
448,192,191828,128,0,191896:0:0:0:0:
192,192,191965,128,0,192033:0:0:0:0:
320,192,191965,128,0,192033:0:0:0:0:
448,192,192101,1,0,0:0:0:0:
192,192,192101,128,0,192169:0:0:0:0:
64,192,192101,128,0,192169:0:0:0:0:
192,192,192237,128,0,192305:0:0:0:0:
320,192,192237,128,0,192305:0:0:0:0:
64,192,192374,1,0,0:0:0:0:
320,192,192374,128,0,192442:0:0:0:0:
448,192,192374,128,0,192442:0:0:0:0:
192,192,192510,128,0,192578:0:0:0:0:
320,192,192510,128,0,192578:0:0:0:0:
448,192,192646,1,0,0:0:0:0:
64,192,192646,128,0,192715:0:0:0:0:
192,192,192646,128,0,192715:0:0:0:0:
320,192,192783,1,0,0:0:0:0:
448,192,192919,1,0,0:0:0:0:
320,192,193055,1,0,0:0:0:0:
64,192,193192,128,0,193260:0:0:0:0:
448,192,193192,128,0,193260:0:0:0:0:
192,192,193328,1,0,0:0:0:0:
64,192,193465,1,0,0:0:0:0:
192,192,193601,1,0,0:0:0:0:
64,192,193737,128,0,193805:0:0:0:0:
448,192,193737,128,0,193805:0:0:0:0:
320,192,193874,1,0,0:0:0:0:
64,192,194010,128,0,194078:0:0:0:0:
448,192,194010,128,0,194078:0:0:0:0:
192,192,194146,1,0,0:0:0:0:
448,192,194283,128,0,194351:0:0:0:0:
64,192,194283,128,0,194351:0:0:0:0:
320,192,194419,1,0,0:0:0:0:
192,192,194555,1,0,0:0:0:0:
64,192,194692,1,0,0:0:0:0:
192,192,194828,128,0,194896:0:0:0:0:
320,192,194828,128,0,194896:0:0:0:0:
448,192,194965,1,0,0:0:0:0:
320,192,195101,1,0,0:0:0:0:
192,192,195237,1,0,0:0:0:0:
64,192,195374,128,0,195442:0:0:0:0:
448,192,195374,128,0,195442:0:0:0:0:
320,192,195510,1,0,0:0:0:0:
192,192,195646,1,0,0:0:0:0:
64,192,195783,1,0,0:0:0:0:
192,192,195919,128,0,195987:0:0:0:0:
320,192,195919,128,0,195987:0:0:0:0:
448,192,196055,1,0,0:0:0:0:
192,192,196192,128,0,196260:0:0:0:0:
320,192,196192,128,0,196260:0:0:0:0:
64,192,196328,1,0,0:0:0:0:
192,192,196465,128,0,196533:0:0:0:0:
320,192,196465,128,0,196533:0:0:0:0:
320,192,196601,128,0,196669:0:0:0:0:
448,192,196601,128,0,196669:0:0:0:0:
192,192,196737,128,0,196805:0:0:0:0:
320,192,196737,128,0,196805:0:0:0:0:
64,192,196874,128,0,196942:0:0:0:0:
192,192,196874,128,0,196942:0:0:0:0:
192,192,197010,128,0,197078:0:0:0:0:
320,192,197010,128,0,197078:0:0:0:0:
448,192,197146,1,0,0:0:0:0:
64,192,197283,1,0,0:0:0:0:
192,192,197419,1,0,0:0:0:0:
320,192,197555,128,0,197624:0:0:0:0:
448,192,197555,128,0,197624:0:0:0:0:
192,192,197692,1,0,0:0:0:0:
64,192,197828,1,0,0:0:0:0:
448,192,197965,1,0,0:0:0:0:
192,192,198101,128,0,198169:0:0:0:0:
320,192,198101,128,0,198169:0:0:0:0:
448,192,198237,1,0,0:0:0:0:
192,192,198374,128,0,198442:0:0:0:0:
64,192,198374,128,0,198442:0:0:0:0:
320,192,198510,1,0,0:0:0:0:
64,192,198646,128,0,198715:0:0:0:0:
448,192,198646,128,0,198715:0:0:0:0:
192,192,198783,1,0,0:0:0:0:
320,192,198919,1,0,0:0:0:0:
448,192,199055,1,0,0:0:0:0:
192,192,199192,128,0,199260:0:0:0:0:
320,192,199192,128,0,199260:0:0:0:0:
64,192,199328,1,0,0:0:0:0:
448,192,199465,1,0,0:0:0:0:
64,192,199601,1,0,0:0:0:0:
192,192,199737,128,0,199805:0:0:0:0:
320,192,199737,128,0,199805:0:0:0:0:
448,192,199874,1,0,0:0:0:0:
64,192,200010,1,0,0:0:0:0:
448,192,200146,1,0,0:0:0:0:
320,192,200283,1,0,0:0:0:0:
64,192,200283,128,0,200351:0:0:0:0:
192,192,200283,128,0,200351:0:0:0:0:
192,192,200419,128,0,200487:0:0:0:0:
320,192,200419,128,0,200487:0:0:0:0:
192,192,200555,1,0,0:0:0:0:
448,192,200555,128,0,200624:0:0:0:0:
320,192,200555,128,0,200624:0:0:0:0:
192,192,200692,128,0,200760:0:0:0:0:
320,192,200692,128,0,200760:0:0:0:0:
448,192,200828,1,0,0:0:0:0:
64,192,200828,128,0,200896:0:0:0:0:
192,192,200828,128,0,200896:0:0:0:0:
192,192,200965,128,0,201033:0:0:0:0:
320,192,200965,128,0,201033:0:0:0:0:
64,192,201101,1,0,0:0:0:0:
320,192,201101,128,0,201169:0:0:0:0:
448,192,201101,128,0,201169:0:0:0:0:
192,192,201237,128,0,201305:0:0:0:0:
320,192,201237,128,0,201305:0:0:0:0:
192,192,201374,128,0,201442:0:0:0:0:
64,192,201374,128,0,201442:0:0:0:0:
320,192,201374,128,0,201442:0:0:0:0:
448,192,201442,128,0,201510:0:0:0:0:
320,192,201510,128,0,201578:0:0:0:0:
192,192,201578,128,0,201646:0:0:0:0:
320,192,201646,128,0,201715:0:0:0:0:
448,192,201715,128,0,201783:0:0:0:0:
64,192,201783,128,0,201851:0:0:0:0:
192,192,201851,128,0,201919:0:0:0:0:
320,192,201919,1,0,0:0:0:0:
448,192,201919,1,0,0:0:0:0:
192,192,201987,1,0,0:0:0:0:
64,192,201987,1,0,0:0:0:0:
320,192,202055,1,0,0:0:0:0:
448,192,202055,1,0,0:0:0:0:
192,192,202124,1,0,0:0:0:0:
320,192,202192,1,0,0:0:0:0:
64,192,202192,1,0,0:0:0:0:
448,192,202260,1,0,0:0:0:0:
192,192,202260,1,0,0:0:0:0:
320,192,202328,1,0,0:0:0:0:
64,192,202362,1,0,0:0:0:0:
448,192,202396,1,0,0:0:0:0:
192,192,202430,1,0,0:0:0:0:
448,192,202465,1,0,0:0:0:0:
320,192,202465,1,0,0:0:0:0:
64,192,202465,1,0,0:0:0:0:
320,192,202601,1,0,0:0:0:0:
448,192,202601,1,0,0:0:0:0:
192,192,202601,1,0,0:0:0:0:
64,192,202737,1,0,0:0:0:0:
192,192,202737,1,0,0:0:0:0:
320,192,202737,1,0,0:0:0:0:
192,192,202874,1,0,0:0:0:0:
64,192,202874,1,0,0:0:0:0:
448,192,202874,1,0,0:0:0:0:
448,192,203010,1,0,0:0:0:0:
320,192,203010,1,0,0:0:0:0:
192,192,203010,1,0,0:0:0:0:
320,192,203146,1,0,0:0:0:0:
448,192,203146,1,0,0:0:0:0:
64,192,203146,1,0,0:0:0:0:
64,192,203283,1,0,0:0:0:0:
192,192,203283,1,0,0:0:0:0:
320,192,203283,1,0,0:0:0:0:
64,192,203419,1,0,0:0:0:0:
192,192,203419,1,0,0:0:0:0:
448,192,203419,1,0,0:0:0:0:
448,192,203555,1,0,0:0:0:0:
320,192,203555,1,0,0:0:0:0:
64,192,203555,1,0,0:0:0:0:
448,192,203692,1,0,0:0:0:0:
320,192,203692,1,0,0:0:0:0:
192,192,203692,1,0,0:0:0:0:
448,192,203828,1,0,0:0:0:0:
64,192,203828,1,0,0:0:0:0:
192,192,203828,1,0,0:0:0:0:
64,192,203965,1,0,0:0:0:0:
192,192,203965,1,0,0:0:0:0:
320,192,203965,1,0,0:0:0:0:
64,192,204101,1,0,0:0:0:0:
448,192,204101,1,0,0:0:0:0:
320,192,204101,1,0,0:0:0:0:
320,192,204237,1,0,0:0:0:0:
448,192,204237,1,0,0:0:0:0:
192,192,204237,1,0,0:0:0:0:
64,192,204374,1,0,0:0:0:0:
192,192,204374,1,0,0:0:0:0:
320,192,204374,1,0,0:0:0:0:
448,192,204442,1,0,0:0:0:0:
192,192,204510,1,0,0:0:0:0:
320,192,204510,1,0,0:0:0:0:
64,192,204510,1,0,0:0:0:0:
448,192,204578,1,0,0:0:0:0:
192,192,204646,1,0,0:0:0:0:
64,192,204646,1,0,0:0:0:0:
320,192,204646,1,0,0:0:0:0:
192,192,204783,1,0,0:0:0:0:
64,192,204783,1,0,0:0:0:0:
448,192,204783,1,0,0:0:0:0:
448,192,204919,1,0,0:0:0:0:
320,192,204919,1,0,0:0:0:0:
192,192,204919,1,0,0:0:0:0:
320,192,205055,1,0,0:0:0:0:
448,192,205055,1,0,0:0:0:0:
64,192,205055,1,0,0:0:0:0:
64,192,205192,1,0,0:0:0:0:
192,192,205192,1,0,0:0:0:0:
320,192,205192,1,0,0:0:0:0:
64,192,205328,1,0,0:0:0:0:
192,192,205328,1,0,0:0:0:0:
448,192,205328,1,0,0:0:0:0:
192,192,205465,1,0,0:0:0:0:
448,192,205465,1,0,0:0:0:0:
320,192,205465,1,0,0:0:0:0:
448,192,205601,1,0,0:0:0:0:
320,192,205601,1,0,0:0:0:0:
64,192,205601,1,0,0:0:0:0:
320,192,205737,1,0,0:0:0:0:
64,192,205737,1,0,0:0:0:0:
192,192,205737,1,0,0:0:0:0:
448,192,205805,1,0,0:0:0:0:
320,192,205874,1,0,0:0:0:0:
64,192,205874,1,0,0:0:0:0:
448,192,205908,1,0,0:0:0:0:
192,192,205942,1,0,0:0:0:0:
64,192,205976,1,0,0:0:0:0:
320,192,206010,1,0,0:0:0:0:
448,192,206010,1,0,0:0:0:0:
192,192,206044,1,0,0:0:0:0:
64,192,206078,1,0,0:0:0:0:
320,192,206112,1,0,0:0:0:0:
448,192,206146,1,0,0:0:0:0:
192,192,206146,1,0,0:0:0:0:
320,192,206215,1,0,0:0:0:0:
64,192,206283,128,0,206555:0:0:0:0:
192,192,206283,128,0,206555:0:0:0:0:
448,192,206283,1,0,0:0:0:0:
448,192,206555,1,0,0:0:0:0:
320,192,206590,1,0,0:0:0:0:
64,192,206624,1,0,0:0:0:0:
192,192,206658,1,0,0:0:0:0:
448,192,206692,1,0,0:0:0:0:
320,192,206726,1,0,0:0:0:0:
64,192,206760,1,0,0:0:0:0:
192,192,206794,1,0,0:0:0:0:
448,192,206828,1,0,0:0:0:0:
320,192,206828,1,0,0:0:0:0:
64,192,206828,1,0,0:0:0:0:
320,192,206965,1,0,0:0:0:0:
448,192,206965,1,0,0:0:0:0:
192,192,206965,1,0,0:0:0:0:
64,192,207101,1,0,0:0:0:0:
192,192,207101,1,0,0:0:0:0:
320,192,207101,1,0,0:0:0:0:
192,192,207237,1,0,0:0:0:0:
64,192,207237,1,0,0:0:0:0:
448,192,207237,1,0,0:0:0:0:
320,192,207374,1,0,0:0:0:0:
448,192,207374,1,0,0:0:0:0:
192,192,207374,1,0,0:0:0:0:
320,192,207510,1,0,0:0:0:0:
448,192,207510,1,0,0:0:0:0:
64,192,207510,1,0,0:0:0:0:
64,192,207646,1,0,0:0:0:0:
192,192,207646,1,0,0:0:0:0:
320,192,207646,1,0,0:0:0:0:
64,192,207783,1,0,0:0:0:0:
192,192,207783,1,0,0:0:0:0:
448,192,207783,1,0,0:0:0:0:
64,192,207919,1,0,0:0:0:0:
448,192,207919,1,0,0:0:0:0:
320,192,207919,1,0,0:0:0:0:
448,192,208055,1,0,0:0:0:0:
320,192,208055,1,0,0:0:0:0:
192,192,208055,1,0,0:0:0:0:
64,192,208192,1,0,0:0:0:0:
192,192,208192,1,0,0:0:0:0:
448,192,208192,1,0,0:0:0:0:
64,192,208328,1,0,0:0:0:0:
192,192,208328,1,0,0:0:0:0:
320,192,208328,1,0,0:0:0:0:
64,192,208465,1,0,0:0:0:0:
192,192,208465,1,0,0:0:0:0:
320,192,208465,1,0,0:0:0:0:
448,192,208465,1,4,0:0:0:0:
448,192,208601,1,0,0:0:0:0:
320,192,208601,1,0,0:0:0:0:
192,192,208669,1,0,0:0:0:0:
320,192,208669,1,0,0:0:0:0:
64,192,208669,1,4,0:0:0:0:
448,192,208669,1,0,0:0:0:0:
64,192,208805,1,0,0:0:0:0:
192,192,208805,1,0,0:0:0:0:
192,192,208874,1,0,0:0:0:0:
320,192,208874,1,0,0:0:0:0:
448,192,208874,1,4,0:0:0:0:
64,192,208874,1,0,0:0:0:0:
448,192,209010,1,4,0:0:0:0:
192,192,209010,1,0,0:0:0:0:
320,192,209010,1,0,0:0:0:0:
64,192,209010,1,0,0:0:0:0:
192,192,209146,1,0,0:0:0:0:
64,192,209146,1,0,0:0:0:0:
320,192,209146,1,0,0:0:0:0:
64,192,209283,1,0,0:0:0:0:
448,192,209283,1,0,0:0:0:0:
320,192,209283,1,0,0:0:0:0:
320,192,209419,1,0,0:0:0:0:
448,192,209419,1,0,0:0:0:0:
192,192,209419,1,0,0:0:0:0:
192,192,209555,1,0,0:0:0:0:
320,192,209555,1,0,0:0:0:0:
448,192,209555,1,0,0:0:0:0:
64,192,209555,1,0,0:0:0:0:
192,192,209692,1,0,0:0:0:0:
64,192,209692,1,0,0:0:0:0:
448,192,209692,1,0,0:0:0:0:
64,192,209828,1,0,0:0:0:0:
192,192,209828,1,0,0:0:0:0:
320,192,209828,1,0,0:0:0:0:
448,192,209828,1,0,0:0:0:0:
448,192,209965,1,0,0:0:0:0:
320,192,209965,1,0,0:0:0:0:
64,192,209965,1,0,0:0:0:0:
64,192,210101,1,0,0:0:0:0:
192,192,210101,1,0,0:0:0:0:
448,192,210169,1,0,0:0:0:0:
320,192,210237,1,0,0:0:0:0:
64,192,210237,1,0,0:0:0:0:
192,192,210305,1,0,0:0:0:0:
448,192,210374,1,0,0:0:0:0:
320,192,210374,1,0,0:0:0:0:
64,192,210442,1,0,0:0:0:0:
448,192,210510,1,0,0:0:0:0:
192,192,210510,1,0,0:0:0:0:
320,192,210578,1,0,0:0:0:0:
64,192,210646,1,0,0:0:0:0:
192,192,210646,1,0,0:0:0:0:
448,192,210715,1,0,0:0:0:0:
64,192,210783,1,0,0:0:0:0:
320,192,210783,1,0,0:0:0:0:
192,192,210851,1,0,0:0:0:0:
448,192,210919,1,0,0:0:0:0:
320,192,210919,1,0,0:0:0:0:
64,192,210987,1,0,0:0:0:0:
448,192,211055,1,0,0:0:0:0:
64,192,211090,1,0,0:0:0:0:
192,192,211124,1,0,0:0:0:0:
320,192,211158,1,0,0:0:0:0:
448,192,211192,1,0,0:0:0:0:
192,192,211192,1,0,0:0:0:0:
64,192,211192,1,0,0:0:0:0:
192,192,211328,1,0,0:0:0:0:
64,192,211328,1,0,0:0:0:0:
320,192,211328,1,0,0:0:0:0:
192,192,211465,1,0,0:0:0:0:
320,192,211465,1,0,0:0:0:0:
448,192,211465,1,0,0:0:0:0:
320,192,211601,1,0,0:0:0:0:
448,192,211601,1,0,0:0:0:0:
64,192,211601,1,0,0:0:0:0:
320,192,211737,1,0,0:0:0:0:
192,192,211737,1,0,0:0:0:0:
64,192,211737,1,0,0:0:0:0:
192,192,211874,1,0,0:0:0:0:
64,192,211874,1,0,0:0:0:0:
448,192,211874,1,0,0:0:0:0:
448,192,212010,1,0,0:0:0:0:
320,192,212010,1,0,0:0:0:0:
192,192,212010,1,0,0:0:0:0:
448,192,212146,1,0,0:0:0:0:
320,192,212146,1,0,0:0:0:0:
64,192,212146,1,0,0:0:0:0:
192,192,212283,1,0,0:0:0:0:
448,192,212283,1,0,0:0:0:0:
64,192,212283,1,0,0:0:0:0:
64,192,212419,1,0,0:0:0:0:
192,192,212419,1,0,0:0:0:0:
320,192,212419,1,0,0:0:0:0:
64,192,212555,1,0,0:0:0:0:
448,192,212555,1,0,0:0:0:0:
320,192,212555,1,0,0:0:0:0:
448,192,212692,1,0,0:0:0:0:
320,192,212692,1,0,0:0:0:0:
192,192,212692,1,0,0:0:0:0:
64,192,212828,1,0,0:0:0:0:
448,192,212828,1,0,0:0:0:0:
192,192,212828,1,0,0:0:0:0:
192,192,212965,1,0,0:0:0:0:
64,192,212965,1,0,0:0:0:0:
320,192,212965,1,0,0:0:0:0:
192,192,213101,1,0,0:0:0:0:
448,192,213101,1,0,0:0:0:0:
320,192,213101,1,0,0:0:0:0:
64,192,213169,1,0,0:0:0:0:
448,192,213237,1,0,0:0:0:0:
192,192,213237,1,0,0:0:0:0:
320,192,213237,1,0,0:0:0:0:
64,192,213305,1,0,0:0:0:0:
448,192,213374,1,0,0:0:0:0:
192,192,213374,1,0,0:0:0:0:
320,192,213374,1,0,0:0:0:0:
320,192,213510,1,0,0:0:0:0:
448,192,213510,1,0,0:0:0:0:
64,192,213510,1,0,0:0:0:0:
64,192,213646,1,0,0:0:0:0:
320,192,213646,1,0,0:0:0:0:
192,192,213646,1,0,0:0:0:0:
192,192,213783,1,0,0:0:0:0:
64,192,213783,1,0,0:0:0:0:
448,192,213783,1,0,0:0:0:0:
192,192,213919,1,0,0:0:0:0:
320,192,213919,1,0,0:0:0:0:
448,192,213919,1,0,0:0:0:0:
448,192,214055,1,0,0:0:0:0:
320,192,214055,1,0,0:0:0:0:
64,192,214055,1,0,0:0:0:0:
320,192,214192,1,0,0:0:0:0:
192,192,214192,1,0,0:0:0:0:
64,192,214192,1,0,0:0:0:0:
64,192,214328,1,0,0:0:0:0:
192,192,214328,1,0,0:0:0:0:
448,192,214328,1,0,0:0:0:0:
192,192,214465,1,0,0:0:0:0:
448,192,214465,1,0,0:0:0:0:
320,192,214465,1,0,0:0:0:0:
64,192,214533,1,0,0:0:0:0:
192,192,214601,1,0,0:0:0:0:
448,192,214601,1,0,0:0:0:0:
64,192,214635,1,0,0:0:0:0:
320,192,214669,1,0,0:0:0:0:
448,192,214703,1,0,0:0:0:0:
64,192,214737,1,0,0:0:0:0:
192,192,214737,1,0,0:0:0:0:
320,192,214771,1,0,0:0:0:0:
448,192,214805,1,0,0:0:0:0:
192,192,214840,1,0,0:0:0:0:
64,192,214874,1,0,0:0:0:0:
320,192,214874,1,0,0:0:0:0:
192,192,214942,1,0,0:0:0:0:
448,192,215010,128,0,215283:0:0:0:0:
64,192,215010,1,0,0:0:0:0:
320,192,215010,128,0,215283:0:0:0:0:
64,192,215283,1,0,0:0:0:0:
192,192,215317,1,0,0:0:0:0:
448,192,215351,1,0,0:0:0:0:
320,192,215385,1,0,0:0:0:0:
64,192,215419,1,0,0:0:0:0:
192,192,215453,1,0,0:0:0:0:
448,192,215487,1,0,0:0:0:0:
320,192,215521,1,0,0:0:0:0:
64,192,215555,1,0,0:0:0:0:
192,192,215555,1,0,0:0:0:0:
448,192,215555,1,0,0:0:0:0:
192,192,215692,1,0,0:0:0:0:
64,192,215692,1,0,0:0:0:0:
320,192,215692,1,0,0:0:0:0:
448,192,215828,1,0,0:0:0:0:
192,192,215828,1,0,0:0:0:0:
320,192,215828,1,0,0:0:0:0:
320,192,215965,1,0,0:0:0:0:
448,192,215965,1,0,0:0:0:0:
64,192,215965,1,0,0:0:0:0:
64,192,216101,1,0,0:0:0:0:
320,192,216101,1,0,0:0:0:0:
192,192,216101,1,0,0:0:0:0:
192,192,216237,1,0,0:0:0:0:
64,192,216237,1,0,0:0:0:0:
448,192,216237,1,0,0:0:0:0:
320,192,216374,1,0,0:0:0:0:
448,192,216374,1,0,0:0:0:0:
192,192,216374,1,0,0:0:0:0:
448,192,216510,1,0,0:0:0:0:
320,192,216510,1,0,0:0:0:0:
64,192,216510,1,0,0:0:0:0:
448,192,216646,1,0,0:0:0:0:
192,192,216646,1,0,0:0:0:0:
64,192,216646,1,0,0:0:0:0:
64,192,216783,1,0,0:0:0:0:
192,192,216783,1,0,0:0:0:0:
320,192,216783,1,0,0:0:0:0:
448,192,216919,1,0,0:0:0:0:
64,192,216919,1,0,0:0:0:0:
320,192,216919,1,0,0:0:0:0:
448,192,217055,1,0,0:0:0:0:
320,192,217055,1,0,0:0:0:0:
192,192,217055,1,0,0:0:0:0:
320,192,217192,1,0,0:0:0:0:
64,192,217192,1,4,0:0:0:0:
192,192,217192,1,0,0:0:0:0:
448,192,217192,1,0,0:0:0:0:
64,192,217328,1,0,0:0:0:0:
192,192,217328,1,0,0:0:0:0:
192,192,217396,1,0,0:0:0:0:
320,192,217396,1,0,0:0:0:0:
448,192,217396,1,4,0:0:0:0:
64,192,217396,1,0,0:0:0:0:
448,192,217533,1,0,0:0:0:0:
320,192,217533,1,0,0:0:0:0:
320,192,217601,1,0,0:0:0:0:
192,192,217601,1,0,0:0:0:0:
64,192,217601,1,4,0:0:0:0:
448,192,217601,1,0,0:0:0:0:
448,192,217737,1,4,0:0:0:0:
64,192,217737,1,0,0:0:0:0:
192,192,217737,1,0,0:0:0:0:
320,192,217737,1,0,0:0:0:0:
448,192,217874,1,0,0:0:0:0:
320,192,217874,1,0,0:0:0:0:
192,192,217874,1,0,0:0:0:0:
448,192,218010,1,0,0:0:0:0:
192,192,218010,1,0,0:0:0:0:
64,192,218010,1,0,0:0:0:0:
64,192,218146,1,0,0:0:0:0:
192,192,218146,1,0,0:0:0:0:
320,192,218146,1,0,0:0:0:0:
192,192,218283,1,0,0:0:0:0:
448,192,218283,1,0,0:0:0:0:
64,192,218283,1,0,0:0:0:0:
320,192,218283,1,0,0:0:0:0:
448,192,218419,1,0,0:0:0:0:
320,192,218419,1,0,0:0:0:0:
64,192,218419,1,0,0:0:0:0:
64,192,218555,1,0,0:0:0:0:
320,192,218555,1,0,0:0:0:0:
192,192,218555,1,0,0:0:0:0:
448,192,218555,1,0,0:0:0:0:
192,192,218692,1,0,0:0:0:0:
64,192,218692,1,0,0:0:0:0:
448,192,218692,1,0,0:0:0:0:
448,192,218828,128,0,218965:0:0:0:0:
320,192,218828,128,0,218965:0:0:0:0:
192,192,218828,128,0,218965:0:0:0:0:
192,192,219101,1,0,0:0:0:0:
64,192,219101,1,0,0:0:0:0:
448,192,219169,1,0,0:0:0:0:
320,192,219237,1,0,0:0:0:0:
64,192,219237,1,0,0:0:0:0:
192,192,219305,1,0,0:0:0:0:
320,192,219374,1,0,0:0:0:0:
448,192,219374,1,0,0:0:0:0:
64,192,219442,1,0,0:0:0:0:
192,192,219510,1,0,0:0:0:0:
448,192,219510,1,0,0:0:0:0:
320,192,219578,1,0,0:0:0:0:
192,192,219646,1,0,0:0:0:0:
64,192,219646,1,0,0:0:0:0:
448,192,219715,1,0,0:0:0:0:
64,192,219783,1,0,0:0:0:0:
448,192,219817,1,0,0:0:0:0:
320,192,219851,1,0,0:0:0:0:
192,192,219885,1,0,0:0:0:0:
448,192,219919,1,0,0:0:0:0:
320,192,219919,1,0,0:0:0:0:
64,192,219919,1,0,0:0:0:0:
192,192,220055,1,0,0:0:0:0:
320,192,220192,1,0,0:0:0:0:
192,192,220328,1,0,0:0:0:0:
64,192,220328,1,0,0:0:0:0:
448,192,220328,1,0,0:0:0:0:
448,192,220465,1,0,0:0:0:0:
320,192,220465,1,0,0:0:0:0:
192,192,220465,1,0,0:0:0:0:
64,192,220465,1,0,0:0:0:0:
448,192,220601,1,0,0:0:0:0:
320,192,220737,1,0,0:0:0:0:
192,192,220874,1,0,0:0:0:0:
448,192,221010,1,0,0:0:0:0:
320,192,221010,1,0,0:0:0:0:
64,192,221010,1,0,0:0:0:0:
192,192,221010,1,0,0:0:0:0:
64,192,221146,1,0,0:0:0:0:
448,192,221283,1,0,0:0:0:0:
192,192,221283,1,0,0:0:0:0:
320,192,221283,1,0,0:0:0:0:
64,192,221283,1,0,0:0:0:0:
320,192,221419,1,0,0:0:0:0:
64,192,221555,1,0,0:0:0:0:
448,192,221555,1,0,0:0:0:0:
192,192,221555,1,0,0:0:0:0:
320,192,221555,1,0,0:0:0:0:
192,192,221692,1,0,0:0:0:0:
320,192,221828,1,0,0:0:0:0:
448,192,221965,1,0,0:0:0:0:
320,192,222101,1,0,0:0:0:0:
192,192,222101,1,0,0:0:0:0:
64,192,222101,1,0,0:0:0:0:
448,192,222101,1,0,0:0:0:0:
448,192,222237,1,0,0:0:0:0:
192,192,222374,1,0,0:0:0:0:
320,192,222510,1,0,0:0:0:0:
448,192,222510,1,0,0:0:0:0:
64,192,222510,1,0,0:0:0:0:
64,192,222646,1,0,0:0:0:0:
192,192,222646,1,0,0:0:0:0:
320,192,222646,1,0,0:0:0:0:
448,192,222646,1,0,0:0:0:0:
64,192,222783,1,0,0:0:0:0:
192,192,222919,1,0,0:0:0:0:
320,192,223055,1,0,0:0:0:0:
448,192,223055,1,0,0:0:0:0:
64,192,223055,1,0,0:0:0:0:
64,192,223192,1,0,0:0:0:0:
192,192,223192,1,0,0:0:0:0:
320,192,223192,1,0,0:0:0:0:
448,192,223192,1,0,0:0:0:0:
64,192,223328,1,0,0:0:0:0:
192,192,223328,1,0,0:0:0:0:
320,192,223465,1,0,0:0:0:0:
448,192,223465,1,0,0:0:0:0:
192,192,223465,1,0,0:0:0:0:
320,192,223601,1,0,0:0:0:0:
448,192,223601,1,0,0:0:0:0:
64,192,223737,1,0,0:0:0:0:
192,192,223737,1,0,0:0:0:0:
448,192,223737,1,0,0:0:0:0:
192,192,223874,1,0,0:0:0:0:
320,192,223874,1,0,0:0:0:0:
320,192,224010,1,0,0:0:0:0:
448,192,224010,1,0,0:0:0:0:
64,192,224010,1,0,0:0:0:0:
192,192,224146,1,0,0:0:0:0:
320,192,224146,1,0,0:0:0:0:
448,192,224283,1,0,0:0:0:0:
64,192,224283,1,0,0:0:0:0:
192,192,224283,1,0,0:0:0:0:
320,192,224419,1,0,0:0:0:0:
192,192,224555,128,0,224624:0:0:0:0:
64,192,224555,128,0,224624:0:0:0:0:
320,192,224692,128,0,224760:0:0:0:0:
448,192,224692,1,0,0:0:0:0:
192,192,224692,128,0,224760:0:0:0:0:
320,192,224828,1,0,0:0:0:0:
192,192,224828,1,0,0:0:0:0:
64,192,224828,1,0,0:0:0:0:
448,192,224965,1,0,0:0:0:0:
192,192,225101,128,0,225169:0:0:0:0:
320,192,225101,128,0,225169:0:0:0:0:
64,192,225237,1,0,0:0:0:0:
448,192,225237,128,0,225305:0:0:0:0:
320,192,225237,128,0,225305:0:0:0:0:
192,192,225374,128,0,225442:0:0:0:0:
448,192,225374,128,0,225442:0:0:0:0:
320,192,225374,1,0,0:0:0:0:
320,192,225510,128,0,225578:0:0:0:0:
448,192,225510,128,0,225578:0:0:0:0:
192,192,225646,1,0,0:0:0:0:
320,192,225646,128,0,225715:0:0:0:0:
64,192,225646,128,0,225715:0:0:0:0:
64,192,225783,128,0,225851:0:0:0:0:
192,192,225783,128,0,225851:0:0:0:0:
192,192,225919,1,0,0:0:0:0:
320,192,225919,128,0,226055:0:0:0:0:
448,192,225919,128,0,226055:0:0:0:0:
64,192,226055,1,0,0:0:0:0:
192,192,226192,128,0,226396:0:0:0:0:
320,192,226192,128,0,226396:0:0:0:0:
448,192,226465,1,0,0:0:0:0:
320,192,226465,128,0,226601:0:0:0:0:
192,192,226465,128,0,226601:0:0:0:0:
64,192,226601,1,0,0:0:0:0:
320,192,226737,128,0,226874:0:0:0:0:
448,192,226737,128,0,226874:0:0:0:0:
192,192,226874,1,0,0:0:0:0:
64,192,227010,128,0,227146:0:0:0:0:
448,192,227010,128,0,227146:0:0:0:0:
320,192,227146,1,0,0:0:0:0:
64,192,227283,128,0,227419:0:0:0:0:
192,192,227283,128,0,227419:0:0:0:0:
448,192,227419,1,0,0:0:0:0:
320,192,227555,1,0,0:0:0:0:
192,192,227555,128,0,227624:0:0:0:0:
64,192,227555,128,0,227624:0:0:0:0:
192,192,227692,128,0,227760:0:0:0:0:
320,192,227692,128,0,227760:0:0:0:0:
192,192,227828,1,0,0:0:0:0:
320,192,227828,128,0,227896:0:0:0:0:
448,192,227828,128,0,227896:0:0:0:0:
192,192,227965,128,0,228033:0:0:0:0:
320,192,227965,128,0,228033:0:0:0:0:
448,192,228101,1,0,0:0:0:0:
192,192,228101,128,0,228169:0:0:0:0:
64,192,228101,128,0,228169:0:0:0:0:
320,192,228237,128,0,228305:0:0:0:0:
192,192,228237,128,0,228305:0:0:0:0:
448,192,228374,1,0,0:0:0:0:
320,192,228374,1,0,0:0:0:0:
64,192,228374,128,0,228442:0:0:0:0:
448,192,228442,128,0,228510:0:0:0:0:
192,192,228510,1,0,0:0:0:0:
320,192,228510,1,0,0:0:0:0:
448,192,228646,1,0,0:0:0:0:
192,192,228646,1,0,0:0:0:0:
64,192,228646,1,0,0:0:0:0:
192,192,228783,1,0,0:0:0:0:
64,192,228783,1,0,0:0:0:0:
320,192,228783,1,0,0:0:0:0:
192,192,228919,1,0,0:0:0:0:
320,192,228919,1,0,0:0:0:0:
448,192,228919,1,0,0:0:0:0:
320,192,229055,1,0,0:0:0:0:
448,192,229055,1,0,0:0:0:0:
64,192,229055,1,0,0:0:0:0:
320,192,229192,1,0,0:0:0:0:
192,192,229192,1,0,0:0:0:0:
64,192,229192,1,0,0:0:0:0:
192,192,229328,1,0,0:0:0:0:
64,192,229328,1,0,0:0:0:0:
448,192,229328,1,0,0:0:0:0:
448,192,229465,1,0,0:0:0:0:
320,192,229465,1,0,0:0:0:0:
192,192,229465,1,0,0:0:0:0:
448,192,229601,1,0,0:0:0:0:
320,192,229601,1,0,0:0:0:0:
64,192,229601,1,0,0:0:0:0:
192,192,229737,1,0,0:0:0:0:
448,192,229737,1,0,0:0:0:0:
64,192,229737,1,0,0:0:0:0:
64,192,229874,1,0,0:0:0:0:
192,192,229874,1,0,0:0:0:0:
320,192,229874,1,0,0:0:0:0:
64,192,230010,1,0,0:0:0:0:
448,192,230010,1,0,0:0:0:0:
320,192,230010,1,0,0:0:0:0:
448,192,230146,1,0,0:0:0:0:
320,192,230146,1,0,0:0:0:0:
192,192,230146,1,0,0:0:0:0:
64,192,230283,1,0,0:0:0:0:
448,192,230283,1,0,0:0:0:0:
192,192,230283,1,0,0:0:0:0:
192,192,230419,1,0,0:0:0:0:
64,192,230419,1,0,0:0:0:0:
320,192,230419,1,0,0:0:0:0:
192,192,230555,1,0,0:0:0:0:
448,192,230555,1,0,0:0:0:0:
320,192,230555,1,0,0:0:0:0:
64,192,230624,1,0,0:0:0:0:
448,192,230692,1,0,0:0:0:0:
192,192,230692,1,0,0:0:0:0:
320,192,230692,1,0,0:0:0:0:
64,192,230760,1,0,0:0:0:0:
448,192,230828,1,0,0:0:0:0:
192,192,230828,1,0,0:0:0:0:
320,192,230828,1,0,0:0:0:0:
320,192,230965,1,0,0:0:0:0:
448,192,230965,1,0,0:0:0:0:
64,192,230965,1,0,0:0:0:0:
64,192,231101,1,0,0:0:0:0:
320,192,231101,1,0,0:0:0:0:
192,192,231101,1,0,0:0:0:0:
192,192,231237,1,0,0:0:0:0:
64,192,231237,1,0,0:0:0:0:
448,192,231237,1,0,0:0:0:0:
192,192,231374,1,0,0:0:0:0:
320,192,231374,1,0,0:0:0:0:
448,192,231374,1,0,0:0:0:0:
448,192,231510,1,0,0:0:0:0:
320,192,231510,1,0,0:0:0:0:
64,192,231510,1,0,0:0:0:0:
320,192,231646,1,0,0:0:0:0:
192,192,231646,1,0,0:0:0:0:
64,192,231646,1,0,0:0:0:0:
64,192,231783,1,0,0:0:0:0:
192,192,231783,1,0,0:0:0:0:
448,192,231783,1,0,0:0:0:0:
192,192,231919,1,0,0:0:0:0:
448,192,231919,1,0,0:0:0:0:
320,192,231919,1,0,0:0:0:0:
64,192,231987,1,0,0:0:0:0:
192,192,232055,1,0,0:0:0:0:
448,192,232055,1,0,0:0:0:0:
64,192,232090,1,0,0:0:0:0:
320,192,232124,1,0,0:0:0:0:
448,192,232158,1,0,0:0:0:0:
64,192,232192,1,0,0:0:0:0:
192,192,232192,1,0,0:0:0:0:
320,192,232226,1,0,0:0:0:0:
448,192,232260,1,0,0:0:0:0:
192,192,232294,1,0,0:0:0:0:
320,192,232328,1,0,0:0:0:0:
64,192,232328,1,0,0:0:0:0:
192,192,232396,1,0,0:0:0:0:
448,192,232465,128,0,232737:0:0:0:0:
64,192,232465,1,0,0:0:0:0:
320,192,232465,128,0,232737:0:0:0:0:
192,192,232737,1,0,0:0:0:0:
64,192,232737,1,0,0:0:0:0:
320,192,232805,1,0,0:0:0:0:
64,192,232874,1,0,0:0:0:0:
448,192,232874,1,0,0:0:0:0:
192,192,232908,1,0,0:0:0:0:
320,192,232942,1,0,0:0:0:0:
448,192,232976,1,0,0:0:0:0:
64,192,233010,1,0,0:0:0:0:
192,192,233010,1,0,0:0:0:0:
320,192,233078,1,0,0:0:0:0:
448,192,233078,1,0,0:0:0:0:
192,192,233146,1,0,0:0:0:0:
64,192,233146,1,0,0:0:0:0:
448,192,233215,1,0,0:0:0:0:
320,192,233215,1,0,0:0:0:0:
64,192,233283,1,0,0:0:0:0:
192,192,233283,1,0,0:0:0:0:
320,192,233351,1,0,0:0:0:0:
448,192,233351,1,0,0:0:0:0:
64,192,233419,1,0,0:0:0:0:
192,192,233419,1,0,0:0:0:0:
320,192,233487,1,0,0:0:0:0:
448,192,233487,1,0,0:0:0:0:
192,192,233555,1,0,0:0:0:0:
64,192,233555,1,0,0:0:0:0:
320,192,233624,1,0,0:0:0:0:
448,192,233624,1,0,0:0:0:0:
64,192,233692,1,0,0:0:0:0:
192,192,233692,1,0,0:0:0:0:
448,192,233760,1,0,0:0:0:0:
320,192,233760,1,0,0:0:0:0:
192,192,233828,1,0,0:0:0:0:
64,192,233828,1,0,0:0:0:0:
320,192,233896,1,0,0:0:0:0:
448,192,233896,1,0,0:0:0:0:
192,192,233965,1,0,0:0:0:0:
64,192,233965,1,0,0:0:0:0:
320,192,234033,1,0,0:0:0:0:
448,192,234033,1,0,0:0:0:0:
64,192,234101,1,0,0:0:0:0:
192,192,234101,1,0,0:0:0:0:
448,192,234169,1,0,0:0:0:0:
320,192,234169,1,0,0:0:0:0:
192,192,234237,1,0,0:0:0:0:
64,192,234237,1,0,0:0:0:0:
320,192,234305,1,0,0:0:0:0:
448,192,234305,1,0,0:0:0:0:
64,192,234374,1,0,0:0:0:0:
192,192,234374,1,0,0:0:0:0:
448,192,234442,1,0,0:0:0:0:
320,192,234442,1,0,0:0:0:0:
64,192,234510,1,0,0:0:0:0:
192,192,234510,1,0,0:0:0:0:
448,192,234578,1,0,0:0:0:0:
320,192,234578,1,0,0:0:0:0:
192,192,234646,1,0,0:0:0:0:
64,192,234646,1,0,0:0:0:0:
320,192,234715,1,0,0:0:0:0:
448,192,234715,1,0,0:0:0:0:
64,192,234783,1,0,0:0:0:0:
192,192,234783,1,0,0:0:0:0:
448,192,234851,1,0,0:0:0:0:
320,192,234851,1,0,0:0:0:0:
192,192,234919,1,0,0:0:0:0:
64,192,234919,1,0,0:0:0:0:
320,192,234987,1,0,0:0:0:0:
448,192,234987,1,0,0:0:0:0:
64,192,235055,1,0,0:0:0:0:
192,192,235055,1,0,0:0:0:0:
448,192,235124,1,0,0:0:0:0:
320,192,235124,1,0,0:0:0:0:
192,192,235192,1,0,0:0:0:0:
64,192,235226,1,0,0:0:0:0:
448,192,235260,1,0,0:0:0:0:
320,192,235294,1,0,0:0:0:0:
192,192,235328,1,0,0:0:0:0:
64,192,235362,1,0,0:0:0:0:
448,192,235396,1,0,0:0:0:0:
320,192,235430,1,0,0:0:0:0:
192,192,235465,1,0,0:0:0:0:
64,192,235499,1,0,0:0:0:0:
448,192,235533,1,0,0:0:0:0:
320,192,235567,1,0,0:0:0:0:
192,192,235601,1,0,0:0:0:0:
64,192,235635,1,0,0:0:0:0:
448,192,235669,1,0,0:0:0:0:
320,192,235703,1,0,0:0:0:0:
192,192,235737,1,0,0:0:0:0:
64,192,235771,1,0,0:0:0:0:
448,192,235805,1,0,0:0:0:0:
320,192,235840,1,0,0:0:0:0:
192,192,235874,1,0,0:0:0:0:
64,192,235908,1,0,0:0:0:0:
448,192,235942,1,0,0:0:0:0:
320,192,235976,1,0,0:0:0:0:
192,192,236010,1,0,0:0:0:0:
64,192,236044,1,0,0:0:0:0:
448,192,236078,1,0,0:0:0:0:
320,192,236112,1,0,0:0:0:0:
192,192,236146,1,0,0:0:0:0:
64,192,236180,1,0,0:0:0:0:
448,192,236215,1,0,0:0:0:0:
320,192,236249,1,0,0:0:0:0:
64,192,236283,1,0,0:0:0:0:
192,192,236283,1,0,0:0:0:0:
448,192,236317,1,0,0:0:0:0:
320,192,236351,1,0,0:0:0:0:
64,192,236351,1,0,0:0:0:0:
192,192,236385,1,0,0:0:0:0:
320,192,236419,1,0,0:0:0:0:
448,192,236419,1,0,0:0:0:0:
64,192,236453,1,0,0:0:0:0:
192,192,236487,1,0,0:0:0:0:
448,192,236487,1,0,0:0:0:0:
320,192,236521,1,0,0:0:0:0:
192,192,236555,1,0,0:0:0:0:
64,192,236555,1,0,0:0:0:0:
448,192,236590,1,0,0:0:0:0:
320,192,236624,1,0,0:0:0:0:
64,192,236624,1,0,0:0:0:0:
192,192,236658,1,0,0:0:0:0:
320,192,236692,1,0,0:0:0:0:
448,192,236692,1,0,0:0:0:0:
64,192,236726,1,0,0:0:0:0:
192,192,236760,1,0,0:0:0:0:
448,192,236760,1,0,0:0:0:0:
320,192,236794,1,0,0:0:0:0:
64,192,236828,1,0,0:0:0:0:
192,192,236845,1,0,0:0:0:0:
320,192,236862,1,0,0:0:0:0:
448,192,236879,1,0,0:0:0:0:
64,192,236896,1,0,0:0:0:0:
192,192,236913,1,0,0:0:0:0:
320,192,236930,1,0,0:0:0:0:
448,192,236947,1,0,0:0:0:0:
64,192,236965,1,0,0:0:0:0:
192,192,236982,1,0,0:0:0:0:
320,192,236999,1,0,0:0:0:0:
448,192,237016,1,0,0:0:0:0:
64,192,237033,1,0,0:0:0:0:
192,192,237050,1,0,0:0:0:0:
320,192,237067,1,0,0:0:0:0:
448,192,237084,1,0,0:0:0:0:
64,192,237101,1,0,0:0:0:0:
192,192,237118,1,0,0:0:0:0:
320,192,237135,1,0,0:0:0:0:
448,192,237152,1,0,0:0:0:0:
64,192,237169,1,0,0:0:0:0:
192,192,237186,1,0,0:0:0:0:
320,192,237203,1,0,0:0:0:0:
448,192,237220,1,0,0:0:0:0:
64,192,237237,1,0,0:0:0:0:
192,192,237254,1,0,0:0:0:0:
320,192,237271,1,0,0:0:0:0:
448,192,237288,1,0,0:0:0:0:
64,192,237305,1,0,0:0:0:0:
192,192,237322,1,0,0:0:0:0:
320,192,237340,1,0,0:0:0:0:
448,192,237357,1,0,0:0:0:0:
64,192,237374,128,0,237783:0:0:0:0:
320,192,237510,128,0,237919:0:0:0:0:
192,192,237646,128,0,238055:0:0:0:0:
448,192,237783,128,0,238192:0:0:0:0:
64,192,237919,128,0,238328:0:0:0:0:
320,192,238055,128,0,238465:0:0:0:0:
192,192,238192,128,0,238601:0:0:0:0:
448,192,238328,128,0,238737:0:0:0:0:
64,192,238465,128,0,238601:0:0:0:0:
320,192,238601,128,0,238737:0:0:0:0:
192,192,238737,128,0,238874:0:0:0:0:
448,192,238874,128,0,239010:0:0:0:0:
64,192,239010,128,0,239146:0:0:0:0:
320,192,239146,128,0,239283:0:0:0:0:
192,192,239283,128,0,239419:0:0:0:0:
448,192,239419,128,0,239555:0:0:0:0:
320,192,239555,128,0,240518:0:0:0:0:
192,192,239916,1,0,0:0:0:0:
64,192,240518,128,0,241482:0:0:0:0:
448,192,241482,128,0,242205:0:0:0:0:
320,192,241482,1,0,0:0:0:0:
192,192,242205,128,0,242928:0:0:0:0:
64,192,242446,128,0,242928:0:0:0:0:
64,192,243289,1,0,0:0:0:0:
192,192,243350,1,0,0:0:0:0:
320,192,243410,128,0,244434:0:0:0:0:
64,192,243771,1,0,0:0:0:0:
192,192,244434,128,0,244856:0:0:0:0:
320,192,244856,1,0,0:0:0:0:
64,192,245277,128,0,246301:0:0:0:0:
448,192,245338,1,0,0:0:0:0:
192,192,245699,1,0,0:0:0:0:
320,192,246301,128,0,247024:0:0:0:0:
192,192,247024,1,0,0:0:0:0:
448,192,247145,1,0,0:0:0:0:
192,192,247265,128,0,248229:0:0:0:0:
320,192,247627,1,0,0:0:0:0:
448,192,248229,128,0,248952:0:0:0:0:
64,192,248229,1,0,0:0:0:0:
192,192,249193,1,0,0:0:0:0:
64,192,249193,128,0,249675:0:0:0:0:
448,192,249916,1,0,0:0:0:0:
320,192,249916,128,0,250398:0:0:0:0:
192,192,250639,128,0,251121:0:0:0:0:
64,192,251121,1,0,0:0:0:0:
448,192,251362,1,0,0:0:0:0:
320,192,251603,1,0,0:0:0:0:
192,192,251844,1,0,0:0:0:0:
448,192,252085,1,0,0:0:0:0:
64,192,252326,1,0,0:0:0:0:
192,192,252567,1,0,0:0:0:0:
320,192,252808,1,0,0:0:0:0:
64,192,253048,1,0,0:0:0:0:
448,192,253048,128,0,253530:0:0:0:0:
192,192,253832,1,0,0:0:0:0:
320,192,253892,1,0,0:0:0:0:
192,192,253952,1,0,0:0:0:0:
64,192,254012,128,0,254735:0:0:0:0:
448,192,254916,128,0,255277:0:0:0:0:
320,192,255277,128,0,255699:0:0:0:0:
64,192,255277,1,0,0:0:0:0:
64,192,255940,128,0,256783:0:0:0:0:
448,192,255940,1,0,0:0:0:0:
448,192,256904,128,0,257386:0:0:0:0:
192,192,256904,1,0,0:0:0:0:
192,192,257627,128,0,258591:0:0:0:0:
64,192,257627,1,0,0:0:0:0:
448,192,258771,1,0,0:0:0:0:
320,192,258832,128,0,259675:0:0:0:0:
64,192,259193,1,0,0:0:0:0:
192,192,259795,128,0,260277:0:0:0:0:
448,192,259795,1,0,0:0:0:0:
64,192,260277,128,0,260759:0:0:0:0:
320,192,260759,1,0,0:0:0:0:
192,192,260759,128,0,261482:0:0:0:0:
448,192,261121,1,0,0:0:0:0:
320,192,261723,128,0,262446:0:0:0:0:
448,192,262627,1,0,0:0:0:0:
192,192,262687,128,0,263651:0:0:0:0:
448,192,263048,1,0,0:0:0:0:
448,192,263410,1,0,0:0:0:0:
320,192,263530,1,0,0:0:0:0:
64,192,263892,128,0,264374:0:0:0:0:
448,192,264133,128,0,264615:0:0:0:0:
320,192,264615,128,0,265579:0:0:0:0:
192,192,265579,128,0,265820:0:0:0:0:
448,192,265579,128,0,272326:0:0:0:0:
