osu file format v14

[General]
AudioFilename: audio.mp3
AudioLeadIn: 0
PreviewTime: 118887
Countdown: 0
SampleSet: Soft
StackLeniency: 0.7
Mode: 0
LetterboxInBreaks: 0
WidescreenStoryboard: 1

[Editor]
Bookmarks: 25744,91458,118887
DistanceSpacing: 0.9
BeatDivisor: 4
GridSize: 32
TimelineZoom: 2

[Metadata]
Title:seedy try
TitleUnicode:seedy try
Artist:t+pazolite
ArtistUnicode:t+pazolite
Creator:Down
Version:Normal
Source:Zyon 載音
Tags:electronic hardcore j-core video game instrumental -kevincela- dynamix frequency blitz 3 the best of tpz 2 the best!!!
BeatmapID:3676681
BeatmapSetID:1793951

[Difficulty]
HPDrainRate:4
CircleSize:3.3
OverallDifficulty:4
ApproachRate:6
SliderMultiplier:0.999999999999999
SliderTickRate:1

[Events]
//Background and Video events
0,0,"bg.jpg",0,0
//Break Periods
2,82515,90258
//Storyboard Layer 0 (Background)
//Storyboard Layer 1 (Fail)
//Storyboard Layer 2 (Pass)
//Storyboard Layer 3 (Foreground)
//Storyboard Layer 4 (Overlay)
//Storyboard Sound Samples

[TimingPoints]
30,285.714285714286,4,2,0,50,1,0
9172,-100,4,2,0,60,0,0
20315,-100,4,2,0,30,0,0
20458,-100,4,2,0,60,0,0
27458,-100,4,2,0,70,0,0
41530,-100,4,2,0,5,0,0
41601,-100,4,2,0,70,0,0
44744,-100,4,2,0,50,0,0
45172,-100,4,2,0,70,0,0
45458,-100,4,2,0,40,0,0
45744,-100,4,2,0,70,0,0
59815,-100,4,2,0,5,0,0
59887,-100,4,2,0,70,0,0
62887,-100,4,2,0,50,0,0
63458,-100,4,2,0,70,0,0
63744,-100,4,2,0,30,0,0
64030,-90.9090909090909,4,2,0,70,0,1
81172,-100,4,2,0,70,0,0
81315,-100,4,2,0,50,0,0
81744,-100,4,2,0,70,0,0
82030,-100,4,2,0,40,0,0
82315,-100,4,2,0,45,0,0
91458,-100,4,2,0,50,0,0
100600,-100,4,2,0,60,0,0
111744,-100,4,2,0,30,0,0
111887,-100,4,2,0,60,0,0
118886,-100,4,2,0,70,0,0
132958,-100,4,2,0,5,0,0
133029,-100,4,2,0,70,0,0
136172,-100,4,2,0,50,0,0
136600,-100,4,2,0,70,0,0
151243,-100,4,2,0,5,0,0
151315,-100,4,2,0,70,0,0
154458,-100,4,2,0,50,0,0
154887,-100,4,2,0,70,0,0
155172,-100,4,2,0,30,0,0
155458,-90.9090909090909,4,2,0,70,0,1
172601,-100,4,2,0,70,0,0
172744,-100,4,2,0,40,0,0
173172,-100,4,2,0,70,0,0
173458,-100,4,2,0,40,0,0
173744,-100,4,2,0,50,0,0
184315,-100,4,2,0,40,0,0
184601,-100,4,2,0,30,0,0

[Colours]
Combo1 : 253,0,6
Combo2 : 21,255,21
Combo3 : 40,56,255

[HitObjects]
148,119,30,6,0,P|137:91|130:73,2,50,2|0|8,0:0|0:0|0:0,0:0:0:0:
187,140,458,2,0,P|241:124|283:111,1,99.9999999999999,10|0,0:0|0:0,0:0:0:0:
316,81,887,1,10,0:0:0:0:
402,105,1172,2,0,P|440:167|388:277,1,200,2|2,0:0|0:0,0:0:0:0:
337,347,2030,1,10,0:0:0:0:
248,334,2315,6,0,P|239:365|234:389,2,50,2|2|8,0:0|0:0|0:0,0:0:0:0:
227,293,2744,2,0,P|183:281|129:256,1,99.9999999999999,10|2,0:0|0:0,0:0:0:0:
93,279,3172,1,10,0:0:0:0:
14,234,3458,2,0,P|-2:176|82:71,1,200,2|2,0:0|0:0,0:0:0:0:
160,40,4315,1,10,0:0:0:0:
227,99,4601,6,0,P|259:92|290:89,2,50,2|2|8,0:0|0:0|0:0,0:0:0:0:
206,139,5030,2,0,P|196:201|194:254,1,99.9999999999999,10|0,0:0|0:0,0:0:0:0:
222,272,5458,1,10,0:0:0:0:
144,318,5744,2,0,P|34:273|30:192,1,200,2|2,0:0|0:0,0:0:0:0:
81,132,6601,1,10,0:0:0:0:
61,44,6887,6,0,P|37:48|2:57,2,50,2|2|8,0:0|0:0|0:0,0:0:0:0:
94,13,7315,2,0,P|151:28|194:40,1,99.9999999999999,10|0,0:0|0:0,0:0:0:0:
220,72,7744,1,10,0:0:0:0:
290,15,8030,2,0,P|368:37|410:155,1,200,2|2,0:0|0:0,0:0:0:0:
340,192,8887,1,10,0:0:0:0:
348,281,9172,6,0,P|405:256|427:212,2,99.9999999999999,4|8|2,3:0|0:0|1:0,0:0:0:0:
263,312,10030,1,10,3:2:0:0:
201,247,10315,2,0,P|155:238|97:227,1,99.9999999999999,8|4,0:0|3:0,0:0:0:0:
73,205,10744,1,0,0:0:0:0:
73,205,10887,2,0,P|59:161|46:108,1,99.9999999999999,8|4,0:0|3:0,0:0:0:0:
109,45,11458,6,0,P|162:24|210:6,2,99.9999999999999,4|8|2,3:0|0:0|1:0,0:0:0:0:
144,128,12315,1,8,3:2:0:0:
67,175,12601,2,0,P|59:200|58:229,1,50,8|6,0:0|0:3,0:0:0:0:
98,242,12887,2,0,P|106:267|107:296,1,50,10|4,0:0|3:0,0:0:0:0:
96,334,13172,2,0,P|154:317|211:301,1,99.9999999999999,4|4,0:3|3:0,0:0:0:0:
255,241,13744,6,0,P|315:252|376:262,2,99.9999999999999,4|8|2,3:0|0:0|1:0,0:0:0:0:
193,175,14601,1,10,3:2:0:0:
274,136,14887,2,0,P|287:66|296:26,1,99.9999999999999,8|4,0:0|3:0,0:0:0:0:
333,15,15315,1,0,0:0:0:0:
333,15,15458,2,0,P|394:34|419:78,1,99.9999999999999,8|4,0:0|3:0,0:0:0:0:
501,82,16030,6,0,P|488:126|481:186,1,99.9999999999999,4|8,3:0|0:0,0:0:0:0:
469,268,16601,2,0,P|425:249|369:225,1,99.9999999999999,2|8,1:0|3:2,0:0:0:0:
304,175,17172,2,0,P|298:150|291:122,2,50,8|6|10,0:0|3:0|0:0,0:0:0:0:
268,201,17601,1,4,3:0:0:0:
268,201,17744,2,0,P|262:256|253:317,1,99.9999999999999,4|4,0:3|3:0,0:0:0:0:
166,308,18315,6,0,B|128:279|134:220|134:220|171:175|134:124,1,200,4|0,3:0|0:0,0:0:0:0:
275,13,19458,2,0,P|331:31|374:39,1,99.9999999999999,2|0,0:3|0:0,0:0:0:0:
408,64,19887,1,2,0:0:0:0:
408,64,20030,2,0,P|414:96|420:124,2,50,2|0|2,3:0|0:0|3:0,0:0:0:0:
332,113,20601,6,0,B|324:163|324:163|295:198|295:198|330:300,1,200,4|0,3:0|0:0,0:0:0:0:
478,195,21744,2,0,L|460:311,2,99.9999999999999,2|2|2,3:0|0:0|3:0,0:0:0:0:
419,126,22601,1,2,0:0:0:0:
455,43,22887,6,0,P|356:31|243:21,1,200,4|4,3:0|3:0,0:0:0:0:
192,86,23744,1,2,0:0:0:0:
261,143,24030,2,0,P|245:239|227:356,1,200,4|4,3:0|3:0,0:0:0:0:
145,373,24887,1,2,0:0:0:0:
73,319,25172,6,0,B|51:297|51:297|64:224,1,99.9999999999999,4|4,3:0|3:0,0:0:0:0:
145,191,25744,2,0,B|167:169|167:169|154:96,1,99.9999999999999,4|4,3:0|3:0,0:0:0:0:
207,28,26315,2,0,L|267:42,1,50,4|4,3:0|3:0,0:0:0:0:
283,74,26601,2,0,L|342:59,1,50,4|4,3:0|3:0,0:0:0:0:
369,37,26887,1,4,3:0:0:0:
456,193,27458,6,0,B|411:207|399:265|399:265|422:316,1,150,6|6,3:0|3:0,0:0:0:0:
429,358,28030,2,0,P|377:345|309:334,1,99.9999999999999,10|6,0:0|3:0,0:0:0:0:
250,296,28601,2,0,P|244:321|237:362,2,50,2|0|4,0:0|0:0|3:0,0:0:0:0:
221,268,29030,1,2,0:0:0:0:
221,268,29172,2,0,P|211:215|194:152,1,99.9999999999999,8|6,0:0|3:0,0:0:0:0:
111,151,29744,6,0,P|175:130|247:79,1,150,6|6,3:0|3:0,0:0:0:0:
285,95,30315,2,0,B|315:116|315:116|301:198,1,99.9999999999999,10|6,0:0|0:3,0:0:0:0:
379,228,30887,2,0,P|408:237|443:247,1,50,2|0,0:0|0:0,0:0:0:0:
451,280,31172,2,0,P|439:315|429:345,1,50,6|2,3:0|0:0,0:0:0:0:
401,357,31458,2,0,P|358:363|292:373,1,99.9999999999999,10|2,0:0|0:0,0:0:0:0:
223,326,32030,6,0,B|201:303|201:303|184:242|238:176,1,150,6|6,3:0|3:0,0:0:0:0:
270,182,32601,2,0,P|264:155|241:77,1,99.9999999999999,10|6,0:0|3:3,0:0:0:0:
154,77,33172,2,0,P|163:45|172:15,2,50,2|0|4,0:0|0:0|3:0,0:0:0:0:
124,111,33601,1,2,0:0:0:0:
124,111,33744,2,0,P|77:96|29:82,1,99.9999999999999,8|6,0:0|3:0,0:0:0:0:
5,169,34315,6,0,P|24:214|30:272,1,99.9999999999999,4|2,3:0|0:0,0:0:0:0:
10,307,34744,1,4,3:0:0:0:
10,307,34887,2,0,P|81:320|127:335,1,99.9999999999999,10|4,0:0|3:0,0:0:0:0:
188,368,35458,2,0,P|194:310|173:272,1,99.9999999999999,4|4,3:0|3:0,0:0:0:0:
178,184,36030,1,4,1:2:0:0:
236,115,36315,1,4,1:2:0:0:
324,135,36601,6,0,B|410:105|410:105|465:154,1,150,6|6,3:0|3:0,0:0:0:0:
498,153,37172,2,0,P|482:211|473:261,1,99.9999999999999,10|6,0:0|3:0,0:0:0:0:
406,309,37744,2,0,P|415:343|425:376,2,50,2|0|4,0:0|0:0|3:0,0:0:0:0:
373,286,38172,1,2,0:0:0:0:
373,286,38315,2,0,P|321:275|263:259,1,99.9999999999999,8|6,0:0|3:0,0:0:0:0:
210,325,38887,6,0,P|136:302|101:221,1,150,6|6,3:0|3:0,0:0:0:0:
132,208,39458,2,0,P|143:165|161:91,1,99.9999999999999,10|6,0:0|3:0,0:0:0:0:
72,77,40030,2,0,P|157:63|287:38,1,200,4|10,3:0|0:0,0:0:0:0:
343,91,40887,1,2,0:0:0:0:
427,60,41172,6,0,B|471:120|471:120|431:152|438:206,1,150,4|4,3:0|3:0,0:0:0:0:
406,218,41744,2,0,P|443:271|454:318,1,99.9999999999999,10|6,0:0|3:0,0:0:0:0:
364,326,42315,2,0,P|350:305|342:274,2,50,2|0|4,0:0|0:0|3:0,0:0:0:0:
384,372,42744,1,2,0:0:0:0:
384,372,42887,2,0,P|333:367|274:360,1,99.9999999999999,8|6,0:0|3:0,0:0:0:0:
236,285,43458,6,0,P|194:291|118:306,2,99.9999999999999,6|8|0,3:0|0:0|0:0,0:0:0:0:
294,216,44315,1,2,0:0:0:0:
222,161,44601,2,0,B|185:128|185:128|191:64,1,99.9999999999999,4|10,3:0|0:0,0:0:0:0:
278,94,45172,1,4,3:0:0:0:
441,18,45744,6,0,P|435:62|420:131,1,99.9999999999999,6|2,3:0|0:0,0:0:0:0:
450,159,46172,1,6,3:0:0:0:
450,159,46315,2,0,P|487:169|512:178,2,50,10|2|2,0:0|0:0|0:1,0:0:0:0:
382,219,46887,2,0,P|376:247|371:271,2,50,6|0|4,3:0|0:0|3:0,0:0:0:0:
354,183,47315,1,2,0:0:0:0:
354,183,47458,2,0,P|304:196|242:212,1,99.9999999999999,8|6,0:0|3:0,0:0:0:0:
213,129,48030,6,0,P|148:118|61:101,1,150,6|6,3:0|3:0,0:0:0:0:
28,127,48601,2,0,P|38:193|42:231,1,99.9999999999999,10|6,0:0|3:0,0:0:0:0:
130,237,49172,2,0,P|121:263|116:295,1,50,2|0,0:0|0:0,0:0:0:0:
133,327,49458,2,0,P|164:336|194:350,1,50,6|2,3:0|0:0,0:0:0:0:
216,370,49744,2,0,P|268:356|323:340,1,99.9999999999999,10|2,0:0|0:0,0:0:0:0:
399,365,50315,6,0,B|419:318|419:318|389:215,1,150,6|6,3:0|3:0,0:0:0:0:
349,206,50887,2,0,P|360:155|375:100,1,99.9999999999999,10|6,0:0|3:0,0:0:0:0:
289,72,51458,2,0,L|272:129,2,50,2|0|4,0:0|0:0|3:0,0:0:0:0:
270,36,51887,1,2,0:0:0:0:
270,36,52030,2,0,P|216:54|163:67,1,99.9999999999999,8|6,0:0|3:0,0:0:0:0:
98,16,52601,6,0,P|87:66|72:121,1,99.9999999999999,4|2,3:0|0:0,0:0:0:0:
103,147,53030,1,4,3:0:0:0:
103,147,53172,2,0,P|59:165|-4:188,1,99.9999999999999,10|4,0:0|3:0,0:0:0:0:
10,273,53744,2,0,P|47:313|71:354,1,99.9999999999999,4|4,3:0|3:0,0:0:0:0:
157,372,54315,1,4,1:2:0:0:
206,296,54601,1,4,1:2:0:0:
280,347,54887,6,0,P|356:327|446:311,1,150,4|6,3:0|3:0,0:0:0:0:
466,334,55458,2,0,P|469:296|480:228,1,99.9999999999999,10|6,0:0|3:0,0:0:0:0:
423,164,56030,2,0,P|454:153|479:145,2,50,2|0|4,0:0|0:0|3:0,0:0:0:0:
385,138,56458,1,2,0:0:0:0:
385,138,56601,2,0,P|314:120|274:103,1,99.9999999999999,8|6,0:0|3:0,0:0:0:0:
277,20,57172,6,0,P|224:34|126:61,1,150,6|6,3:0|3:0,0:0:0:0:
93,35,57744,2,0,P|83:83|73:132,1,99.9999999999999,10|4,0:0|3:0,0:0:0:0:
108,215,58315,2,0,P|199:217|248:119,1,200,4|10,3:0|0:0,0:0:0:0:
328,87,59172,1,2,0:0:0:0:
389,153,59458,6,0,P|371:235|354:315,1,150,4|4,3:0|3:0,0:0:0:0:
383,336,60030,2,0,P|328:350|272:364,1,99.9999999999999,10|6,0:0|3:0,0:0:0:0:
206,317,60601,2,0,P|182:315|152:313,2,50,2|0|4,0:0|0:0|3:0,0:0:0:0:
232,282,61030,1,2,0:0:0:0:
232,282,61172,2,0,P|216:221|202:166,1,99.9999999999999,8|6,0:0|3:0,0:0:0:0:
117,173,61744,6,0,P|128:123|136:68,1,99.9999999999999,4|2,3:0|0:0,0:0:0:0:
166,42,62172,1,4,3:0:0:0:
166,42,62315,2,0,P|223:56|274:73,1,99.9999999999999,10|4,0:0|3:0,0:0:0:0:
334,122,62887,2,0,P|388:107|441:92,2,99.9999999999999,4|10|4,3:0|0:0|3:0,0:0:0:0:
281,195,63744,1,2,0:1:0:0:
375,224,64030,6,0,P|408:291|392:331,1,110.000003356934,4|2,3:0|0:0,0:0:0:0:
310,363,64601,2,0,P|229:339|218:304,1,110.000003356934,8|4,0:0|3:0,0:0:0:0:
184,297,65030,1,0,0:0:0:0:
184,297,65172,2,0,P|190:236|195:167,1,110.000003356934,2|4,0:0|3:0,0:0:0:0:
121,119,65744,2,0,P|111:96|95:57,2,55.0000016784668,8|2|2,0:0|0:0|0:0,0:0:0:0:
203,63,66315,6,0,P|257:73|335:91,1,110.000003356934,6|2,3:0|0:0,0:0:0:0:
342,179,66887,2,0,P|391:149|456:134,1,110.000003356934,8|4,0:0|3:0,0:0:0:0:
491,158,67315,1,0,0:0:0:0:
491,158,67458,2,0,P|478:210|470:273,1,110.000003356934,2|4,0:0|3:0,0:0:0:0:
451,363,68030,1,10,0:0:0:0:
368,309,68315,1,2,0:0:0:0:
275,349,68601,6,0,P|226:319|166:309,1,110.000003356934,4|2,3:0|0:0,0:0:0:0:
83,347,69172,2,0,P|65:287|48:234,1,110.000003356934,8|4,0:0|3:0,0:0:0:0:
81,203,69601,1,0,0:0:0:0:
81,203,69744,2,0,P|134:183|197:155,1,110.000003356934,2|4,0:0|3:0,0:0:0:0:
164,64,70315,2,0,P|138:54|98:38,2,55.0000016784668,8|2|2,0:0|0:0|0:0,0:0:0:0:
261,42,70887,6,0,P|290:92|296:146,1,110.000003356934,4|2,3:0|0:0,0:0:0:0:
366,212,71458,2,0,P|362:237|360:276,2,55.0000016784668,8|2|4,0:0|0:0|3:0,0:0:0:0:
419,208,71887,1,0,0:0:0:0:
419,208,72030,2,0,B|438:165|438:165|402:108,1,110.000003356934,4|4,3:0|3:0,0:0:0:0:
332,43,72601,1,4,1:2:0:0:
266,117,72887,1,4,1:2:0:0:
199,44,73172,6,0,P|157:36|82:7,1,110.000003356934,4|2,3:0|0:0,0:0:0:0:
6,60,73744,2,0,P|30:103|51:167,1,110.000003356934,8|4,0:0|3:0,0:0:0:0:
100,181,74172,1,0,0:0:0:0:
100,181,74315,2,0,P|85:235|77:305,1,110.000003356934,2|4,0:0|3:0,0:0:0:0:
152,353,74887,2,0,P|126:366|99:386,2,55.0000016784668,8|2|2,0:0|0:0|0:0,0:0:0:0:
184,259,75458,6,0,P|242:272|297:302,1,110.000003356934,4|2,3:0|0:0,0:0:0:0:
356,365,76030,2,0,P|372:308|403:256,1,110.000003356934,8|4,0:0|3:0,0:0:0:0:
449,276,76458,1,0,0:0:0:0:
449,276,76601,2,0,P|433:233|419:168,1,110.000003356934,2|4,0:0|3:0,0:0:0:0:
486,97,77172,2,0,P|451:87|423:69,1,55.0000016784668,10|4,0:0|3:0,0:0:0:0:
400,41,77458,2,0,P|374:53|327:64,1,55.0000016784668,2|4,0:0|3:0,0:0:0:0:
306,33,77744,6,0,P|285:102|275:195,1,165.0000050354,4|4,3:0|3:0,0:0:0:0:
293,239,78315,2,0,P|260:248|182:276,1,110.000003356934,8|4,0:0|3:0,0:0:0:0:
99,228,78887,2,0,P|72:184|58:127,1,110.000003356934,2|4,0:0|3:0,0:0:0:0:
80,31,79458,2,0,P|52:25|9:10,2,55.0000016784668,8|2|2,0:0|0:0|0:0,0:0:0:0:
170,71,80030,6,0,P|222:59|285:48,1,110.000003356934,4|2,3:0|0:0,0:0:0:0:
340,115,80601,2,0,P|389:128|466:140,1,110.000003356934,8|4,0:0|3:0,0:0:0:0:
485,178,81030,1,0,0:0:0:0:
485,178,81172,6,0,P|470:224|456:293,2,99.9999999999999,4|10|4,3:0|0:0|3:0,0:0:0:0:
511,91,82030,1,2,0:0:0:0:
440,35,82315,5,2,0:0:0:0:
438,36,91458,6,0,L|427:104,2,50,4|0|8,3:0|0:0|0:0,0:0:0:0:
397,15,91887,2,0,P|342:27|286:39,1,99.9999999999999,10|0,0:0|0:0,0:0:0:0:
264,64,92315,1,10,0:0:0:0:
281,152,92601,2,0,P|216:171|78:226,1,200,2|2,0:0|0:0,0:0:0:0:
13,175,93458,1,10,0:0:0:0:
18,85,93744,6,0,P|6:65|0:36,2,50,2|2|8,0:0|0:0|0:0,0:0:0:0:
62,92,94172,2,0,P|115:73|156:43,1,99.9999999999999,10|2,0:0|0:0,0:0:0:0:
188,73,94601,1,10,0:0:0:0:
265,27,94887,2,0,P|356:29|404:125,1,200,2|2,0:0|0:0,0:0:0:0:
332,170,95744,1,10,0:0:0:0:
403,226,96030,6,0,P|432:231|461:237,2,50,2|2|8,0:0|0:0|0:0,0:0:0:0:
372,259,96458,2,0,P|325:270|270:286,1,99.9999999999999,10|0,0:0|0:0,0:0:0:0:
231,270,96887,1,10,0:0:0:0:
143,291,97172,2,0,P|80:265|84:139,1,200,2|2,0:0|0:0,0:0:0:0:
147,90,98030,1,10,0:0:0:0:
235,115,98315,6,0,P|240:80|248:51,2,50,2|2|8,0:0|0:0|0:0,0:0:0:0:
218,157,98744,2,0,P|244:214|288:231,1,99.9999999999999,10|0,0:0|0:0,0:0:0:0:
319,221,99172,1,10,0:0:0:0:
321,311,99458,2,0,P|218:335|128:382,1,200,2|2,0:0|0:0,0:0:0:0:
46,360,100315,1,10,0:0:0:0:
36,270,100601,6,0,P|19:222|-1:171,2,99.9999999999999,4|8|2,3:0|0:0|1:0,0:0:0:0:
115,228,101458,1,10,3:2:0:0:
181,288,101744,2,0,P|239:298|293:320,1,99.9999999999999,8|4,0:0|3:0,0:0:0:0:
307,352,102172,1,0,0:0:0:0:
307,352,102315,2,0,P|323:291|341:246,1,99.9999999999999,8|4,0:0|3:0,0:0:0:0:
403,196,102887,6,0,P|451:216|511:238,2,99.9999999999999,4|8|2,3:0|0:0|1:0,0:0:0:0:
337,134,103744,1,8,3:2:0:0:
255,173,104030,2,0,P|226:164|203:153,1,50,8|6,0:0|0:3,0:0:0:0:
175,124,104315,2,0,P|146:133|123:144,1,50,10|4,0:0|3:0,0:0:0:0:
90,116,104601,2,0,P|70:153|47:209,1,99.9999999999999,4|4,3:0|3:0,0:0:0:0:
127,248,105172,6,0,P|180:261|236:270,2,99.9999999999999,4|8|2,3:0|0:0|1:0,0:0:0:0:
74,321,106030,1,10,3:2:0:0:
22,247,106315,2,0,P|15:194|6:133,1,99.9999999999999,8|4,0:0|3:0,0:0:0:0:
40,115,106744,1,0,0:0:0:0:
40,115,106887,2,0,P|89:128|155:140,1,99.9999999999999,8|4,0:0|3:0,0:0:0:0:
224,112,107458,6,0,P|213:68|199:5,2,99.9999999999999,4|8|2,3:0|0:0|1:0,0:0:0:0:
306,75,108315,1,8,3:2:0:0:
374,133,108601,2,0,P|412:120|437:109,2,50,8|6|10,0:0|3:0|0:0,0:0:0:0:
351,172,109030,1,4,3:0:0:0:
351,172,109172,2,0,P|344:220|339:281,1,99.9999999999999,4|6,3:0|3:0,0:0:0:0:
392,344,109744,6,0,P|298:303|190:274,1,200,4|0,3:0|0:0,0:0:0:0:
53,178,110887,2,0,P|47:112|86:77,1,99.9999999999999,2|0,3:0|0:0,0:0:0:0:
113,78,111315,1,2,0:0:0:0:
113,78,111458,2,0,P|119:51|128:26,2,50,2|0|2,3:0|0:0|3:0,0:0:0:0:
179,138,112030,6,0,B|233:135|270:101|270:101|281:49|339:36,1,200,4|0,3:0|0:0,0:0:0:0:
404,203,113172,2,0,P|451:185|502:174,2,99.9999999999999,2|2|2,3:0|0:0|3:0,0:0:0:0:
342,268,114030,1,2,0:0:0:0:
270,213,114315,6,0,P|247:117|227:6,1,200,4|4,3:0|3:0,0:0:0:0:
138,24,115172,1,2,0:0:0:0:
75,89,115458,2,0,P|98:185|118:296,1,200,4|4,3:0|3:0,0:0:0:0:
180,347,116315,1,2,0:0:0:0:
255,297,116601,6,0,P|314:310|356:318,1,99.9999999999999,4|4,3:0|3:0,0:0:0:0:
434,356,117172,2,0,B|468:326|468:326|471:265,1,99.9999999999999,4|4,3:0|3:0,0:0:0:0:
412,201,117744,2,0,P|423:154|440:93,2,99.9999999999999,6|6|4,3:0|3:0|3:0,0:0:0:0:
324,221,118601,1,2,0:0:0:0:
255,162,118887,6,0,B|225:115|163:109|163:109|127:60,1,150,6|6,3:0|3:0,0:0:0:0:
144,32,119458,2,0,P|98:49|48:62,1,99.9999999999999,10|6,0:0|3:0,0:0:0:0:
15,145,120030,2,0,P|10:170|2:203,2,50,2|0|4,0:0|0:0|3:0,0:0:0:0:
63,155,120458,1,2,0:0:0:0:
63,155,120601,2,0,P|115:175|166:193,1,99.9999999999999,8|6,0:0|3:0,0:0:0:0:
173,278,121172,6,0,B|230:253|230:253|262:172,1,150,6|6,3:0|3:0,0:0:0:0:
306,163,121744,2,0,P|293:119|277:59,1,99.9999999999999,10|6,0:0|0:3,0:0:0:0:
345,5,122315,2,0,P|375:13|411:21,1,50,2|0,0:0|0:0,0:0:0:0:
425,49,122601,2,0,P|416:77|408:105,1,50,6|2,3:0|0:0,0:0:0:0:
385,134,122887,2,0,P|439:154|492:173,1,99.9999999999999,10|2,0:0|0:0,0:0:0:0:
503,254,123458,6,0,P|452:266|379:349,1,150,6|6,3:0|3:0,0:0:0:0:
352,365,124030,2,0,P|334:304|316:258,1,99.9999999999999,10|6,0:0|3:3,0:0:0:0:
238,234,124601,2,0,P|245:193|252:176,2,50,2|0|4,0:0|0:0|3:0,0:0:0:0:
210,271,125030,1,2,0:0:0:0:
210,271,125172,2,0,P|159:285|97:304,1,99.9999999999999,8|6,0:0|3:0,0:0:0:0:
54,230,125744,6,0,P|37:181|19:120,1,99.9999999999999,4|2,3:0|0:0,0:0:0:0:
4,94,126172,1,4,3:0:0:0:
4,94,126315,2,0,P|47:81|101:43,1,99.9999999999999,10|4,0:0|3:0,0:0:0:0:
167,0,126887,2,0,P|214:21|238:76,1,99.9999999999999,4|4,3:0|3:0,0:0:0:0:
208,147,127458,1,4,1:2:0:0:
292,180,127744,1,4,1:2:0:0:
349,112,128030,6,0,P|415:140|437:214,1,150,6|6,3:0|3:0,0:0:0:0:
454,251,128601,2,0,P|405:260|348:274,1,99.9999999999999,10|6,0:0|3:0,0:0:0:0:
274,310,129172,2,0,P|284:336|293:369,2,50,2|0|4,0:0|0:0|3:0,0:0:0:0:
233,289,129601,1,2,0:0:0:0:
233,289,129744,2,0,P|241:237|252:178,1,99.9999999999999,8|6,0:0|3:0,0:0:0:0:
255,100,130315,6,0,P|190:76|108:45,1,150,6|6,3:0|3:0,0:0:0:0:
72,64,130887,2,0,B|48:83|48:83|55:156,1,99.9999999999999,10|6,0:0|3:0,0:0:0:0:
40,241,131458,2,0,B|97:234|97:234|154:183|154:183|234:211,1,200,4|10,3:0|0:0,0:0:0:0:
174,284,132315,1,2,0:0:0:0:
243,341,132601,6,0,P|322:355|400:367,1,150,4|4,3:0|3:0,0:0:0:0:
432,347,133172,2,0,B|449:311|449:311|424:252,1,99.9999999999999,10|6,0:0|3:0,0:0:0:0:
376,179,133744,2,0,P|351:172|319:166,2,50,2|0|4,0:0|0:0|3:0,0:0:0:0:
418,159,134172,1,2,0:0:0:0:
418,159,134315,2,0,P|427:103|436:49,1,99.9999999999999,8|6,0:0|3:0,0:0:0:0:
347,35,134887,6,0,P|297:23|250:12,2,99.9999999999999,6|8|0,3:0|0:0|0:0,0:0:0:0:
309,116,135744,1,2,0:0:0:0:
381,169,136030,2,0,B|416:198|416:198|408:259,1,99.9999999999999,4|10,3:0|0:0,0:0:0:0:
321,231,136601,1,4,3:0:0:0:
179,341,137172,6,0,B|146:323|146:323|144:237,1,99.9999999999999,6|2,3:0|0:0,0:0:0:0:
168,221,137601,1,6,3:0:0:0:
168,221,137744,2,0,L|225:199,2,50,10|2|2,0:0|0:0|0:1,0:0:0:0:
99,162,138315,2,0,P|74:154|48:148,2,50,6|0|4,3:0|0:0|3:0,0:0:0:0:
134,133,138744,1,2,0:0:0:0:
134,133,138887,2,0,P|151:80|160:29,1,99.9999999999999,8|6,0:0|3:0,0:0:0:0:
247,20,139458,6,0,P|317:41|358:127,1,150,6|6,3:0|3:0,0:0:0:0:
401,106,140030,2,0,P|392:159|386:209,1,99.9999999999999,10|6,0:0|3:0,0:0:0:0:
468,241,140601,2,0,P|478:268|493:302,1,50,2|0,0:0|0:0,0:0:0:0:
469,329,140887,2,0,P|436:342|409:356,1,50,6|2,3:0|0:0,0:0:0:0:
380,334,141172,2,0,P|335:309|275:275,1,99.9999999999999,10|2,0:0|0:0,0:0:0:0:
271,197,141744,6,0,P|214:216|111:256,1,150,6|6,3:0|3:0,0:0:0:0:
89,228,142315,2,0,B|59:207|59:207|70:136,1,99.9999999999999,10|6,0:0|3:0,0:0:0:0:
114,66,142887,2,0,P|96:61|55:47,2,50,2|0|4,0:0|0:0|3:0,0:0:0:0:
153,87,143315,1,2,0:0:0:0:
153,87,143458,2,0,P|207:62|259:46,1,99.9999999999999,8|6,0:0|3:0,0:0:0:0:
326,90,144030,6,0,P|361:42|400:38,1,99.9999999999999,4|2,3:0|0:0,0:0:0:0:
442,60,144458,1,4,3:0:0:0:
442,60,144601,2,0,P|434:118|431:181,1,99.9999999999999,10|4,0:0|3:0,0:0:0:0:
342,175,145172,2,0,P|286:187|253:227,1,99.9999999999999,4|4,3:0|3:0,0:0:0:0:
335,262,145744,1,4,1:2:0:0:
416,301,146030,1,4,1:2:0:0:
461,225,146315,6,0,P|471:165|484:58,1,150,4|6,3:0|3:0,0:0:0:0:
451,42,146887,2,0,P|405:34|348:18,1,99.9999999999999,10|6,0:0|3:0,0:0:0:0:
267,47,147458,2,0,P|243:39|206:21,2,50,2|0|4,0:0|0:0|3:0,0:0:0:0:
288,86,147887,1,2,0:0:0:0:
288,86,148030,2,0,P|277:132|268:195,1,99.9999999999999,8|6,0:0|3:0,0:0:0:0:
277,273,148601,6,0,P|235:280|131:346,1,150,6|6,3:0|3:0,0:0:0:0:
127,375,149172,2,0,P|71:363|22:354,1,99.9999999999999,10|4,0:0|3:0,0:0:0:0:
15,265,149744,2,0,P|39:193|81:53,1,200,4|10,3:0|0:0,0:0:0:0:
154,32,150601,1,2,0:0:0:0:
222,90,150887,6,0,B|249:117|256:153|256:153|211:172|207:231,1,150,4|4,3:0|3:0,0:0:0:0:
201,255,151458,2,0,P|268:276|304:286,1,99.9999999999999,10|6,0:0|3:0,0:0:0:0:
376,241,152030,2,0,P|384:261|400:295,2,50,2|0|4,0:0|0:0|3:0,0:0:0:0:
403,205,152458,1,2,0:0:0:0:
403,205,152601,2,0,P|414:146|449:107,1,99.9999999999999,8|6,0:0|3:0,0:0:0:0:
490,42,153172,6,0,P|448:26|389:14,1,99.9999999999999,4|2,3:0|0:0,0:0:0:0:
358,39,153601,1,4,3:0:0:0:
358,39,153744,2,0,P|307:73|272:103,1,99.9999999999999,10|4,0:0|3:0,0:0:0:0:
187,99,154315,2,0,P|132:77|86:42,2,99.9999999999999,4|10|4,3:0|0:0|3:0,0:0:0:0:
236,174,155172,1,2,0:1:0:0:
172,250,155458,6,0,P|158:304|154:365,1,110.000003356934,4|2,3:0|0:0,0:0:0:0:
55,369,156030,2,0,P|16:341|20:273,1,110.000003356934,8|4,0:0|3:0,0:0:0:0:
53,253,156458,1,0,0:0:0:0:
53,253,156601,2,0,P|41:196|23:133,1,110.000003356934,2|4,0:0|3:0,0:0:0:0:
91,70,157172,2,0,P|63:56|28:40,2,55.0000016784668,8|2|2,0:0|0:0|0:0,0:0:0:0:
174,123,157744,6,0,P|229:103|266:54,1,110.000003356934,4|2,3:0|0:0,0:0:0:0:
342,8,158315,2,0,P|388:31|456:58,1,110.000003356934,8|4,0:0|3:0,0:0:0:0:
496,55,158744,1,0,0:0:0:0:
496,55,158887,2,0,P|481:106|479:163,1,110.000003356934,2|4,0:0|3:0,0:0:0:0:
498,259,159458,1,10,0:0:0:0:
426,327,159744,1,2,0:0:0:0:
339,277,160030,6,0,P|287:251|235:239,1,110.000003356934,4|2,3:0|0:0,0:0:0:0:
189,152,160601,2,0,P|238:138|293:116,1,110.000003356934,8|4,0:0|3:0,0:0:0:0:
308,71,161030,1,0,0:0:0:0:
308,71,161172,2,0,P|363:86|414:110,1,110.000003356934,2|4,0:0|3:0,0:0:0:0:
495,161,161744,2,0,P|504:132|515:103,2,55.0000016784668,8|2|2,0:0|0:0|0:0,0:0:0:0:
417,222,162315,6,0,P|425:264|437:344,1,110.000003356934,4|2,3:0|0:0,0:0:0:0:
335,325,162887,2,0,P|326:353|322:391,2,55.0000016784668,8|2|4,0:0|0:0|3:0,0:0:0:0:
318,283,163315,1,0,0:0:0:0:
318,283,163458,2,0,P|253:273|194:262,1,110.000003356934,4|4,3:0|3:0,0:0:0:0:
161,352,164030,1,4,1:2:0:0:
70,311,164315,1,4,1:2:0:0:
106,219,164601,6,0,P|131:177|120:102,1,110.000003356934,4|2,3:0|0:0,0:0:0:0:
79,30,165172,2,0,P|142:28|212:22,1,110.000003356934,8|4,0:0|3:0,0:0:0:0:
238,50,165601,1,0,0:0:0:0:
238,50,165744,2,0,B|268:70|268:70|254:158,1,110.000003356934,2|4,0:0|3:0,0:0:0:0:
327,212,166315,2,0,P|359:218|393:233,2,55.0000016784668,8|2|2,0:0|0:0|0:0,0:0:0:0:
331,311,166887,6,0,P|283:319|220:343,1,110.000003356934,4|2,3:0|0:0,0:0:0:0:
131,309,167458,2,0,P|97:266|92:203,1,110.000003356934,8|4,0:0|3:0,0:0:0:0:
117,172,167887,1,0,0:0:0:0:
117,172,168030,2,0,P|169:157|227:135,1,110.000003356934,2|4,0:0|3:0,0:0:0:0:
186,44,168601,2,0,P|220:35|252:17,1,55.0000016784668,10|4,0:0|3:0,0:0:0:0:
287,30,168887,2,0,P|324:46|346:70,1,55.0000016784668,2|4,0:0|3:0,0:0:0:0:
384,59,169172,6,0,B|423:100|428:147|428:147|393:205,1,165.0000050354,4|4,3:0|3:0,0:0:0:0:
344,205,169744,2,0,P|371:245|398:304,1,110.000003356934,8|4,0:0|3:0,0:0:0:0:
327,371,170315,2,0,P|279:364|230:308,1,110.000003356934,2|4,0:0|3:0,0:0:0:0:
137,306,170887,2,0,P|144:335|157:366,2,55.0000016784668,8|2|2,0:0|0:0|0:0,0:0:0:0:
182,221,171458,6,0,P|191:163|205:98,1,110.000003356934,4|2,3:0|0:0,0:0:0:0:
296,82,172030,2,0,P|335:70|404:43,1,110.000003356934,8|4,0:0|3:0,0:0:0:0:
424,93,172458,1,0,0:0:0:0:
424,93,172601,6,0,P|470:134|483:183,2,99.9999999999999,4|10|4,3:0|0:0|3:0,0:0:0:0:
390,176,173458,1,2,0:0:0:0:
305,208,173744,6,0,P|277:200|250:192,2,50,2|2|0,0:0|0:0|0:0,0:0:0:0:
330,245,174172,2,0,P|306:291|300:356,1,99.9999999999999,2|2,0:0|0:0,0:0:0:0:
269,372,174601,1,2,0:0:0:0:
199,314,174887,2,0,P|103:292|56:197,1,200,2|2,0:0|0:0,0:0:0:0:
110,135,175744,1,2,0:0:0:0:
129,46,176030,6,0,P|106:41|62:31,2,50,2|2|0,0:0|0:0|0:0,0:0:0:0:
170,64,176458,2,0,P|210:51|271:31,1,99.9999999999999,2|2,0:0|0:0,0:0:0:0:
306,51,176887,1,2,0:0:0:0:
383,6,177172,2,0,P|425:33|459:174,1,200,2|2,0:0|0:0,0:0:0:0:
421,252,178030,1,2,0:0:0:0:
331,261,178315,6,0,P|323:285|319:314,2,50,2|2|0,0:0|0:0|0:0,0:0:0:0:
306,222,178744,2,0,P|288:163|277:111,1,99.9999999999999,2|2,0:0|0:0,0:0:0:0:
292,82,179172,1,2,0:0:0:0:
205,58,179458,2,0,P|162:83|136:231,1,200,2|2,0:0|0:0,0:0:0:0:
93,302,180315,1,2,0:0:0:0:
181,321,180601,6,0,P|169:342|160:374,2,50,2|2|0,0:0|0:0|0:0,0:0:0:0:
225,327,181029,2,0,P|239:258|248:223,1,99.9999999999999,2|2,0:0|0:0,0:0:0:0:
286,208,181458,1,2,0:0:0:0:
249,125,181744,2,0,P|327:101|447:69,1,200,2|2,0:0|0:0,0:0:0:0:
496,141,182601,1,2,0:0:0:0:
439,211,182887,6,0,P|425:193|396:166,2,50,2|2|0,0:0|0:0|0:0,0:0:0:0:
434,255,183315,2,0,P|402:288|373:354,1,99.9999999999999,2|2,0:0|0:0,0:0:0:0:
341,363,183744,1,2,0:0:0:0:
268,310,184030,2,0,B|242:279|242:279|268:208,2,99.9999999999999,2|2|2,0:0|0:0|0:0,0:0:0:0:
