osu file format v14

[General]
AudioFilename: audio.mp3
AudioLeadIn: 0
PreviewTime: 118887
Countdown: 0
SampleSet: Soft
StackLeniency: 0.6
Mode: 0
LetterboxInBreaks: 0
WidescreenStoryboard: 1

[Editor]
DistanceSpacing: 1
BeatDivisor: 4
GridSize: 32
TimelineZoom: 2.2

[Metadata]
Title:seedy try
TitleUnicode:seedy try
Artist:t+pazolite
ArtistUnicode:t+pazolite
Creator:Down
Version:Extra
Source:Zyon 載音
Tags:electronic hardcore j-core video game instrumental -kevincela- dynamix frequency blitz 3 the best of tpz 2 the best!!!
BeatmapID:3676677
BeatmapSetID:1793951

[Difficulty]
HPDrainRate:5
CircleSize:4.8
OverallDifficulty:8
ApproachRate:9.3
SliderMultiplier:1.8
SliderTickRate:1

[Events]
//Background and Video events
0,0,"bg.jpg",0,0
//Break Periods
2,82515,90904
//Storyboard Layer 0 (Background)
//Storyboard Layer 1 (Fail)
//Storyboard Layer 2 (Pass)
//Storyboard Layer 3 (Foreground)
//Storyboard Layer 4 (Overlay)
//Storyboard Sound Samples

[TimingPoints]
30,285.714285714286,4,2,0,50,1,0
30,-133.333333333333,4,2,0,50,0,0
9172,-100,4,2,0,60,0,0
9744,-83.3333333333333,4,2,0,60,0,0
10030,-100,4,2,0,60,0,0
12030,-83.3333333333333,4,2,0,60,0,0
12315,-100,4,2,0,60,0,0
14315,-83.3333333333333,4,2,0,60,0,0
14887,-100,4,2,0,60,0,0
16601,-83.3333333333333,4,2,0,60,0,0
16887,-100,4,2,0,60,0,0
18315,-117.647058823529,4,2,0,60,0,0
19458,-153.846153846153,4,2,0,60,0,0
20315,-153.846153846153,4,2,0,30,0,0
20458,-153.846153846153,4,2,0,60,0,0
20601,-117.647058823529,4,2,0,60,0,0
22887,-105.263157894737,4,2,0,60,0,0
25172,-133.333333333333,4,2,0,60,0,0
27172,-200,4,2,0,60,0,0
27458,-76.9230769230769,4,2,0,70,0,0
28030,-133.333333333333,4,2,0,70,0,0
29744,-76.9230769230769,4,2,0,70,0,0
30315,-133.333333333333,4,2,0,70,0,0
32030,-76.9230769230769,4,2,0,70,0,0
32601,-133.333333333333,4,2,0,70,0,0
35601,-58.8235294117647,4,2,0,70,0,0
36030,-71.4285714285714,4,2,0,70,0,0
36601,-76.9230769230769,4,2,0,70,0,0
37172,-133.333333333333,4,2,0,70,0,0
38887,-76.9230769230769,4,2,0,70,0,0
39458,-133.333333333333,4,2,0,70,0,0
41172,-285.714285714286,4,2,0,70,0,0
41530,-285.714285714286,4,2,0,5,0,0
41601,-285.714285714286,4,2,0,70,0,0
41744,-133.333333333333,4,2,0,70,0,0
43458,-100,4,2,0,70,0,0
44744,-100,4,2,0,50,0,0
45172,-200,4,2,0,70,0,0
45458,-200,4,2,0,40,0,0
45744,-66.6666666666667,4,2,0,70,0,0
46030,-76.9230769230769,4,2,0,70,0,0
46601,-66.6666666666667,4,2,0,70,0,0
46887,-76.9230769230769,4,2,0,70,0,0
48601,-133.333333333333,4,2,0,70,0,0
50315,-76.9230769230769,4,2,0,70,0,0
50887,-133.333333333333,4,2,0,70,0,0
53744,-58.8235294117647,4,2,0,70,0,0
54315,-71.4285714285714,4,2,0,70,0,0
54887,-76.9230769230769,4,2,0,70,0,0
55458,-133.333333333333,4,2,0,70,0,0
57172,-76.9230769230769,4,2,0,70,0,0
57744,-133.333333333333,4,2,0,70,0,0
59458,-285.714285714286,4,2,0,70,0,0
59815,-285.714285714286,4,2,0,5,0,0
59887,-285.714285714286,4,2,0,70,0,0
60030,-133.333333333333,4,2,0,70,0,0
62887,-76.9230769230769,4,2,0,50,0,0
63458,-76.9230769230769,4,2,0,70,0,0
63744,-76.9230769230769,4,2,0,30,0,0
64030,-76.9230769230769,4,2,0,70,0,1
65887,-66.6666666666667,4,2,0,70,0,1
66315,-133.333333333333,4,2,0,70,0,1
66601,-76.9230769230769,4,2,0,70,0,1
70458,-66.6666666666667,4,2,0,70,0,1
70887,-133.333333333333,4,2,0,70,0,1
71172,-76.9230769230769,4,2,0,70,0,1
72030,-58.8235294117647,4,2,0,70,0,1
72601,-66.6666666666667,4,2,0,70,0,1
73172,-76.9230769230769,4,2,0,70,0,1
75030,-66.6666666666667,4,2,0,70,0,1
75458,-133.333333333333,4,2,0,70,0,1
75744,-76.9230769230769,4,2,0,70,0,1
77744,-285.714285714286,4,2,0,70,0,1
78315,-76.9230769230769,4,2,0,70,0,1
79601,-66.6666666666667,4,2,0,70,0,1
80030,-133.333333333333,4,2,0,70,0,1
80315,-76.9230769230769,4,2,0,70,0,1
81172,-100,4,2,0,70,0,0
81315,-100,4,2,0,50,0,0
81744,-100,4,2,0,70,0,0
82030,-100,4,2,0,40,0,0
82315,-166.666666666667,4,2,0,45,0,0
91458,-133.333333333333,4,2,0,50,0,0
100315,-66.6666666666667,4,2,0,50,0,0
100600,-100,4,2,0,60,0,0
101172,-83.3333333333333,4,2,0,60,0,0
101458,-100,4,2,0,60,0,0
103458,-83.3333333333333,4,2,0,60,0,0
103743,-100,4,2,0,60,0,0
105743,-83.3333333333333,4,2,0,60,0,0
106315,-100,4,2,0,60,0,0
108029,-83.3333333333333,4,2,0,60,0,0
108315,-100,4,2,0,60,0,0
109743,-117.647058823529,4,2,0,60,0,0
110886,-153.846153846153,4,2,0,60,0,0
111744,-153.846153846153,4,2,0,30,0,0
111887,-153.846153846153,4,2,0,60,0,0
112029,-117.647058823529,4,2,0,60,0,0
114315,-105.263157894737,4,2,0,60,0,0
116600,-133.333333333333,4,2,0,60,0,0
118600,-200,4,2,0,60,0,0
118886,-76.9230769230769,4,2,0,70,0,0
119458,-133.333333333333,4,2,0,70,0,0
121172,-76.9230769230769,4,2,0,70,0,0
121744,-133.333333333333,4,2,0,70,0,0
123458,-76.9230769230769,4,2,0,70,0,0
124030,-133.333333333333,4,2,0,70,0,0
127029,-58.8235294117647,4,2,0,70,0,0
127458,-71.4285714285714,4,2,0,70,0,0
128029,-76.9230769230769,4,2,0,70,0,0
128601,-133.333333333333,4,2,0,70,0,0
130315,-76.9230769230769,4,2,0,70,0,0
130887,-133.333333333333,4,2,0,70,0,0
132600,-285.714285714286,4,2,0,70,0,0
132958,-285.714285714286,4,2,0,5,0,0
133029,-285.714285714286,4,2,0,70,0,0
133172,-133.333333333333,4,2,0,70,0,0
134886,-100,4,2,0,70,0,0
136172,-100,4,2,0,50,0,0
136600,-200,4,2,0,70,0,0
137172,-66.6666666666667,4,2,0,70,0,0
137458,-76.9230769230769,4,2,0,70,0,0
138029,-66.6666666666667,4,2,0,70,0,0
138315,-76.9230769230769,4,2,0,70,0,0
140030,-133.333333333333,4,2,0,70,0,0
141744,-76.9230769230769,4,2,0,70,0,0
142315,-133.333333333333,4,2,0,70,0,0
145315,-58.8235294117647,4,2,0,70,0,0
145743,-71.4285714285714,4,2,0,70,0,0
146315,-76.9230769230769,4,2,0,70,0,0
146887,-133.333333333333,4,2,0,70,0,0
148601,-76.9230769230769,4,2,0,70,0,0
149172,-133.333333333333,4,2,0,70,0,0
150886,-285.714285714286,4,2,0,70,0,0
151243,-285.714285714286,4,2,0,5,0,0
151315,-285.714285714286,4,2,0,70,0,0
151458,-133.333333333333,4,2,0,70,0,0
154458,-76.9230769230769,4,2,0,50,0,0
154887,-76.9230769230769,4,2,0,70,0,0
155172,-76.9230769230769,4,2,0,30,0,0
155458,-76.9230769230769,4,2,0,70,0,1
157315,-66.6666666666667,4,2,0,70,0,1
157744,-133.333333333333,4,2,0,70,0,1
158029,-76.9230769230769,4,2,0,70,0,1
161886,-66.6666666666667,4,2,0,70,0,1
162315,-133.333333333333,4,2,0,70,0,1
162600,-76.9230769230769,4,2,0,70,0,1
163458,-58.8235294117647,4,2,0,70,0,1
164029,-66.6666666666667,4,2,0,70,0,1
164600,-76.9230769230769,4,2,0,70,0,1
166458,-66.6666666666667,4,2,0,70,0,1
166887,-133.333333333333,4,2,0,70,0,1
167172,-76.9230769230769,4,2,0,70,0,1
169172,-285.714285714286,4,2,0,70,0,1
169743,-76.9230769230769,4,2,0,70,0,1
171029,-66.6666666666667,4,2,0,70,0,1
171458,-133.333333333333,4,2,0,70,0,1
171744,-76.9230769230769,4,2,0,70,0,1
172601,-100,4,2,0,70,0,0
172744,-100,4,2,0,40,0,0
173172,-100,4,2,0,70,0,0
173458,-100,4,2,0,40,0,0
173744,-133.333333333333,4,2,0,50,0,0
184315,-133.333333333333,4,2,0,40,0,0
184601,-133.333333333333,4,2,0,30,0,0

[Colours]
Combo1 : 253,0,6
Combo2 : 21,255,21
Combo3 : 40,56,255

[HitObjects]
365,58,30,5,2,0:0:0:0:
365,58,172,2,0,B|388:75|388:75|371:124,1,67.5000025749208,0|8,0:0|0:0,0:0:0:0:
445,166,458,2,0,P|401:156|299:140,1,135.000005149842,10|0,0:0|0:0,0:0:0:0:
208,71,887,1,10,0:0:0:0:
208,71,1030,1,0,0:0:0:0:
267,192,1172,5,2,0:0:0:0:
214,234,1315,1,0,0:0:0:0:
146,226,1458,1,10,0:0:0:0:
103,172,1601,1,10,0:0:0:0:
208,71,1744,6,0,P|171:63|134:53,2,67.5000025749208,2|0|10,0:0|0:0|0:0,0:0:0:0:
78,282,2315,5,2,0:0:0:0:
78,282,2458,2,0,B|55:274|55:274|30:223,1,67.5000025749208,2|8,0:0|0:0,0:0:0:0:
20,346,2744,2,0,P|94:320|156:298,1,135.000005149842,10|2,0:0|0:0,0:0:0:0:
284,357,3172,1,10,0:0:0:0:
284,357,3315,1,0,0:0:0:0:
184,244,3458,5,2,0:0:0:0:
161,182,3601,1,0,0:0:0:0:
282,138,3744,1,10,0:0:0:0:
305,200,3887,1,10,0:0:0:0:
235,191,4030,5,2,0:0:0:0:
364,155,4172,1,10,0:0:0:0:
364,155,4244,1,2,0:0:0:0:
364,155,4315,1,10,0:0:0:0:
439,252,4601,5,2,0:0:0:0:
439,252,4744,2,0,B|461:269|461:269|471:326,1,67.5000025749208,2|8,0:0|0:0,0:0:0:0:
389,324,5030,2,0,P|401:254|412:175,1,135.000005149842,10|0,0:0|0:0,0:0:0:0:
463,55,5458,1,10,0:0:0:0:
463,55,5601,1,0,0:0:0:0:
370,133,5744,5,2,0:0:0:0:
317,91,5887,1,0,0:0:0:0:
249,99,6030,1,10,0:0:0:0:
206,153,6173,1,10,0:0:0:0:
410,190,6315,6,0,P|425:149|441:118,2,67.5000025749208,2|0|10,0:0|0:0|0:0,0:0:0:0:
230,306,6887,5,2,0:0:0:0:
230,306,7030,2,0,B|249:323|249:323|239:364,1,67.5000025749208,2|8,0:0|0:0,0:0:0:0:
131,294,7315,2,0,P|190:285|245:205,1,135.000005149842,10|0,0:0|0:0,0:0:0:0:
200,113,7744,1,10,0:0:0:0:
200,113,7887,1,0,0:0:0:0:
304,207,8030,5,2,0:0:0:0:
348,86,8173,1,0,0:0:0:0:
410,109,8316,1,10,0:0:0:0:
366,230,8459,1,10,0:0:0:0:
357,156,8601,5,2,0:0:0:0:
238,231,8744,1,10,0:0:0:0:
238,231,8815,1,2,0:0:0:0:
238,231,8887,1,10,0:0:0:0:
74,108,9172,6,0,P|68:76|53:18,1,90,4|0,3:0|0:0,0:0:0:0:
11,210,9458,1,8,0:0:0:0:
78,229,9601,1,0,0:0:0:0:
142,129,9744,5,2,1:0:0:0:
215,113,9887,1,2,0:0:0:0:
215,113,9958,1,2,0:0:0:0:
215,113,10030,1,10,3:2:0:0:
235,180,10172,1,4,3:0:0:0:
352,233,10315,5,8,0:0:0:0:
421,249,10458,1,4,3:0:0:0:
336,302,10601,1,4,3:0:0:0:
405,318,10744,1,0,0:0:0:0:
510,195,10887,6,0,P|502:157|490:102,2,90,8|2|4,0:0|0:0|3:0,0:0:0:0:
510,195,11458,6,0,P|464:189|429:139,1,90,4|0,3:0|0:0,0:0:0:0:
361,104,11744,1,8,0:0:0:0:
380,40,11887,1,0,0:0:0:0:
263,128,12030,5,2,1:0:0:0:
198,155,12172,1,0,0:0:0:0:
170,91,12315,1,8,3:2:0:0:
235,64,12457,1,4,3:0:0:0:
380,209,12601,5,8,0:0:0:0:
331,338,12744,1,6,0:3:0:0:
331,338,12815,1,6,0:3:0:0:
331,338,12887,1,10,0:0:0:0:
380,209,13030,1,4,3:0:0:0:
210,232,13172,6,0,P|174:229|93:216,1,90,4|8,0:3|0:0,0:0:0:0:
120,221,13387,1,8,0:0:0:0:
120,221,13458,2,0,P|102:266|155:313,1,90,4|8,3:0|0:0,0:0:0:0:
314,185,13744,6,0,P|304:148|298:95,1,90,4|0,3:0|0:0,0:0:0:0:
178,21,14030,1,8,0:0:0:0:
156,84,14172,1,0,0:0:0:0:
120,221,14315,5,2,1:0:0:0:
47,237,14458,1,2,0:0:0:0:
47,237,14529,1,2,0:0:0:0:
47,237,14601,1,10,3:2:0:0:
27,170,14743,1,4,3:0:0:0:
156,84,14887,5,8,0:0:0:0:
225,98,15030,1,4,3:0:0:0:
294,112,15172,1,4,3:0:0:0:
363,126,15315,1,0,0:0:0:0:
404,253,15458,6,0,P|454:240|497:229,2,90,8|2|4,0:0|0:0|3:0,0:0:0:0:
404,253,16030,6,0,P|369:287|373:338,1,90,4|0,3:0|0:0,0:0:0:0:
211,324,16315,1,8,0:0:0:0:
187,261,16458,1,0,0:0:0:0:
254,94,16601,5,2,1:0:0:0:
322,108,16744,1,0,0:0:0:0:
305,174,16887,1,8,3:2:0:0:
237,160,17030,1,4,3:0:0:0:
120,244,17172,5,8,0:0:0:0:
69,111,17315,1,6,3:0:0:0:
69,111,17387,1,6,3:0:0:0:
69,111,17458,1,10,0:0:0:0:
120,244,17601,1,4,3:0:0:0:
194,87,17744,6,0,P|182:28|147:9,1,90,4|12,0:3|0:3,0:0:0:0:
161,12,17958,1,2,0:0:0:0:
161,12,18030,2,0,P|96:33|39:40,1,90,4|8,3:0|0:0,0:0:0:0:
231,130,18315,6,0,B|242:187|242:187|270:203|270:203|282:275,2,153.000002918243,4|0|0,3:0|0:0|0:0,0:0:0:0:
289,82,19030,1,2,0:0:0:0:
289,82,19172,1,2,0:0:0:0:
289,82,19315,1,2,0:0:0:0:
455,196,19458,6,0,B|495:177|495:177|513:106,1,116.999994644165,2|0,0:3|0:0,0:0:0:0:
405,66,19887,1,2,0:0:0:0:
405,66,19958,1,2,0:0:0:0:
405,66,20030,1,2,3:0:0:0:
471,46,20172,1,0,0:0:0:0:
372,126,20315,2,0,L|365:197,1,58.4999973220826,2|2,3:0|0:0,0:0:0:0:
232,289,20601,6,0,B|221:232|221:232|193:216|193:216|181:144,2,153.000002918243,4|0|0,3:0|0:0|0:0,0:0:0:0:
193,350,21315,1,2,0:0:0:0:
193,350,21458,1,2,0:0:0:0:
193,350,21601,1,2,0:0:0:0:
57,311,21744,6,0,B|23:303|23:303|7:244,1,76.5000014591217,2|0,3:0|0:0,0:0:0:0:
8,126,22030,2,0,L|90:138,1,76.5000014591217,2|0,0:0|0:0,0:0:0:0:
83,137,22244,1,2,0:0:0:0:
83,137,22315,1,2,3:0:0:0:
335,58,22601,1,2,0:0:0:0:
335,58,22672,1,2,0:0:0:0:
335,58,22744,1,2,0:0:0:0:
335,58,22815,1,2,0:0:0:0:
335,58,22887,6,0,P|386:67|434:72,1,85.4999977169037,4|2,3:0|0:0,0:0:0:0:
419,70,23101,1,2,0:0:0:0:
419,70,23172,1,2,0:0:0:0:
478,31,23315,1,2,0:0:0:0:
356,130,23458,5,4,3:0:0:0:
370,195,23601,1,2,0:0:0:0:
302,212,23744,1,2,0:0:0:0:
288,147,23887,1,2,0:0:0:0:
177,58,24030,6,0,P|126:67|78:72,1,85.4999977169037,4|2,3:0|0:0,0:0:0:0:
92,70,24244,1,2,0:0:0:0:
92,70,24315,1,2,0:0:0:0:
34,31,24458,1,2,0:0:0:0:
156,130,24601,5,4,3:0:0:0:
142,195,24744,1,2,0:0:0:0:
210,212,24887,1,2,0:0:0:0:
224,147,25030,1,2,0:0:0:0:
256,267,25172,6,0,L|256:382,1,101.250003862381,4|0,3:0|0:0,0:0:0:0:
256,368,25458,2,0,L|332:354,1,67.5000025749208,4|0,3:0|0:0,0:0:0:0:
446,273,25744,5,4,3:0:0:0:
473,239,25839,5,4,3:0:0:0:
472,195,25934,5,4,3:0:0:0:
446,160,26030,5,4,3:0:0:0:
200,54,26315,5,4,3:0:0:0:
200,54,26387,1,4,3:0:0:0:
200,54,26458,1,4,3:0:0:0:
200,54,26530,1,4,3:0:0:0:
200,54,26601,1,4,3:0:0:0:
271,68,26744,1,4,3:0:0:0:
111,172,26887,5,4,3:0:0:0:
111,172,27172,2,0,L|104:155,6,11.25,2|0|0|0|0|0|0,0:0|0:0|0:0|0:0|0:0|0:0|0:0,0:0:0:0:
162,210,27458,6,0,P|107:205|5:194,1,116.999994644165,6|0,3:0|0:0,0:0:0:0:
3,108,27744,1,2,0:0:0:0:
41,53,27887,1,6,3:0:0:0:
154,62,28030,6,0,P|210:54|189:5,1,101.250003862381,10|0,0:0|0:0,0:0:0:0:
208,20,28315,2,0,P|152:28|173:77,1,101.250003862381,6|0,3:0|0:0,0:0:0:0:
236,159,28601,5,2,0:0:0:0:
304,140,28744,1,0,0:0:0:0:
323,206,28887,1,4,3:0:0:0:
255,225,29030,1,2,0:0:0:0:
166,323,29172,5,8,0:0:0:0:
36,302,29315,1,2,0:0:0:0:
36,302,29387,1,2,0:0:0:0:
36,302,29458,1,6,3:0:0:0:
166,323,29601,1,2,0:0:0:0:
5,190,29744,6,0,P|71:176|147:164,1,116.999994644165,6|0,3:0|0:0,0:0:0:0:
221,108,30030,1,2,0:0:0:0:
243,45,30172,1,6,3:0:0:0:
383,147,30315,6,0,B|342:178|342:178|376:230,1,101.250003862381,10|0,0:0|0:0,0:0:0:0:
369,219,30601,2,0,B|410:188|410:188|376:136,1,101.250003862381,6|0,0:3|0:0,0:0:0:0:
492,110,30887,5,2,0:0:0:0:
506,45,31030,1,0,0:0:0:0:
426,93,31172,1,6,3:0:0:0:
440,28,31315,1,2,0:0:0:0:
290,78,31458,5,10,0:0:0:0:
272,143,31601,1,4,3:0:0:0:
254,208,31744,1,2,0:0:0:0:
497,358,32030,6,0,P|426:352|409:296,1,116.999994644165,6|0,3:0|0:0,0:0:0:0:
473,225,32315,1,2,0:0:0:0:
455,161,32458,1,6,3:0:0:0:
279,203,32601,6,0,P|240:236|271:268,1,101.250003862381,10|0,0:0|0:0,0:0:0:0:
265,267,32887,2,0,P|303:233|272:201,1,101.250003862381,6|0,3:3|0:0,0:0:0:0:
124,212,33172,5,2,0:0:0:0:
60,189,33315,1,0,0:0:0:0:
31,128,33458,1,4,3:0:0:0:
53,65,33601,1,2,0:0:0:0:
198,113,33744,5,8,0:0:0:0:
347,75,33887,1,2,0:0:0:0:
347,75,33958,1,2,0:0:0:0:
347,75,34030,1,6,3:0:0:0:
198,113,34172,1,2,0:0:0:0:
124,212,34315,5,4,3:0:0:0:
99,314,34458,1,2,0:0:0:0:
99,314,34601,1,2,0:0:0:0:
193,236,34744,5,4,3:0:0:0:
168,338,34887,1,10,0:0:0:0:
168,338,35030,1,2,0:0:0:0:
238,358,35172,5,4,3:0:0:0:
263,256,35315,1,2,0:0:0:0:
358,188,35458,5,4,3:0:0:0:
463,178,35601,2,0,L|472:218,2,38.2500007295609,0|0|0,3:0|3:0|3:0,0:0:0:0:
454,112,35744,5,4,3:0:0:0:
349,122,35887,2,0,L|340:82,2,38.2500007295609,0|0|0,3:0|3:0|3:0,0:0:0:0:
358,188,36030,6,0,P|251:187|205:93,1,188.999994232178,4|0,1:2|0:0,0:0:0:0:
207,126,36315,1,4,1:2:0:0:
0,0,36601,6,0,P|24:29|42:121,1,116.999994644165,6|0,3:0|0:0,0:0:0:0:
167,204,36887,1,2,0:0:0:0:
144,269,37030,1,6,3:0:0:0:
37,356,37172,6,0,P|-11:328|22:295,1,101.250003862381,10|0,0:0|0:0,0:0:0:0:
5,299,37458,2,0,P|53:327|20:360,1,101.250003862381,6|0,3:0|0:0,0:0:0:0:
155,335,37744,5,2,0:0:0:0:
222,322,37887,1,0,0:0:0:0:
207,256,38030,1,4,3:0:0:0:
140,269,38173,1,2,0:0:0:0:
258,143,38315,5,8,0:0:0:0:
402,181,38458,1,2,0:0:0:0:
402,181,38530,1,2,0:0:0:0:
402,181,38601,1,6,3:0:0:0:
258,143,38744,1,2,0:0:0:0:
140,269,38887,6,0,P|128:223|102:146,1,116.999994644165,6|0,3:0|0:0,0:0:0:0:
201,13,39172,1,2,0:0:0:0:
180,75,39315,1,6,3:0:0:0:
45,123,39458,6,0,B|3:92|3:92|31:53,1,101.250003862381,10|0,0:0|0:0,0:0:0:0:
31,53,39744,2,0,B|72:83|72:83|44:122,1,101.250003862381,6|0,3:0|0:0,0:0:0:0:
193,197,40030,5,4,3:0:0:0:
226,226,40125,5,0,0:0:0:0:
270,218,40220,5,2,0:0:0:0:
285,175,40315,5,4,3:0:0:0:
320,147,40410,5,0,0:0:0:0:
364,157,40506,5,2,0:0:0:0:
390,193,40601,6,0,L|375:279,2,67.5000025749208,10|4|2,0:0|3:0|0:0,0:0:0:0:
240,13,41172,6,0,L|248:99,1,78.7499975967408,4|0,3:0|0:0,0:0:0:0:
247,91,41601,1,4,3:0:0:0:
164,192,41744,6,0,P|140:171|179:128,1,101.250003862381,10|0,0:0|0:0,0:0:0:0:
176,128,42030,2,0,P|199:148|160:191,1,101.250003862381,6|0,3:0|0:0,0:0:0:0:
324,212,42315,5,2,0:0:0:0:
366,128,42458,1,0,0:0:0:0:
300,149,42601,1,4,3:0:0:0:
390,191,42744,1,2,0:0:0:0:
244,320,42887,5,8,0:0:0:0:
106,287,43030,1,2,0:0:0:0:
106,287,43101,1,2,0:0:0:0:
106,287,43172,1,6,3:0:0:0:
244,320,43315,1,2,0:0:0:0:
335,221,43458,5,6,3:0:0:0:
335,221,43601,2,0,P|348:165|364:113,1,90,2|8,0:0|0:0,0:0:0:0:
407,13,43887,2,0,P|376:89|262:102,1,180,2|2,0:0|0:0,0:0:0:0:
185,72,44315,1,2,0:0:0:0:
185,72,44458,1,2,0:0:0:0:
221,128,44601,5,4,3:0:0:0:
163,171,44744,1,10,0:0:0:0:
163,171,44815,1,10,0:0:0:0:
163,171,44887,1,10,0:0:0:0:
207,227,45030,1,8,0:0:0:0:
353,288,45172,5,4,3:0:0:0:
353,288,45458,2,0,L|347:306,6,11.25,2|0|0|0|0|0|0,0:0|0:0|0:0|0:0|0:0|0:0|0:0,0:0:0:0:
418,267,45744,5,6,3:0:0:0:
412,143,45887,1,2,0:0:0:0:
441,204,46030,5,2,0:0:0:0:
348,120,46172,1,6,3:0:0:0:
210,187,46315,5,10,0:0:0:0:
210,187,46387,1,2,0:0:0:0:
210,187,46458,1,2,0:0:0:0:
210,187,46530,1,2,0:0:0:0:
210,187,46601,2,0,P|201:116|174:39,1,135.000005149842,2|0,0:1|0:0,0:0:0:0:
363,8,46887,5,6,3:0:0:0:
429,30,47030,1,0,0:0:0:0:
404,93,47172,1,4,3:0:0:0:
338,71,47315,1,2,0:0:0:0:
282,193,47458,5,8,0:0:0:0:
321,325,47601,1,2,0:0:0:0:
321,325,47672,1,2,0:0:0:0:
321,325,47744,1,6,3:0:0:0:
282,193,47887,1,2,0:0:0:0:
154,334,48030,6,0,P|140:291|105:225,1,116.999994644165,6|0,3:0|0:0,0:0:0:0:
17,138,48315,1,2,0:0:0:0:
81,111,48458,1,6,3:0:0:0:
191,21,48601,6,0,B|241:31|241:31|232:88,1,101.250003862381,10|0,0:0|0:0,0:0:0:0:
233,80,48887,2,0,B|183:70|183:70|192:13,1,101.250003862381,6|0,3:0|0:0,0:0:0:0:
301,155,49172,5,2,0:0:0:0:
368,140,49315,1,0,0:0:0:0:
385,206,49458,1,6,3:0:0:0:
452,191,49601,1,2,0:0:0:0:
512,50,49744,5,10,0:0:0:0:
447,32,49887,1,4,3:0:0:0:
382,14,50030,1,2,0:0:0:0:
163,126,50315,6,0,P|190:188|195:268,1,116.999994644165,6|0,3:0|0:0,0:0:0:0:
285,336,50601,1,2,0:0:0:0:
353,352,50744,1,6,3:0:0:0:
477,272,50887,6,0,P|512:265|493:208,1,101.250003862381,10|0,0:0|0:0,0:0:0:0:
503,211,51172,2,0,P|468:218|487:275,1,101.250003862381,6|0,3:0|0:0,0:0:0:0:
385,163,51458,5,2,0:0:0:0:
406,100,51601,1,0,0:0:0:0:
318,138,51744,1,4,3:0:0:0:
339,75,51887,1,2,0:0:0:0:
219,238,52030,5,8,0:0:0:0:
82,205,52172,1,2,0:0:0:0:
82,205,52244,1,2,0:0:0:0:
82,205,52315,1,6,3:0:0:0:
219,238,52458,1,2,0:0:0:0:
318,138,52601,5,4,3:0:0:0:
420,113,52744,1,2,0:0:0:0:
420,113,52887,1,2,0:0:0:0:
342,207,53030,5,4,3:0:0:0:
444,182,53173,1,10,0:0:0:0:
444,182,53316,1,2,0:0:0:0:
464,252,53458,5,4,3:0:0:0:
362,277,53601,1,2,0:0:0:0:
219,238,53744,5,4,3:0:0:0:
209,343,53887,2,0,L|249:352,2,38.2500007295609,0|0|0,3:0|3:0|3:0,0:0:0:0:
143,334,54030,5,4,3:0:0:0:
153,229,54173,2,0,L|113:220,2,38.2500007295609,0|0|0,3:0|3:0|3:0,0:0:0:0:
219,238,54315,6,0,P|296:201|286:92,1,188.999994232178,4|0,1:2|0:0,0:0:0:0:
297,106,54601,1,4,1:2:0:0:
19,9,54887,6,0,P|42:70|43:144,1,116.999994644165,4|0,3:0|0:0,0:0:0:0:
157,187,55172,1,2,0:0:0:0:
95,215,55315,1,6,3:0:0:0:
34,318,55458,6,0,P|25:359|82:358,1,101.250003862381,10|0,0:0|0:0,0:0:0:0:
72,368,55744,2,0,P|81:327|24:328,1,101.250003862381,6|0,3:0|0:0,0:0:0:0:
28,200,56030,5,2,0:0:0:0:
95,215,56172,1,0,0:0:0:0:
111,149,56315,1,4,3:0:0:0:
44,134,56457,1,2,0:0:0:0:
187,31,56601,5,8,0:0:0:0:
233,189,56744,1,2,0:0:0:0:
233,189,56815,1,2,0:0:0:0:
233,189,56887,1,6,3:0:0:0:
187,31,57030,1,2,0:0:0:0:
361,95,57172,6,0,P|410:86|494:72,1,116.999994644165,6|0,3:0|0:0,0:0:0:0:
497,198,57458,1,2,0:0:0:0:
440,161,57601,1,6,3:0:0:0:
339,253,57744,6,0,B|306:292|306:292|351:330,1,101.250003862381,10|0,0:0|0:0,0:0:0:0:
344,324,58030,2,0,B|377:285|377:285|332:247,1,101.250003862381,4|0,3:0|0:0,0:0:0:0:
251,211,58315,5,4,3:0:0:0:
222,178,58410,5,0,0:0:0:0:
230,134,58505,5,2,0:0:0:0:
273,119,58600,5,4,3:0:0:0:
301,84,58695,5,0,0:0:0:0:
291,40,58791,5,2,0:0:0:0:
255,14,58886,6,0,L|169:29,2,67.5000025749208,10|4|2,0:0|3:0|0:0,0:0:0:0:
261,283,59458,6,0,P|251:320|247:368,1,78.7499975967408,4|0,3:0|0:0,0:0:0:0:
247,360,59887,1,4,3:0:0:0:
130,295,60030,6,0,P|84:268|105:234,1,101.250003862381,10|0,0:0|0:0,0:0:0:0:
101,235,60315,2,0,P|147:262|126:296,1,101.250003862381,6|0,3:0|0:0,0:0:0:0:
1,254,60601,5,2,0:0:0:0:
12,188,60744,1,0,0:0:0:0:
23,122,60887,1,4,3:0:0:0:
34,56,61030,1,2,0:0:0:0:
156,113,61172,5,8,0:0:0:0:
305,77,61315,1,2,0:0:0:0:
305,77,61387,1,2,0:0:0:0:
305,77,61458,1,6,3:0:0:0:
156,113,61601,1,2,0:0:0:0:
244,235,61744,5,4,3:0:0:0:
214,357,61887,1,2,0:0:0:0:
214,357,62030,1,2,0:0:0:0:
172,210,62172,5,4,3:0:0:0:
142,332,62315,1,10,0:0:0:0:
142,332,62458,1,2,0:0:0:0:
74,310,62601,5,4,3:0:0:0:
104,188,62744,1,2,0:0:0:0:
216,113,62887,5,4,3:0:0:0:
287,145,63030,1,10,0:0:0:0:
287,145,63101,1,10,0:0:0:0:
287,145,63172,1,10,0:0:0:0:
313,82,63315,1,8,0:0:0:0:
470,15,63458,5,4,3:0:0:0:
470,15,63744,1,2,0:1:0:0:
470,15,64030,5,4,3:0:0:0:
408,46,64172,1,0,0:0:0:0:
386,111,64315,1,2,0:0:0:0:
416,172,64458,1,4,3:0:0:0:
333,263,64601,5,8,0:0:0:0:
264,247,64744,2,0,L|243:181,1,58.4999973220826,2|0,0:0|0:0,0:0:0:0:
163,125,64887,5,4,3:0:0:0:
163,125,65030,1,0,0:0:0:0:
178,10,65172,5,2,0:0:0:0:
209,72,65314,1,0,0:0:0:0:
274,94,65457,1,4,3:0:0:0:
335,64,65600,1,0,0:0:0:0:
425,122,65744,5,8,0:0:0:0:
499,138,65887,1,2,0:0:0:0:
499,138,65958,1,2,3:0:0:0:
499,138,66030,2,0,L|485:213,1,67.5000025749208,2|0,0:0|0:0,0:0:0:0:
425,122,66172,2,0,L|411:197,1,67.5000025749208,2|0,0:0|0:0,0:0:0:0:
327,323,66315,6,0,P|312:281|277:217,1,101.250003862381,6|0,3:0|0:0,0:0:0:0:
285,230,66601,1,2,0:0:0:0:
218,221,66744,1,4,3:0:0:0:
224,57,66887,5,8,0:0:0:0:
158,39,67030,2,0,L|138:121,1,58.4999973220826,2|0,0:0|0:0,0:0:0:0:
48,156,67172,5,4,3:0:0:0:
48,156,67315,1,0,0:0:0:0:
116,235,67458,5,2,0:0:0:0:
51,264,67601,1,0,0:0:0:0:
147,298,67744,1,4,3:0:0:0:
82,327,67887,1,0,0:0:0:0:
242,345,68030,5,10,0:0:0:0:
311,360,68172,2,0,L|330:285,1,58.4999973220826,4|0,3:0|0:0,0:0:0:0:
350,196,68315,5,2,0:0:0:0:
281,211,68457,2,0,L|262:136,1,58.4999973220826,4|0,3:0|0:0,0:0:0:0:
240,39,68601,5,4,3:0:0:0:
303,11,68743,1,0,0:0:0:0:
367,36,68886,1,2,0:0:0:0:
394,98,69029,1,4,3:0:0:0:
350,196,69172,5,8,0:0:0:0:
281,211,69315,2,0,L|305:286,1,58.4999973220826,2|0,0:0|0:0,0:0:0:0:
236,364,69458,5,4,3:0:0:0:
236,364,69601,1,0,0:0:0:0:
118,361,69744,5,2,0:0:0:0:
146,298,69886,1,0,0:0:0:0:
121,234,70029,1,4,3:0:0:0:
59,207,70172,1,0,0:0:0:0:
108,116,70315,5,8,0:0:0:0:
89,47,70458,1,2,0:0:0:0:
89,47,70530,1,2,3:0:0:0:
89,47,70601,2,0,L|172:21,1,67.5000025749208,2|0,0:0|0:0,0:0:0:0:
108,116,70744,2,0,L|191:90,1,67.5000025749208,2|0,0:0|0:0,0:0:0:0:
306,41,70887,6,0,P|353:59|403:77,1,101.250003862381,4|0,3:0|0:0,0:0:0:0:
400,76,71172,1,2,0:0:0:0:
468,55,71315,1,4,3:0:0:0:
389,192,71458,5,8,0:0:0:0:
319,178,71601,2,0,L|305:249,1,58.4999973220826,2|0,0:0|0:0,0:0:0:0:
214,340,71744,5,4,3:0:0:0:
214,340,71887,1,0,0:0:0:0:
102,235,72030,5,4,3:0:0:0:
128,106,72172,2,0,L|76:90,2,38.2500007295609,0|0|0,3:0|3:0|3:0,0:0:0:0:
198,124,72315,5,4,3:0:0:0:
172,253,72457,2,0,L|224:269,2,38.2500007295609,0|0|0,3:0|3:0|3:0,0:0:0:0:
102,235,72601,6,0,P|214:211|343:181,1,202.500007724762,4|0,1:2|0:0,0:0:0:0:
299,191,72887,1,4,1:2:0:0:
473,361,73172,5,4,3:0:0:0:
404,353,73314,1,0,0:0:0:0:
361,299,73457,1,2,0:0:0:0:
368,231,73600,1,4,3:0:0:0:
494,132,73744,5,8,0:0:0:0:
512,66,73887,2,0,L|432:48,1,58.4999973220826,2|0,0:0|0:0,0:0:0:0:
325,109,74030,5,4,3:0:0:0:
325,109,74172,1,0,0:0:0:0:
211,127,74315,5,2,0:0:0:0:
273,158,74457,1,0,0:0:0:0:
295,223,74600,1,4,3:0:0:0:
265,284,74743,1,0,0:0:0:0:
142,329,74887,5,8,0:0:0:0:
67,321,75030,1,2,0:0:0:0:
67,321,75101,1,2,3:0:0:0:
67,321,75172,2,0,L|51:235,1,67.5000025749208,2|0,0:0|0:0,0:0:0:0:
142,329,75315,2,0,L|126:243,1,67.5000025749208,2|0,0:0|0:0,0:0:0:0:
0,157,75458,6,0,P|57:144|119:111,1,101.250003862381,4|0,3:0|0:0,0:0:0:0:
95,126,75744,1,2,0:0:0:0:
128,67,75887,1,4,3:0:0:0:
262,11,76030,5,8,0:0:0:0:
326,37,76172,2,0,L|307:111,1,58.4999973220826,2|0,0:0|0:0,0:0:0:0:
226,188,76315,5,4,3:0:0:0:
226,188,76458,1,0,0:0:0:0:
380,263,76601,5,2,0:0:0:0:
317,294,76744,1,0,0:0:0:0:
287,230,76887,1,4,3:0:0:0:
350,199,77030,1,0,0:0:0:0:
433,70,77172,5,10,0:0:0:0:
382,22,77315,2,0,L|301:43,1,58.4999973220826,4|0,3:0|0:0,0:0:0:0:
277,140,77458,5,2,0:0:0:0:
226,188,77601,2,0,L|145:167,1,58.4999973220826,4|0,3:0|0:0,0:0:0:0:
78,25,77744,6,0,P|120:35|146:66,1,78.7499975967408,4|0,3:0|0:0,0:0:0:0:
143,60,78172,1,4,3:0:0:0:
85,165,78315,5,8,0:0:0:0:
20,188,78458,2,0,L|31:252,1,58.4999973220826,2|0,0:0|0:0,0:0:0:0:
91,342,78601,5,4,3:0:0:0:
91,342,78744,1,0,0:0:0:0:
214,270,78887,5,2,0:0:0:0:
300,224,79030,1,0,0:0:0:0:
280,292,79172,1,4,3:0:0:0:
234,202,79315,1,0,0:0:0:0:
428,156,79458,5,8,0:0:0:0:
493,130,79601,1,2,0:0:0:0:
493,130,79672,1,2,3:0:0:0:
493,130,79744,2,0,L|459:52,1,67.5000025749208,2|0,0:0|0:0,0:0:0:0:
428,156,79887,2,0,L|394:78,1,67.5000025749208,2|0,0:0|0:0,0:0:0:0:
308,6,80030,6,0,P|285:41|297:109,1,101.250003862381,4|0,3:0|0:0,0:0:0:0:
290,98,80315,1,2,0:0:0:0:
236,142,80458,1,4,3:0:0:0:
144,280,80601,5,8,0:0:0:0:
79,266,80744,2,0,L|59:207,1,58.4999973220826,2|0,0:0|0:0,0:0:0:0:
134,70,80887,5,4,3:0:0:0:
134,70,81030,1,0,0:0:0:0:
236,142,81172,5,4,3:0:0:0:
307,166,81315,1,10,0:0:0:0:
307,166,81387,1,10,0:0:0:0:
307,166,81458,1,10,0:0:0:0:
280,235,81601,1,8,0:0:0:0:
144,280,81744,5,4,3:0:0:0:
144,280,82030,2,0,L|134:314,6,22.5,2|0|0|0|0|0|0,0:0|0:0|0:0|0:0|0:0|0:0|0:0,0:0:0:0:
206,311,82315,5,2,0:0:0:0:
206,311,91458,5,4,3:0:0:0:
206,311,91601,2,0,B|213:290|213:290|186:251,1,67.5000025749208,0|8,0:0|0:0,0:0:0:0:
115,188,91887,2,0,P|201:211|270:219,1,135.000005149842,10|0,0:0|0:0,0:0:0:0:
378,291,92315,1,10,0:0:0:0:
378,291,92458,1,0,0:0:0:0:
405,169,92601,5,2,0:0:0:0:
345,136,92744,1,0,0:0:0:0:
279,156,92887,1,10,0:0:0:0:
246,217,93030,1,10,0:0:0:0:
140,123,93172,6,0,P|111:119|74:112,2,67.5000025749208,2|0|10,0:0|0:0|0:0,0:0:0:0:
80,283,93744,5,2,0:0:0:0:
80,283,93887,2,0,P|69:312|58:377,1,67.5000025749208,2|8,0:0|0:0,0:0:0:0:
150,274,94172,2,0,P|65:239|45:187,1,135.000005149842,10|2,0:0|0:0,0:0:0:0:
89,82,94601,1,10,0:0:0:0:
89,82,94744,1,0,0:0:0:0:
202,148,94887,5,2,0:0:0:0:
179,210,95030,1,0,0:0:0:0:
300,254,95173,1,10,0:0:0:0:
323,192,95316,1,10,0:0:0:0:
252,199,95458,5,2,0:0:0:0:
391,158,95601,1,10,0:0:0:0:
391,158,95672,1,2,0:0:0:0:
391,158,95744,1,10,0:0:0:0:
494,23,96030,5,2,0:0:0:0:
494,23,96172,2,0,P|456:34|419:46,1,67.5000025749208,2|8,0:0|0:0,0:0:0:0:
455,127,96458,2,0,P|435:91|338:37,1,135.000005149842,10|0,0:0|0:0,0:0:0:0:
231,14,96887,1,10,0:0:0:0:
231,14,97030,1,0,0:0:0:0:
107,122,97172,5,2,0:0:0:0:
167,155,97315,1,0,0:0:0:0:
233,135,97458,1,10,0:0:0:0:
266,74,97601,1,10,0:0:0:0:
360,176,97744,6,0,P|371:203|382:245,2,67.5000025749208,2|0|10,0:0|0:0|0:0,0:0:0:0:
85,336,98315,5,2,0:0:0:0:
85,336,98458,2,0,P|94:297|103:251,1,67.5000025749208,2|8,0:0|0:0,0:0:0:0:
189,282,98744,2,0,B|118:258|118:258|91:177,1,135.000005149842,10|0,0:0|0:0,0:0:0:0:
23,121,99172,1,10,0:0:0:0:
23,121,99315,1,0,0:0:0:0:
109,35,99458,5,2,0:0:0:0:
175,15,99601,1,0,0:0:0:0:
212,129,99744,1,10,0:0:0:0:
146,149,99887,1,10,0:0:0:0:
158,83,100030,5,2,0:0:0:0:
291,124,100172,1,10,0:0:0:0:
291,124,100244,1,2,0:0:0:0:
291,124,100315,1,10,0:0:0:0:
473,2,100601,6,0,P|489:43|504:114,1,90,4|0,3:0|0:0,0:0:0:0:
500,209,100887,1,8,0:0:0:0:
435,190,101030,1,0,0:0:0:0:
367,320,101172,5,2,1:0:0:0:
300,297,101315,1,2,0:0:0:0:
300,297,101387,1,2,0:0:0:0:
300,297,101458,1,10,3:2:0:0:
271,359,101601,1,4,3:0:0:0:
138,296,101744,5,8,0:0:0:0:
75,328,101887,1,4,3:0:0:0:
105,232,102030,1,4,3:0:0:0:
42,264,102173,1,0,0:0:0:0:
229,200,102315,6,0,P|237:153|248:92,2,90,8|2|4,0:0|0:0|3:0,0:0:0:0:
229,200,102887,6,0,P|172:188|146:136,1,90,4|0,3:0|0:0,0:0:0:0:
28,132,103172,1,8,0:0:0:0:
53,68,103315,1,0,0:0:0:0:
96,203,103458,5,2,1:0:0:0:
76,268,103601,1,0,0:0:0:0:
141,288,103744,1,8,3:2:0:0:
121,353,103887,1,4,3:0:0:0:
275,323,104030,5,8,0:0:0:0:
421,290,104172,1,6,0:3:0:0:
421,290,104244,1,6,0:3:0:0:
421,290,104315,1,10,0:0:0:0:
275,323,104458,1,4,3:0:0:0:
334,194,104601,6,0,P|342:141|363:94,1,90,4|8,3:0|0:0,0:0:0:0:
355,107,104815,1,8,0:0:0:0:
355,107,104887,2,0,P|326:76|275:65,1,90,4|8,3:0|0:0,0:0:0:0:
105,4,105172,6,0,P|127:65|130:91,1,90,4|0,3:0|0:0,0:0:0:0:
110,222,105458,1,8,0:0:0:0:
177,203,105601,1,0,0:0:0:0:
281,64,105744,5,2,1:0:0:0:
351,37,105887,1,2,0:0:0:0:
351,37,105958,1,2,0:0:0:0:
351,37,106030,1,10,3:2:0:0:
384,99,106172,1,4,3:0:0:0:
492,197,106315,5,8,0:0:0:0:
427,225,106458,1,4,3:0:0:0:
362,253,106601,1,4,3:0:0:0:
297,281,106744,1,0,0:0:0:0:
167,186,106887,6,0,P|123:177|64:161,2,90,8|2|4,0:0|0:0|3:0,0:0:0:0:
167,186,107458,6,0,P|195:223|188:288,1,90,4|0,3:0|0:0,0:0:0:0:
122,328,107744,1,8,0:0:0:0:
57,354,107887,1,0,0:0:0:0:
0,243,108030,5,2,1:0:0:0:
59,206,108172,1,0,0:0:0:0:
74,138,108315,1,8,3:2:0:0:
36,79,108458,1,4,3:0:0:0:
163,15,108601,5,8,0:0:0:0:
306,39,108744,1,6,3:0:0:0:
306,39,108815,1,6,3:0:0:0:
306,39,108887,1,10,0:0:0:0:
163,15,109030,1,4,3:0:0:0:
222,126,109172,6,0,P|199:160|194:231,1,90,4|8,3:0|0:0,0:0:0:0:
190,207,109387,1,10,0:0:0:0:
190,207,109458,2,0,P|230:242|251:317,1,90,6|8,3:0|0:0,0:0:0:0:
361,359,109744,6,0,B|419:346|419:346|437:314|437:314|495:302,2,153.000002918243,4|0|0,3:0|0:0|0:0,0:0:0:0:
321,302,110458,1,2,0:0:0:0:
321,302,110601,1,2,0:0:0:0:
321,302,110744,1,2,0:0:0:0:
413,183,110887,6,0,P|442:148|402:86,1,116.999994644165,2|0,3:0|0:0,0:0:0:0:
326,19,111315,1,2,0:0:0:0:
326,19,111387,1,2,0:0:0:0:
326,19,111458,1,2,3:0:0:0:
343,86,111601,1,0,0:0:0:0:
213,14,111744,2,0,P|207:50|202:98,1,58.4999973220826,2|2,3:0|0:0,0:0:0:0:
157,198,112030,6,0,B|99:185|99:185|81:153|81:153|23:141,2,153.000002918243,4|0|0,3:0|0:0|0:0,0:0:0:0:
214,152,112744,1,2,0:0:0:0:
214,152,112887,1,2,0:0:0:0:
214,152,113030,1,2,0:0:0:0:
363,240,113172,6,0,P|352:277|345:336,1,76.5000014591217,2|0,3:0|0:0,0:0:0:0:
204,313,113458,2,0,P|158:290|155:262,1,76.5000014591217,2|0,0:0|0:0,0:0:0:0:
154,269,113672,1,2,0:0:0:0:
154,269,113744,1,2,3:0:0:0:
313,145,114030,1,2,0:0:0:0:
313,145,114101,1,2,0:0:0:0:
313,145,114172,1,2,0:0:0:0:
313,145,114244,1,2,0:0:0:0:
313,145,114315,6,0,P|317:104|334:34,1,85.4999977169037,4|2,3:0|0:0,0:0:0:0:
325,60,114530,1,2,0:0:0:0:
325,60,114601,1,2,0:0:0:0:
385,28,114744,1,2,0:0:0:0:
445,192,114887,5,4,3:0:0:0:
431,257,115030,1,2,0:0:0:0:
363,240,115173,1,2,0:0:0:0:
377,175,115316,1,2,0:0:0:0:
199,145,115458,6,0,P|195:104|178:34,1,85.4999977169037,4|2,3:0|0:0,0:0:0:0:
187,60,115673,1,2,0:0:0:0:
187,60,115744,1,2,0:0:0:0:
127,28,115887,1,2,0:0:0:0:
67,192,116030,5,4,3:0:0:0:
81,257,116173,1,2,0:0:0:0:
149,240,116316,1,2,0:0:0:0:
135,175,116459,1,2,0:0:0:0:
256,117,116601,6,0,L|256:2,1,101.250003862381,4|0,3:0|0:0,0:0:0:0:
256,16,116887,2,0,L|332:30,1,67.5000025749208,4|0,3:0|0:0,0:0:0:0:
446,111,117173,5,4,3:0:0:0:
474,145,117268,5,4,3:0:0:0:
472,189,117363,5,4,3:0:0:0:
446,224,117459,5,4,3:0:0:0:
263,329,117744,5,6,3:0:0:0:
263,329,117815,1,6,3:0:0:0:
263,329,117887,1,6,3:0:0:0:
263,329,117958,1,6,3:0:0:0:
263,329,118030,1,6,3:0:0:0:
333,312,118172,1,4,3:0:0:0:
141,229,118315,5,4,3:0:0:0:
141,229,118601,2,0,L|138:244,6,11.25,2|0|0|0|0|0|0,0:0|0:0|0:0|0:0|0:0|0:0|0:0,0:0:0:0:
208,214,118887,6,0,P|161:202|118:130,1,116.999994644165,6|0,3:0|0:0,0:0:0:0:
184,68,119172,1,2,0:0:0:0:
149,12,119315,1,6,3:0:0:0:
340,32,119458,6,0,P|312:59|365:89,1,101.250003862381,10|0,0:0|0:0,0:0:0:0:
347,96,119744,2,0,P|375:69|322:39,1,101.250003862381,6|0,3:0|0:0,0:0:0:0:
270,181,120030,5,2,0:0:0:0:
339,201,120172,1,0,0:0:0:0:
251,247,120315,1,4,3:0:0:0:
320,267,120457,1,2,0:0:0:0:
169,336,120601,5,8,0:0:0:0:
104,206,120744,1,2,0:0:0:0:
104,206,120815,1,2,0:0:0:0:
104,206,120887,1,6,3:0:0:0:
169,336,121030,1,2,0:0:0:0:
252,248,121172,6,0,B|225:224|225:224|242:131,1,116.999994644165,6|0,3:0|0:0,0:0:0:0:
317,50,121458,1,2,0:0:0:0:
377,19,121601,1,6,3:0:0:0:
469,89,121744,6,0,B|515:105|515:105|498:162,1,101.250003862381,10|0,0:0|0:0,0:0:0:0:
499,155,122030,2,0,B|453:139|453:139|470:82,1,101.250003862381,6|0,0:3|0:0,0:0:0:0:
380,201,122315,5,2,0:0:0:0:
310,187,122458,1,0,0:0:0:0:
325,120,122601,1,6,3:0:0:0:
255,106,122744,1,2,0:0:0:0:
109,174,122887,5,10,0:0:0:0:
123,244,123030,1,4,3:0:0:0:
137,314,123173,1,2,0:0:0:0:
423,373,123458,6,0,P|359:358|340:287,1,116.999994644165,6|0,3:0|0:0,0:0:0:0:
391,209,123744,1,2,0:0:0:0:
456,185,123887,1,6,3:0:0:0:
311,45,124030,6,0,P|271:55|296:109,1,101.250003862381,10|0,0:0|0:0,0:0:0:0:
280,104,124315,2,0,P|320:94|295:40,1,101.250003862381,6|0,3:3|0:0,0:0:0:0:
149,26,124601,5,2,0:0:0:0:
84,51,124744,1,0,0:0:0:0:
111,116,124887,1,4,3:0:0:0:
176,91,125030,1,2,0:0:0:0:
292,179,125172,5,8,0:0:0:0:
270,320,125315,1,2,0:0:0:0:
270,320,125387,1,2,0:0:0:0:
270,320,125458,1,6,3:0:0:0:
292,179,125601,1,2,0:0:0:0:
444,55,125744,5,4,3:0:0:0:
475,175,125887,1,2,0:0:0:0:
475,175,126030,1,2,0:0:0:0:
375,86,126172,5,4,3:0:0:0:
406,206,126315,1,10,0:0:0:0:
406,206,126458,1,2,0:0:0:0:
337,235,126601,5,4,3:0:0:0:
306,115,126744,1,2,0:0:0:0:
159,43,126887,5,4,3:0:0:0:
138,173,127030,2,0,L|184:182,2,38.2500007295609,0|0|0,3:0|3:0|3:0,0:0:0:0:
68,159,127172,5,4,3:0:0:0:
89,29,127315,2,0,L|43:20,2,38.2500007295609,0|0|0,3:0|3:0|3:0,0:0:0:0:
159,43,127458,6,0,P|79:64|-3:145,1,188.999994232178,4|0,1:2|0:0,0:0:0:0:
2,135,127744,1,4,1:2:0:0:
229,381,128030,6,0,P|235:316|261:271,1,116.999994644165,6|0,3:0|0:0,0:0:0:0:
356,200,128315,1,2,0:0:0:0:
376,135,128458,1,6,3:0:0:0:
232,23,128601,6,0,B|192:57|192:57|230:101,1,101.250003862381,10|0,0:0|0:0,0:0:0:0:
223,93,128887,2,0,B|263:59|263:59|225:15,1,101.250003862381,6|0,3:0|0:0,0:0:0:0:
125,151,129172,5,2,0:0:0:0:
84,239,129315,1,0,0:0:0:0:
60,174,129458,1,4,3:0:0:0:
149,216,129601,1,2,0:0:0:0:
272,293,129744,5,8,0:0:0:0:
324,158,129887,1,2,0:0:0:0:
324,158,129958,1,2,0:0:0:0:
324,158,130030,1,6,3:0:0:0:
272,293,130172,1,2,0:0:0:0:
451,375,130315,6,0,P|464:297|477:253,1,116.999994644165,6|0,3:0|0:0,0:0:0:0:
512,117,130601,1,2,0:0:0:0:
447,145,130744,1,6,3:0:0:0:
258,101,130887,6,0,P|217:85|245:33,1,101.250003862381,10|0,0:0|0:0,0:0:0:0:
229,37,131172,2,0,P|270:53|242:105,1,101.250003862381,6|0,3:0|0:0,0:0:0:0:
172,148,131458,5,4,3:0:0:0:
143,181,131553,5,0,0:0:0:0:
151,225,131648,5,2,0:0:0:0:
194,240,131743,5,4,3:0:0:0:
222,274,131838,5,0,0:0:0:0:
212,319,131934,5,2,0:0:0:0:
176,345,132029,6,0,L|90:330,2,67.5000025749208,10|4|2,0:0|3:0|0:0,0:0:0:0:
445,250,132601,6,0,P|446:214|459:167,1,78.7499975967408,4|0,3:0|0:0,0:0:0:0:
456,172,133030,1,4,3:0:0:0:
346,79,133172,6,0,B|294:64|294:64|304:7,1,101.250003862381,10|0,0:0|0:0,0:0:0:0:
302,16,133458,2,0,B|353:30|353:30|343:87,1,101.250003862381,6|0,3:0|0:0,0:0:0:0:
251,157,133744,5,2,0:0:0:0:
186,180,133887,1,0,0:0:0:0:
156,242,134030,1,4,3:0:0:0:
179,308,134172,1,2,0:0:0:0:
35,364,134315,5,8,0:0:0:0:
60,239,134458,1,2,0:0:0:0:
60,239,134530,1,2,0:0:0:0:
60,239,134601,1,6,3:0:0:0:
35,364,134744,1,2,0:0:0:0:
156,242,134887,5,6,3:0:0:0:
156,242,135030,2,0,P|163:180|169:135,1,90,2|8,0:0|0:0,0:0:0:0:
306,104,135315,2,0,P|317:193|346:298,1,180,2|2,0:0|0:0,0:0:0:0:
245,362,135744,1,2,0:0:0:0:
245,362,135887,1,2,0:0:0:0:
270,299,136030,5,4,3:0:0:0:
200,286,136172,1,10,0:0:0:0:
200,286,136244,1,10,0:0:0:0:
200,286,136315,1,10,0:0:0:0:
216,216,136458,1,8,0:0:0:0:
381,144,136601,5,4,3:0:0:0:
381,144,136887,2,0,L|386:164,6,11.25,2|0|0|0|0|0|0,0:0|0:0|0:0|0:0|0:0|0:0|0:0,0:0:0:0:
318,107,137172,5,6,3:0:0:0:
225,191,137314,1,2,0:0:0:0:
254,130,137457,5,2,0:0:0:0:
248,254,137600,1,6,3:0:0:0:
427,329,137744,5,10,0:0:0:0:
427,329,137815,1,2,0:0:0:0:
427,329,137887,1,2,0:0:0:0:
427,329,137958,1,2,0:0:0:0:
427,329,138030,2,0,P|439:256|477:192,1,135.000005149842,2|0,0:1|0:0,0:0:0:0:
441,35,138315,5,6,3:0:0:0:
378,60,138458,1,0,0:0:0:0:
405,123,138601,1,4,3:0:0:0:
342,148,138744,1,2,0:0:0:0:
232,239,138887,5,8,0:0:0:0:
176,107,139030,1,2,0:0:0:0:
176,107,139101,1,2,0:0:0:0:
176,107,139172,1,6,3:0:0:0:
232,239,139315,1,2,0:0:0:0:
107,327,139458,6,0,P|52:303|32:250,1,116.999994644165,6|0,3:0|0:0,0:0:0:0:
109,131,139744,1,2,0:0:0:0:
78,70,139887,1,6,3:0:0:0:
238,11,140030,6,0,P|287:21|255:68,1,101.250003862381,10|0,0:0|0:0,0:0:0:0:
278,61,140315,2,0,P|229:51|261:4,1,101.250003862381,6|0,3:0|0:0,0:0:0:0:
360,127,140601,5,2,0:0:0:0:
340,194,140744,1,0,0:0:0:0:
428,151,140887,1,6,3:0:0:0:
408,218,141030,1,2,0:0:0:0:
276,308,141172,5,10,0:0:0:0:
212,332,141315,1,4,3:0:0:0:
148,356,141458,1,2,0:0:0:0:
15,121,141744,6,0,P|59:130|92:207,1,116.999994644165,6|0,3:0|0:0,0:0:0:0:
191,267,142030,1,2,0:0:0:0:
128,291,142172,1,6,3:0:0:0:
265,177,142315,6,0,B|242:133|242:133|287:109,1,101.250003862381,10|0,0:0|0:0,0:0:0:0:
287,108,142601,2,0,B|310:152|310:152|265:176,1,101.250003862381,6|0,3:0|0:0,0:0:0:0:
185,32,142887,5,2,0:0:0:0:
117,16,143030,1,0,0:0:0:0:
57,52,143172,1,4,3:0:0:0:
40,119,143315,1,2,0:0:0:0:
138,220,143458,5,8,0:0:0:0:
286,255,143601,1,2,0:0:0:0:
286,255,143672,1,2,0:0:0:0:
286,255,143744,1,6,3:0:0:0:
138,220,143887,1,2,0:0:0:0:
262,125,144030,5,4,3:0:0:0:
309,13,144172,1,2,0:0:0:0:
309,13,144315,1,2,0:0:0:0:
334,148,144458,5,4,3:0:0:0:
381,36,144600,1,10,0:0:0:0:
381,36,144744,1,2,0:0:0:0:
450,57,144887,5,4,3:0:0:0:
403,169,145030,1,2,0:0:0:0:
509,283,145172,5,4,3:0:0:0:
374,331,145315,2,0,L|393:380,2,38.2500007295609,0|0|0,3:0|3:0|3:0,0:0:0:0:
352,268,145458,5,4,3:0:0:0:
486,217,145601,2,0,L|466:167,2,38.2500007295609,0|0|0,3:0|3:0|3:0,0:0:0:0:
509,283,145744,6,0,P|416:212|332:201,1,188.999994232178,4|0,1:2|0:0,0:0:0:0:
347,200,146030,1,4,1:2:0:0:
457,0,146315,6,0,P|497:28|495:96,1,116.999994644165,4|0,3:0|0:0,0:0:0:0:
368,108,146601,1,2,0:0:0:0:
342,46,146744,1,6,3:0:0:0:
245,116,146887,6,0,P|193:125|203:170,1,101.250003862381,10|0,0:0|0:0,0:0:0:0:
196,163,147172,2,0,P|248:154|238:109,1,101.250003862381,6|0,3:0|0:0,0:0:0:0:
138,15,147458,5,2,0:0:0:0:
76,45,147601,1,0,0:0:0:0:
100,109,147744,1,4,3:0:0:0:
38,139,147887,1,2,0:0:0:0:
142,238,148030,5,8,0:0:0:0:
10,298,148172,1,2,0:0:0:0:
10,298,148244,1,2,0:0:0:0:
10,298,148315,1,6,3:0:0:0:
142,238,148458,1,2,0:0:0:0:
280,360,148601,6,0,P|291:298|304:230,1,116.999994644165,6|0,3:0|0:0,0:0:0:0:
278,119,148887,1,2,0:0:0:0:
249,59,149030,1,6,3:0:0:0:
391,8,149172,6,0,B|439:21|439:21|430:79,1,101.250003862381,10|0,0:0|0:0,0:0:0:0:
431,71,149458,2,0,B|383:58|383:58|392:0,1,101.250003862381,4|0,3:0|0:0,0:0:0:0:
338,131,149744,5,4,3:0:0:0:
305,160,149839,5,0,0:0:0:0:
261,152,149934,5,2,0:0:0:0:
246,109,150029,5,4,3:0:0:0:
212,81,150124,5,0,0:0:0:0:
167,91,150220,5,2,0:0:0:0:
141,127,150315,6,0,L|156:213,2,67.5000025749208,10|4|2,0:0|3:0|0:0,0:0:0:0:
415,260,150887,6,0,P|400:302|398:338,1,78.7499975967408,4|0,3:0|0:0,0:0:0:0:
397,335,151315,1,4,3:0:0:0:
244,357,151458,6,0,P|199:347|220:295,1,101.250003862381,10|0,0:0|0:0,0:0:0:0:
206,301,151744,2,0,P|251:311|230:363,1,101.250003862381,6|0,3:0|0:0,0:0:0:0:
114,321,152030,5,2,0:0:0:0:
90,259,152172,1,0,0:0:0:0:
49,344,152315,1,4,3:0:0:0:
25,282,152457,1,2,0:0:0:0:
117,109,152601,5,8,0:0:0:0:
0,59,152744,1,2,0:0:0:0:
0,59,152815,1,2,0:0:0:0:
0,59,152887,1,6,3:0:0:0:
117,109,153030,1,2,0:0:0:0:
205,38,153172,5,4,3:0:0:0:
345,10,153315,1,2,0:0:0:0:
345,10,153458,1,2,0:0:0:0:
225,106,153601,5,4,3:0:0:0:
365,78,153744,1,10,0:0:0:0:
365,78,153887,1,2,0:0:0:0:
379,145,154030,5,4,3:0:0:0:
239,173,154173,1,2,0:0:0:0:
312,273,154315,5,4,3:0:0:0:
386,294,154458,1,10,0:0:0:0:
386,294,154530,1,10,0:0:0:0:
386,294,154601,1,10,0:0:0:0:
371,362,154744,1,8,0:0:0:0:
503,285,154887,5,4,3:0:0:0:
503,285,155172,1,2,0:1:0:0:
503,285,155458,5,4,3:0:0:0:
441,254,155600,1,0,0:0:0:0:
419,189,155743,1,2,0:0:0:0:
449,128,155886,1,4,3:0:0:0:
359,31,156030,5,8,0:0:0:0:
294,53,156172,2,0,L|277:137,1,58.4999973220826,2|0,0:0|0:0,0:0:0:0:
211,187,156315,5,4,3:0:0:0:
211,187,156458,1,0,0:0:0:0:
193,300,156601,5,2,0:0:0:0:
162,238,156743,1,0,0:0:0:0:
97,216,156886,1,4,3:0:0:0:
36,246,157029,1,0,0:0:0:0:
14,114,157172,5,8,0:0:0:0:
87,140,157315,1,2,0:0:0:0:
87,140,157387,1,2,3:0:0:0:
87,140,157458,2,0,L|105:62,1,67.5000025749208,2|0,0:0|0:0,0:0:0:0:
14,114,157601,2,0,L|32:36,1,67.5000025749208,2|0,0:0|0:0,0:0:0:0:
225,8,157744,6,0,P|274:37|269:98,1,101.250003862381,4|0,3:0|0:0,0:0:0:0:
279,77,158030,1,2,0:0:0:0:
247,139,158172,1,4,3:0:0:0:
323,240,158315,5,8,0:0:0:0:
296,301,158458,2,0,L|235:288,1,58.4999973220826,2|0,0:0|0:0,0:0:0:0:
142,208,158601,5,4,3:0:0:0:
142,208,158744,1,0,0:0:0:0:
8,311,158887,5,2,0:0:0:0:
39,372,159030,1,0,0:0:0:0:
103,340,159172,1,4,3:0:0:0:
72,279,159315,1,0,0:0:0:0:
111,143,159458,5,10,0:0:0:0:
141,83,159601,2,0,L|210:97,1,58.4999973220826,4|0,3:0|0:0,0:0:0:0:
303,114,159744,5,2,0:0:0:0:
333,174,159887,2,0,L|402:160,1,58.4999973220826,4|0,3:0|0:0,0:0:0:0:
503,144,160030,5,4,3:0:0:0:
507,74,160172,1,0,0:0:0:0:
461,23,160315,1,2,0:0:0:0:
394,18,160458,1,4,3:0:0:0:
303,114,160601,5,8,0:0:0:0:
246,151,160744,2,0,L|271:232,1,58.4999973220826,2|0,0:0|0:0,0:0:0:0:
374,301,160887,5,4,3:0:0:0:
374,301,161030,1,0,0:0:0:0:
236,269,161172,5,2,0:0:0:0:
178,307,161314,1,0,0:0:0:0:
110,293,161457,1,4,3:0:0:0:
73,238,161600,1,0,0:0:0:0:
109,79,161744,5,8,0:0:0:0:
41,103,161887,1,2,0:0:0:0:
41,103,161958,1,2,3:0:0:0:
41,103,162030,2,0,L|62:177,1,67.5000025749208,2|0,0:0|0:0,0:0:0:0:
109,79,162172,2,0,L|130:153,1,67.5000025749208,2|0,0:0|0:0,0:0:0:0:
165,248,162315,6,0,P|126:263|90:333,1,101.250003862381,4|0,3:0|0:0,0:0:0:0:
92,310,162601,1,2,0:0:0:0:
36,355,162744,1,4,3:0:0:0:
209,371,162887,5,8,0:0:0:0:
262,330,163030,2,0,L|275:258,1,58.4999973220826,2|0,0:0|0:0,0:0:0:0:
229,156,163172,5,4,3:0:0:0:
229,156,163315,1,0,0:0:0:0:
326,56,163458,5,4,3:0:0:0:
455,82,163600,2,0,L|471:30,2,38.2500007295609,0|0|0,3:0|3:0|3:0,0:0:0:0:
437,152,163743,5,4,3:0:0:0:
308,126,163887,2,0,L|292:177,2,38.2500007295609,0|0|0,3:0|3:0|3:0,0:0:0:0:
326,56,164030,6,0,P|233:76|194:192,1,202.500007724762,4|0,1:2|0:0,0:0:0:0:
190,166,164315,1,4,1:2:0:0:
475,314,164601,5,4,3:0:0:0:
417,352,164743,1,0,0:0:0:0:
349,338,164886,1,2,0:0:0:0:
312,283,165029,1,4,3:0:0:0:
428,166,165172,5,8,0:0:0:0:
386,112,165315,2,0,L|294:129,1,58.4999973220826,2|0,0:0|0:0,0:0:0:0:
210,209,165458,5,4,3:0:0:0:
210,209,165601,1,0,0:0:0:0:
235,309,165744,5,2,0:0:0:0:
177,271,165886,1,0,0:0:0:0:
109,285,166029,1,4,3:0:0:0:
72,340,166172,1,0,0:0:0:0:
0,214,166315,5,8,0:0:0:0:
3,144,166458,1,2,0:0:0:0:
3,144,166530,1,2,3:0:0:0:
3,144,166601,2,0,L|86:127,1,67.5000025749208,2|0,0:0|0:0,0:0:0:0:
0,214,166744,2,0,L|83:197,1,67.5000025749208,2|0,0:0|0:0,0:0:0:0:
144,54,166887,6,0,P|193:68|259:93,1,101.250003862381,4|0,3:0|0:0,0:0:0:0:
240,85,167172,1,2,0:0:0:0:
307,61,167315,1,4,3:0:0:0:
416,139,167458,5,8,0:0:0:0:
373,191,167601,2,0,L|295:174,1,58.4999973220826,2|0,0:0|0:0,0:0:0:0:
177,255,167744,5,4,3:0:0:0:
177,255,167887,1,0,0:0:0:0:
303,367,168030,5,2,0:0:0:0:
370,344,168172,1,0,0:0:0:0:
274,303,168315,1,4,3:0:0:0:
341,280,168457,1,0,0:0:0:0:
512,260,168601,5,10,0:0:0:0:
446,239,168744,2,0,L|429:166,1,58.4999973220826,4|0,3:0|0:0,0:0:0:0:
401,42,168887,5,2,0:0:0:0:
380,108,169030,2,0,L|307:125,1,58.4999973220826,4|0,3:0|0:0,0:0:0:0:
195,219,169172,6,0,P|155:218|120:189,1,78.7499975967408,4|0,3:0|0:0,0:0:0:0:
124,195,169601,1,4,3:0:0:0:
168,74,169744,5,8,0:0:0:0:
125,22,169887,2,0,L|46:45,1,58.4999973220826,2|0,0:0|0:0,0:0:0:0:
4,159,170030,5,4,3:0:0:0:
4,159,170172,1,0,0:0:0:0:
95,265,170315,5,2,0:0:0:0:
65,357,170458,1,0,0:0:0:0:
128,326,170601,1,4,3:0:0:0:
32,296,170744,1,0,0:0:0:0:
238,269,170887,5,8,0:0:0:0:
305,237,171030,1,2,0:0:0:0:
305,237,171101,1,2,3:0:0:0:
305,237,171172,2,0,L|275:169,1,67.5000025749208,2|0,0:0|0:0,0:0:0:0:
238,269,171315,2,0,L|208:201,1,67.5000025749208,2|0,0:0|0:0,0:0:0:0:
106,151,171458,6,0,P|111:107|163:56,1,101.250003862381,4|0,3:0|0:0,0:0:0:0:
146,64,171744,1,2,0:0:0:0:
184,10,171887,1,4,3:0:0:0:
315,53,172030,5,8,0:0:0:0:
353,109,172172,2,0,L|433:89,1,58.4999973220826,2|0,0:0|0:0,0:0:0:0:
506,23,172315,5,4,3:0:0:0:
506,23,172458,1,0,0:0:0:0:
458,148,172601,5,4,3:0:0:0:
487,219,172744,1,10,0:0:0:0:
487,219,172815,1,10,0:0:0:0:
487,219,172887,1,10,0:0:0:0:
418,245,173030,1,8,0:0:0:0:
256,188,173172,5,4,3:0:0:0:
256,188,173458,2,0,L|253:213,6,22.5,2|0|0|0|0|0|0,0:0|0:0|0:0|0:0|0:0|0:0|0:0,0:0:0:0:
319,151,173744,5,2,0:0:0:0:
319,151,173887,2,0,B|331:131|331:131|305:84,1,67.5000025749208,2|0,0:0|0:0,0:0:0:0:
165,23,174172,2,0,P|182:100|195:162,1,135.000005149842,2|2,0:0|0:0,0:0:0:0:
141,275,174601,1,2,0:0:0:0:
141,275,174744,1,0,0:0:0:0:
264,310,174887,5,2,0:0:0:0:
317,352,175030,1,0,0:0:0:0:
385,344,175173,1,2,0:0:0:0:
428,290,175316,1,2,0:0:0:0:
328,151,175458,6,0,L|239:169,2,67.5000025749208,2|0|2,0:0|0:0|0:0,0:0:0:0:
488,335,176030,5,2,0:0:0:0:
488,335,176172,2,0,L|403:310,1,67.5000025749208,2|0,0:0|0:0,0:0:0:0:
328,366,176458,2,0,P|261:339|243:273,1,135.000005149842,2|2,0:0|0:0,0:0:0:0:
319,164,176887,1,2,0:0:0:0:
319,164,177030,1,0,0:0:0:0:
195,229,177172,5,2,0:0:0:0:
182,163,177315,1,0,0:0:0:0:
66,255,177458,1,2,0:0:0:0:
53,189,177601,1,2,0:0:0:0:
123,209,177744,5,2,0:0:0:0:
252,129,177887,1,2,0:0:0:0:
252,129,177958,1,2,0:0:0:0:
252,129,178030,1,2,0:0:0:0:
89,37,178315,5,2,0:0:0:0:
89,37,178458,2,0,B|114:55|114:55|112:99,1,67.5000025749208,2|0,0:0|0:0,0:0:0:0:
44,162,178744,2,0,P|126:136|205:120,1,135.000005149842,2|2,0:0|0:0,0:0:0:0:
279,38,179172,1,2,0:0:0:0:
279,38,179315,1,0,0:0:0:0:
309,162,179458,5,2,0:0:0:0:
242,152,179601,1,0,0:0:0:0:
187,193,179744,1,2,0:0:0:0:
176,261,179887,1,2,0:0:0:0:
34,243,180030,6,0,P|47:273|60:318,2,67.5000025749208,2|0|2,0:0|0:0|0:0,0:0:0:0:
0,36,180601,5,2,0:0:0:0:
0,36,180744,2,0,P|43:54|82:57,1,67.5000025749208,2|0,0:0|0:0,0:0:0:0:
137,156,181030,2,0,P|203:126|282:99,1,135.000005149842,2|2,0:0|0:0,0:0:0:0:
402,19,181458,1,2,0:0:0:0:
402,19,181601,1,0,0:0:0:0:
332,130,181744,5,2,0:0:0:0:
447,177,181887,1,0,0:0:0:0:
419,243,182030,1,2,0:0:0:0:
304,196,182173,1,2,0:0:0:0:
377,185,182315,5,2,0:0:0:0:
351,64,182458,1,2,0:0:0:0:
351,64,182530,1,2,0:0:0:0:
351,64,182601,1,2,0:0:0:0:
170,182,182887,5,2,0:0:0:0:
170,182,183030,2,0,P|156:220|148:273,1,67.5000025749208,2|0,0:0|0:0,0:0:0:0:
139,342,183315,2,0,P|132:301|74:208,1,135.000005149842,2|2,0:0|0:0,0:0:0:0:
42,108,183744,1,2,0:0:0:0:
42,108,183887,1,0,0:0:0:0:
170,182,184030,5,2,0:0:0:0:
236,160,184172,1,2,0:0:0:0:
210,97,184315,1,2,0:0:0:0:
276,75,184458,1,2,0:0:0:0:
253,12,184601,1,2,0:0:0:0:
