osu file format v14

[General]
AudioFilename: audio.mp3
AudioLeadIn: 0
PreviewTime: 48001
Countdown: 0
SampleSet: Normal
StackLeniency: 0.7
Mode: 1
LetterboxInBreaks: 0
WidescreenStoryboard: 1

[Editor]
Bookmarks: 8844,18949,29054,39159,49265,58896,59370,68212,79580
DistanceSpacing: 1
BeatDivisor: 4
GridSize: 32
TimelineZoom: 2.999999

[Metadata]
Title:intrO - Don't be Foolish
TitleUnicode:intrO - Don't be Foolish
Artist:t+pazolite
ArtistUnicode:t+pazolite
Creator:incandescence
Version:Oni
Source:
Tags:DISC2 Ponko2 Girlish C89 Comiket 89 C.H.S CHS tpz taikocracy ayyri
BeatmapID:1548238
BeatmapSetID:733624

[Difficulty]
HPDrainRate:5.5
CircleSize:2
OverallDifficulty:5.5
ApproachRate:10
SliderMultiplier:1.4
SliderTickRate:1

[Events]
//Background and Video events
0,0,"anime-boy-with-snake-hd-1920x1080.jpg",0,0
//Break Periods
//Storyboard Layer 0 (Background)
//Storyboard Layer 1 (Fail)
//Storyboard Layer 2 (Pass)
//Storyboard Layer 3 (Foreground)
//Storyboard Sound Samples

[TimingPoints]
8844,315.789473684211,4,1,0,50,1,0
28107,-104.166666666667,4,1,0,75,0,0
28265,-108.695652173913,4,1,0,75,0,0
28422,-113.636363636364,4,1,0,75,0,0
28580,-119.047619047619,4,1,0,75,0,0
28738,-125,4,1,0,75,0,0
39159,-100,4,1,0,75,0,0
48001,-95.2380952380952,4,1,0,75,0,0
48317,-90.9090909090909,4,1,0,75,0,0
48633,-86.9565217391304,4,1,0,75,0,0
48949,-83.3333333333333,4,1,0,75,0,0
49265,-90.9090909090909,4,1,0,75,0,1
49422,-95.2380952380952,4,1,0,75,0,1
49580,-100,4,1,0,75,0,1
58896,-100,4,1,0,75,0,0
59370,-100,4,1,0,75,0,1
68212,-95.2380952380952,4,1,0,75,0,0
68528,-90.9090909090909,4,1,0,75,0,0
68844,-86.9565217391304,4,1,0,75,0,0
69159,-83.3333333333333,4,1,0,75,0,0
69475,-83.3333333333333,4,1,0,75,0,0
72001,-83.3333333333333,4,1,0,65,0,0
74528,-83.3333333333333,4,1,0,55,0,0
77054,-83.3333333333333,4,1,0,45,0,0
79580,-100,4,1,0,30,0,0

[Colours]
Combo1 : 255,83,83
Combo2 : 128,64,64
Combo3 : 128,0,0
Combo4 : 249,193,194

[HitObjects]
256,192,8844,5,0,0:0:0:0:
256,192,10107,1,8,0:0:0:0:
256,192,10738,1,8,0:0:0:0:
256,192,11370,1,0,0:0:0:0:
256,192,12633,1,8,0:0:0:0:
256,192,13265,1,0,0:0:0:0:
256,192,13896,1,8,0:0:0:0:
256,192,15159,1,0,0:0:0:0:
256,192,15791,1,8,0:0:0:0:
256,192,16422,1,0,0:0:0:0:
256,192,17686,1,8,0:0:0:0:
256,192,18949,1,0,0:0:0:0:
256,192,19422,1,0,0:0:0:0:
256,192,19580,1,8,0:0:0:0:
256,192,19896,1,0,0:0:0:0:
256,192,20054,1,8,0:0:0:0:
256,192,20212,1,0,0:0:0:0:
256,192,20686,1,0,0:0:0:0:
256,192,20844,1,8,0:0:0:0:
256,192,21159,1,8,0:0:0:0:
256,192,21317,1,0,0:0:0:0:
256,192,21475,1,0,0:0:0:0:
256,192,21791,1,0,0:0:0:0:
256,192,22107,1,8,0:0:0:0:
256,192,22580,1,0,0:0:0:0:
256,192,22896,1,8,0:0:0:0:
256,192,23054,1,0,0:0:0:0:
256,192,23370,1,8,0:0:0:0:
256,192,23686,1,0,0:0:0:0:
256,192,24001,1,8,0:0:0:0:
256,192,24317,1,0,0:0:0:0:
256,192,24475,1,0,0:0:0:0:
256,192,24633,1,8,0:0:0:0:
256,192,25107,1,0,0:0:0:0:
256,192,25422,1,8,0:0:0:0:
256,192,25580,1,0,0:0:0:0:
256,192,25896,1,8,0:0:0:0:
256,192,26212,1,0,0:0:0:0:
256,192,26370,1,0,0:0:0:0:
256,192,26528,1,8,0:0:0:0:
256,192,26686,1,0,0:0:0:0:
256,192,27001,1,0,0:0:0:0:
256,192,27159,1,8,0:0:0:0:
256,192,27475,1,0,0:0:0:0:
256,192,27791,1,8,0:0:0:0:
256,192,27949,1,8,0:0:0:0:
256,192,28107,1,8,0:0:0:0:
256,192,28265,1,0,0:0:0:0:
256,192,28422,1,8,0:0:0:0:
256,192,28580,1,0,0:0:0:0:
256,192,28738,1,0,0:0:0:0:
256,192,29054,1,4,0:0:0:0:
256,192,29212,12,0,38844,0:0:0:0:
256,192,39159,5,4,0:0:0:0:
256,192,39317,1,0,0:0:0:0:
256,192,39475,1,8,0:0:0:0:
256,192,39633,1,8,0:0:0:0:
256,192,39949,1,0,0:0:0:0:
256,192,40107,1,8,0:0:0:0:
256,192,40265,1,0,0:0:0:0:
256,192,40422,1,8,0:0:0:0:
256,192,40580,1,0,0:0:0:0:
256,192,40738,1,8,0:0:0:0:
256,192,40896,1,8,0:0:0:0:
256,192,41212,1,0,0:0:0:0:
256,192,41370,1,8,0:0:0:0:
256,192,41528,1,8,0:0:0:0:
256,192,41686,1,0,0:0:0:0:
256,192,41844,1,0,0:0:0:0:
256,192,42001,1,8,0:0:0:0:
256,192,42159,1,8,0:0:0:0:
256,192,42475,1,0,0:0:0:0:
256,192,42633,1,8,0:0:0:0:
256,192,42791,1,8,0:0:0:0:
256,192,42949,1,0,0:0:0:0:
256,192,43107,1,0,0:0:0:0:
256,192,43265,1,0,0:0:0:0:
256,192,43422,1,8,0:0:0:0:
256,192,43738,1,0,0:0:0:0:
256,192,43896,1,8,0:0:0:0:
256,192,44054,1,0,0:0:0:0:
256,192,44212,1,8,0:0:0:0:
256,192,44370,1,0,0:0:0:0:
256,192,44528,1,8,0:0:0:0:
256,192,44686,1,8,0:0:0:0:
256,192,45001,1,0,0:0:0:0:
256,192,45159,1,8,0:0:0:0:
256,192,45317,1,0,0:0:0:0:
256,192,45475,1,8,0:0:0:0:
256,192,45633,1,0,0:0:0:0:
256,192,45791,1,8,0:0:0:0:
256,192,45949,1,8,0:0:0:0:
256,192,46265,1,0,0:0:0:0:
256,192,46422,1,8,0:0:0:0:
256,192,46580,1,8,0:0:0:0:
256,192,46738,1,0,0:0:0:0:
256,192,46896,1,0,0:0:0:0:
256,192,47054,1,8,0:0:0:0:
256,192,47212,1,8,0:0:0:0:
256,192,47528,1,0,0:0:0:0:
256,192,47686,1,8,0:0:0:0:
256,192,47844,1,0,0:0:0:0:
256,192,48001,1,12,0:0:0:0:
256,192,48317,1,0,0:0:0:0:
256,192,48633,1,0,0:0:0:0:
256,192,48949,1,12,0:0:0:0:
256,192,49265,1,4,0:0:0:0:
256,192,49422,1,0,0:0:0:0:
256,192,49580,1,8,0:0:0:0:
256,192,49738,1,8,0:0:0:0:
256,192,49896,1,0,0:0:0:0:
256,192,50054,1,8,0:0:0:0:
256,192,50133,1,8,0:0:0:0:
256,192,50212,1,0,0:0:0:0:
256,192,50370,1,8,0:0:0:0:
256,192,50528,1,0,0:0:0:0:
256,192,50686,1,0,0:0:0:0:
256,192,50765,1,8,0:0:0:0:
256,192,50844,1,0,0:0:0:0:
256,192,51001,1,8,0:0:0:0:
256,192,51317,1,8,0:0:0:0:
256,192,51396,1,8,0:0:0:0:
256,192,51475,1,0,0:0:0:0:
256,192,51633,1,0,0:0:0:0:
256,192,51791,1,8,0:0:0:0:
256,192,51949,1,8,0:0:0:0:
256,192,52107,1,0,0:0:0:0:
256,192,52265,1,0,0:0:0:0:
256,192,52422,1,8,0:0:0:0:
256,192,52580,1,8,0:0:0:0:
256,192,52659,1,0,0:0:0:0:
256,192,52738,1,8,0:0:0:0:
256,192,52896,1,8,0:0:0:0:
256,192,53054,1,0,0:0:0:0:
256,192,53212,1,0,0:0:0:0:
256,192,53291,1,0,0:0:0:0:
256,192,53370,1,0,0:0:0:0:
256,192,53528,1,8,0:0:0:0:
256,192,53844,1,8,0:0:0:0:
256,192,53922,1,8,0:0:0:0:
256,192,54001,1,0,0:0:0:0:
256,192,54159,1,8,0:0:0:0:
256,192,54317,1,0,0:0:0:0:
256,192,54475,1,0,0:0:0:0:
256,192,54633,1,8,0:0:0:0:
256,192,54791,1,8,0:0:0:0:
256,192,54949,1,0,0:0:0:0:
256,192,55107,1,0,0:0:0:0:
256,192,55186,1,0,0:0:0:0:
256,192,55265,1,8,0:0:0:0:
256,192,55422,1,0,0:0:0:0:
256,192,55580,1,8,0:0:0:0:
256,192,55738,1,8,0:0:0:0:
256,192,55817,1,0,0:0:0:0:
256,192,55896,1,8,0:0:0:0:
256,192,56054,1,8,0:0:0:0:
256,192,56370,1,0,0:0:0:0:
256,192,56449,1,8,0:0:0:0:
256,192,56528,1,8,0:0:0:0:
256,192,56686,1,0,0:0:0:0:
256,192,56844,1,8,0:0:0:0:
256,192,57001,1,8,0:0:0:0:
256,192,57159,1,0,0:0:0:0:
256,192,57317,1,0,0:0:0:0:
256,192,57475,1,8,0:0:0:0:
256,192,57633,1,8,0:0:0:0:
256,192,57712,1,0,0:0:0:0:
256,192,57791,1,0,0:0:0:0:
256,192,57949,1,8,0:0:0:0:
256,192,58107,1,0,0:0:0:0:
256,192,58265,1,8,0:0:0:0:
256,192,58344,1,8,0:0:0:0:
256,192,58422,1,0,0:0:0:0:
256,192,58580,1,8,0:0:0:0:
256,192,58896,1,8,0:0:0:0:
256,192,59054,1,0,0:0:0:0:
256,192,59212,1,8,0:0:0:0:
256,192,59370,1,4,0:0:0:0:
256,192,59528,1,0,0:0:0:0:
256,192,59607,1,0,0:0:0:0:
256,192,59686,1,8,0:0:0:0:
256,192,59844,1,8,0:0:0:0:
256,192,60001,1,0,0:0:0:0:
256,192,60080,1,0,0:0:0:0:
256,192,60159,1,8,0:0:0:0:
256,192,60238,1,8,0:0:0:0:
256,192,60317,1,0,0:0:0:0:
256,192,60475,1,8,0:0:0:0:
256,192,60633,1,0,0:0:0:0:
256,192,60791,1,8,0:0:0:0:
256,192,60870,1,0,0:0:0:0:
256,192,60949,1,8,0:0:0:0:
256,192,61107,1,8,0:0:0:0:
256,192,61422,1,0,0:0:0:0:
256,192,61501,1,8,0:0:0:0:
256,192,61580,1,0,0:0:0:0:
256,192,61738,1,8,0:0:0:0:
256,192,61896,1,0,0:0:0:0:
256,192,62054,1,8,0:0:0:0:
256,192,62133,1,8,0:0:0:0:
256,192,62212,1,0,0:0:0:0:
256,192,62370,1,8,0:0:0:0:
256,192,62528,1,8,0:0:0:0:
256,192,62607,1,0,0:0:0:0:
256,192,62686,1,0,0:0:0:0:
256,192,62765,1,0,0:0:0:0:
256,192,62844,1,8,0:0:0:0:
256,192,63001,1,0,0:0:0:0:
256,192,63159,1,8,0:0:0:0:
256,192,63317,1,8,0:0:0:0:
256,192,63396,1,0,0:0:0:0:
256,192,63475,1,0,0:0:0:0:
256,192,63633,1,8,0:0:0:0:
256,192,63949,1,0,0:0:0:0:
256,192,64028,1,8,0:0:0:0:
256,192,64107,1,8,0:0:0:0:
256,192,64265,1,8,0:0:0:0:
256,192,64422,1,0,0:0:0:0:
256,192,64580,1,8,0:0:0:0:
256,192,64659,1,0,0:0:0:0:
256,192,64738,1,8,0:0:0:0:
256,192,64896,1,0,0:0:0:0:
256,192,65054,1,0,0:0:0:0:
256,192,65133,1,0,0:0:0:0:
256,192,65212,1,8,0:0:0:0:
256,192,65291,1,8,0:0:0:0:
256,192,65370,1,0,0:0:0:0:
256,192,65528,1,8,0:0:0:0:
256,192,65686,1,0,0:0:0:0:
256,192,65844,1,8,0:0:0:0:
256,192,65922,1,8,0:0:0:0:
256,192,66001,1,0,0:0:0:0:
256,192,66159,1,8,0:0:0:0:
256,192,66475,1,8,0:0:0:0:
256,192,66554,1,0,0:0:0:0:
256,192,66633,1,0,0:0:0:0:
256,192,66791,1,8,0:0:0:0:
256,192,66949,1,0,0:0:0:0:
256,192,67107,1,0,0:0:0:0:
256,192,67186,1,8,0:0:0:0:
256,192,67265,1,0,0:0:0:0:
256,192,67422,1,8,0:0:0:0:
256,192,67580,1,8,0:0:0:0:
256,192,67659,1,8,0:0:0:0:
256,192,67738,1,0,0:0:0:0:
256,192,67817,1,0,0:0:0:0:
256,192,67896,1,0,0:0:0:0:
256,192,68054,1,8,0:0:0:0:
256,192,68212,1,0,0:0:0:0:
256,192,68528,1,8,0:0:0:0:
256,192,68844,1,0,0:0:0:0:
256,192,69001,1,0,0:0:0:0:
256,192,69159,1,12,0:0:0:0:
256,192,69475,12,0,79580,0:0:0:0:
