osu file format v14

[General]
AudioFilename: audio.mp3
AudioLeadIn: 2
PreviewTime: 0
Countdown: 0
SampleSet: None
StackLeniency: 0.7
Mode: 3
LetterboxInBreaks: 0
SpecialStyle: 0
WidescreenStoryboard: 0

[Editor]
DistanceSpacing: 0.8
BeatDivisor: 16
GridSize: 8
TimelineZoom: 2.3

[Metadata]
Title:faster! faster!! faster!!!
TitleUnicode:faster! faster!! faster!!!
Artist:t+pazolite
ArtistUnicode:t+pazolite
Creator:Daikyi
Version:Yahagi! Yahagi!! Yahagi!!!
Source:Stepmania
Tags:Stepmania
BeatmapID:977654
BeatmapSetID:456186

[Difficulty]
HPDrainRate:8
CircleSize:4
OverallDifficulty:8
ApproachRate:5
SliderMultiplier:1.4
SliderTickRate:1

[Events]
//Background and Video events
0,0,"bg.jpg",0,0
//Break Periods
//Storyboard Layer 0 (Background)
//Storyboard Layer 1 (Fail)
//Storyboard Layer 2 (Pass)
//Storyboard Layer 3 (Foreground)
//Storyboard Sound Samples

[TimingPoints]
263,333.333333333333,4,3,2,50,1,0
263,-200,4,3,2,50,0,0
11868,315.789,4,3,2,50,1,0
11868,-200,4,3,2,50,0,0
12499,-181.818181818182,4,3,2,50,0,0
13131,-166.666666666667,4,3,2,50,0,0
13762,-153.846153846154,4,3,2,50,0,0
14394,-142.857142857143,4,3,2,50,0,0
15025,-133.333333333333,4,3,2,50,0,0
15657,-125,4,3,2,50,0,0
16289,-117.647058823529,4,3,2,50,0,0
16920,-111.111111111111,4,3,2,50,0,0
17552,-105.263157894737,4,3,2,50,0,0
18183,-100,4,3,2,50,0,0
20394,-50,4,3,2,50,0,0
20552,-1000,4,3,2,50,0,0
20631,-100,4,3,2,50,0,0
30183,-10,4,3,2,50,0,0
30262,-1000,4,3,2,50,0,0
30815,-100,4,3,2,50,0,0
39815,-50,4,3,2,50,0,0
39894,-1000,4,3,2,50,0,0
40131,-50,4,3,2,50,0,0
40210,-1000,4,3,2,50,0,0
40446,-50,4,3,2,50,0,0
40525,-1000,4,3,2,50,0,0
40762,-100,4,3,2,50,0,0
41020,-200,4,3,2,50,0,0
58446,-181.818181818182,4,3,2,50,0,0
58604,-166.666666666667,4,3,2,50,0,0
58762,-153.846153846154,4,3,2,50,0,0
58920,-142.857142857143,4,3,2,50,0,0
59078,-133.333333333333,4,3,2,50,0,0
59236,-125,4,3,2,50,0,0
59394,-117.647058823529,4,3,2,50,0,0
59552,-111.111111111111,4,3,2,50,0,0
59710,-105.263157894737,4,3,2,50,0,0
59867,-100,4,3,2,50,0,0
60815,-10,4,3,2,50,0,0
60854,-1000,4,3,2,50,0,0
61131,-100,4,3,2,50,0,1
70604,-1000,4,3,2,50,0,0
70762,-400,4,3,2,50,0,0
70920,-200,4,3,2,50,0,0
70999,-133.333333333333,4,3,2,50,0,0
71078,-100,4,3,2,50,0,0
71117,-80,4,3,2,50,0,0
71157,-66.6666666666667,4,3,2,50,0,0
71196,-57.1428571428571,4,3,2,50,0,0
71236,-100,4,3,2,50,0,1
81025,-10,4,3,2,50,0,0
81065,-285.714285714286,4,3,2,50,0,0
81341,-100,4,3,2,50,0,0
82604,-133.333333333333,4,3,2,50,0,0
83867,-100,4,3,2,50,0,0
85130,-133.333333333333,4,3,2,50,0,0
86077,-117.647058823529,4,3,2,50,0,0
86156,-105.263157894737,4,3,2,50,0,0
86235,-95.2380952380952,4,3,2,50,0,0
86314,-86.9565217391304,4,3,2,50,0,0
86393,-100,4,3,2,50,0,0
87656,-133.333333333333,4,3,2,50,0,0
88919,-100,4,3,2,50,0,0
90183,-133.333333333333,4,3,2,50,0,0
91130,-10,4,3,2,50,0,0
91140,-100,4,3,2,50,0,0
91245,-250,4,3,2,50,0,0
91288,-333.333333333333,4,3,2,50,0,0
91340,-500,4,3,2,50,0,0
91393,-1000,4,3,2,50,0,0
91446,315.789473684211,4,3,2,50,1,0
91446,-100,4,3,2,50,0,1
101235,-66.6666666666667,4,3,2,50,0,0
101288,-80,4,3,2,50,0,0
101340,-100,4,3,2,50,0,0
101393,-133.333333333333,4,3,2,50,0,0
101432,-200,4,3,2,50,0,0
101472,-400,4,3,2,50,0,0
101498,-1000,4,3,2,50,0,0
101551,-100,4,3,2,50,0,0
102814,-111.111111111111,4,3,2,50,0,0
103446,-117.647058823529,4,3,2,50,0,0
104077,-125,4,3,2,50,0,0
104709,-133.333333333333,4,3,2,50,0,0
105340,-142.857142857143,4,3,2,50,0,0
105972,-153.846153846154,4,3,2,50,0,0
106603,-166.666666666667,4,3,2,50,0,0
107235,-181.818181818182,4,3,2,50,0,0
107867,-200,4,3,2,50,0,0
108498,-222.222222222222,4,3,2,50,0,0
109130,-250,4,3,2,50,0,0
109761,-285.714285714286,4,3,2,50,0,0
110393,-333.333333333333,4,3,2,50,0,0
111024,-400,4,3,2,50,0,0
111656,-500,4,3,2,50,0,0
112288,-666.666666666667,4,3,2,50,0,0
112498,-500,4,3,2,50,0,0
112603,-400,4,3,2,50,0,0
112709,-333.333333333333,4,3,2,50,0,0
112814,-285.714285714286,4,3,2,50,0,0
112919,-250,4,3,2,50,0,0
113235,-222.222222222222,4,3,2,50,0,0
113551,-200,4,3,2,50,0,0
113867,-181.818181818182,4,3,2,50,0,0
114182,-166.666666666667,4,3,2,50,0,0
114498,-153.846153846154,4,3,2,50,0,0
114814,-142.857142857143,4,3,2,50,0,0
115130,-133.333333333333,4,3,2,50,0,0
115446,-125,4,3,2,50,0,0
115761,-117.647058823529,4,3,2,50,0,0
116077,-111.111111111111,4,3,2,50,0,0
116393,-105.263157894737,4,3,2,50,0,0
116709,-100,4,3,2,50,0,0
120498,-25,4,3,0,50,0,0
120518,-1000,4,3,0,50,0,0
120577,-25,4,3,0,50,0,0
120597,-1000,4,3,0,50,0,0
120656,-25,4,3,0,50,0,0
120676,-1000,4,3,0,50,0,0
120735,-25,4,3,0,50,0,0
120755,-1000,4,3,0,50,0,0
120814,-25,4,3,0,50,0,0
120834,-1000,4,3,0,50,0,0
120893,-25,4,3,0,50,0,0
120913,-1000,4,3,0,50,0,0
120972,-25,4,3,0,50,0,0
120992,-1000,4,3,0,50,0,0
121051,-25,4,3,0,50,0,0
121071,-1000,4,3,0,50,0,0
121130,-25,4,3,1,50,0,0
121150,-100,4,3,1,50,0,0
121446,-20,4,3,2,50,0,0
121466,-1000,4,3,2,50,0,0
121524,-20,4,3,2,50,0,0
121544,-1000,4,3,2,50,0,0
121603,-20,4,3,2,50,0,0
121623,-1000,4,3,2,50,0,0
121682,-20,4,3,2,50,0,0
121702,-1000,4,3,2,50,0,0
121761,-20,4,3,1,50,0,1
121781,-500,4,3,1,50,0,1
121919,-20,4,3,1,50,0,1
121939,-500,4,3,1,50,0,1
122077,-20,4,3,1,50,0,1
122097,-500,4,3,1,50,0,1
122235,-20,4,3,1,50,0,1
122255,-500,4,3,1,50,0,1
122393,-20,4,3,1,50,0,1
122413,-500,4,3,1,50,0,1
122551,-20,4,3,1,50,0,1
122571,-500,4,3,1,50,0,1
122709,-20,4,3,1,50,0,1
122729,-500,4,3,1,50,0,1
122867,-20,4,3,1,50,0,1
122887,-500,4,3,1,50,0,1
123024,-20,4,3,1,50,0,1
123044,-500,4,3,1,50,0,1
123182,-20,4,3,1,50,0,1
123202,-500,4,3,1,50,0,1
123340,-20,4,3,1,50,0,1
123360,-500,4,3,1,50,0,1
123498,-20,4,3,1,50,0,1
123518,-500,4,3,1,50,0,1
123656,-33.3333333333333,4,3,1,50,0,1
123676,-400,4,3,1,50,0,1
123814,-50,4,3,1,50,0,1
123834,-200,4,3,1,50,0,1
123972,-100,4,3,1,50,0,1
124288,-20,4,3,1,50,0,1
124308,-500,4,3,1,50,0,1
124446,-20,4,3,1,50,0,1
124466,-500,4,3,1,50,0,1
124603,-20,4,3,1,50,0,1
124623,-500,4,3,1,50,0,1
124761,-20,4,3,1,50,0,1
124781,-500,4,3,1,50,0,1
124919,-20,4,3,1,50,0,1
124939,-500,4,3,1,50,0,1
125077,-20,4,3,1,50,0,1
125097,-500,4,3,1,50,0,1
125235,-20,4,3,1,50,0,1
125255,-500,4,3,1,50,0,1
125393,-20,4,3,1,50,0,1
125413,-500,4,3,1,50,0,1
125551,-20,4,3,1,50,0,1
125571,-500,4,3,1,50,0,1
125709,-20,4,3,1,50,0,1
125729,-500,4,3,1,50,0,1
125867,-20,4,3,1,50,0,1
125887,-500,4,3,1,50,0,1
126024,-20,4,3,1,50,0,1
126044,-500,4,3,1,50,0,1
126182,-20,4,3,1,50,0,1
126202,-500,4,3,1,50,0,1
126340,-20,4,3,1,50,0,1
126360,-500,4,3,1,50,0,1
126498,-100,4,3,1,50,0,1
126814,-20,4,3,1,50,0,1
126834,-500,4,3,1,50,0,1
126972,-20,4,3,1,50,0,1
126992,-500,4,3,1,50,0,1
127130,-20,4,3,1,50,0,1
127150,-500,4,3,1,50,0,1
127288,-20,4,3,1,50,0,1
127308,-500,4,3,1,50,0,1
127446,-20,4,3,1,50,0,1
127466,-500,4,3,1,50,0,1
127603,-20,4,3,1,50,0,1
127623,-500,4,3,1,50,0,1
127761,-20,4,3,1,50,0,1
127781,-500,4,3,1,50,0,1
127919,-20,4,3,1,50,0,1
127939,-500,4,3,1,50,0,1
128077,-20,4,3,1,50,0,1
128097,-500,4,3,1,50,0,1
128235,-20,4,3,1,50,0,1
128255,-500,4,3,1,50,0,1
128393,-20,4,3,1,50,0,1
128413,-500,4,3,1,50,0,1
128551,-20,4,3,1,50,0,1
128571,-500,4,3,1,50,0,1
128709,-33.3333333333333,4,3,1,50,0,1
128729,-400,4,3,1,50,0,1
128867,-50,4,3,1,50,0,1
128887,-200,4,3,1,50,0,1
129024,-100,4,3,1,50,0,1
129340,-20,4,3,1,50,0,1
129360,-500,4,3,1,50,0,1
129498,-20,4,3,1,50,0,1
129518,-500,4,3,1,50,0,1
129656,-20,4,3,1,50,0,1
129676,-500,4,3,1,50,0,1
129814,-20,4,3,1,50,0,1
129834,-500,4,3,1,50,0,1
129972,-20,4,3,1,50,0,1
129992,-500,4,3,1,50,0,1
130130,-20,4,3,1,50,0,1
130150,-500,4,3,1,50,0,1
130288,-20,4,3,1,50,0,1
130308,-500,4,3,1,50,0,1
130446,-20,4,3,1,50,0,1
130466,-500,4,3,1,50,0,1
130603,-100,4,3,2,50,0,1
131340,-1000,4,3,1,50,0,1
131393,-1000,4,3,1,50,0,1
131551,-10,4,3,1,50,0,0
131630,-200,4,3,1,50,0,0
131709,-400,4,3,1,50,0,0
131788,-1000,4,3,1,50,0,0
131867,-100,4,3,1,50,0,1
136919,-100,4,3,2,50,0,1
141972,-100,4,3,2,50,0,0
146709,-100,4,3,2,50,0,0
146788,-125,4,3,2,50,0,0
146827,-153.846153846154,4,3,2,50,0,0
146847,-333.333333333333,4,3,2,50,0,0
146867,-666.666666666667,4,3,2,50,0,0
147024,601.973,4,1,0,15,1,0
147626,552.924,4,1,0,15,1,0
147626,-101.010101010101,4,1,0,15,0,0
148178,507.936,4,1,0,15,1,0
148178,-104.166666666667,4,1,0,15,0,0
148686,473.108,4,1,0,15,1,0
148686,-105.263157894737,4,1,0,15,0,0
149160,431.292,4,1,0,15,1,0
149160,-107.52688172043,4,1,0,15,0,0
149591,393.288,4,1,0,15,1,0
149591,-109.89010989011,4,1,0,15,0,0
149984,357.279,4,1,0,15,1,0
149984,-112.359550561798,4,1,0,15,0,0
150341,328.843,4,1,0,15,1,0
150341,-114.942528735632,4,1,0,15,0,0
150670,310.272,4,1,0,15,1,0
150670,-117.647058823529,4,1,0,15,0,0
150980,301.565,4,1,0,15,1,0
150980,-116.279069767442,4,1,0,15,0,0
151282,294.308,4,1,0,15,1,0
151282,-114.942528735632,4,1,0,15,0,0
151576,283.265,4,1,0,15,1,0
151576,-116.279069767442,4,1,0,15,0,0
151860,282.403,4,1,0,15,1,0
151860,-112.359550561798,4,1,0,15,0,0
152142,264.988,4,1,0,15,1,0
152142,-116.279069767442,4,1,0,15,0,0
152407,262.381,4,1,0,15,1,0
152407,-114.942528735632,4,1,0,15,0,0
152669,258.436,4,1,0,15,1,0
152669,-112.359550561798,4,1,0,15,0,0
152928,253.045,4,1,0,15,1,0
152928,-113.636363636364,4,1,0,15,0,0
152970,-111.111111111111,4,1,0,15,0,0
153012,-108.695652173913,4,1,0,15,0,0
153054,-106.382978723404,4,1,0,15,0,0
153086,-104.166666666667,4,1,0,15,0,0
153117,-102.040816326531,4,1,0,15,0,0
153149,-100,4,1,0,15,0,0
153181,-131.578947368421,4,1,0,15,0,1
160266,-131.578947368421,4,1,0,15,0,1
160297.625,-129.032258064516,4,1,0,15,0,1
160329.25,-126.582278481013,4,1,0,15,0,1
160360.875,-124.223602484472,4,1,0,15,0,1
160392.5,-121.951219512195,4,1,0,15,0,1
160424.125,-119.760479041916,4,1,0,15,0,1
160455.75,-117.647058823529,4,1,0,15,0,1
160487.375,-115.606936416185,4,1,0,15,0,1
160519,-113.636363636364,4,1,0,15,0,1
160550.625,-111.731843575419,4,1,0,15,0,1
160582.25,-109.89010989011,4,1,0,15,0,1
160613.875,-108.108108108108,4,1,0,15,0,1
160645.5,-106.382978723404,4,1,0,15,0,1
160677.125,-104.712041884817,4,1,0,15,0,1
160708.75,-103.092783505155,4,1,0,15,0,1
160740.375,-101.522842639594,4,1,0,15,0,1
160772,-117.647058823529,4,1,0,15,0,1
165074,-114.942528735632,4,1,0,15,0,1
165580,-112.359550561798,4,1,0,15,0,1
166086,-109.89010989011,4,1,0,15,0,1
166592,-107.52688172043,4,1,0,15,0,1
167098,-200,4,1,0,15,0,1
167857,315.789,4,1,0,15,1,0
167857,-161.290322580645,4,1,0,15,0,0
167896.4375,-155.339805825243,4,1,0,15,0,0
167935.875,-149.812734082397,4,1,0,15,0,0
167975.3125,-144.665461121157,4,1,0,15,0,0
168014.75,-139.86013986014,4,1,0,15,0,0
168054.1875,-135.363790186125,4,1,0,15,0,0
168093.625,-131.147540983607,4,1,0,15,0,0
168133.0625,-127.186009538951,4,1,0,15,0,0
168172.5,-123.456790123457,4,1,0,15,0,0
168211.9375,-119.940029985007,4,1,0,15,0,0
168251.375,-116.618075801749,4,1,0,15,0,0
168290.8125,-113.475177304965,4,1,0,15,0,0
168330.25,-110.497237569061,4,1,0,15,0,0
168369.6875,-107.671601615074,4,1,0,15,0,0
168409.125,-104.98687664042,4,1,0,15,0,0
168448.5625,-102.432778489117,4,1,0,15,0,0
168488,-100,4,1,0,15,0,0
169751,-100,4,1,0,15,0,1
179541,-10,4,1,0,15,0,0
179560,-1000,4,1,0,15,0,0
179578.5,-592.592592592593,4,1,0,15,0,0
179597,-421.052631578947,4,1,0,15,0,0
179615.5,-326.530612244898,4,1,0,15,0,0
179634,-266.666666666667,4,1,0,15,0,0
179652.5,-225.352112676056,4,1,0,15,0,0
179671,-195.121951219512,4,1,0,15,0,0
179689.5,-172.043010752688,4,1,0,15,0,0
179708,-153.846153846154,4,1,0,15,0,0
179726.5,-139.130434782609,4,1,0,15,0,0
179745,-126.984126984127,4,1,0,15,0,0
179763.5,-116.788321167883,4,1,0,15,0,0
179782,-108.108108108108,4,1,0,15,0,0
179800.5,-100.62893081761,4,1,0,15,0,0
179819,-94.1176470588235,4,1,0,15,0,0
179837.5,-88.3977900552486,4,1,0,15,0,0
179856,-100,4,1,0,15,0,1
189962,-100,4,1,0,15,0,0
199435,-10,4,1,0,15,0,0
199455,-1000,4,1,0,15,0,0
199692,-20,4,1,0,15,0,0
199712,-1000,4,1,0,15,0,0
200067,-100,4,1,0,15,0,0
209856,-10,4,1,0,15,0,0
209935,-50,4,1,0,15,0,0
210172,-100,4,1,0,15,0,0
219646,-10,4,1,0,15,0,0
219685,-1000,4,1,0,15,0,0
220277,-100,4,1,0,15,0,0
229277,-16.6666666666667,4,1,0,15,0,0
229297,-1000,4,1,0,15,0,0
229593,-25,4,1,0,15,0,0
229613,-1000,4,1,0,15,0,0
229751,-50,4,1,0,15,0,0
229771,-1000,4,1,0,15,0,0
229909,-16.6666666666667,4,1,0,15,0,0
229929,-1000,4,1,0,15,0,0
230225,-100,4,1,0,15,0,0

[HitObjects]
64,192,11450,5,0,0:0:0:0:
64,192,11868,1,0,0:0:0:0:
448,192,12183,1,0,0:0:0:0:
64,192,12341,1,0,0:0:0:0:
64,192,12657,1,0,0:0:0:0:
448,192,12815,1,0,0:0:0:0:
64,192,13131,1,0,0:0:0:0:
448,192,13446,1,0,0:0:0:0:
320,192,13762,1,0,0:0:0:0:
64,192,13920,1,0,0:0:0:0:
448,192,14078,1,0,0:0:0:0:
64,192,14236,1,0,0:0:0:0:
192,192,14315,1,0,0:0:0:0:
320,192,14394,1,0,0:0:0:0:
64,192,14552,1,0,0:0:0:0:
320,192,14631,1,0,0:0:0:0:
448,192,14710,1,0,0:0:0:0:
64,192,14867,1,0,0:0:0:0:
320,192,14946,1,0,0:0:0:0:
448,192,15025,1,0,0:0:0:0:
64,192,15183,1,0,0:0:0:0:
192,192,15262,1,0,0:0:0:0:
320,192,15341,1,0,0:0:0:0:
448,192,15341,1,0,0:0:0:0:
64,192,15499,1,0,0:0:0:0:
192,192,15578,1,0,0:0:0:0:
64,192,15657,1,0,0:0:0:0:
320,192,15657,1,0,0:0:0:0:
448,192,15657,1,0,0:0:0:0:
192,192,15815,1,0,0:0:0:0:
320,192,15894,1,0,0:0:0:0:
64,192,15973,1,0,0:0:0:0:
448,192,15973,1,0,0:0:0:0:
192,192,16131,1,0,0:0:0:0:
320,192,16210,1,0,0:0:0:0:
192,192,16289,1,0,0:0:0:0:
320,192,16367,1,0,0:0:0:0:
64,192,16446,1,0,0:0:0:0:
192,192,16446,1,0,0:0:0:0:
320,192,16525,1,0,0:0:0:0:
64,192,16604,1,0,0:0:0:0:
448,192,16604,1,0,0:0:0:0:
448,192,16762,1,0,0:0:0:0:
320,192,16841,1,0,0:0:0:0:
64,192,16920,1,0,0:0:0:0:
192,192,16920,1,0,0:0:0:0:
320,192,16999,1,0,0:0:0:0:
448,192,17078,1,0,0:0:0:0:
320,192,17157,1,0,0:0:0:0:
64,192,17236,1,0,0:0:0:0:
448,192,17236,1,0,0:0:0:0:
64,192,17394,1,0,0:0:0:0:
192,192,17394,1,0,0:0:0:0:
320,192,17473,1,0,0:0:0:0:
448,192,17552,1,0,0:0:0:0:
320,192,17631,1,0,0:0:0:0:
64,192,17710,1,0,0:0:0:0:
192,192,17710,1,0,0:0:0:0:
320,192,17789,1,0,0:0:0:0:
64,192,17867,1,0,0:0:0:0:
448,192,17867,1,0,0:0:0:0:
320,192,18025,1,0,0:0:0:0:
192,192,18104,1,0,0:0:0:0:
64,192,18183,1,0,0:0:0:0:
448,192,18183,1,0,0:0:0:0:
320,192,18262,1,0,0:0:0:0:
64,192,18341,1,0,0:0:0:0:
192,192,18341,1,0,0:0:0:0:
320,192,18420,1,0,0:0:0:0:
192,192,18499,1,0,0:0:0:0:
448,192,18499,1,0,0:0:0:0:
320,192,18578,1,0,0:0:0:0:
64,192,18657,1,0,0:0:0:0:
192,192,18657,1,0,0:0:0:0:
320,192,18736,1,0,0:0:0:0:
64,192,18815,1,0,0:0:0:0:
448,192,18815,1,0,0:0:0:0:
192,192,18894,1,0,0:0:0:0:
64,192,18973,1,0,0:0:0:0:
320,192,18973,1,0,0:0:0:0:
448,192,19052,1,0,0:0:0:0:
64,192,19131,1,0,0:0:0:0:
192,192,19131,1,0,0:0:0:0:
320,192,19210,1,0,0:0:0:0:
448,192,19210,1,0,0:0:0:0:
64,192,19289,1,0,0:0:0:0:
192,192,19289,1,0,0:0:0:0:
448,192,19367,1,0,0:0:0:0:
64,192,19446,1,0,0:0:0:0:
192,192,19446,1,0,0:0:0:0:
320,192,19525,1,0,0:0:0:0:
448,192,19525,1,0,0:0:0:0:
64,192,19604,1,0,0:0:0:0:
192,192,19604,1,0,0:0:0:0:
320,192,19683,1,0,0:0:0:0:
448,192,19683,1,0,0:0:0:0:
64,192,19762,1,0,0:0:0:0:
192,192,19762,1,0,0:0:0:0:
320,192,19841,1,0,0:0:0:0:
448,192,19841,1,0,0:0:0:0:
64,192,19920,1,0,0:0:0:0:
192,192,19920,1,0,0:0:0:0:
320,192,19999,1,0,0:0:0:0:
448,192,19999,1,0,0:0:0:0:
64,192,20078,1,0,0:0:0:0:
192,192,20078,1,0,0:0:0:0:
320,192,20236,1,0,0:0:0:0:
64,192,20394,1,0,0:0:0:0:
192,192,20394,1,0,0:0:0:0:
448,192,20394,1,0,0:0:0:0:
64,192,20710,1,0,0:0:0:0:
320,192,20710,1,0,0:0:0:0:
448,192,20710,1,0,0:0:0:0:
64,192,20867,1,0,0:0:0:0:
320,192,21025,1,0,0:0:0:0:
448,192,21025,1,0,0:0:0:0:
64,192,21104,1,0,0:0:0:0:
192,192,21183,1,0,0:0:0:0:
320,192,21183,1,0,0:0:0:0:
448,192,21262,1,0,0:0:0:0:
320,192,21341,1,0,0:0:0:0:
448,192,21420,1,0,0:0:0:0:
64,192,21499,1,0,0:0:0:0:
192,192,21499,1,0,0:0:0:0:
448,192,21578,1,0,0:0:0:0:
192,192,21657,1,0,0:0:0:0:
320,192,21657,1,0,0:0:0:0:
64,192,21736,1,0,0:0:0:0:
192,192,21815,1,0,0:0:0:0:
320,192,21815,1,0,0:0:0:0:
448,192,21894,1,0,0:0:0:0:
64,192,21973,1,0,0:0:0:0:
192,192,21973,1,0,0:0:0:0:
320,192,22052,1,0,0:0:0:0:
64,192,22131,1,0,0:0:0:0:
192,192,22131,1,0,0:0:0:0:
448,192,22210,1,0,0:0:0:0:
192,192,22289,1,0,0:0:0:0:
320,192,22289,1,0,0:0:0:0:
320,192,22446,1,0,0:0:0:0:
448,192,22446,1,0,0:0:0:0:
192,192,22525,1,0,0:0:0:0:
320,192,22604,1,0,0:0:0:0:
448,192,22683,1,0,0:0:0:0:
64,192,22762,1,0,0:0:0:0:
192,192,22762,1,0,0:0:0:0:
64,192,22920,1,0,0:0:0:0:
448,192,22920,1,0,0:0:0:0:
320,192,22999,1,0,0:0:0:0:
192,192,23078,1,0,0:0:0:0:
64,192,23157,1,0,0:0:0:0:
192,192,23236,1,0,0:0:0:0:
320,192,23236,1,0,0:0:0:0:
448,192,23315,1,0,0:0:0:0:
64,192,23394,1,0,0:0:0:0:
192,192,23473,1,0,0:0:0:0:
320,192,23552,1,0,0:0:0:0:
448,192,23552,1,0,0:0:0:0:
192,192,23631,1,0,0:0:0:0:
64,192,23710,1,0,0:0:0:0:
448,192,23710,1,0,0:0:0:0:
320,192,23789,1,0,0:0:0:0:
192,192,23867,1,0,0:0:0:0:
320,192,23946,1,0,0:0:0:0:
64,192,24025,1,0,0:0:0:0:
192,192,24025,1,0,0:0:0:0:
320,192,24104,1,0,0:0:0:0:
192,192,24183,1,0,0:0:0:0:
448,192,24183,1,0,0:0:0:0:
320,192,24262,1,0,0:0:0:0:
64,192,24341,1,0,0:0:0:0:
192,192,24341,1,0,0:0:0:0:
448,192,24420,1,0,0:0:0:0:
192,192,24499,1,0,0:0:0:0:
320,192,24499,1,0,0:0:0:0:
64,192,24657,1,0,0:0:0:0:
320,192,24657,1,0,0:0:0:0:
448,192,24736,1,0,0:0:0:0:
64,192,24815,1,0,0:0:0:0:
192,192,24815,1,0,0:0:0:0:
64,192,24973,1,0,0:0:0:0:
448,192,24973,1,0,0:0:0:0:
192,192,25052,1,0,0:0:0:0:
320,192,25131,1,0,0:0:0:0:
448,192,25131,1,0,0:0:0:0:
64,192,25289,1,0,0:0:0:0:
448,192,25289,1,0,0:0:0:0:
192,192,25367,1,0,0:0:0:0:
320,192,25367,1,0,0:0:0:0:
64,192,25446,1,0,0:0:0:0:
448,192,25446,1,0,0:0:0:0:
64,192,25604,1,0,0:0:0:0:
192,192,25604,1,0,0:0:0:0:
320,192,25683,1,0,0:0:0:0:
448,192,25683,1,0,0:0:0:0:
64,192,25762,1,0,0:0:0:0:
192,192,25762,1,0,0:0:0:0:
64,192,25920,1,0,0:0:0:0:
192,192,25999,1,0,0:0:0:0:
320,192,26078,1,0,0:0:0:0:
448,192,26078,1,0,0:0:0:0:
64,192,26236,1,0,0:0:0:0:
320,192,26236,1,0,0:0:0:0:
192,192,26315,1,0,0:0:0:0:
64,192,26394,1,0,0:0:0:0:
192,192,26473,1,0,0:0:0:0:
320,192,26552,1,0,0:0:0:0:
448,192,26552,1,0,0:0:0:0:
192,192,26631,1,0,0:0:0:0:
64,192,26710,1,0,0:0:0:0:
448,192,26710,1,0,0:0:0:0:
192,192,26867,1,0,0:0:0:0:
448,192,26867,1,0,0:0:0:0:
320,192,26946,1,0,0:0:0:0:
64,192,27025,1,0,0:0:0:0:
192,192,27025,1,0,0:0:0:0:
64,192,27183,1,0,0:0:0:0:
192,192,27183,1,0,0:0:0:0:
320,192,27262,1,0,0:0:0:0:
64,192,27341,1,0,0:0:0:0:
448,192,27341,1,0,0:0:0:0:
64,192,27499,1,0,0:0:0:0:
320,192,27499,1,0,0:0:0:0:
192,192,27578,1,0,0:0:0:0:
320,192,27657,1,0,0:0:0:0:
448,192,27736,1,0,0:0:0:0:
64,192,27815,1,0,0:0:0:0:
192,192,27815,1,0,0:0:0:0:
192,192,27973,1,0,0:0:0:0:
320,192,27973,1,0,0:0:0:0:
448,192,28131,1,0,0:0:0:0:
320,192,28210,1,0,0:0:0:0:
64,192,28289,1,0,0:0:0:0:
192,192,28289,1,0,0:0:0:0:
448,192,28367,1,0,0:0:0:0:
320,192,28446,1,0,0:0:0:0:
192,192,28525,1,0,0:0:0:0:
320,192,28604,1,0,0:0:0:0:
448,192,28604,1,0,0:0:0:0:
192,192,28762,1,0,0:0:0:0:
320,192,28762,1,0,0:0:0:0:
448,192,28841,1,0,0:0:0:0:
320,192,28920,1,0,0:0:0:0:
192,192,28999,1,0,0:0:0:0:
64,192,29078,1,0,0:0:0:0:
448,192,29078,1,0,0:0:0:0:
192,192,29157,1,0,0:0:0:0:
320,192,29236,1,0,0:0:0:0:
448,192,29236,1,0,0:0:0:0:
64,192,29394,1,0,0:0:0:0:
320,192,29394,1,0,0:0:0:0:
192,192,29473,1,0,0:0:0:0:
320,192,29552,1,0,0:0:0:0:
448,192,29552,1,0,0:0:0:0:
192,192,29631,1,0,0:0:0:0:
320,192,29710,1,0,0:0:0:0:
448,192,29710,1,0,0:0:0:0:
64,192,29789,1,0,0:0:0:0:
192,192,29867,1,0,0:0:0:0:
320,192,29867,1,0,0:0:0:0:
448,192,29946,1,0,0:0:0:0:
192,192,30025,1,0,0:0:0:0:
320,192,30025,1,0,0:0:0:0:
64,192,30104,1,0,0:0:0:0:
320,192,30183,1,0,0:0:0:0:
448,192,30183,1,0,0:0:0:0:
192,0,30183,128,0,30815:1:0:0:0:
64,192,30815,1,0,0:0:0:0:
320,192,30815,1,0,0:0:0:0:
448,192,30815,1,0,0:0:0:0:
320,192,30973,1,0,0:0:0:0:
448,192,30973,1,0,0:0:0:0:
192,192,31052,1,0,0:0:0:0:
320,192,31131,1,0,0:0:0:0:
448,192,31131,1,0,0:0:0:0:
64,192,31210,1,0,0:0:0:0:
192,192,31289,1,0,0:0:0:0:
320,192,31289,1,0,0:0:0:0:
448,192,31367,1,0,0:0:0:0:
192,192,31446,1,0,0:0:0:0:
320,192,31446,1,0,0:0:0:0:
192,192,31604,1,0,0:0:0:0:
448,192,31604,1,0,0:0:0:0:
320,192,31683,1,0,0:0:0:0:
64,192,31762,1,0,0:0:0:0:
192,192,31762,1,0,0:0:0:0:
192,192,31920,1,0,0:0:0:0:
320,192,31920,1,0,0:0:0:0:
64,192,31999,1,0,0:0:0:0:
320,192,32078,1,0,0:0:0:0:
448,192,32078,1,0,0:0:0:0:
192,192,32157,1,0,0:0:0:0:
64,192,32236,1,0,0:0:0:0:
448,192,32236,1,0,0:0:0:0:
320,192,32315,1,0,0:0:0:0:
64,192,32394,1,0,0:0:0:0:
192,192,32394,1,0,0:0:0:0:
192,192,32552,1,0,0:0:0:0:
448,192,32552,1,0,0:0:0:0:
64,192,32631,1,0,0:0:0:0:
320,192,32710,1,0,0:0:0:0:
448,192,32710,1,0,0:0:0:0:
192,192,32789,1,0,0:0:0:0:
320,192,32867,1,0,0:0:0:0:
448,192,32867,1,0,0:0:0:0:
192,192,33025,1,0,0:0:0:0:
448,192,33025,1,0,0:0:0:0:
64,192,33183,1,0,0:0:0:0:
192,192,33183,1,0,0:0:0:0:
320,192,33262,1,0,0:0:0:0:
64,192,33341,1,0,0:0:0:0:
192,192,33341,1,0,0:0:0:0:
320,192,33499,1,0,0:0:0:0:
192,192,33578,1,0,0:0:0:0:
64,192,33657,1,0,0:0:0:0:
448,192,33657,1,0,0:0:0:0:
192,192,33736,1,0,0:0:0:0:
64,192,33815,1,0,0:0:0:0:
320,192,33815,1,0,0:0:0:0:
320,192,33973,1,0,0:0:0:0:
448,192,33973,1,0,0:0:0:0:
64,192,34052,1,0,0:0:0:0:
192,192,34131,1,0,0:0:0:0:
448,192,34131,1,0,0:0:0:0:
320,192,34210,1,0,0:0:0:0:
64,192,34289,1,0,0:0:0:0:
448,192,34289,1,0,0:0:0:0:
64,192,34446,1,0,0:0:0:0:
192,192,34446,1,0,0:0:0:0:
320,192,34525,1,0,0:0:0:0:
448,192,34525,1,0,0:0:0:0:
192,192,34604,1,0,0:0:0:0:
64,192,34683,1,0,0:0:0:0:
320,192,34683,1,0,0:0:0:0:
192,192,34762,1,0,0:0:0:0:
448,192,34762,1,0,0:0:0:0:
320,192,34815,1,0,0:0:0:0:
192,192,34867,1,0,0:0:0:0:
64,192,34920,1,0,0:0:0:0:
448,192,34920,1,0,0:0:0:0:
320,192,34999,1,0,0:0:0:0:
64,192,35078,1,0,0:0:0:0:
448,192,35078,1,0,0:0:0:0:
192,192,35157,1,0,0:0:0:0:
64,192,35236,1,0,0:0:0:0:
320,192,35236,1,0,0:0:0:0:
192,192,35315,1,0,0:0:0:0:
320,192,35394,1,0,0:0:0:0:
448,192,35394,1,0,0:0:0:0:
64,192,35473,1,0,0:0:0:0:
192,192,35473,1,0,0:0:0:0:
320,192,35552,1,0,0:0:0:0:
448,192,35552,1,0,0:0:0:0:
320,192,35710,1,0,0:0:0:0:
448,192,35710,1,0,0:0:0:0:
64,192,35789,1,0,0:0:0:0:
192,192,35789,1,0,0:0:0:0:
320,192,35867,1,0,0:0:0:0:
448,192,35867,1,0,0:0:0:0:
64,192,35946,1,0,0:0:0:0:
192,192,36025,1,0,0:0:0:0:
64,192,36104,1,0,0:0:0:0:
192,192,36183,1,0,0:0:0:0:
320,192,36183,1,0,0:0:0:0:
64,192,36341,1,0,0:0:0:0:
320,192,36341,1,0,0:0:0:0:
192,192,36420,1,0,0:0:0:0:
64,192,36499,1,0,0:0:0:0:
448,192,36499,1,0,0:0:0:0:
320,192,36578,1,0,0:0:0:0:
64,192,36657,1,0,0:0:0:0:
192,192,36657,1,0,0:0:0:0:
192,192,36815,1,0,0:0:0:0:
320,192,36815,1,0,0:0:0:0:
192,192,36973,1,0,0:0:0:0:
320,192,36973,1,0,0:0:0:0:
448,192,37052,1,0,0:0:0:0:
64,192,37131,1,0,0:0:0:0:
192,192,37131,1,0,0:0:0:0:
64,192,37289,1,0,0:0:0:0:
448,192,37289,1,0,0:0:0:0:
192,192,37367,1,0,0:0:0:0:
320,192,37446,1,0,0:0:0:0:
448,192,37446,1,0,0:0:0:0:
320,192,37604,1,0,0:0:0:0:
448,192,37604,1,0,0:0:0:0:
64,192,37683,1,0,0:0:0:0:
192,192,37762,1,0,0:0:0:0:
448,192,37762,1,0,0:0:0:0:
320,192,37841,1,0,0:0:0:0:
64,192,37920,1,0,0:0:0:0:
448,192,37920,1,0,0:0:0:0:
64,192,38078,1,0,0:0:0:0:
192,192,38078,1,0,0:0:0:0:
64,192,38236,1,0,0:0:0:0:
448,192,38236,1,0,0:0:0:0:
320,192,38315,1,0,0:0:0:0:
192,192,38394,1,0,0:0:0:0:
448,192,38394,1,0,0:0:0:0:
64,192,38473,1,0,0:0:0:0:
192,192,38552,1,0,0:0:0:0:
320,192,38552,1,0,0:0:0:0:
448,192,38631,1,0,0:0:0:0:
192,192,38710,1,0,0:0:0:0:
320,192,38710,1,0,0:0:0:0:
448,192,38789,1,0,0:0:0:0:
64,192,38867,1,0,0:0:0:0:
192,192,38867,1,0,0:0:0:0:
448,192,38946,1,0,0:0:0:0:
192,192,39025,1,0,0:0:0:0:
320,192,39025,1,0,0:0:0:0:
64,192,39183,1,0,0:0:0:0:
192,192,39183,1,0,0:0:0:0:
320,192,39262,1,0,0:0:0:0:
448,192,39262,1,0,0:0:0:0:
64,192,39341,1,0,0:0:0:0:
192,192,39341,1,0,0:0:0:0:
320,192,39420,1,0,0:0:0:0:
448,192,39420,1,0,0:0:0:0:
64,192,39499,1,0,0:0:0:0:
192,192,39499,1,0,0:0:0:0:
320,192,39578,1,0,0:0:0:0:
448,192,39578,1,0,0:0:0:0:
64,192,39657,1,0,0:0:0:0:
192,192,39815,1,0,0:0:0:0:
320,192,39815,1,0,0:0:0:0:
448,192,39815,1,0,0:0:0:0:
64,192,40131,1,0,0:0:0:0:
320,192,40131,1,0,0:0:0:0:
448,192,40131,1,0,0:0:0:0:
192,192,40446,1,0,0:0:0:0:
64,0,40446,128,0,40762:1:0:0:0:
448,0,40446,128,0,40762:1:0:0:0:
192,192,40762,1,0,0:0:0:0:
320,192,40762,1,0,0:0:0:0:
64,192,40920,1,0,0:0:0:0:
192,192,40920,1,0,0:0:0:0:
320,192,40920,1,0,0:0:0:0:
448,192,40920,1,0,0:0:0:0:
320,192,41394,1,0,0:0:0:0:
448,192,41394,1,0,0:0:0:0:
320,192,41710,1,0,0:0:0:0:
448,192,41710,1,0,0:0:0:0:
64,192,42025,1,0,0:0:0:0:
448,192,42025,1,0,0:0:0:0:
64,192,42341,1,0,0:0:0:0:
192,192,42499,1,0,0:0:0:0:
320,192,42657,1,0,0:0:0:0:
64,192,42815,1,0,0:0:0:0:
448,192,42815,1,0,0:0:0:0:
192,192,43131,1,0,0:0:0:0:
320,192,43131,1,0,0:0:0:0:
192,192,43446,1,0,0:0:0:0:
448,192,43446,1,0,0:0:0:0:
64,192,43762,1,0,0:0:0:0:
320,192,43920,1,0,0:0:0:0:
448,192,43920,1,0,0:0:0:0:
320,192,44236,1,0,0:0:0:0:
448,192,44236,1,0,0:0:0:0:
64,192,44552,1,0,0:0:0:0:
320,192,44552,1,0,0:0:0:0:
64,192,44867,1,0,0:0:0:0:
192,192,45025,1,0,0:0:0:0:
320,192,45183,1,0,0:0:0:0:
192,192,45341,1,0,0:0:0:0:
448,192,45341,1,0,0:0:0:0:
192,192,45657,1,0,0:0:0:0:
448,192,45657,1,0,0:0:0:0:
64,192,45973,1,0,0:0:0:0:
448,192,45973,1,0,0:0:0:0:
320,192,46289,1,0,0:0:0:0:
192,192,46446,1,0,0:0:0:0:
320,192,46604,1,0,0:0:0:0:
448,192,46604,1,0,0:0:0:0:
64,192,46762,1,0,0:0:0:0:
192,192,46762,1,0,0:0:0:0:
320,192,46920,1,0,0:0:0:0:
192,192,47078,1,0,0:0:0:0:
448,192,47078,1,0,0:0:0:0:
64,192,47236,1,0,0:0:0:0:
320,192,47236,1,0,0:0:0:0:
192,192,47394,1,0,0:0:0:0:
320,192,47552,1,0,0:0:0:0:
448,192,47710,1,0,0:0:0:0:
64,192,47867,1,0,0:0:0:0:
320,192,47867,1,0,0:0:0:0:
64,192,48183,1,0,0:0:0:0:
448,192,48183,1,0,0:0:0:0:
192,192,48499,1,0,0:0:0:0:
448,192,48499,1,0,0:0:0:0:
64,192,48815,1,0,0:0:0:0:
192,192,48973,1,0,0:0:0:0:
320,192,48973,1,0,0:0:0:0:
64,192,49131,1,0,0:0:0:0:
448,192,49131,1,0,0:0:0:0:
192,192,49288,1,0,0:0:0:0:
320,192,49288,1,0,0:0:0:0:
448,192,49446,1,0,0:0:0:0:
192,192,49604,1,0,0:0:0:0:
320,192,49604,1,0,0:0:0:0:
64,192,49762,1,0,0:0:0:0:
448,192,49762,1,0,0:0:0:0:
192,192,49920,1,0,0:0:0:0:
64,192,50078,1,0,0:0:0:0:
320,192,50236,1,0,0:0:0:0:
192,192,50394,1,0,0:0:0:0:
448,192,50394,1,0,0:0:0:0:
192,192,50710,1,0,0:0:0:0:
448,192,50710,1,0,0:0:0:0:
64,192,51025,1,0,0:0:0:0:
448,192,51025,1,0,0:0:0:0:
320,192,51341,1,0,0:0:0:0:
64,192,51499,1,0,0:0:0:0:
320,192,51657,1,0,0:0:0:0:
448,192,51657,1,0,0:0:0:0:
64,192,51815,1,0,0:0:0:0:
192,192,51815,1,0,0:0:0:0:
320,192,51973,1,0,0:0:0:0:
64,192,52131,1,0,0:0:0:0:
448,192,52131,1,0,0:0:0:0:
192,192,52288,1,0,0:0:0:0:
320,192,52288,1,0,0:0:0:0:
64,192,52446,1,0,0:0:0:0:
320,192,52604,1,0,0:0:0:0:
448,192,52762,1,0,0:0:0:0:
64,192,52920,1,0,0:0:0:0:
320,192,52920,1,0,0:0:0:0:
192,192,53078,1,0,0:0:0:0:
320,192,53236,1,0,0:0:0:0:
448,192,53236,1,0,0:0:0:0:
64,192,53552,1,0,0:0:0:0:
320,192,53552,1,0,0:0:0:0:
192,192,53710,1,0,0:0:0:0:
320,192,53867,1,0,0:0:0:0:
64,192,54025,1,0,0:0:0:0:
192,192,54025,1,0,0:0:0:0:
320,192,54183,1,0,0:0:0:0:
448,192,54183,1,0,0:0:0:0:
64,192,54341,1,0,0:0:0:0:
192,192,54341,1,0,0:0:0:0:
448,192,54499,1,0,0:0:0:0:
192,192,54657,1,0,0:0:0:0:
320,192,54657,1,0,0:0:0:0:
64,192,54815,1,0,0:0:0:0:
448,192,54815,1,0,0:0:0:0:
192,192,54973,1,0,0:0:0:0:
320,192,54973,1,0,0:0:0:0:
64,192,55131,1,0,0:0:0:0:
320,192,55288,1,0,0:0:0:0:
192,192,55446,1,0,0:0:0:0:
448,192,55446,1,0,0:0:0:0:
192,192,55762,1,0,0:0:0:0:
448,192,55762,1,0,0:0:0:0:
64,192,56078,1,0,0:0:0:0:
448,192,56078,1,0,0:0:0:0:
320,192,56394,1,0,0:0:0:0:
192,192,56552,1,0,0:0:0:0:
320,192,56710,1,0,0:0:0:0:
448,192,56710,1,0,0:0:0:0:
64,192,56867,1,0,0:0:0:0:
192,192,56867,1,0,0:0:0:0:
448,192,57025,1,0,0:0:0:0:
64,192,57183,1,0,0:0:0:0:
192,192,57183,1,0,0:0:0:0:
320,192,57341,1,0,0:0:0:0:
448,192,57341,1,0,0:0:0:0:
64,192,57499,1,0,0:0:0:0:
192,192,57657,1,0,0:0:0:0:
320,192,57815,1,0,0:0:0:0:
192,192,57973,1,0,0:0:0:0:
448,192,57973,1,0,0:0:0:0:
320,192,58131,1,0,0:0:0:0:
64,192,58288,1,0,0:0:0:0:
448,192,58288,1,0,0:0:0:0:
320,192,58446,1,0,0:0:0:0:
192,192,58604,1,0,0:0:0:0:
448,192,58604,1,0,0:0:0:0:
320,192,58762,1,0,0:0:0:0:
64,192,58920,1,0,0:0:0:0:
192,192,59078,1,0,0:0:0:0:
320,192,59078,1,0,0:0:0:0:
64,192,59236,1,0,0:0:0:0:
448,192,59236,1,0,0:0:0:0:
192,192,59394,1,0,0:0:0:0:
320,192,59394,1,0,0:0:0:0:
448,192,59552,1,0,0:0:0:0:
64,192,59710,1,0,0:0:0:0:
192,192,59710,1,0,0:0:0:0:
320,192,59788,1,0,0:0:0:0:
64,192,59867,1,0,0:0:0:0:
448,192,59867,1,0,0:0:0:0:
192,192,59946,1,0,0:0:0:0:
320,192,60025,1,0,0:0:0:0:
192,192,60104,1,0,0:0:0:0:
64,192,60183,1,0,0:0:0:0:
448,192,60262,1,0,0:0:0:0:
320,192,60341,1,0,0:0:0:0:
192,192,60420,1,0,0:0:0:0:
320,192,60499,1,0,0:0:0:0:
448,192,60499,1,0,0:0:0:0:
64,192,60657,1,0,0:0:0:0:
192,192,60657,1,0,0:0:0:0:
64,192,60815,1,0,0:0:0:0:
192,192,60815,1,0,0:0:0:0:
320,192,60815,1,0,0:0:0:0:
448,192,60815,1,0,0:0:0:0:
64,192,61131,1,0,0:0:0:0:
192,192,61131,1,0,0:0:0:0:
448,192,61131,1,0,0:0:0:0:
320,192,61210,1,0,0:0:0:0:
192,192,61288,1,0,0:0:0:0:
320,192,61446,1,0,0:0:0:0:
448,192,61446,1,0,0:0:0:0:
64,192,61604,1,0,0:0:0:0:
192,192,61604,1,0,0:0:0:0:
320,192,61683,1,0,0:0:0:0:
192,192,61762,1,0,0:0:0:0:
448,192,61762,1,0,0:0:0:0:
320,192,61841,1,0,0:0:0:0:
64,192,61920,1,0,0:0:0:0:
192,192,61920,1,0,0:0:0:0:
320,192,62078,1,0,0:0:0:0:
448,192,62078,1,0,0:0:0:0:
192,192,62236,1,0,0:0:0:0:
320,192,62236,1,0,0:0:0:0:
448,192,62315,1,0,0:0:0:0:
64,192,62394,1,0,0:0:0:0:
192,192,62394,1,0,0:0:0:0:
320,192,62552,1,0,0:0:0:0:
192,192,62631,1,0,0:0:0:0:
320,192,62710,1,0,0:0:0:0:
448,192,62710,1,0,0:0:0:0:
64,192,62867,1,0,0:0:0:0:
192,192,62867,1,0,0:0:0:0:
448,192,62946,1,0,0:0:0:0:
64,192,63025,1,0,0:0:0:0:
320,192,63025,1,0,0:0:0:0:
192,192,63104,1,0,0:0:0:0:
64,192,63183,1,0,0:0:0:0:
448,192,63183,1,0,0:0:0:0:
192,192,63262,1,0,0:0:0:0:
320,192,63341,1,0,0:0:0:0:
448,192,63341,1,0,0:0:0:0:
192,192,63499,1,0,0:0:0:0:
320,192,63499,1,0,0:0:0:0:
448,192,63578,1,0,0:0:0:0:
64,192,63657,1,0,0:0:0:0:
192,192,63657,1,0,0:0:0:0:
448,192,63736,1,0,0:0:0:0:
64,192,63815,1,0,0:0:0:0:
320,192,63815,1,0,0:0:0:0:
192,192,63894,1,0,0:0:0:0:
320,192,63973,1,0,0:0:0:0:
448,192,63973,1,0,0:0:0:0:
192,192,64052,1,0,0:0:0:0:
64,192,64131,1,0,0:0:0:0:
448,192,64131,1,0,0:0:0:0:
320,192,64210,1,0,0:0:0:0:
64,192,64288,1,0,0:0:0:0:
192,192,64288,1,0,0:0:0:0:
320,192,64367,1,0,0:0:0:0:
64,192,64446,1,0,0:0:0:0:
448,192,64446,1,0,0:0:0:0:
192,192,64525,1,0,0:0:0:0:
320,192,64604,1,0,0:0:0:0:
448,192,64604,1,0,0:0:0:0:
192,192,64683,1,0,0:0:0:0:
64,192,64762,1,0,0:0:0:0:
320,192,64762,1,0,0:0:0:0:
448,192,64841,1,0,0:0:0:0:
64,192,64920,1,0,0:0:0:0:
192,192,64920,1,0,0:0:0:0:
320,192,64999,1,0,0:0:0:0:
64,192,65078,1,0,0:0:0:0:
192,192,65078,1,0,0:0:0:0:
320,192,65157,1,0,0:0:0:0:
64,192,65236,1,0,0:0:0:0:
448,192,65236,1,0,0:0:0:0:
320,192,65315,1,0,0:0:0:0:
64,192,65394,1,0,0:0:0:0:
192,192,65394,1,0,0:0:0:0:
320,192,65473,1,0,0:0:0:0:
192,192,65552,1,0,0:0:0:0:
448,192,65552,1,0,0:0:0:0:
64,192,65710,1,0,0:0:0:0:
192,192,65710,1,0,0:0:0:0:
320,192,65788,1,0,0:0:0:0:
448,192,65788,1,0,0:0:0:0:
64,192,65867,1,0,0:0:0:0:
192,192,65867,1,0,0:0:0:0:
320,192,66025,1,0,0:0:0:0:
448,192,66025,1,0,0:0:0:0:
64,192,66104,1,0,0:0:0:0:
192,192,66104,1,0,0:0:0:0:
320,192,66183,1,0,0:0:0:0:
448,192,66183,1,0,0:0:0:0:
192,192,66341,1,0,0:0:0:0:
320,192,66341,1,0,0:0:0:0:
64,192,66420,1,0,0:0:0:0:
320,192,66499,1,0,0:0:0:0:
448,192,66499,1,0,0:0:0:0:
64,192,66578,1,0,0:0:0:0:
192,192,66657,1,0,0:0:0:0:
320,192,66657,1,0,0:0:0:0:
320,192,66815,1,0,0:0:0:0:
448,192,66815,1,0,0:0:0:0:
192,192,66894,1,0,0:0:0:0:
64,192,66973,1,0,0:0:0:0:
320,192,66973,1,0,0:0:0:0:
192,192,67052,1,0,0:0:0:0:
320,192,67131,1,0,0:0:0:0:
448,192,67131,1,0,0:0:0:0:
192,192,67288,1,0,0:0:0:0:
320,192,67288,1,0,0:0:0:0:
448,192,67367,1,0,0:0:0:0:
64,192,67446,1,0,0:0:0:0:
192,192,67446,1,0,0:0:0:0:
320,192,67604,1,0,0:0:0:0:
192,192,67683,1,0,0:0:0:0:
320,192,67762,1,0,0:0:0:0:
448,192,67762,1,0,0:0:0:0:
64,192,67920,1,0,0:0:0:0:
448,192,67920,1,0,0:0:0:0:
192,192,67999,1,0,0:0:0:0:
320,192,68078,1,0,0:0:0:0:
448,192,68078,1,0,0:0:0:0:
192,192,68157,1,0,0:0:0:0:
64,192,68236,1,0,0:0:0:0:
448,192,68236,1,0,0:0:0:0:
320,192,68315,1,0,0:0:0:0:
192,192,68394,1,0,0:0:0:0:
448,192,68394,1,0,0:0:0:0:
192,192,68552,1,0,0:0:0:0:
448,192,68552,1,0,0:0:0:0:
320,192,68631,1,0,0:0:0:0:
64,192,68710,1,0,0:0:0:0:
448,192,68710,1,0,0:0:0:0:
64,192,68867,1,0,0:0:0:0:
320,192,68867,1,0,0:0:0:0:
192,192,68946,1,0,0:0:0:0:
320,192,69025,1,0,0:0:0:0:
448,192,69025,1,0,0:0:0:0:
64,192,69183,1,0,0:0:0:0:
192,192,69183,1,0,0:0:0:0:
320,192,69262,1,0,0:0:0:0:
192,192,69341,1,0,0:0:0:0:
448,192,69341,1,0,0:0:0:0:
64,192,69420,1,0,0:0:0:0:
192,192,69499,1,0,0:0:0:0:
320,192,69499,1,0,0:0:0:0:
64,192,69578,1,0,0:0:0:0:
320,192,69657,1,0,0:0:0:0:
448,192,69657,1,0,0:0:0:0:
64,192,69815,1,0,0:0:0:0:
192,192,69815,1,0,0:0:0:0:
320,192,69894,1,0,0:0:0:0:
448,192,69973,1,0,0:0:0:0:
320,192,70052,1,0,0:0:0:0:
64,192,70131,1,0,0:0:0:0:
192,192,70131,1,0,0:0:0:0:
448,192,70210,1,0,0:0:0:0:
192,192,70288,1,0,0:0:0:0:
320,192,70288,1,0,0:0:0:0:
448,192,70367,1,0,0:0:0:0:
64,192,70446,1,0,0:0:0:0:
192,192,70446,1,0,0:0:0:0:
320,192,70525,1,0,0:0:0:0:
64,192,70604,1,0,0:0:0:0:
192,192,70604,1,0,0:0:0:0:
448,0,70604,128,0,71236:1:0:0:0:
64,192,71236,1,0,0:0:0:0:
192,192,71236,1,0,0:0:0:0:
320,192,71236,1,0,0:0:0:0:
448,192,71315,1,0,0:0:0:0:
192,192,71394,1,0,0:0:0:0:
192,192,71552,1,0,0:0:0:0:
448,192,71552,1,0,0:0:0:0:
320,192,71631,1,0,0:0:0:0:
64,192,71710,1,0,0:0:0:0:
192,192,71710,1,0,0:0:0:0:
320,192,71788,1,0,0:0:0:0:
192,192,71867,1,0,0:0:0:0:
448,192,71867,1,0,0:0:0:0:
64,192,71946,1,0,0:0:0:0:
192,192,72025,1,0,0:0:0:0:
320,192,72025,1,0,0:0:0:0:
320,192,72183,1,0,0:0:0:0:
448,192,72183,1,0,0:0:0:0:
192,192,72262,1,0,0:0:0:0:
64,192,72341,1,0,0:0:0:0:
320,192,72341,1,0,0:0:0:0:
192,192,72420,1,0,0:0:0:0:
320,192,72499,1,0,0:0:0:0:
448,192,72499,1,0,0:0:0:0:
64,192,72657,1,0,0:0:0:0:
192,192,72657,1,0,0:0:0:0:
320,192,72736,1,0,0:0:0:0:
64,192,72815,1,0,0:0:0:0:
192,192,72815,1,0,0:0:0:0:
64,192,72973,1,0,0:0:0:0:
320,192,72973,1,0,0:0:0:0:
448,192,73052,1,0,0:0:0:0:
192,192,73131,1,0,0:0:0:0:
320,192,73131,1,0,0:0:0:0:
64,192,73210,1,0,0:0:0:0:
192,192,73288,1,0,0:0:0:0:
448,192,73288,1,0,0:0:0:0:
64,192,73367,1,0,0:0:0:0:
192,192,73446,1,0,0:0:0:0:
320,192,73446,1,0,0:0:0:0:
64,192,73604,1,0,0:0:0:0:
320,192,73604,1,0,0:0:0:0:
448,192,73683,1,0,0:0:0:0:
64,192,73762,1,0,0:0:0:0:
192,192,73762,1,0,0:0:0:0:
64,192,73920,1,0,0:0:0:0:
448,192,73920,1,0,0:0:0:0:
192,192,73999,1,0,0:0:0:0:
320,192,74078,1,0,0:0:0:0:
448,192,74078,1,0,0:0:0:0:
64,192,74236,1,0,0:0:0:0:
320,192,74236,1,0,0:0:0:0:
192,192,74315,1,0,0:0:0:0:
64,192,74394,1,0,0:0:0:0:
448,192,74394,1,0,0:0:0:0:
320,192,74473,1,0,0:0:0:0:
192,192,74552,1,0,0:0:0:0:
448,192,74552,1,0,0:0:0:0:
192,192,74710,1,0,0:0:0:0:
448,192,74710,1,0,0:0:0:0:
320,192,74867,1,0,0:0:0:0:
448,192,74867,1,0,0:0:0:0:
192,192,74946,1,0,0:0:0:0:
64,192,75025,1,0,0:0:0:0:
64,192,75183,1,0,0:0:0:0:
448,192,75183,1,0,0:0:0:0:
192,192,75262,1,0,0:0:0:0:
320,192,75341,1,0,0:0:0:0:
448,192,75341,1,0,0:0:0:0:
64,192,75499,1,0,0:0:0:0:
320,192,75499,1,0,0:0:0:0:
192,192,75578,1,0,0:0:0:0:
64,192,75657,1,0,0:0:0:0:
448,192,75657,1,0,0:0:0:0:
64,192,75815,1,0,0:0:0:0:
192,192,75815,1,0,0:0:0:0:
320,192,75894,1,0,0:0:0:0:
448,192,75894,1,0,0:0:0:0:
64,192,75973,1,0,0:0:0:0:
192,192,75973,1,0,0:0:0:0:
320,192,76131,1,0,0:0:0:0:
448,192,76131,1,0,0:0:0:0:
64,192,76210,1,0,0:0:0:0:
192,192,76210,1,0,0:0:0:0:
320,192,76288,1,0,0:0:0:0:
448,192,76288,1,0,0:0:0:0:
192,192,76367,1,0,0:0:0:0:
64,192,76446,1,0,0:0:0:0:
192,192,76525,1,0,0:0:0:0:
320,192,76604,1,0,0:0:0:0:
448,192,76604,1,0,0:0:0:0:
192,192,76762,1,0,0:0:0:0:
320,192,76762,1,0,0:0:0:0:
448,192,76841,1,0,0:0:0:0:
64,192,76920,1,0,0:0:0:0:
192,192,76920,1,0,0:0:0:0:
448,192,76999,1,0,0:0:0:0:
192,192,77078,1,0,0:0:0:0:
320,192,77078,1,0,0:0:0:0:
64,192,77236,1,0,0:0:0:0:
448,192,77236,1,0,0:0:0:0:
192,192,77394,1,0,0:0:0:0:
320,192,77394,1,0,0:0:0:0:
448,192,77473,1,0,0:0:0:0:
64,192,77552,1,0,0:0:0:0:
320,192,77552,1,0,0:0:0:0:
192,192,77710,1,0,0:0:0:0:
320,192,77710,1,0,0:0:0:0:
448,192,77788,1,0,0:0:0:0:
192,192,77867,1,0,0:0:0:0:
320,192,77867,1,0,0:0:0:0:
64,192,78025,1,0,0:0:0:0:
192,192,78025,1,0,0:0:0:0:
448,192,78104,1,0,0:0:0:0:
192,192,78183,1,0,0:0:0:0:
320,192,78183,1,0,0:0:0:0:
320,192,78341,1,0,0:0:0:0:
448,192,78341,1,0,0:0:0:0:
192,192,78499,1,0,0:0:0:0:
320,192,78499,1,0,0:0:0:0:
64,192,78657,1,0,0:0:0:0:
448,192,78657,1,0,0:0:0:0:
320,192,78736,1,0,0:0:0:0:
64,192,78815,1,0,0:0:0:0:
192,192,78815,1,0,0:0:0:0:
64,192,78973,1,0,0:0:0:0:
320,192,78973,1,0,0:0:0:0:
192,192,79052,1,0,0:0:0:0:
320,192,79131,1,0,0:0:0:0:
448,192,79131,1,0,0:0:0:0:
64,192,79288,1,0,0:0:0:0:
320,192,79288,1,0,0:0:0:0:
192,192,79367,1,0,0:0:0:0:
320,192,79446,1,0,0:0:0:0:
448,192,79446,1,0,0:0:0:0:
192,192,79525,1,0,0:0:0:0:
64,192,79604,1,0,0:0:0:0:
320,192,79604,1,0,0:0:0:0:
320,192,79762,1,0,0:0:0:0:
448,192,79762,1,0,0:0:0:0:
64,192,79920,1,0,0:0:0:0:
320,192,79920,1,0,0:0:0:0:
192,192,79999,1,0,0:0:0:0:
448,192,80078,1,0,0:0:0:0:
64,192,80117,1,0,0:0:0:0:
320,192,80157,1,0,0:0:0:0:
192,192,80196,1,0,0:0:0:0:
448,192,80236,1,0,0:0:0:0:
64,192,80275,1,0,0:0:0:0:
320,192,80315,1,0,0:0:0:0:
192,192,80354,1,0,0:0:0:0:
448,192,80394,1,0,0:0:0:0:
320,192,80473,1,0,0:0:0:0:
192,192,80552,1,0,0:0:0:0:
64,192,80631,1,0,0:0:0:0:
320,192,80710,1,0,0:0:0:0:
448,192,80710,1,0,0:0:0:0:
192,192,80867,1,0,0:0:0:0:
64,192,81025,1,0,0:0:0:0:
192,192,81025,1,0,0:0:0:0:
320,192,81025,1,0,0:0:0:0:
448,192,81025,1,0,0:0:0:0:
64,192,81341,1,0,0:0:0:0:
448,192,81341,1,0,0:0:0:0:
320,192,81420,1,0,0:0:0:0:
192,192,81499,1,0,0:0:0:0:
320,192,81657,1,0,0:0:0:0:
448,192,81657,1,0,0:0:0:0:
192,192,81815,1,0,0:0:0:0:
64,192,81973,1,0,0:0:0:0:
320,192,81973,1,0,0:0:0:0:
192,192,82131,1,0,0:0:0:0:
448,192,82131,1,0,0:0:0:0:
320,192,82209,1,0,0:0:0:0:
192,192,82288,1,0,0:0:0:0:
448,192,82288,1,0,0:0:0:0:
64,192,82446,1,0,0:0:0:0:
320,192,82446,1,0,0:0:0:0:
64,192,82604,1,0,0:0:0:0:
192,192,82604,1,0,0:0:0:0:
320,192,82762,1,0,0:0:0:0:
448,192,82762,1,0,0:0:0:0:
192,192,82920,1,0,0:0:0:0:
448,192,82920,1,0,0:0:0:0:
320,192,83078,1,0,0:0:0:0:
448,192,83078,1,0,0:0:0:0:
64,192,83236,1,0,0:0:0:0:
320,192,83236,1,0,0:0:0:0:
448,192,83236,1,0,0:0:0:0:
320,192,83394,1,0,0:0:0:0:
448,192,83394,1,0,0:0:0:0:
192,192,83473,1,0,0:0:0:0:
64,192,83552,1,0,0:0:0:0:
320,192,83552,1,0,0:0:0:0:
448,192,83631,1,0,0:0:0:0:
192,192,83709,1,0,0:0:0:0:
320,192,83709,1,0,0:0:0:0:
64,192,83867,1,0,0:0:0:0:
320,192,83867,1,0,0:0:0:0:
448,192,83867,1,0,0:0:0:0:
192,192,83946,1,0,0:0:0:0:
320,192,84025,1,0,0:0:0:0:
320,192,84183,1,0,0:0:0:0:
448,192,84183,1,0,0:0:0:0:
192,192,84341,1,0,0:0:0:0:
320,192,84420,1,0,0:0:0:0:
64,192,84499,1,0,0:0:0:0:
448,192,84499,1,0,0:0:0:0:
192,192,84657,1,0,0:0:0:0:
320,192,84657,1,0,0:0:0:0:
448,192,84736,1,0,0:0:0:0:
192,192,84815,1,0,0:0:0:0:
320,192,84815,1,0,0:0:0:0:
64,192,84973,1,0,0:0:0:0:
448,192,84973,1,0,0:0:0:0:
64,192,85131,1,0,0:0:0:0:
192,192,85131,1,0,0:0:0:0:
320,192,85288,1,0,0:0:0:0:
448,192,85288,1,0,0:0:0:0:
192,192,85446,1,0,0:0:0:0:
448,192,85446,1,0,0:0:0:0:
320,192,85604,1,0,0:0:0:0:
448,192,85604,1,0,0:0:0:0:
64,192,85762,1,0,0:0:0:0:
320,192,85762,1,0,0:0:0:0:
448,192,85762,1,0,0:0:0:0:
192,192,85920,1,0,0:0:0:0:
320,192,85920,1,0,0:0:0:0:
448,192,85999,1,0,0:0:0:0:
64,192,86078,1,0,0:0:0:0:
192,192,86078,1,0,0:0:0:0:
320,192,86131,1,0,0:0:0:0:
448,192,86183,1,0,0:0:0:0:
64,192,86236,1,0,0:0:0:0:
192,192,86288,1,0,0:0:0:0:
320,192,86341,1,0,0:0:0:0:
64,192,86394,1,0,0:0:0:0:
448,192,86394,1,0,0:0:0:0:
192,192,86473,1,0,0:0:0:0:
64,192,86552,1,0,0:0:0:0:
192,192,86709,1,0,0:0:0:0:
448,192,86709,1,0,0:0:0:0:
320,192,86867,1,0,0:0:0:0:
448,192,86867,1,0,0:0:0:0:
192,192,86946,1,0,0:0:0:0:
64,192,87025,1,0,0:0:0:0:
64,192,87183,1,0,0:0:0:0:
320,192,87183,1,0,0:0:0:0:
192,192,87262,1,0,0:0:0:0:
64,192,87341,1,0,0:0:0:0:
320,192,87341,1,0,0:0:0:0:
320,192,87499,1,0,0:0:0:0:
448,192,87499,1,0,0:0:0:0:
64,192,87657,1,0,0:0:0:0:
192,192,87657,1,0,0:0:0:0:
320,192,87815,1,0,0:0:0:0:
448,192,87815,1,0,0:0:0:0:
192,192,87973,1,0,0:0:0:0:
320,192,87973,1,0,0:0:0:0:
320,192,88131,1,0,0:0:0:0:
448,192,88131,1,0,0:0:0:0:
64,192,88288,1,0,0:0:0:0:
320,192,88288,1,0,0:0:0:0:
448,192,88288,1,0,0:0:0:0:
320,192,88446,1,0,0:0:0:0:
448,192,88446,1,0,0:0:0:0:
192,192,88604,1,0,0:0:0:0:
448,192,88604,1,0,0:0:0:0:
320,192,88683,1,0,0:0:0:0:
64,192,88762,1,0,0:0:0:0:
448,192,88762,1,0,0:0:0:0:
192,192,88920,1,0,0:0:0:0:
320,192,88920,1,0,0:0:0:0:
448,192,88920,1,0,0:0:0:0:
64,192,88999,1,0,0:0:0:0:
192,192,89078,1,0,0:0:0:0:
320,192,89236,1,0,0:0:0:0:
448,192,89236,1,0,0:0:0:0:
64,192,89394,1,0,0:0:0:0:
320,192,89552,1,0,0:0:0:0:
192,192,89709,1,0,0:0:0:0:
448,192,89709,1,0,0:0:0:0:
64,192,89788,1,0,0:0:0:0:
192,192,89867,1,0,0:0:0:0:
448,192,89867,1,0,0:0:0:0:
192,192,90025,1,0,0:0:0:0:
320,192,90025,1,0,0:0:0:0:
64,192,90183,1,0,0:0:0:0:
192,192,90183,1,0,0:0:0:0:
320,192,90341,1,0,0:0:0:0:
448,192,90341,1,0,0:0:0:0:
192,192,90499,1,0,0:0:0:0:
320,192,90499,1,0,0:0:0:0:
320,192,90657,1,0,0:0:0:0:
448,192,90657,1,0,0:0:0:0:
192,192,90736,1,0,0:0:0:0:
320,192,90815,1,0,0:0:0:0:
448,192,90815,1,0,0:0:0:0:
192,192,91052,1,0,0:0:0:0:
64,192,91131,1,0,0:0:0:0:
448,192,91131,1,0,0:0:0:0:
64,192,91446,1,0,0:0:0:0:
320,192,91446,1,0,0:0:0:0:
448,192,91446,1,0,0:0:0:0:
192,192,91524,1,0,0:0:0:0:
320,192,91603,1,0,0:0:0:0:
64,192,91761,1,0,0:0:0:0:
192,192,91761,1,0,0:0:0:0:
320,192,91919,1,0,0:0:0:0:
448,192,91919,1,0,0:0:0:0:
192,192,91998,1,0,0:0:0:0:
64,192,92077,1,0,0:0:0:0:
320,192,92077,1,0,0:0:0:0:
192,192,92156,1,0,0:0:0:0:
320,192,92235,1,0,0:0:0:0:
448,192,92235,1,0,0:0:0:0:
64,192,92393,1,0,0:0:0:0:
192,192,92393,1,0,0:0:0:0:
192,192,92551,1,0,0:0:0:0:
320,192,92551,1,0,0:0:0:0:
64,192,92630,1,0,0:0:0:0:
320,192,92709,1,0,0:0:0:0:
448,192,92709,1,0,0:0:0:0:
192,192,92867,1,0,0:0:0:0:
448,192,92867,1,0,0:0:0:0:
320,192,92946,1,0,0:0:0:0:
192,192,93024,1,0,0:0:0:0:
448,192,93024,1,0,0:0:0:0:
64,192,93103,1,0,0:0:0:0:
320,192,93182,1,0,0:0:0:0:
448,192,93182,1,0,0:0:0:0:
64,192,93261,1,0,0:0:0:0:
192,192,93340,1,0,0:0:0:0:
448,192,93340,1,0,0:0:0:0:
320,192,93419,1,0,0:0:0:0:
64,192,93498,1,0,0:0:0:0:
448,192,93498,1,0,0:0:0:0:
320,192,93577,1,0,0:0:0:0:
64,192,93656,1,0,0:0:0:0:
192,192,93656,1,0,0:0:0:0:
192,192,93814,1,0,0:0:0:0:
320,192,93814,1,0,0:0:0:0:
64,192,93893,1,0,0:0:0:0:
320,192,93972,1,0,0:0:0:0:
448,192,93972,1,0,0:0:0:0:
64,192,94051,1,0,0:0:0:0:
192,192,94130,1,0,0:0:0:0:
448,192,94130,1,0,0:0:0:0:
320,192,94209,1,0,0:0:0:0:
64,192,94288,1,0,0:0:0:0:
192,192,94288,1,0,0:0:0:0:
320,192,94367,1,0,0:0:0:0:
64,192,94446,1,0,0:0:0:0:
448,192,94446,1,0,0:0:0:0:
192,192,94524,1,0,0:0:0:0:
320,192,94603,1,0,0:0:0:0:
448,192,94603,1,0,0:0:0:0:
192,192,94682,1,0,0:0:0:0:
64,192,94761,1,0,0:0:0:0:
448,192,94761,1,0,0:0:0:0:
320,192,94840,1,0,0:0:0:0:
64,192,94919,1,0,0:0:0:0:
192,192,94919,1,0,0:0:0:0:
320,192,94998,1,0,0:0:0:0:
192,192,95077,1,0,0:0:0:0:
448,192,95077,1,0,0:0:0:0:
64,192,95156,1,0,0:0:0:0:
320,192,95235,1,0,0:0:0:0:
448,192,95235,1,0,0:0:0:0:
192,192,95314,1,0,0:0:0:0:
320,192,95393,1,0,0:0:0:0:
448,192,95393,1,0,0:0:0:0:
192,192,95472,1,0,0:0:0:0:
64,192,95551,1,0,0:0:0:0:
448,192,95551,1,0,0:0:0:0:
320,192,95709,1,0,0:0:0:0:
448,192,95709,1,0,0:0:0:0:
192,192,95788,1,0,0:0:0:0:
64,192,95867,1,0,0:0:0:0:
320,192,95867,1,0,0:0:0:0:
320,192,96024,1,0,0:0:0:0:
448,192,96024,1,0,0:0:0:0:
64,192,96103,1,0,0:0:0:0:
192,192,96103,1,0,0:0:0:0:
320,192,96182,1,0,0:0:0:0:
448,192,96182,1,0,0:0:0:0:
64,192,96340,1,0,0:0:0:0:
192,192,96340,1,0,0:0:0:0:
320,192,96419,1,0,0:0:0:0:
448,192,96419,1,0,0:0:0:0:
64,192,96498,1,0,0:0:0:0:
192,192,96498,1,0,0:0:0:0:
448,192,96577,1,0,0:0:0:0:
192,192,96656,1,0,0:0:0:0:
320,192,96656,1,0,0:0:0:0:
448,192,96735,1,0,0:0:0:0:
64,192,96814,1,0,0:0:0:0:
192,192,96814,1,0,0:0:0:0:
448,192,96893,1,0,0:0:0:0:
192,192,96972,1,0,0:0:0:0:
320,192,96972,1,0,0:0:0:0:
448,192,97051,1,0,0:0:0:0:
64,192,97130,1,0,0:0:0:0:
192,192,97130,1,0,0:0:0:0:
320,192,97209,1,0,0:0:0:0:
192,192,97288,1,0,0:0:0:0:
448,192,97288,1,0,0:0:0:0:
320,192,97367,1,0,0:0:0:0:
64,192,97446,1,0,0:0:0:0:
192,192,97446,1,0,0:0:0:0:
192,192,97603,1,0,0:0:0:0:
320,192,97603,1,0,0:0:0:0:
64,192,97682,1,0,0:0:0:0:
320,192,97761,1,0,0:0:0:0:
448,192,97761,1,0,0:0:0:0:
64,192,97919,1,0,0:0:0:0:
192,192,97919,1,0,0:0:0:0:
320,192,97998,1,0,0:0:0:0:
64,192,98077,1,0,0:0:0:0:
192,192,98077,1,0,0:0:0:0:
64,192,98235,1,0,0:0:0:0:
448,192,98235,1,0,0:0:0:0:
320,192,98314,1,0,0:0:0:0:
64,192,98393,1,0,0:0:0:0:
192,192,98393,1,0,0:0:0:0:
320,192,98472,1,0,0:0:0:0:
64,192,98551,1,0,0:0:0:0:
448,192,98551,1,0,0:0:0:0:
192,192,98630,1,0,0:0:0:0:
64,192,98709,1,0,0:0:0:0:
320,192,98709,1,0,0:0:0:0:
64,192,98867,1,0,0:0:0:0:
320,192,98867,1,0,0:0:0:0:
192,192,98946,1,0,0:0:0:0:
64,192,99024,1,0,0:0:0:0:
448,192,99024,1,0,0:0:0:0:
320,192,99103,1,0,0:0:0:0:
192,192,99182,1,0,0:0:0:0:
448,192,99182,1,0,0:0:0:0:
320,192,99261,1,0,0:0:0:0:
64,192,99340,1,0,0:0:0:0:
192,192,99340,1,0,0:0:0:0:
320,192,99498,1,0,0:0:0:0:
448,192,99498,1,0,0:0:0:0:
192,192,99577,1,0,0:0:0:0:
64,192,99656,1,0,0:0:0:0:
320,192,99656,1,0,0:0:0:0:
448,192,99735,1,0,0:0:0:0:
192,192,99814,1,0,0:0:0:0:
320,192,99814,1,0,0:0:0:0:
448,192,99893,1,0,0:0:0:0:
64,192,99972,1,0,0:0:0:0:
192,192,99972,1,0,0:0:0:0:
192,192,100130,1,0,0:0:0:0:
448,192,100130,1,0,0:0:0:0:
320,192,100209,1,0,0:0:0:0:
64,192,100288,1,0,0:0:0:0:
192,192,100288,1,0,0:0:0:0:
320,192,100367,1,0,0:0:0:0:
448,192,100367,1,0,0:0:0:0:
64,192,100446,1,0,0:0:0:0:
192,192,100446,1,0,0:0:0:0:
320,192,100524,1,0,0:0:0:0:
448,192,100524,1,0,0:0:0:0:
64,192,100603,1,0,0:0:0:0:
192,192,100603,1,0,0:0:0:0:
320,192,100682,1,0,0:0:0:0:
448,192,100682,1,0,0:0:0:0:
64,192,100761,1,0,0:0:0:0:
192,192,100761,1,0,0:0:0:0:
320,192,100840,1,0,0:0:0:0:
448,192,100840,1,0,0:0:0:0:
64,192,100919,1,0,0:0:0:0:
192,192,100919,1,0,0:0:0:0:
192,192,101038,1,0,0:0:0:0:
448,192,101077,1,0,0:0:0:0:
64,192,101235,1,0,0:0:0:0:
192,192,101235,1,0,0:0:0:0:
320,192,101235,1,0,0:0:0:0:
192,192,101551,1,0,0:0:0:0:
320,192,101551,1,0,0:0:0:0:
448,192,101551,1,0,0:0:0:0:
448,192,101709,1,0,0:0:0:0:
448,0,101867,128,0,102182:1:0:0:0:
64,192,102182,1,0,0:0:0:0:
320,192,102182,1,0,0:0:0:0:
448,192,102340,1,0,0:0:0:0:
448,0,102498,128,0,102814:1:0:0:0:
64,192,102814,1,0,0:0:0:0:
320,192,102814,1,0,0:0:0:0:
448,192,102972,1,0,0:0:0:0:
448,0,103130,128,0,103446:1:0:0:0:
64,192,103446,1,0,0:0:0:0:
320,192,103446,1,0,0:0:0:0:
448,192,103603,1,0,0:0:0:0:
448,0,103761,128,0,104077:1:0:0:0:
64,192,104077,1,0,0:0:0:0:
320,192,104077,1,0,0:0:0:0:
448,192,104235,1,0,0:0:0:0:
448,0,104393,128,0,104709:1:0:0:0:
64,192,104709,1,0,0:0:0:0:
320,192,104709,1,0,0:0:0:0:
448,192,104867,1,0,0:0:0:0:
448,0,105024,128,0,105340:1:0:0:0:
64,192,105340,1,0,0:0:0:0:
320,192,105340,1,0,0:0:0:0:
448,192,105498,1,0,0:0:0:0:
448,0,105656,128,0,105972:1:0:0:0:
64,192,105972,1,0,0:0:0:0:
192,192,105972,1,0,0:0:0:0:
448,192,106130,1,0,0:0:0:0:
448,0,106288,128,0,106603:1:0:0:0:
64,192,106603,1,0,0:0:0:0:
192,192,106603,1,0,0:0:0:0:
448,192,106761,1,0,0:0:0:0:
448,0,106919,128,0,107235:1:0:0:0:
64,192,107235,1,0,0:0:0:0:
448,192,107393,1,0,0:0:0:0:
448,0,107551,128,0,107867:1:0:0:0:
64,192,107867,1,0,0:0:0:0:
448,192,108024,1,0,0:0:0:0:
448,0,108182,128,0,108498:1:0:0:0:
64,192,108498,1,0,0:0:0:0:
448,192,108656,1,0,0:0:0:0:
448,192,108814,1,0,0:0:0:0:
64,192,112498,1,0,0:0:0:0:
64,192,112919,1,0,0:0:0:0:
448,192,113235,1,0,0:0:0:0:
64,192,113393,1,0,0:0:0:0:
64,192,113709,1,0,0:0:0:0:
448,192,113867,1,0,0:0:0:0:
64,192,114182,1,0,0:0:0:0:
448,192,114498,1,0,0:0:0:0:
64,192,114972,1,0,0:0:0:0:
448,192,115130,1,0,0:0:0:0:
64,192,115288,1,0,0:0:0:0:
64,192,115603,1,0,0:0:0:0:
320,192,115761,1,0,0:0:0:0:
448,192,115761,1,0,0:0:0:0:
64,192,115919,1,0,0:0:0:0:
320,192,116077,1,0,0:0:0:0:
448,192,116077,1,0,0:0:0:0:
64,192,116235,1,0,0:0:0:0:
192,192,116314,1,0,0:0:0:0:
320,192,116393,1,0,0:0:0:0:
448,192,116393,1,0,0:0:0:0:
64,192,116551,1,0,0:0:0:0:
192,192,116630,1,0,0:0:0:0:
64,192,116709,1,0,0:0:0:0:
448,192,116709,1,0,0:0:0:0:
320,192,117024,1,0,0:0:0:0:
448,192,117024,1,0,0:0:0:0:
192,192,117182,1,0,0:0:0:0:
320,192,117261,1,0,0:0:0:0:
448,192,117340,1,0,0:0:0:0:
320,192,117419,1,0,0:0:0:0:
64,192,117498,1,0,0:0:0:0:
192,192,117498,1,0,0:0:0:0:
320,192,117577,1,0,0:0:0:0:
64,192,117656,1,0,0:0:0:0:
448,192,117656,1,0,0:0:0:0:
320,192,117814,1,0,0:0:0:0:
192,192,117893,1,0,0:0:0:0:
64,192,117972,1,0,0:0:0:0:
320,192,117972,1,0,0:0:0:0:
64,192,118130,1,0,0:0:0:0:
192,192,118209,1,0,0:0:0:0:
320,192,118288,1,0,0:0:0:0:
448,192,118288,1,0,0:0:0:0:
64,192,118446,1,0,0:0:0:0:
192,192,118446,1,0,0:0:0:0:
320,192,118524,1,0,0:0:0:0:
448,192,118603,1,0,0:0:0:0:
320,192,118682,1,0,0:0:0:0:
64,192,118761,1,0,0:0:0:0:
192,192,118761,1,0,0:0:0:0:
320,192,118840,1,0,0:0:0:0:
192,192,118919,1,0,0:0:0:0:
448,192,118919,1,0,0:0:0:0:
64,192,119077,1,0,0:0:0:0:
192,192,119156,1,0,0:0:0:0:
320,192,119235,1,0,0:0:0:0:
448,192,119235,1,0,0:0:0:0:
64,192,119393,1,0,0:0:0:0:
192,192,119393,1,0,0:0:0:0:
320,192,119472,1,0,0:0:0:0:
448,192,119472,1,0,0:0:0:0:
64,192,119551,1,0,0:0:0:0:
192,192,119551,1,0,0:0:0:0:
320,192,119709,1,0,0:0:0:0:
448,192,119709,1,0,0:0:0:0:
64,192,119788,1,0,0:0:0:0:
192,192,119788,1,0,0:0:0:0:
320,192,119867,1,0,0:0:0:0:
448,192,119867,1,0,0:0:0:0:
64,192,120024,1,0,0:0:0:0:
192,192,120024,1,0,0:0:0:0:
320,192,120103,1,0,0:0:0:0:
448,192,120103,1,0,0:0:0:0:
64,192,120182,1,0,0:0:0:0:
192,192,120182,1,0,0:0:0:0:
320,192,120340,1,0,0:0:0:0:
448,192,120340,1,0,0:0:0:0:
64,192,120419,1,0,0:0:0:0:
192,192,120419,1,0,0:0:0:0:
448,192,120498,1,0,0:0:0:0:
320,192,120577,1,0,0:0:0:0:
448,192,120656,1,0,0:0:0:0:
320,192,120735,1,0,0:0:0:0:
192,192,120814,1,0,0:0:0:0:
64,192,120893,1,0,0:0:0:0:
192,192,120972,1,0,0:0:0:0:
64,192,121051,1,0,0:0:0:0:
320,192,121130,1,0,0:0:0:0:
192,192,121209,1,0,0:0:0:0:
64,192,121288,1,0,0:0:0:0:
320,192,121288,1,0,0:0:0:0:
320,192,121446,1,0,0:0:0:0:
448,192,121446,1,0,0:0:0:0:
192,0,121446,128,0,121761:1:0:0:0:
64,192,121761,1,0,0:0:0:0:
320,192,121761,1,0,0:0:0:0:
448,192,121761,1,0,0:0:0:0:
320,192,121919,1,0,0:0:0:0:
448,192,121919,1,0,0:0:0:0:
192,192,122077,1,0,0:0:0:0:
448,192,122077,1,0,0:0:0:0:
320,192,122235,1,0,0:0:0:0:
448,192,122235,1,0,0:0:0:0:
64,192,122393,1,0,0:0:0:0:
320,192,122393,1,0,0:0:0:0:
448,192,122393,1,0,0:0:0:0:
320,192,122551,1,0,0:0:0:0:
448,192,122551,1,0,0:0:0:0:
64,192,122709,1,0,0:0:0:0:
192,192,122709,1,0,0:0:0:0:
320,192,122709,1,0,0:0:0:0:
192,192,122867,1,0,0:0:0:0:
320,192,122867,1,0,0:0:0:0:
64,192,123024,1,0,0:0:0:0:
192,192,123024,1,0,0:0:0:0:
192,192,123182,1,0,0:0:0:0:
448,192,123182,1,0,0:0:0:0:
64,192,123340,1,0,0:0:0:0:
320,192,123340,1,0,0:0:0:0:
448,192,123340,1,0,0:0:0:0:
64,192,123498,1,0,0:0:0:0:
448,192,123498,1,0,0:0:0:0:
192,192,123656,1,0,0:0:0:0:
320,192,123656,1,0,0:0:0:0:
448,192,123656,1,0,0:0:0:0:
192,192,123814,1,0,0:0:0:0:
448,192,123814,1,0,0:0:0:0:
64,192,123972,1,0,0:0:0:0:
448,192,123972,1,0,0:0:0:0:
192,192,124011,1,0,0:0:0:0:
320,192,124051,1,0,0:0:0:0:
448,192,124090,1,0,0:0:0:0:
64,192,124130,1,0,0:0:0:0:
192,192,124169,1,0,0:0:0:0:
320,192,124209,1,0,0:0:0:0:
448,192,124248,1,0,0:0:0:0:
64,192,124288,1,0,0:0:0:0:
192,192,124288,1,0,0:0:0:0:
320,192,124446,1,0,0:0:0:0:
448,192,124446,1,0,0:0:0:0:
192,192,124603,1,0,0:0:0:0:
448,192,124603,1,0,0:0:0:0:
320,192,124761,1,0,0:0:0:0:
448,192,124761,1,0,0:0:0:0:
64,192,124919,1,0,0:0:0:0:
320,192,124919,1,0,0:0:0:0:
448,192,124919,1,0,0:0:0:0:
64,192,125077,1,0,0:0:0:0:
192,192,125077,1,0,0:0:0:0:
448,192,125077,1,0,0:0:0:0:
192,192,125235,1,0,0:0:0:0:
320,192,125235,1,0,0:0:0:0:
64,192,125393,1,0,0:0:0:0:
192,192,125393,1,0,0:0:0:0:
448,192,125393,1,0,0:0:0:0:
64,192,125551,1,0,0:0:0:0:
192,192,125551,1,0,0:0:0:0:
320,192,125709,1,0,0:0:0:0:
448,192,125709,1,0,0:0:0:0:
64,192,125867,1,0,0:0:0:0:
192,192,125867,1,0,0:0:0:0:
448,192,125867,1,0,0:0:0:0:
320,192,126024,1,0,0:0:0:0:
448,192,126024,1,0,0:0:0:0:
64,192,126182,1,0,0:0:0:0:
320,192,126182,1,0,0:0:0:0:
448,192,126182,1,0,0:0:0:0:
192,192,126340,1,0,0:0:0:0:
448,192,126340,1,0,0:0:0:0:
192,192,126498,1,0,0:0:0:0:
320,0,126498,128,0,126656:1:0:0:0:
64,192,126656,1,0,0:0:0:0:
448,192,126656,1,0,0:0:0:0:
64,192,126814,1,0,0:0:0:0:
192,192,126814,1,0,0:0:0:0:
320,192,126814,1,0,0:0:0:0:
320,192,126972,1,0,0:0:0:0:
448,192,126972,1,0,0:0:0:0:
64,192,127130,1,0,0:0:0:0:
448,192,127130,1,0,0:0:0:0:
320,192,127288,1,0,0:0:0:0:
448,192,127288,1,0,0:0:0:0:
64,192,127446,1,0,0:0:0:0:
320,192,127446,1,0,0:0:0:0:
448,192,127446,1,0,0:0:0:0:
320,192,127603,1,0,0:0:0:0:
448,192,127603,1,0,0:0:0:0:
64,192,127761,1,0,0:0:0:0:
192,192,127761,1,0,0:0:0:0:
448,192,127761,1,0,0:0:0:0:
192,192,127919,1,0,0:0:0:0:
320,192,127919,1,0,0:0:0:0:
64,192,128077,1,0,0:0:0:0:
192,192,128077,1,0,0:0:0:0:
320,192,128235,1,0,0:0:0:0:
448,192,128235,1,0,0:0:0:0:
64,192,128393,1,0,0:0:0:0:
192,192,128393,1,0,0:0:0:0:
448,192,128393,1,0,0:0:0:0:
320,192,128551,1,0,0:0:0:0:
448,192,128551,1,0,0:0:0:0:
192,192,128709,1,0,0:0:0:0:
320,192,128709,1,0,0:0:0:0:
448,192,128709,1,0,0:0:0:0:
320,192,128867,1,0,0:0:0:0:
448,192,128867,1,0,0:0:0:0:
64,192,129024,1,0,0:0:0:0:
448,192,129024,1,0,0:0:0:0:
192,192,129064,1,0,0:0:0:0:
320,192,129103,1,0,0:0:0:0:
448,192,129143,1,0,0:0:0:0:
64,192,129182,1,0,0:0:0:0:
192,192,129222,1,0,0:0:0:0:
320,192,129261,1,0,0:0:0:0:
448,192,129301,1,0,0:0:0:0:
64,192,129340,1,0,0:0:0:0:
192,192,129340,1,0,0:0:0:0:
320,192,129498,1,0,0:0:0:0:
448,192,129498,1,0,0:0:0:0:
192,192,129656,1,0,0:0:0:0:
448,192,129656,1,0,0:0:0:0:
320,192,129814,1,0,0:0:0:0:
448,192,129814,1,0,0:0:0:0:
192,192,129972,1,0,0:0:0:0:
320,192,129972,1,0,0:0:0:0:
448,192,129972,1,0,0:0:0:0:
64,192,130130,1,0,0:0:0:0:
192,192,130130,1,0,0:0:0:0:
320,192,130130,1,0,0:0:0:0:
64,192,130288,1,0,0:0:0:0:
192,192,130288,1,0,0:0:0:0:
448,192,130288,1,0,0:0:0:0:
64,192,130446,1,0,0:0:0:0:
320,192,130446,1,0,0:0:0:0:
448,192,130446,1,0,0:0:0:0:
64,192,130603,1,0,0:0:0:0:
448,192,130603,1,0,0:0:0:0:
192,192,130761,1,0,0:0:0:0:
320,192,130919,1,0,0:0:0:0:
448,192,131077,1,0,0:0:0:0:
64,192,131235,1,0,0:0:0:0:
320,192,131235,1,0,0:0:0:0:
192,192,131551,1,0,0:0:0:0:
320,192,131551,1,0,0:0:0:0:
64,192,131867,1,0,0:0:0:0:
320,192,131867,1,0,0:0:0:0:
448,192,131867,1,0,0:0:0:0:
64,192,132024,1,0,0:0:0:0:
448,192,132024,1,0,0:0:0:0:
192,192,132182,1,0,0:0:0:0:
448,192,132182,1,0,0:0:0:0:
64,192,132340,1,0,0:0:0:0:
448,192,132340,1,0,0:0:0:0:
192,192,132498,1,0,0:0:0:0:
320,192,132498,1,0,0:0:0:0:
448,192,132498,1,0,0:0:0:0:
64,192,132656,1,0,0:0:0:0:
448,192,132656,1,0,0:0:0:0:
64,192,132814,1,0,0:0:0:0:
320,192,132814,1,0,0:0:0:0:
448,192,132814,1,0,0:0:0:0:
192,192,132972,1,0,0:0:0:0:
320,192,132972,1,0,0:0:0:0:
64,192,133130,1,0,0:0:0:0:
192,192,133130,1,0,0:0:0:0:
64,192,133288,1,0,0:0:0:0:
448,192,133288,1,0,0:0:0:0:
64,192,133446,1,0,0:0:0:0:
192,192,133446,1,0,0:0:0:0:
448,192,133446,1,0,0:0:0:0:
64,192,133603,1,0,0:0:0:0:
448,192,133603,1,0,0:0:0:0:
192,192,133761,1,0,0:0:0:0:
320,192,133761,1,0,0:0:0:0:
448,192,133761,1,0,0:0:0:0:
64,192,133919,1,0,0:0:0:0:
448,192,133919,1,0,0:0:0:0:
64,192,134077,1,0,0:0:0:0:
448,192,134077,1,0,0:0:0:0:
192,192,134117,1,0,0:0:0:0:
320,192,134156,1,0,0:0:0:0:
448,192,134196,1,0,0:0:0:0:
64,192,134235,1,0,0:0:0:0:
192,192,134274,1,0,0:0:0:0:
320,192,134314,1,0,0:0:0:0:
448,192,134353,1,0,0:0:0:0:
64,192,134393,1,0,0:0:0:0:
192,192,134393,1,0,0:0:0:0:
64,192,134551,1,0,0:0:0:0:
448,192,134551,1,0,0:0:0:0:
192,192,134709,1,0,0:0:0:0:
448,192,134709,1,0,0:0:0:0:
64,192,134867,1,0,0:0:0:0:
448,192,134867,1,0,0:0:0:0:
192,192,135024,1,0,0:0:0:0:
320,192,135024,1,0,0:0:0:0:
448,192,135024,1,0,0:0:0:0:
64,192,135182,1,0,0:0:0:0:
192,192,135182,1,0,0:0:0:0:
448,192,135182,1,0,0:0:0:0:
192,192,135340,1,0,0:0:0:0:
320,192,135340,1,0,0:0:0:0:
64,192,135498,1,0,0:0:0:0:
192,192,135498,1,0,0:0:0:0:
320,192,135498,1,0,0:0:0:0:
64,192,135656,1,0,0:0:0:0:
192,192,135656,1,0,0:0:0:0:
64,192,135814,1,0,0:0:0:0:
448,192,135814,1,0,0:0:0:0:
64,192,135972,1,0,0:0:0:0:
192,192,135972,1,0,0:0:0:0:
448,192,135972,1,0,0:0:0:0:
64,192,136130,1,0,0:0:0:0:
448,192,136130,1,0,0:0:0:0:
192,192,136288,1,0,0:0:0:0:
320,192,136288,1,0,0:0:0:0:
448,192,136288,1,0,0:0:0:0:
320,192,136446,1,0,0:0:0:0:
448,192,136446,1,0,0:0:0:0:
192,192,136603,1,0,0:0:0:0:
320,0,136603,128,0,136761:1:0:0:0:
64,192,136761,1,0,0:0:0:0:
448,192,136761,1,0,0:0:0:0:
64,192,136919,1,0,0:0:0:0:
192,192,136919,1,0,0:0:0:0:
320,192,136919,1,0,0:0:0:0:
64,192,137077,1,0,0:0:0:0:
448,192,137077,1,0,0:0:0:0:
64,192,137235,1,0,0:0:0:0:
192,192,137235,1,0,0:0:0:0:
448,192,137235,1,0,0:0:0:0:
64,192,137393,1,0,0:0:0:0:
448,192,137393,1,0,0:0:0:0:
64,192,137551,1,0,0:0:0:0:
320,192,137551,1,0,0:0:0:0:
448,192,137551,1,0,0:0:0:0:
64,192,137709,1,0,0:0:0:0:
448,192,137709,1,0,0:0:0:0:
64,192,137867,1,0,0:0:0:0:
320,192,137867,1,0,0:0:0:0:
448,192,137867,1,0,0:0:0:0:
192,192,138024,1,0,0:0:0:0:
320,192,138024,1,0,0:0:0:0:
64,192,138182,1,0,0:0:0:0:
192,192,138182,1,0,0:0:0:0:
320,192,138182,1,0,0:0:0:0:
64,192,138340,1,0,0:0:0:0:
448,192,138340,1,0,0:0:0:0:
64,192,138498,1,0,0:0:0:0:
192,192,138498,1,0,0:0:0:0:
448,192,138498,1,0,0:0:0:0:
64,192,138656,1,0,0:0:0:0:
448,192,138656,1,0,0:0:0:0:
64,192,138814,1,0,0:0:0:0:
320,192,138814,1,0,0:0:0:0:
448,192,138814,1,0,0:0:0:0:
64,192,138972,1,0,0:0:0:0:
448,192,138972,1,0,0:0:0:0:
64,192,139130,1,0,0:0:0:0:
448,192,139130,1,0,0:0:0:0:
192,192,139169,1,0,0:0:0:0:
320,192,139209,1,0,0:0:0:0:
448,192,139248,1,0,0:0:0:0:
64,192,139288,1,0,0:0:0:0:
192,192,139327,1,0,0:0:0:0:
320,192,139367,1,0,0:0:0:0:
448,192,139406,1,0,0:0:0:0:
64,192,139446,1,0,0:0:0:0:
192,192,139446,1,0,0:0:0:0:
320,192,139603,1,0,0:0:0:0:
448,192,139603,1,0,0:0:0:0:
192,192,139761,1,0,0:0:0:0:
448,192,139761,1,0,0:0:0:0:
64,192,139919,1,0,0:0:0:0:
448,192,139919,1,0,0:0:0:0:
64,192,140077,1,0,0:0:0:0:
448,192,140077,1,0,0:0:0:0:
192,192,140156,1,0,0:0:0:0:
320,192,140156,1,0,0:0:0:0:
64,192,140235,1,0,0:0:0:0:
448,192,140235,1,0,0:0:0:0:
192,192,140314,1,0,0:0:0:0:
320,192,140314,1,0,0:0:0:0:
64,192,140393,1,0,0:0:0:0:
448,192,140393,1,0,0:0:0:0:
192,192,140472,1,0,0:0:0:0:
320,192,140472,1,0,0:0:0:0:
64,192,140551,1,0,0:0:0:0:
448,192,140551,1,0,0:0:0:0:
192,192,140630,1,0,0:0:0:0:
320,192,140630,1,0,0:0:0:0:
64,192,140709,1,0,0:0:0:0:
448,192,140709,1,0,0:0:0:0:
320,192,140788,1,0,0:0:0:0:
448,192,140867,1,0,0:0:0:0:
320,192,140946,1,0,0:0:0:0:
64,192,141024,1,0,0:0:0:0:
448,192,141024,1,0,0:0:0:0:
192,192,141103,1,0,0:0:0:0:
64,192,141182,1,0,0:0:0:0:
192,192,141261,1,0,0:0:0:0:
320,192,141340,1,0,0:0:0:0:
448,192,141340,1,0,0:0:0:0:
192,192,141419,1,0,0:0:0:0:
64,192,141498,1,0,0:0:0:0:
448,192,141498,1,0,0:0:0:0:
320,192,141577,1,0,0:0:0:0:
64,192,141656,1,0,0:0:0:0:
320,192,141735,1,0,0:0:0:0:
448,192,141735,1,0,0:0:0:0:
64,192,141814,1,0,0:0:0:0:
192,192,141814,1,0,0:0:0:0:
320,192,141893,1,0,0:0:0:0:
64,192,141972,1,0,0:0:0:0:
192,192,141972,1,0,0:0:0:0:
448,192,141972,1,0,0:0:0:0:
64,192,142130,1,0,0:0:0:0:
192,192,142130,1,0,0:0:0:0:
448,192,142130,1,0,0:0:0:0:
192,192,142288,1,0,0:0:0:0:
320,192,142288,1,0,0:0:0:0:
448,192,142288,1,0,0:0:0:0:
64,192,142367,1,0,0:0:0:0:
192,192,142446,1,0,0:0:0:0:
320,192,142446,1,0,0:0:0:0:
64,192,142524,1,0,0:0:0:0:
320,192,142603,1,0,0:0:0:0:
448,192,142603,1,0,0:0:0:0:
192,192,142682,1,0,0:0:0:0:
64,192,142761,1,0,0:0:0:0:
320,192,142840,1,0,0:0:0:0:
448,192,142840,1,0,0:0:0:0:
64,192,142919,1,0,0:0:0:0:
192,192,142919,1,0,0:0:0:0:
320,192,142998,1,0,0:0:0:0:
64,192,143077,1,0,0:0:0:0:
192,192,143077,1,0,0:0:0:0:
448,192,143077,1,0,0:0:0:0:
320,192,143156,1,0,0:0:0:0:
448,192,143235,1,0,0:0:0:0:
320,192,143314,1,0,0:0:0:0:
64,192,143393,1,0,0:0:0:0:
192,192,143393,1,0,0:0:0:0:
448,192,143393,1,0,0:0:0:0:
320,192,143472,1,0,0:0:0:0:
64,192,143551,1,0,0:0:0:0:
192,192,143551,1,0,0:0:0:0:
448,192,143551,1,0,0:0:0:0:
320,192,143630,1,0,0:0:0:0:
64,192,143709,1,0,0:0:0:0:
448,192,143709,1,0,0:0:0:0:
192,192,143788,1,0,0:0:0:0:
448,192,143867,1,0,0:0:0:0:
320,192,143946,1,0,0:0:0:0:
64,192,144024,1,0,0:0:0:0:
192,192,144024,1,0,0:0:0:0:
320,192,144103,1,0,0:0:0:0:
192,192,144182,1,0,0:0:0:0:
448,192,144182,1,0,0:0:0:0:
64,192,144261,1,0,0:0:0:0:
320,192,144261,1,0,0:0:0:0:
192,192,144340,1,0,0:0:0:0:
448,192,144340,1,0,0:0:0:0:
64,192,144419,1,0,0:0:0:0:
320,192,144419,1,0,0:0:0:0:
192,192,144498,1,0,0:0:0:0:
448,192,144498,1,0,0:0:0:0:
448,192,144656,1,0,0:0:0:0:
320,192,144696,1,0,0:0:0:0:
64,192,144735,1,0,0:0:0:0:
192,192,144774,1,0,0:0:0:0:
320,192,144814,1,0,0:0:0:0:
448,192,144814,1,0,0:0:0:0:
64,192,144893,1,0,0:0:0:0:
192,192,144972,1,0,0:0:0:0:
448,192,144972,1,0,0:0:0:0:
320,192,145051,1,0,0:0:0:0:
64,192,145130,1,0,0:0:0:0:
192,192,145130,1,0,0:0:0:0:
320,192,145288,1,0,0:0:0:0:
64,192,145367,1,0,0:0:0:0:
192,192,145367,1,0,0:0:0:0:
320,192,145446,1,0,0:0:0:0:
448,192,145446,1,0,0:0:0:0:
64,192,145603,1,0,0:0:0:0:
448,192,145603,1,0,0:0:0:0:
64,192,145761,1,0,0:0:0:0:
320,192,145761,1,0,0:0:0:0:
64,192,145919,1,0,0:0:0:0:
192,192,146077,1,0,0:0:0:0:
320,192,146077,1,0,0:0:0:0:
448,192,146235,1,0,0:0:0:0:
320,192,146393,1,0,0:0:0:0:
448,192,146393,1,0,0:0:0:0:
192,192,146472,1,0,0:0:0:0:
64,192,146551,1,0,0:0:0:0:
320,192,146551,1,0,0:0:0:0:
192,192,146630,1,0,0:0:0:0:
448,192,146630,1,0,0:0:0:0:
64,192,146709,1,0,0:0:0:0:
320,192,146709,1,0,0:0:0:0:
448,192,146709,1,0,0:0:0:0:
64,192,147024,1,0,0:0:0:0:
448,192,147024,1,0,0:0:0:0:
192,192,147174,1,0,0:0:0:0:
320,192,147324,1,0,0:0:0:0:
192,192,147475,1,0,0:0:0:0:
64,192,147626,1,0,0:0:0:0:
320,192,147626,1,0,0:0:0:0:
192,192,147764,1,0,0:0:0:0:
320,192,147902,1,0,0:0:0:0:
448,192,147902,1,0,0:0:0:0:
192,192,148040,1,0,0:0:0:0:
64,192,148178,1,0,0:0:0:0:
320,192,148178,1,0,0:0:0:0:
448,192,148304,1,0,0:0:0:0:
192,192,148431,1,0,0:0:0:0:
320,192,148431,1,0,0:0:0:0:
64,192,148558,1,0,0:0:0:0:
192,192,148686,1,0,0:0:0:0:
448,192,148686,1,0,0:0:0:0:
320,192,148804,1,0,0:0:0:0:
64,192,148922,1,0,0:0:0:0:
448,192,148922,1,0,0:0:0:0:
320,192,149040,1,0,0:0:0:0:
64,192,149159,1,0,0:0:0:0:
192,192,149159,1,0,0:0:0:0:
320,192,149267,1,0,0:0:0:0:
448,192,149375,1,0,0:0:0:0:
320,192,149483,1,0,0:0:0:0:
64,192,149591,1,0,0:0:0:0:
192,192,149591,1,0,0:0:0:0:
320,192,149689,1,0,0:0:0:0:
192,192,149787,1,0,0:0:0:0:
64,192,149885,1,0,0:0:0:0:
192,192,149984,1,0,0:0:0:0:
448,192,149984,1,0,0:0:0:0:
320,192,150073,1,0,0:0:0:0:
192,192,150162,1,0,0:0:0:0:
64,192,150251,1,0,0:0:0:0:
192,192,150341,1,0,0:0:0:0:
448,192,150341,1,0,0:0:0:0:
320,192,150423,1,0,0:0:0:0:
448,192,150505,1,0,0:0:0:0:
64,192,150587,1,0,0:0:0:0:
192,192,150669,1,0,0:0:0:0:
320,192,150669,1,0,0:0:0:0:
64,192,150747,1,0,0:0:0:0:
320,192,150825,1,0,0:0:0:0:
448,192,150825,1,0,0:0:0:0:
192,192,150902,1,0,0:0:0:0:
320,192,150980,1,0,0:0:0:0:
448,192,150980,1,0,0:0:0:0:
64,192,151055,1,0,0:0:0:0:
192,192,151130,1,0,0:0:0:0:
320,192,151130,1,0,0:0:0:0:
448,192,151206,1,0,0:0:0:0:
64,192,151281,1,0,0:0:0:0:
192,192,151281,1,0,0:0:0:0:
448,192,151355,1,0,0:0:0:0:
64,192,151429,1,0,0:0:0:0:
320,192,151429,1,0,0:0:0:0:
192,192,151502,1,0,0:0:0:0:
320,192,151576,1,0,0:0:0:0:
448,192,151576,1,0,0:0:0:0:
64,192,151717,1,0,0:0:0:0:
192,192,151717,1,0,0:0:0:0:
448,192,151788,1,0,0:0:0:0:
64,192,151859,1,0,0:0:0:0:
192,192,151859,1,0,0:0:0:0:
320,192,151930,1,0,0:0:0:0:
448,192,151930,1,0,0:0:0:0:
64,192,152001,1,0,0:0:0:0:
192,192,152001,1,0,0:0:0:0:
320,192,152071,1,0,0:0:0:0:
448,192,152071,1,0,0:0:0:0:
64,192,152142,1,0,0:0:0:0:
192,192,152142,1,0,0:0:0:0:
320,192,152208,1,0,0:0:0:0:
448,192,152208,1,0,0:0:0:0:
64,192,152274,1,0,0:0:0:0:
192,192,152274,1,0,0:0:0:0:
320,192,152340,1,0,0:0:0:0:
448,192,152340,1,0,0:0:0:0:
64,192,152407,1,0,0:0:0:0:
192,192,152407,1,0,0:0:0:0:
320,192,152472,1,0,0:0:0:0:
448,192,152538,1,0,0:0:0:0:
320,192,152603,1,0,0:0:0:0:
64,192,152669,1,0,0:0:0:0:
448,192,152669,1,0,0:0:0:0:
192,192,152733,1,0,0:0:0:0:
320,192,152798,1,0,0:0:0:0:
192,192,152862,1,0,0:0:0:0:
64,192,152927,1,0,0:0:0:0:
320,192,152927,1,0,0:0:0:0:
448,192,152927,1,0,0:0:0:0:
192,192,152991,1,0,0:0:0:0:
64,192,153054,1,0,0:0:0:0:
320,192,153117,1,0,0:0:0:0:
64,192,153181,1,0,0:0:0:0:
192,192,153181,1,0,0:0:0:0:
448,192,153181,1,0,0:0:0:0:
192,192,153307,1,0,0:0:0:0:
320,192,153307,1,0,0:0:0:0:
64,192,153434,1,0,0:0:0:0:
192,192,153434,1,0,0:0:0:0:
64,192,153560,1,0,0:0:0:0:
320,192,153560,1,0,0:0:0:0:
192,192,153687,1,0,0:0:0:0:
320,192,153687,1,0,0:0:0:0:
448,192,153687,1,0,0:0:0:0:
320,192,153813,1,0,0:0:0:0:
448,192,153813,1,0,0:0:0:0:
64,192,153940,1,0,0:0:0:0:
192,192,153940,1,0,0:0:0:0:
320,192,154066,1,0,0:0:0:0:
64,192,154193,1,0,0:0:0:0:
320,192,154193,1,0,0:0:0:0:
448,192,154193,1,0,0:0:0:0:
192,192,154319,1,0,0:0:0:0:
320,192,154319,1,0,0:0:0:0:
64,192,154446,1,0,0:0:0:0:
320,192,154446,1,0,0:0:0:0:
192,192,154572,1,0,0:0:0:0:
320,192,154572,1,0,0:0:0:0:
64,192,154699,1,0,0:0:0:0:
192,192,154699,1,0,0:0:0:0:
448,192,154699,1,0,0:0:0:0:
320,192,154825,1,0,0:0:0:0:
448,192,154825,1,0,0:0:0:0:
64,192,154952,1,0,0:0:0:0:
192,192,154952,1,0,0:0:0:0:
64,192,155078,1,0,0:0:0:0:
192,192,155205,1,0,0:0:0:0:
320,192,155205,1,0,0:0:0:0:
448,192,155205,1,0,0:0:0:0:
320,192,155331,1,0,0:0:0:0:
448,192,155331,1,0,0:0:0:0:
64,192,155458,1,0,0:0:0:0:
320,192,155458,1,0,0:0:0:0:
192,192,155584,1,0,0:0:0:0:
320,192,155584,1,0,0:0:0:0:
64,192,155711,1,0,0:0:0:0:
320,192,155711,1,0,0:0:0:0:
448,192,155711,1,0,0:0:0:0:
64,192,155838,1,0,0:0:0:0:
448,192,155838,1,0,0:0:0:0:
64,192,155964,1,0,0:0:0:0:
320,192,155964,1,0,0:0:0:0:
320,192,156091,1,0,0:0:0:0:
64,192,156217,1,0,0:0:0:0:
320,192,156217,1,0,0:0:0:0:
448,192,156217,1,0,0:0:0:0:
64,192,156344,1,0,0:0:0:0:
320,192,156344,1,0,0:0:0:0:
192,192,156407,1,0,0:0:0:0:
64,192,156470,1,0,0:0:0:0:
320,192,156470,1,0,0:0:0:0:
448,192,156470,1,0,0:0:0:0:
192,192,156597,1,0,0:0:0:0:
320,192,156597,1,0,0:0:0:0:
64,192,156660,1,0,0:0:0:0:
448,192,156660,1,0,0:0:0:0:
192,192,156723,1,0,0:0:0:0:
320,192,156723,1,0,0:0:0:0:
64,192,156850,1,0,0:0:0:0:
192,192,156850,1,0,0:0:0:0:
64,192,156976,1,0,0:0:0:0:
192,192,156976,1,0,0:0:0:0:
320,192,156976,1,0,0:0:0:0:
448,192,156976,1,0,0:0:0:0:
192,192,157103,1,0,0:0:0:0:
192,192,157229,1,0,0:0:0:0:
320,192,157229,1,0,0:0:0:0:
448,192,157229,1,0,0:0:0:0:
64,192,157356,1,0,0:0:0:0:
448,192,157356,1,0,0:0:0:0:
64,192,157482,1,0,0:0:0:0:
192,192,157482,1,0,0:0:0:0:
64,192,157609,1,0,0:0:0:0:
320,192,157609,1,0,0:0:0:0:
192,192,157735,1,0,0:0:0:0:
320,192,157735,1,0,0:0:0:0:
448,192,157735,1,0,0:0:0:0:
320,192,157862,1,0,0:0:0:0:
448,192,157862,1,0,0:0:0:0:
64,192,157988,1,0,0:0:0:0:
192,192,157988,1,0,0:0:0:0:
320,192,158115,1,0,0:0:0:0:
64,192,158241,1,0,0:0:0:0:
192,192,158241,1,0,0:0:0:0:
448,192,158241,1,0,0:0:0:0:
192,192,158368,1,0,0:0:0:0:
320,192,158368,1,0,0:0:0:0:
64,192,158494,1,0,0:0:0:0:
320,192,158494,1,0,0:0:0:0:
192,192,158621,1,0,0:0:0:0:
320,192,158621,1,0,0:0:0:0:
64,192,158748,1,0,0:0:0:0:
192,192,158748,1,0,0:0:0:0:
448,192,158748,1,0,0:0:0:0:
320,192,158874,1,0,0:0:0:0:
448,192,158874,1,0,0:0:0:0:
64,192,159001,1,0,0:0:0:0:
192,192,159001,1,0,0:0:0:0:
320,192,159127,1,0,0:0:0:0:
64,192,159254,1,0,0:0:0:0:
320,192,159254,1,0,0:0:0:0:
448,192,159254,1,0,0:0:0:0:
192,192,159380,1,0,0:0:0:0:
448,192,159380,1,0,0:0:0:0:
64,192,159507,1,0,0:0:0:0:
448,192,159507,1,0,0:0:0:0:
64,192,159633,1,0,0:0:0:0:
192,192,159633,1,0,0:0:0:0:
192,192,159760,1,0,0:0:0:0:
320,192,159760,1,0,0:0:0:0:
448,192,159760,1,0,0:0:0:0:
320,192,159886,1,0,0:0:0:0:
448,192,159886,1,0,0:0:0:0:
64,192,160013,1,0,0:0:0:0:
320,192,160013,1,0,0:0:0:0:
448,192,160013,1,0,0:0:0:0:
64,192,160139,1,0,0:0:0:0:
192,192,160139,1,0,0:0:0:0:
320,192,160203,1,0,0:0:0:0:
448,192,160203,1,0,0:0:0:0:
64,192,160266,1,0,0:0:0:0:
192,192,160266,1,0,0:0:0:0:
320,192,160329,1,0,0:0:0:0:
448,192,160329,1,0,0:0:0:0:
64,192,160392,1,0,0:0:0:0:
192,192,160392,1,0,0:0:0:0:
320,192,160456,1,0,0:0:0:0:
448,192,160456,1,0,0:0:0:0:
192,192,160519,1,0,0:0:0:0:
64,192,160582,1,0,0:0:0:0:
320,192,160645,1,0,0:0:0:0:
192,192,160709,1,0,0:0:0:0:
448,192,160772,1,0,0:0:0:0:
320,192,160835,1,0,0:0:0:0:
192,192,160898,1,0,0:0:0:0:
64,192,160962,1,0,0:0:0:0:
192,192,161025,1,0,0:0:0:0:
320,192,161025,1,0,0:0:0:0:
448,192,161025,1,0,0:0:0:0:
64,192,161151,1,0,0:0:0:0:
320,192,161151,1,0,0:0:0:0:
448,192,161151,1,0,0:0:0:0:
64,192,161278,1,0,0:0:0:0:
448,192,161278,1,0,0:0:0:0:
64,192,161405,1,0,0:0:0:0:
192,192,161405,1,0,0:0:0:0:
320,192,161405,1,0,0:0:0:0:
192,192,161531,1,0,0:0:0:0:
448,192,161531,1,0,0:0:0:0:
64,192,161658,1,0,0:0:0:0:
320,192,161658,1,0,0:0:0:0:
448,192,161658,1,0,0:0:0:0:
192,192,161784,1,0,0:0:0:0:
320,192,161784,1,0,0:0:0:0:
64,192,161911,1,0,0:0:0:0:
192,192,161911,1,0,0:0:0:0:
448,192,161911,1,0,0:0:0:0:
64,192,162037,1,0,0:0:0:0:
192,192,162037,1,0,0:0:0:0:
64,192,162164,1,0,0:0:0:0:
320,192,162164,1,0,0:0:0:0:
448,192,162164,1,0,0:0:0:0:
320,192,162290,1,0,0:0:0:0:
448,192,162290,1,0,0:0:0:0:
64,192,162417,1,0,0:0:0:0:
192,192,162417,1,0,0:0:0:0:
448,192,162417,1,0,0:0:0:0:
64,192,162543,1,0,0:0:0:0:
320,192,162543,1,0,0:0:0:0:
64,192,162670,1,0,0:0:0:0:
192,192,162670,1,0,0:0:0:0:
320,192,162670,1,0,0:0:0:0:
192,192,162796,1,0,0:0:0:0:
448,192,162796,1,0,0:0:0:0:
192,192,162923,1,0,0:0:0:0:
320,192,162923,1,0,0:0:0:0:
448,192,162923,1,0,0:0:0:0:
64,192,163049,1,0,0:0:0:0:
320,192,163049,1,0,0:0:0:0:
64,192,163176,1,0,0:0:0:0:
320,192,163176,1,0,0:0:0:0:
448,192,163176,1,0,0:0:0:0:
192,192,163302,1,0,0:0:0:0:
448,192,163302,1,0,0:0:0:0:
64,192,163429,1,0,0:0:0:0:
192,192,163429,1,0,0:0:0:0:
448,192,163429,1,0,0:0:0:0:
64,192,163555,1,0,0:0:0:0:
192,192,163555,1,0,0:0:0:0:
64,192,163682,1,0,0:0:0:0:
320,192,163682,1,0,0:0:0:0:
448,192,163682,1,0,0:0:0:0:
192,192,163808,1,0,0:0:0:0:
320,192,163808,1,0,0:0:0:0:
64,192,163935,1,0,0:0:0:0:
192,192,163935,1,0,0:0:0:0:
448,192,163935,1,0,0:0:0:0:
64,192,164061,1,0,0:0:0:0:
448,192,164061,1,0,0:0:0:0:
64,192,164188,1,0,0:0:0:0:
320,192,164188,1,0,0:0:0:0:
448,192,164188,1,0,0:0:0:0:
192,192,164315,1,0,0:0:0:0:
320,192,164315,1,0,0:0:0:0:
64,192,164441,1,0,0:0:0:0:
192,192,164441,1,0,0:0:0:0:
448,192,164441,1,0,0:0:0:0:
64,192,164568,1,0,0:0:0:0:
320,192,164568,1,0,0:0:0:0:
64,192,164694,1,0,0:0:0:0:
192,192,164694,1,0,0:0:0:0:
448,192,164694,1,0,0:0:0:0:
192,192,164821,1,0,0:0:0:0:
320,192,164821,1,0,0:0:0:0:
64,192,164947,1,0,0:0:0:0:
192,192,164947,1,0,0:0:0:0:
448,192,164947,1,0,0:0:0:0:
64,192,165074,1,0,0:0:0:0:
192,192,165074,1,0,0:0:0:0:
320,192,165074,1,0,0:0:0:0:
448,192,165074,1,0,0:0:0:0:
192,192,165200,1,0,0:0:0:0:
320,192,165200,1,0,0:0:0:0:
448,192,165200,1,0,0:0:0:0:
64,192,165327,1,0,0:0:0:0:
448,192,165327,1,0,0:0:0:0:
64,192,165453,1,0,0:0:0:0:
192,192,165453,1,0,0:0:0:0:
320,192,165453,1,0,0:0:0:0:
64,192,165580,1,0,0:0:0:0:
192,192,165580,1,0,0:0:0:0:
320,192,165580,1,0,0:0:0:0:
448,192,165580,1,0,0:0:0:0:
64,192,165706,1,0,0:0:0:0:
192,192,165706,1,0,0:0:0:0:
448,192,165706,1,0,0:0:0:0:
192,192,165833,1,0,0:0:0:0:
320,192,165833,1,0,0:0:0:0:
64,192,165959,1,0,0:0:0:0:
320,192,165959,1,0,0:0:0:0:
448,192,165959,1,0,0:0:0:0:
64,192,166086,1,0,0:0:0:0:
192,192,166086,1,0,0:0:0:0:
320,192,166086,1,0,0:0:0:0:
448,192,166086,1,0,0:0:0:0:
320,192,166212,1,0,0:0:0:0:
448,192,166212,1,0,0:0:0:0:
64,192,166276,1,0,0:0:0:0:
192,192,166276,1,0,0:0:0:0:
320,192,166339,1,0,0:0:0:0:
448,192,166339,1,0,0:0:0:0:
64,192,166465,1,0,0:0:0:0:
192,192,166465,1,0,0:0:0:0:
448,192,166529,1,0,0:0:0:0:
64,192,166592,1,0,0:0:0:0:
192,192,166592,1,0,0:0:0:0:
320,192,166592,1,0,0:0:0:0:
448,192,166655,1,0,0:0:0:0:
64,192,166718,1,0,0:0:0:0:
192,192,166718,1,0,0:0:0:0:
320,192,166782,1,0,0:0:0:0:
448,192,166782,1,0,0:0:0:0:
64,192,166845,1,0,0:0:0:0:
192,192,166845,1,0,0:0:0:0:
320,192,166908,1,0,0:0:0:0:
448,192,166908,1,0,0:0:0:0:
64,192,166971,1,0,0:0:0:0:
192,192,166971,1,0,0:0:0:0:
448,192,167035,1,0,0:0:0:0:
64,192,167098,1,0,0:0:0:0:
192,192,167098,1,0,0:0:0:0:
320,192,167098,1,0,0:0:0:0:
448,192,167446,1,0,0:0:0:0:
320,192,167857,1,0,0:0:0:0:
64,192,168014,1,0,0:0:0:0:
192,192,168093,1,0,0:0:0:0:
448,192,168172,1,0,0:0:0:0:
320,192,168251,1,0,0:0:0:0:
192,192,168330,1,0,0:0:0:0:
320,192,168409,1,0,0:0:0:0:
64,192,168488,1,0,0:0:0:0:
192,192,168488,1,0,0:0:0:0:
320,192,168488,1,0,0:0:0:0:
320,192,168646,1,0,0:0:0:0:
64,192,168804,1,0,0:0:0:0:
320,192,168962,1,0,0:0:0:0:
192,192,169041,1,0,0:0:0:0:
320,192,169080,1,0,0:0:0:0:
64,192,169120,1,0,0:0:0:0:
448,192,169120,1,0,0:0:0:0:
192,192,169199,1,0,0:0:0:0:
320,192,169278,1,0,0:0:0:0:
192,192,169356,1,0,0:0:0:0:
448,192,169435,1,0,0:0:0:0:
320,192,169475,1,0,0:0:0:0:
192,192,169514,1,0,0:0:0:0:
64,192,169554,1,0,0:0:0:0:
448,192,169593,1,0,0:0:0:0:
320,192,169633,1,0,0:0:0:0:
192,192,169672,1,0,0:0:0:0:
64,192,169712,1,0,0:0:0:0:
320,192,169751,1,0,0:0:0:0:
448,192,169751,1,0,0:0:0:0:
192,192,169830,1,0,0:0:0:0:
64,192,169909,1,0,0:0:0:0:
192,192,169988,1,0,0:0:0:0:
320,192,170067,1,0,0:0:0:0:
448,192,170067,1,0,0:0:0:0:
192,192,170146,1,0,0:0:0:0:
64,192,170225,1,0,0:0:0:0:
448,192,170225,1,0,0:0:0:0:
320,192,170304,1,0,0:0:0:0:
192,192,170383,1,0,0:0:0:0:
448,192,170383,1,0,0:0:0:0:
320,192,170462,1,0,0:0:0:0:
64,192,170541,1,0,0:0:0:0:
192,192,170541,1,0,0:0:0:0:
320,192,170620,1,0,0:0:0:0:
192,192,170699,1,0,0:0:0:0:
448,192,170699,1,0,0:0:0:0:
64,192,170778,1,0,0:0:0:0:
192,192,170856,1,0,0:0:0:0:
320,192,170856,1,0,0:0:0:0:
448,192,170935,1,0,0:0:0:0:
64,192,171014,1,0,0:0:0:0:
192,192,171014,1,0,0:0:0:0:
448,192,171093,1,0,0:0:0:0:
192,192,171172,1,0,0:0:0:0:
320,192,171172,1,0,0:0:0:0:
64,192,171251,1,0,0:0:0:0:
192,192,171330,1,0,0:0:0:0:
320,192,171330,1,0,0:0:0:0:
448,192,171409,1,0,0:0:0:0:
64,192,171488,1,0,0:0:0:0:
192,192,171488,1,0,0:0:0:0:
448,192,171567,1,0,0:0:0:0:
64,192,171646,1,0,0:0:0:0:
320,192,171646,1,0,0:0:0:0:
192,192,171725,1,0,0:0:0:0:
64,192,171804,1,0,0:0:0:0:
448,192,171804,1,0,0:0:0:0:
192,192,171883,1,0,0:0:0:0:
320,192,171962,1,0,0:0:0:0:
448,192,171962,1,0,0:0:0:0:
64,192,172041,1,0,0:0:0:0:
192,192,172120,1,0,0:0:0:0:
320,192,172120,1,0,0:0:0:0:
448,192,172199,1,0,0:0:0:0:
64,192,172278,1,0,0:0:0:0:
192,192,172278,1,0,0:0:0:0:
448,192,172356,1,0,0:0:0:0:
64,192,172435,1,0,0:0:0:0:
320,192,172435,1,0,0:0:0:0:
192,192,172514,1,0,0:0:0:0:
320,192,172593,1,0,0:0:0:0:
448,192,172593,1,0,0:0:0:0:
192,192,172672,1,0,0:0:0:0:
64,192,172751,1,0,0:0:0:0:
448,192,172751,1,0,0:0:0:0:
320,192,172830,1,0,0:0:0:0:
64,192,172909,1,0,0:0:0:0:
192,192,172909,1,0,0:0:0:0:
320,192,172988,1,0,0:0:0:0:
64,192,173067,1,0,0:0:0:0:
448,192,173067,1,0,0:0:0:0:
192,192,173146,1,0,0:0:0:0:
320,192,173225,1,0,0:0:0:0:
448,192,173225,1,0,0:0:0:0:
192,192,173304,1,0,0:0:0:0:
64,192,173383,1,0,0:0:0:0:
320,192,173383,1,0,0:0:0:0:
448,192,173462,1,0,0:0:0:0:
64,192,173541,1,0,0:0:0:0:
192,192,173541,1,0,0:0:0:0:
320,192,173620,1,0,0:0:0:0:
64,192,173699,1,0,0:0:0:0:
192,192,173699,1,0,0:0:0:0:
320,192,173778,1,0,0:0:0:0:
64,192,173856,1,0,0:0:0:0:
448,192,173856,1,0,0:0:0:0:
320,192,173935,1,0,0:0:0:0:
64,192,174014,1,0,0:0:0:0:
192,192,174014,1,0,0:0:0:0:
320,192,174093,1,0,0:0:0:0:
192,192,174172,1,0,0:0:0:0:
448,192,174172,1,0,0:0:0:0:
64,192,174330,1,0,0:0:0:0:
192,192,174330,1,0,0:0:0:0:
320,192,174409,1,0,0:0:0:0:
448,192,174409,1,0,0:0:0:0:
64,192,174488,1,0,0:0:0:0:
192,192,174488,1,0,0:0:0:0:
320,192,174646,1,0,0:0:0:0:
448,192,174646,1,0,0:0:0:0:
64,192,174725,1,0,0:0:0:0:
192,192,174725,1,0,0:0:0:0:
320,192,174804,1,0,0:0:0:0:
448,192,174804,1,0,0:0:0:0:
192,192,174962,1,0,0:0:0:0:
320,192,174962,1,0,0:0:0:0:
64,192,175041,1,0,0:0:0:0:
320,192,175120,1,0,0:0:0:0:
448,192,175120,1,0,0:0:0:0:
64,192,175199,1,0,0:0:0:0:
192,192,175278,1,0,0:0:0:0:
320,192,175278,1,0,0:0:0:0:
64,192,175356,1,0,0:0:0:0:
320,192,175435,1,0,0:0:0:0:
448,192,175435,1,0,0:0:0:0:
192,192,175514,1,0,0:0:0:0:
64,192,175593,1,0,0:0:0:0:
320,192,175593,1,0,0:0:0:0:
192,192,175672,1,0,0:0:0:0:
320,192,175751,1,0,0:0:0:0:
448,192,175751,1,0,0:0:0:0:
64,192,175830,1,0,0:0:0:0:
192,192,175909,1,0,0:0:0:0:
320,192,175909,1,0,0:0:0:0:
448,192,175988,1,0,0:0:0:0:
64,192,176067,1,0,0:0:0:0:
320,192,176067,1,0,0:0:0:0:
192,192,176146,1,0,0:0:0:0:
320,192,176225,1,0,0:0:0:0:
448,192,176225,1,0,0:0:0:0:
192,192,176304,1,0,0:0:0:0:
320,192,176383,1,0,0:0:0:0:
448,192,176383,1,0,0:0:0:0:
64,192,176462,1,0,0:0:0:0:
192,192,176541,1,0,0:0:0:0:
448,192,176541,1,0,0:0:0:0:
64,192,176620,1,0,0:0:0:0:
320,192,176699,1,0,0:0:0:0:
448,192,176699,1,0,0:0:0:0:
192,192,176778,1,0,0:0:0:0:
64,192,176856,1,0,0:0:0:0:
448,192,176856,1,0,0:0:0:0:
320,192,176935,1,0,0:0:0:0:
192,192,177014,1,0,0:0:0:0:
448,192,177014,1,0,0:0:0:0:
64,192,177093,1,0,0:0:0:0:
192,192,177172,1,0,0:0:0:0:
448,192,177172,1,0,0:0:0:0:
320,192,177251,1,0,0:0:0:0:
64,192,177330,1,0,0:0:0:0:
448,192,177330,1,0,0:0:0:0:
320,192,177488,1,0,0:0:0:0:
448,192,177488,1,0,0:0:0:0:
320,192,177646,1,0,0:0:0:0:
448,192,177646,1,0,0:0:0:0:
64,192,177804,1,0,0:0:0:0:
192,192,177804,1,0,0:0:0:0:
320,192,177962,1,0,0:0:0:0:
448,192,177962,1,0,0:0:0:0:
64,192,178120,1,0,0:0:0:0:
192,192,178120,1,0,0:0:0:0:
320,192,178199,1,0,0:0:0:0:
448,192,178199,1,0,0:0:0:0:
64,192,178278,1,0,0:0:0:0:
192,192,178278,1,0,0:0:0:0:
320,192,178435,1,0,0:0:0:0:
448,192,178435,1,0,0:0:0:0:
64,192,178593,1,0,0:0:0:0:
192,192,178593,1,0,0:0:0:0:
448,192,178751,1,0,0:0:0:0:
320,192,178830,1,0,0:0:0:0:
448,192,178909,1,0,0:0:0:0:
320,192,178988,1,0,0:0:0:0:
448,192,179067,1,0,0:0:0:0:
320,192,179146,1,0,0:0:0:0:
64,192,179225,1,0,0:0:0:0:
192,192,179225,1,0,0:0:0:0:
320,192,179304,1,0,0:0:0:0:
448,192,179304,1,0,0:0:0:0:
64,192,179383,1,0,0:0:0:0:
192,192,179383,1,0,0:0:0:0:
320,192,179462,1,0,0:0:0:0:
448,192,179462,1,0,0:0:0:0:
64,192,179541,1,0,0:0:0:0:
192,192,179541,1,0,0:0:0:0:
448,192,179541,1,0,0:0:0:0:
64,192,179856,1,0,0:0:0:0:
192,192,179856,1,0,0:0:0:0:
320,192,179935,1,0,0:0:0:0:
64,192,180014,1,0,0:0:0:0:
448,192,180014,1,0,0:0:0:0:
192,192,180093,1,0,0:0:0:0:
64,192,180172,1,0,0:0:0:0:
320,192,180172,1,0,0:0:0:0:
192,192,180251,1,0,0:0:0:0:
320,192,180330,1,0,0:0:0:0:
448,192,180330,1,0,0:0:0:0:
64,192,180409,1,0,0:0:0:0:
192,192,180488,1,0,0:0:0:0:
448,192,180488,1,0,0:0:0:0:
64,192,180567,1,0,0:0:0:0:
192,192,180646,1,0,0:0:0:0:
320,192,180646,1,0,0:0:0:0:
64,192,180725,1,0,0:0:0:0:
320,192,180804,1,0,0:0:0:0:
448,192,180804,1,0,0:0:0:0:
64,192,180883,1,0,0:0:0:0:
192,192,180962,1,0,0:0:0:0:
448,192,180962,1,0,0:0:0:0:
320,192,181041,1,0,0:0:0:0:
64,192,181120,1,0,0:0:0:0:
192,192,181120,1,0,0:0:0:0:
320,192,181199,1,0,0:0:0:0:
192,192,181278,1,0,0:0:0:0:
448,192,181278,1,0,0:0:0:0:
64,192,181356,1,0,0:0:0:0:
192,192,181435,1,0,0:0:0:0:
448,192,181435,1,0,0:0:0:0:
320,192,181514,1,0,0:0:0:0:
64,192,181593,1,0,0:0:0:0:
448,192,181593,1,0,0:0:0:0:
320,192,181672,1,0,0:0:0:0:
64,192,181751,1,0,0:0:0:0:
192,192,181751,1,0,0:0:0:0:
448,192,181830,1,0,0:0:0:0:
192,192,181909,1,0,0:0:0:0:
320,192,181909,1,0,0:0:0:0:
64,192,181988,1,0,0:0:0:0:
320,192,182067,1,0,0:0:0:0:
448,192,182067,1,0,0:0:0:0:
64,192,182146,1,0,0:0:0:0:
192,192,182225,1,0,0:0:0:0:
448,192,182225,1,0,0:0:0:0:
320,192,182304,1,0,0:0:0:0:
64,192,182383,1,0,0:0:0:0:
192,192,182383,1,0,0:0:0:0:
320,192,182462,1,0,0:0:0:0:
64,192,182541,1,0,0:0:0:0:
448,192,182541,1,0,0:0:0:0:
192,192,182620,1,0,0:0:0:0:
320,192,182699,1,0,0:0:0:0:
448,192,182699,1,0,0:0:0:0:
192,192,182778,1,0,0:0:0:0:
64,192,182856,1,0,0:0:0:0:
448,192,182856,1,0,0:0:0:0:
320,192,182935,1,0,0:0:0:0:
64,192,183014,1,0,0:0:0:0:
192,192,183014,1,0,0:0:0:0:
320,192,183093,1,0,0:0:0:0:
192,192,183172,1,0,0:0:0:0:
448,192,183172,1,0,0:0:0:0:
64,192,183251,1,0,0:0:0:0:
320,192,183330,1,0,0:0:0:0:
448,192,183330,1,0,0:0:0:0:
192,192,183409,1,0,0:0:0:0:
320,192,183488,1,0,0:0:0:0:
448,192,183488,1,0,0:0:0:0:
192,192,183567,1,0,0:0:0:0:
64,192,183646,1,0,0:0:0:0:
448,192,183646,1,0,0:0:0:0:
192,192,183725,1,0,0:0:0:0:
320,192,183804,1,0,0:0:0:0:
448,192,183804,1,0,0:0:0:0:
192,192,183883,1,0,0:0:0:0:
64,192,183962,1,0,0:0:0:0:
320,192,183962,1,0,0:0:0:0:
320,192,184120,1,0,0:0:0:0:
448,192,184120,1,0,0:0:0:0:
64,192,184199,1,0,0:0:0:0:
192,192,184199,1,0,0:0:0:0:
320,192,184278,1,0,0:0:0:0:
448,192,184278,1,0,0:0:0:0:
64,192,184435,1,0,0:0:0:0:
192,192,184435,1,0,0:0:0:0:
320,192,184514,1,0,0:0:0:0:
448,192,184514,1,0,0:0:0:0:
64,192,184593,1,0,0:0:0:0:
192,192,184593,1,0,0:0:0:0:
320,192,184751,1,0,0:0:0:0:
448,192,184751,1,0,0:0:0:0:
64,192,184830,1,0,0:0:0:0:
192,192,184830,1,0,0:0:0:0:
320,192,184909,1,0,0:0:0:0:
448,192,184909,1,0,0:0:0:0:
64,192,184988,1,0,0:0:0:0:
320,192,185067,1,0,0:0:0:0:
448,192,185067,1,0,0:0:0:0:
192,192,185146,1,0,0:0:0:0:
64,192,185225,1,0,0:0:0:0:
320,192,185225,1,0,0:0:0:0:
192,192,185304,1,0,0:0:0:0:
64,192,185383,1,0,0:0:0:0:
320,192,185383,1,0,0:0:0:0:
448,192,185462,1,0,0:0:0:0:
64,192,185541,1,0,0:0:0:0:
192,192,185541,1,0,0:0:0:0:
448,192,185620,1,0,0:0:0:0:
64,192,185699,1,0,0:0:0:0:
192,192,185699,1,0,0:0:0:0:
320,192,185778,1,0,0:0:0:0:
192,192,185856,1,0,0:0:0:0:
448,192,185856,1,0,0:0:0:0:
64,192,185935,1,0,0:0:0:0:
192,192,186014,1,0,0:0:0:0:
448,192,186014,1,0,0:0:0:0:
320,192,186093,1,0,0:0:0:0:
64,192,186172,1,0,0:0:0:0:
448,192,186172,1,0,0:0:0:0:
192,192,186251,1,0,0:0:0:0:
64,192,186330,1,0,0:0:0:0:
448,192,186330,1,0,0:0:0:0:
320,192,186409,1,0,0:0:0:0:
64,192,186488,1,0,0:0:0:0:
192,192,186488,1,0,0:0:0:0:
320,192,186567,1,0,0:0:0:0:
64,192,186646,1,0,0:0:0:0:
192,192,186646,1,0,0:0:0:0:
448,192,186725,1,0,0:0:0:0:
192,192,186804,1,0,0:0:0:0:
320,192,186804,1,0,0:0:0:0:
448,192,186883,1,0,0:0:0:0:
192,192,186962,1,0,0:0:0:0:
320,192,186962,1,0,0:0:0:0:
64,192,187041,1,0,0:0:0:0:
192,192,187120,1,0,0:0:0:0:
320,192,187120,1,0,0:0:0:0:
448,192,187199,1,0,0:0:0:0:
64,192,187278,1,0,0:0:0:0:
192,192,187278,1,0,0:0:0:0:
320,192,187356,1,0,0:0:0:0:
64,192,187435,1,0,0:0:0:0:
192,192,187435,1,0,0:0:0:0:
320,192,187514,1,0,0:0:0:0:
448,192,187514,1,0,0:0:0:0:
64,192,187593,1,0,0:0:0:0:
192,192,187593,1,0,0:0:0:0:
320,192,187672,1,0,0:0:0:0:
448,192,187672,1,0,0:0:0:0:
64,192,187751,1,0,0:0:0:0:
192,192,187751,1,0,0:0:0:0:
320,192,187830,1,0,0:0:0:0:
448,192,187830,1,0,0:0:0:0:
64,192,187909,1,0,0:0:0:0:
192,192,187909,1,0,0:0:0:0:
320,192,187988,1,0,0:0:0:0:
448,192,187988,1,0,0:0:0:0:
64,192,188067,1,0,0:0:0:0:
192,192,188067,1,0,0:0:0:0:
320,192,188146,1,0,0:0:0:0:
448,192,188146,1,0,0:0:0:0:
64,192,188225,1,0,0:0:0:0:
192,192,188225,1,0,0:0:0:0:
320,192,188304,1,0,0:0:0:0:
448,192,188304,1,0,0:0:0:0:
64,192,188383,1,0,0:0:0:0:
192,192,188383,1,0,0:0:0:0:
320,192,188462,1,0,0:0:0:0:
448,192,188462,1,0,0:0:0:0:
64,192,188541,1,0,0:0:0:0:
192,192,188541,1,0,0:0:0:0:
320,192,188620,1,0,0:0:0:0:
448,192,188620,1,0,0:0:0:0:
64,192,188699,1,0,0:0:0:0:
192,192,188699,1,0,0:0:0:0:
320,192,188778,1,0,0:0:0:0:
448,192,188778,1,0,0:0:0:0:
64,192,188856,1,0,0:0:0:0:
192,192,188856,1,0,0:0:0:0:
320,192,188935,1,0,0:0:0:0:
448,192,188935,1,0,0:0:0:0:
64,192,189014,1,0,0:0:0:0:
192,192,189014,1,0,0:0:0:0:
320,192,189093,1,0,0:0:0:0:
448,192,189093,1,0,0:0:0:0:
64,192,189172,1,0,0:0:0:0:
192,192,189172,1,0,0:0:0:0:
320,192,189251,1,0,0:0:0:0:
448,192,189251,1,0,0:0:0:0:
64,192,189330,1,0,0:0:0:0:
192,192,189330,1,0,0:0:0:0:
320,192,189409,1,0,0:0:0:0:
448,192,189409,1,0,0:0:0:0:
64,192,189488,1,0,0:0:0:0:
192,192,189488,1,0,0:0:0:0:
320,192,189567,1,0,0:0:0:0:
448,192,189567,1,0,0:0:0:0:
64,192,189646,1,0,0:0:0:0:
192,192,189646,1,0,0:0:0:0:
448,192,189804,128,0,189962:0:0:0:0:
64,192,189962,1,0,0:0:0:0:
192,192,189962,1,0,0:0:0:0:
320,192,189962,1,0,0:0:0:0:
448,192,190041,1,0,0:0:0:0:
320,192,190120,1,0,0:0:0:0:
192,192,190199,1,0,0:0:0:0:
320,192,190278,1,0,0:0:0:0:
448,192,190278,1,0,0:0:0:0:
64,192,190356,1,0,0:0:0:0:
192,192,190435,1,0,0:0:0:0:
320,192,190435,1,0,0:0:0:0:
448,192,190514,1,0,0:0:0:0:
64,192,190593,1,0,0:0:0:0:
448,192,190672,1,0,0:0:0:0:
192,192,190751,1,0,0:0:0:0:
320,192,190751,1,0,0:0:0:0:
64,192,190830,1,0,0:0:0:0:
320,192,190909,1,0,0:0:0:0:
448,192,190909,1,0,0:0:0:0:
64,192,190988,1,0,0:0:0:0:
192,192,191067,1,0,0:0:0:0:
448,192,191067,1,0,0:0:0:0:
320,192,191146,1,0,0:0:0:0:
64,192,191225,1,0,0:0:0:0:
192,192,191225,1,0,0:0:0:0:
448,192,191304,1,0,0:0:0:0:
320,192,191383,1,0,0:0:0:0:
192,192,191462,1,0,0:0:0:0:
320,192,191541,1,0,0:0:0:0:
448,192,191541,1,0,0:0:0:0:
192,192,191620,1,0,0:0:0:0:
64,192,191699,1,0,0:0:0:0:
320,192,191699,1,0,0:0:0:0:
448,192,191778,1,0,0:0:0:0:
64,192,191856,1,0,0:0:0:0:
320,192,191856,1,0,0:0:0:0:
192,192,191935,1,0,0:0:0:0:
64,192,192014,1,0,0:0:0:0:
320,192,192014,1,0,0:0:0:0:
448,192,192093,1,0,0:0:0:0:
192,192,192172,1,0,0:0:0:0:
320,192,192172,1,0,0:0:0:0:
64,192,192251,1,0,0:0:0:0:
320,192,192330,1,0,0:0:0:0:
448,192,192409,1,0,0:0:0:0:
192,192,192488,1,0,0:0:0:0:
320,192,192488,1,0,0:0:0:0:
64,192,192567,1,0,0:0:0:0:
320,192,192646,1,0,0:0:0:0:
192,192,192725,1,0,0:0:0:0:
320,192,192804,1,0,0:0:0:0:
448,192,192804,1,0,0:0:0:0:
64,192,192883,1,0,0:0:0:0:
192,192,192962,1,0,0:0:0:0:
320,192,192962,1,0,0:0:0:0:
448,192,193041,1,0,0:0:0:0:
320,192,193120,1,0,0:0:0:0:
64,192,193199,1,0,0:0:0:0:
192,192,193278,1,0,0:0:0:0:
320,192,193278,1,0,0:0:0:0:
64,192,193356,1,0,0:0:0:0:
320,192,193435,1,0,0:0:0:0:
448,192,193435,1,0,0:0:0:0:
64,192,193514,1,0,0:0:0:0:
192,192,193593,1,0,0:0:0:0:
448,192,193593,1,0,0:0:0:0:
320,192,193672,1,0,0:0:0:0:
192,192,193751,1,0,0:0:0:0:
448,192,193830,1,0,0:0:0:0:
64,192,193909,1,0,0:0:0:0:
192,192,193909,1,0,0:0:0:0:
320,192,193962,1,0,0:0:0:0:
448,192,194014,1,0,0:0:0:0:
64,192,194067,1,0,0:0:0:0:
192,192,194067,1,0,0:0:0:0:
320,192,194146,1,0,0:0:0:0:
192,192,194225,1,0,0:0:0:0:
448,192,194225,1,0,0:0:0:0:
320,192,194304,1,0,0:0:0:0:
64,192,194383,1,0,0:0:0:0:
448,192,194383,1,0,0:0:0:0:
320,192,194541,1,0,0:0:0:0:
448,192,194541,1,0,0:0:0:0:
64,192,194620,1,0,0:0:0:0:
192,192,194620,1,0,0:0:0:0:
320,192,194699,1,0,0:0:0:0:
448,192,194699,1,0,0:0:0:0:
192,192,194856,1,0,0:0:0:0:
448,192,194856,1,0,0:0:0:0:
64,192,194935,1,0,0:0:0:0:
320,192,194935,1,0,0:0:0:0:
192,192,195014,1,0,0:0:0:0:
448,192,195014,1,0,0:0:0:0:
320,192,195093,1,0,0:0:0:0:
192,192,195172,1,0,0:0:0:0:
64,192,195251,1,0,0:0:0:0:
320,192,195330,1,0,0:0:0:0:
448,192,195330,1,0,0:0:0:0:
64,192,195409,1,0,0:0:0:0:
192,192,195488,1,0,0:0:0:0:
320,192,195488,1,0,0:0:0:0:
448,192,195567,1,0,0:0:0:0:
320,192,195646,1,0,0:0:0:0:
64,192,195725,1,0,0:0:0:0:
192,192,195804,1,0,0:0:0:0:
320,192,195804,1,0,0:0:0:0:
64,192,195883,1,0,0:0:0:0:
320,192,195962,1,0,0:0:0:0:
448,192,195962,1,0,0:0:0:0:
64,192,196041,1,0,0:0:0:0:
192,192,196120,1,0,0:0:0:0:
448,192,196120,1,0,0:0:0:0:
320,192,196199,1,0,0:0:0:0:
64,192,196278,1,0,0:0:0:0:
192,192,196278,1,0,0:0:0:0:
448,192,196356,1,0,0:0:0:0:
192,192,196435,1,0,0:0:0:0:
320,192,196514,1,0,0:0:0:0:
192,192,196593,1,0,0:0:0:0:
448,192,196593,1,0,0:0:0:0:
320,192,196672,1,0,0:0:0:0:
64,192,196751,1,0,0:0:0:0:
192,192,196751,1,0,0:0:0:0:
448,192,196830,1,0,0:0:0:0:
64,192,196909,1,0,0:0:0:0:
192,192,196909,1,0,0:0:0:0:
320,192,196988,1,0,0:0:0:0:
64,192,197067,1,0,0:0:0:0:
192,192,197067,1,0,0:0:0:0:
448,192,197146,1,0,0:0:0:0:
192,192,197225,1,0,0:0:0:0:
320,192,197225,1,0,0:0:0:0:
64,192,197304,1,0,0:0:0:0:
192,192,197383,1,0,0:0:0:0:
448,192,197462,1,0,0:0:0:0:
192,192,197541,1,0,0:0:0:0:
320,192,197541,1,0,0:0:0:0:
64,192,197620,1,0,0:0:0:0:
192,192,197699,1,0,0:0:0:0:
64,192,197778,1,0,0:0:0:0:
320,192,197856,1,0,0:0:0:0:
448,192,197856,1,0,0:0:0:0:
64,192,197935,1,0,0:0:0:0:
192,192,198014,1,0,0:0:0:0:
320,192,198014,1,0,0:0:0:0:
448,192,198093,1,0,0:0:0:0:
320,192,198172,1,0,0:0:0:0:
448,192,198251,1,0,0:0:0:0:
192,192,198330,1,0,0:0:0:0:
320,192,198330,1,0,0:0:0:0:
64,192,198409,1,0,0:0:0:0:
320,192,198488,1,0,0:0:0:0:
448,192,198488,1,0,0:0:0:0:
64,192,198567,1,0,0:0:0:0:
192,192,198646,1,0,0:0:0:0:
448,192,198646,1,0,0:0:0:0:
320,192,198725,1,0,0:0:0:0:
448,192,198804,1,0,0:0:0:0:
192,192,198883,1,0,0:0:0:0:
64,192,198962,1,0,0:0:0:0:
320,192,198962,1,0,0:0:0:0:
192,192,199014,1,0,0:0:0:0:
320,192,199067,1,0,0:0:0:0:
64,192,199120,1,0,0:0:0:0:
448,192,199120,1,0,0:0:0:0:
320,192,199199,1,0,0:0:0:0:
64,192,199278,1,0,0:0:0:0:
192,192,199278,1,0,0:0:0:0:
320,192,199356,1,0,0:0:0:0:
64,192,199435,1,0,0:0:0:0:
448,192,199435,1,0,0:0:0:0:
192,0,199435,128,0,200067:1:0:0:0:
64,192,200067,1,0,0:0:0:0:
320,192,200067,1,0,0:0:0:0:
448,192,200067,1,0,0:0:0:0:
192,192,200146,1,0,0:0:0:0:
64,192,200225,1,0,0:0:0:0:
448,192,200225,1,0,0:0:0:0:
320,192,200304,1,0,0:0:0:0:
64,192,200383,1,0,0:0:0:0:
448,192,200383,1,0,0:0:0:0:
192,192,200462,1,0,0:0:0:0:
320,192,200541,1,0,0:0:0:0:
448,192,200541,1,0,0:0:0:0:
64,192,200620,1,0,0:0:0:0:
320,192,200699,1,0,0:0:0:0:
448,192,200699,1,0,0:0:0:0:
192,192,200778,1,0,0:0:0:0:
64,192,200856,1,0,0:0:0:0:
320,192,200856,1,0,0:0:0:0:
448,192,200856,1,0,0:0:0:0:
192,192,200935,1,0,0:0:0:0:
64,192,201014,1,0,0:0:0:0:
320,192,201014,1,0,0:0:0:0:
448,192,201093,1,0,0:0:0:0:
64,192,201172,1,0,0:0:0:0:
192,192,201172,1,0,0:0:0:0:
320,192,201251,1,0,0:0:0:0:
64,192,201330,1,0,0:0:0:0:
448,192,201330,1,0,0:0:0:0:
320,192,201409,1,0,0:0:0:0:
64,192,201488,1,0,0:0:0:0:
448,192,201488,1,0,0:0:0:0:
192,192,201567,1,0,0:0:0:0:
64,192,201646,1,0,0:0:0:0:
448,192,201646,1,0,0:0:0:0:
320,192,201725,1,0,0:0:0:0:
64,192,201804,1,0,0:0:0:0:
448,192,201804,1,0,0:0:0:0:
192,192,201883,1,0,0:0:0:0:
320,192,201962,1,0,0:0:0:0:
448,192,201962,1,0,0:0:0:0:
192,192,202041,1,0,0:0:0:0:
64,192,202120,1,0,0:0:0:0:
448,192,202120,1,0,0:0:0:0:
320,192,202199,1,0,0:0:0:0:
64,192,202278,1,0,0:0:0:0:
448,192,202278,1,0,0:0:0:0:
192,192,202317,1,0,0:0:0:0:
320,192,202356,1,0,0:0:0:0:
448,192,202396,1,0,0:0:0:0:
64,192,202435,1,0,0:0:0:0:
192,192,202475,1,0,0:0:0:0:
320,192,202514,1,0,0:0:0:0:
448,192,202554,1,0,0:0:0:0:
64,192,202593,1,0,0:0:0:0:
192,192,202593,1,0,0:0:0:0:
448,192,202672,1,0,0:0:0:0:
192,192,202751,1,0,0:0:0:0:
320,192,202751,1,0,0:0:0:0:
64,192,202830,1,0,0:0:0:0:
320,192,202909,1,0,0:0:0:0:
448,192,202909,1,0,0:0:0:0:
192,192,202988,1,0,0:0:0:0:
64,192,203067,1,0,0:0:0:0:
320,192,203067,1,0,0:0:0:0:
448,192,203146,1,0,0:0:0:0:
192,192,203225,1,0,0:0:0:0:
320,192,203225,1,0,0:0:0:0:
64,192,203304,1,0,0:0:0:0:
192,192,203383,1,0,0:0:0:0:
320,192,203383,1,0,0:0:0:0:
448,192,203462,1,0,0:0:0:0:
64,192,203541,1,0,0:0:0:0:
192,192,203541,1,0,0:0:0:0:
320,192,203620,1,0,0:0:0:0:
192,192,203699,1,0,0:0:0:0:
448,192,203699,1,0,0:0:0:0:
320,192,203777,1,0,0:0:0:0:
64,192,203856,1,0,0:0:0:0:
192,192,203856,1,0,0:0:0:0:
448,192,203935,1,0,0:0:0:0:
64,192,204014,1,0,0:0:0:0:
320,192,204014,1,0,0:0:0:0:
192,192,204093,1,0,0:0:0:0:
64,192,204172,1,0,0:0:0:0:
448,192,204172,1,0,0:0:0:0:
192,192,204251,1,0,0:0:0:0:
320,192,204330,1,0,0:0:0:0:
448,192,204330,1,0,0:0:0:0:
192,192,204409,1,0,0:0:0:0:
64,192,204488,1,0,0:0:0:0:
320,192,204488,1,0,0:0:0:0:
192,192,204646,1,0,0:0:0:0:
320,192,204646,1,0,0:0:0:0:
64,192,204725,1,0,0:0:0:0:
448,192,204725,1,0,0:0:0:0:
320,192,204804,1,0,0:0:0:0:
192,0,204804,128,0,204962:1:0:0:0:
320,192,204962,1,0,0:0:0:0:
448,192,204962,1,0,0:0:0:0:
64,192,205041,1,0,0:0:0:0:
192,192,205041,1,0,0:0:0:0:
320,192,205120,1,0,0:0:0:0:
448,192,205120,1,0,0:0:0:0:
192,192,205199,1,0,0:0:0:0:
64,192,205277,1,0,0:0:0:0:
448,192,205277,1,0,0:0:0:0:
192,192,205356,1,0,0:0:0:0:
64,192,205435,1,0,0:0:0:0:
320,192,205435,1,0,0:0:0:0:
448,192,205514,1,0,0:0:0:0:
64,192,205593,1,0,0:0:0:0:
192,192,205593,1,0,0:0:0:0:
448,192,205672,1,0,0:0:0:0:
64,192,205751,1,0,0:0:0:0:
192,192,205751,1,0,0:0:0:0:
320,192,205830,1,0,0:0:0:0:
64,192,205909,1,0,0:0:0:0:
192,192,205909,1,0,0:0:0:0:
320,192,205988,1,0,0:0:0:0:
192,192,206067,1,0,0:0:0:0:
448,192,206067,1,0,0:0:0:0:
320,192,206146,1,0,0:0:0:0:
192,192,206225,1,0,0:0:0:0:
448,192,206225,1,0,0:0:0:0:
64,192,206304,1,0,0:0:0:0:
320,192,206383,1,0,0:0:0:0:
448,192,206383,1,0,0:0:0:0:
192,192,206462,1,0,0:0:0:0:
64,192,206541,1,0,0:0:0:0:
320,192,206541,1,0,0:0:0:0:
192,192,206620,1,0,0:0:0:0:
64,192,206699,1,0,0:0:0:0:
448,192,206699,1,0,0:0:0:0:
320,192,206777,1,0,0:0:0:0:
64,192,206856,1,0,0:0:0:0:
192,192,206856,1,0,0:0:0:0:
448,192,206935,1,0,0:0:0:0:
64,192,207014,1,0,0:0:0:0:
320,192,207014,1,0,0:0:0:0:
448,192,207093,1,0,0:0:0:0:
64,192,207172,1,0,0:0:0:0:
192,192,207172,1,0,0:0:0:0:
320,192,207251,1,0,0:0:0:0:
64,192,207330,1,0,0:0:0:0:
448,192,207330,1,0,0:0:0:0:
192,192,207370,1,0,0:0:0:0:
320,192,207409,1,0,0:0:0:0:
448,192,207449,1,0,0:0:0:0:
64,192,207488,1,0,0:0:0:0:
192,192,207527,1,0,0:0:0:0:
320,192,207567,1,0,0:0:0:0:
448,192,207606,1,0,0:0:0:0:
64,192,207646,1,0,0:0:0:0:
192,192,207646,1,0,0:0:0:0:
320,192,207725,1,0,0:0:0:0:
192,192,207804,1,0,0:0:0:0:
448,192,207804,1,0,0:0:0:0:
64,192,207883,1,0,0:0:0:0:
192,192,207962,1,0,0:0:0:0:
448,192,207962,1,0,0:0:0:0:
64,192,208041,1,0,0:0:0:0:
192,192,208120,1,0,0:0:0:0:
320,192,208120,1,0,0:0:0:0:
448,192,208199,1,0,0:0:0:0:
64,192,208277,1,0,0:0:0:0:
192,192,208277,1,0,0:0:0:0:
320,192,208356,1,0,0:0:0:0:
64,192,208435,1,0,0:0:0:0:
448,192,208435,1,0,0:0:0:0:
192,192,208514,1,0,0:0:0:0:
64,192,208593,1,0,0:0:0:0:
320,192,208593,1,0,0:0:0:0:
448,192,208672,1,0,0:0:0:0:
192,192,208751,1,0,0:0:0:0:
320,192,208751,1,0,0:0:0:0:
64,192,208830,1,0,0:0:0:0:
192,192,208909,1,0,0:0:0:0:
448,192,208909,1,0,0:0:0:0:
320,192,208949,1,0,0:0:0:0:
64,192,208988,1,0,0:0:0:0:
192,192,209027,1,0,0:0:0:0:
320,192,209067,1,0,0:0:0:0:
448,192,209106,1,0,0:0:0:0:
192,192,209146,1,0,0:0:0:0:
64,192,209185,1,0,0:0:0:0:
448,192,209225,1,0,0:0:0:0:
320,192,209264,1,0,0:0:0:0:
192,192,209304,1,0,0:0:0:0:
64,192,209383,1,0,0:0:0:0:
192,192,209462,1,0,0:0:0:0:
64,192,209541,1,0,0:0:0:0:
448,192,209541,1,0,0:0:0:0:
320,192,209699,1,0,0:0:0:0:
64,192,209856,1,0,0:0:0:0:
192,192,209856,1,0,0:0:0:0:
320,192,209856,1,0,0:0:0:0:
448,192,209856,1,0,0:0:0:0:
64,192,210172,1,0,0:0:0:0:
192,192,210172,1,0,0:0:0:0:
448,192,210172,1,0,0:0:0:0:
448,192,210330,1,0,0:0:0:0:
320,192,210409,1,0,0:0:0:0:
64,192,210488,1,0,0:0:0:0:
192,192,210488,1,0,0:0:0:0:
448,192,210567,1,0,0:0:0:0:
192,192,210646,1,0,0:0:0:0:
320,192,210646,1,0,0:0:0:0:
64,192,210725,1,0,0:0:0:0:
192,192,210804,1,0,0:0:0:0:
64,192,210883,1,0,0:0:0:0:
320,192,210962,1,0,0:0:0:0:
448,192,210962,1,0,0:0:0:0:
64,192,211041,1,0,0:0:0:0:
192,192,211120,1,0,0:0:0:0:
320,192,211120,1,0,0:0:0:0:
448,192,211199,1,0,0:0:0:0:
192,192,211277,1,0,0:0:0:0:
320,192,211277,1,0,0:0:0:0:
64,192,211356,1,0,0:0:0:0:
320,192,211435,1,0,0:0:0:0:
448,192,211435,1,0,0:0:0:0:
320,192,211593,1,0,0:0:0:0:
448,192,211593,1,0,0:0:0:0:
64,192,211672,1,0,0:0:0:0:
192,192,211751,1,0,0:0:0:0:
320,192,211751,1,0,0:0:0:0:
448,192,211830,1,0,0:0:0:0:
64,192,211909,1,0,0:0:0:0:
192,192,211909,1,0,0:0:0:0:
320,192,211988,1,0,0:0:0:0:
192,192,212067,1,0,0:0:0:0:
64,192,212146,1,0,0:0:0:0:
320,192,212225,1,0,0:0:0:0:
448,192,212225,1,0,0:0:0:0:
192,192,212304,1,0,0:0:0:0:
64,192,212383,1,0,0:0:0:0:
448,192,212383,1,0,0:0:0:0:
192,192,212462,1,0,0:0:0:0:
320,192,212541,1,0,0:0:0:0:
448,192,212620,1,0,0:0:0:0:
192,192,212699,1,0,0:0:0:0:
320,192,212699,1,0,0:0:0:0:
448,192,212856,1,0,0:0:0:0:
320,192,212935,1,0,0:0:0:0:
64,192,213014,1,0,0:0:0:0:
192,192,213014,1,0,0:0:0:0:
320,192,213093,1,0,0:0:0:0:
64,192,213172,1,0,0:0:0:0:
448,192,213172,1,0,0:0:0:0:
192,192,213251,1,0,0:0:0:0:
320,192,213330,1,0,0:0:0:0:
192,192,213409,1,0,0:0:0:0:
320,192,213488,1,0,0:0:0:0:
448,192,213488,1,0,0:0:0:0:
64,192,213646,1,0,0:0:0:0:
320,192,213646,1,0,0:0:0:0:
192,192,213725,1,0,0:0:0:0:
320,192,213804,1,0,0:0:0:0:
448,192,213804,1,0,0:0:0:0:
64,192,213883,1,0,0:0:0:0:
192,192,213962,1,0,0:0:0:0:
320,192,213962,1,0,0:0:0:0:
192,192,214120,1,0,0:0:0:0:
448,192,214120,1,0,0:0:0:0:
64,192,214199,1,0,0:0:0:0:
320,192,214277,1,0,0:0:0:0:
448,192,214277,1,0,0:0:0:0:
192,192,214356,1,0,0:0:0:0:
64,192,214435,1,0,0:0:0:0:
448,192,214435,1,0,0:0:0:0:
320,192,214514,1,0,0:0:0:0:
64,192,214593,1,0,0:0:0:0:
192,192,214593,1,0,0:0:0:0:
64,192,214751,1,0,0:0:0:0:
448,192,214751,1,0,0:0:0:0:
192,192,214830,1,0,0:0:0:0:
320,192,214830,1,0,0:0:0:0:
64,192,214909,1,0,0:0:0:0:
448,192,214909,1,0,0:0:0:0:
320,192,215067,1,0,0:0:0:0:
448,192,215067,1,0,0:0:0:0:
64,192,215146,1,0,0:0:0:0:
192,192,215146,1,0,0:0:0:0:
320,192,215225,1,0,0:0:0:0:
448,192,215225,1,0,0:0:0:0:
448,192,215383,1,0,0:0:0:0:
320,192,215462,1,0,0:0:0:0:
64,192,215541,1,0,0:0:0:0:
192,192,215541,1,0,0:0:0:0:
320,192,215620,1,0,0:0:0:0:
192,192,215699,1,0,0:0:0:0:
448,192,215699,1,0,0:0:0:0:
320,192,215777,1,0,0:0:0:0:
448,192,215856,1,0,0:0:0:0:
320,192,215935,1,0,0:0:0:0:
64,192,216014,1,0,0:0:0:0:
192,192,216014,1,0,0:0:0:0:
64,192,216172,1,0,0:0:0:0:
448,192,216172,1,0,0:0:0:0:
192,192,216251,1,0,0:0:0:0:
64,192,216330,1,0,0:0:0:0:
320,192,216330,1,0,0:0:0:0:
192,192,216409,1,0,0:0:0:0:
320,192,216488,1,0,0:0:0:0:
448,192,216488,1,0,0:0:0:0:
320,192,216646,1,0,0:0:0:0:
448,192,216646,1,0,0:0:0:0:
192,192,216725,1,0,0:0:0:0:
64,192,216804,1,0,0:0:0:0:
448,192,216804,1,0,0:0:0:0:
320,192,216883,1,0,0:0:0:0:
192,192,216962,1,0,0:0:0:0:
448,192,216962,1,0,0:0:0:0:
320,192,217041,1,0,0:0:0:0:
192,192,217120,1,0,0:0:0:0:
64,192,217199,1,0,0:0:0:0:
320,192,217277,1,0,0:0:0:0:
448,192,217277,1,0,0:0:0:0:
64,192,217356,1,0,0:0:0:0:
192,192,217435,1,0,0:0:0:0:
320,192,217435,1,0,0:0:0:0:
448,192,217514,1,0,0:0:0:0:
320,192,217593,1,0,0:0:0:0:
192,192,217672,1,0,0:0:0:0:
320,192,217751,1,0,0:0:0:0:
448,192,217751,1,0,0:0:0:0:
192,192,217909,1,0,0:0:0:0:
320,192,217988,1,0,0:0:0:0:
64,192,218067,1,0,0:0:0:0:
192,192,218067,1,0,0:0:0:0:
448,192,218146,1,0,0:0:0:0:
192,192,218225,1,0,0:0:0:0:
320,192,218225,1,0,0:0:0:0:
64,192,218304,1,0,0:0:0:0:
192,192,218383,1,0,0:0:0:0:
320,192,218462,1,0,0:0:0:0:
64,192,218541,1,0,0:0:0:0:
448,192,218541,1,0,0:0:0:0:
320,192,218620,1,0,0:0:0:0:
64,192,218699,1,0,0:0:0:0:
192,192,218699,1,0,0:0:0:0:
320,192,218777,1,0,0:0:0:0:
192,192,218856,1,0,0:0:0:0:
448,192,218856,1,0,0:0:0:0:
320,192,218935,1,0,0:0:0:0:
64,192,219014,1,0,0:0:0:0:
192,192,219014,1,0,0:0:0:0:
320,192,219093,1,0,0:0:0:0:
64,192,219172,1,0,0:0:0:0:
192,192,219172,1,0,0:0:0:0:
448,192,219251,1,0,0:0:0:0:
192,192,219330,1,0,0:0:0:0:
320,192,219330,1,0,0:0:0:0:
64,192,219409,1,0,0:0:0:0:
192,192,219488,1,0,0:0:0:0:
320,192,219488,1,0,0:0:0:0:
448,192,219567,1,0,0:0:0:0:
64,192,219646,1,0,0:0:0:0:
192,192,219646,1,0,0:0:0:0:
320,0,219646,128,0,220277:1:0:0:0:
64,192,220277,1,0,0:0:0:0:
192,192,220277,1,0,0:0:0:0:
448,192,220277,1,0,0:0:0:0:
64,192,220435,1,0,0:0:0:0:
192,192,220514,1,0,0:0:0:0:
320,192,220593,1,0,0:0:0:0:
448,192,220593,1,0,0:0:0:0:
64,192,220672,1,0,0:0:0:0:
192,192,220751,1,0,0:0:0:0:
320,192,220751,1,0,0:0:0:0:
448,192,220830,1,0,0:0:0:0:
320,192,220909,1,0,0:0:0:0:
448,192,220988,1,0,0:0:0:0:
64,192,221067,1,0,0:0:0:0:
192,192,221067,1,0,0:0:0:0:
448,192,221146,1,0,0:0:0:0:
192,192,221225,1,0,0:0:0:0:
320,192,221225,1,0,0:0:0:0:
64,192,221304,1,0,0:0:0:0:
192,192,221383,1,0,0:0:0:0:
320,192,221383,1,0,0:0:0:0:
448,192,221462,1,0,0:0:0:0:
64,192,221541,1,0,0:0:0:0:
192,192,221541,1,0,0:0:0:0:
64,192,221699,1,0,0:0:0:0:
192,192,221699,1,0,0:0:0:0:
448,192,221777,1,0,0:0:0:0:
192,192,221856,1,0,0:0:0:0:
320,192,221856,1,0,0:0:0:0:
64,192,221935,1,0,0:0:0:0:
320,192,222014,1,0,0:0:0:0:
448,192,222014,1,0,0:0:0:0:
192,192,222093,1,0,0:0:0:0:
320,192,222172,1,0,0:0:0:0:
448,192,222251,1,0,0:0:0:0:
64,192,222330,1,0,0:0:0:0:
192,192,222330,1,0,0:0:0:0:
320,192,222409,1,0,0:0:0:0:
64,192,222488,1,0,0:0:0:0:
448,192,222488,1,0,0:0:0:0:
320,192,222567,1,0,0:0:0:0:
192,192,222646,1,0,0:0:0:0:
64,192,222725,1,0,0:0:0:0:
192,192,222804,1,0,0:0:0:0:
320,192,222804,1,0,0:0:0:0:
64,192,222962,1,0,0:0:0:0:
448,192,222962,1,0,0:0:0:0:
192,192,223041,1,0,0:0:0:0:
320,192,223120,1,0,0:0:0:0:
448,192,223120,1,0,0:0:0:0:
192,192,223199,1,0,0:0:0:0:
64,192,223277,1,0,0:0:0:0:
448,192,223277,1,0,0:0:0:0:
320,192,223356,1,0,0:0:0:0:
192,192,223435,1,0,0:0:0:0:
448,192,223435,1,0,0:0:0:0:
320,192,223514,1,0,0:0:0:0:
64,192,223593,1,0,0:0:0:0:
448,192,223593,1,0,0:0:0:0:
192,192,223751,1,0,0:0:0:0:
448,192,223751,1,0,0:0:0:0:
320,192,223830,1,0,0:0:0:0:
64,192,223909,1,0,0:0:0:0:
192,192,223909,1,0,0:0:0:0:
448,192,223988,1,0,0:0:0:0:
192,192,224067,1,0,0:0:0:0:
320,192,224067,1,0,0:0:0:0:
64,192,224146,1,0,0:0:0:0:
192,192,224225,1,0,0:0:0:0:
320,192,224225,1,0,0:0:0:0:
448,192,224277,1,0,0:0:0:0:
320,192,224330,1,0,0:0:0:0:
64,192,224383,1,0,0:0:0:0:
192,192,224383,1,0,0:0:0:0:
448,192,224462,1,0,0:0:0:0:
64,192,224541,1,0,0:0:0:0:
320,192,224541,1,0,0:0:0:0:
192,192,224620,1,0,0:0:0:0:
320,192,224699,1,0,0:0:0:0:
448,192,224699,1,0,0:0:0:0:
64,192,224856,1,0,0:0:0:0:
448,192,224856,1,0,0:0:0:0:
192,192,224935,1,0,0:0:0:0:
320,192,224935,1,0,0:0:0:0:
64,192,225014,1,0,0:0:0:0:
448,192,225014,1,0,0:0:0:0:
64,192,225172,1,0,0:0:0:0:
192,192,225172,1,0,0:0:0:0:
320,192,225251,1,0,0:0:0:0:
448,192,225251,1,0,0:0:0:0:
64,192,225330,1,0,0:0:0:0:
192,192,225330,1,0,0:0:0:0:
64,192,225488,1,0,0:0:0:0:
192,192,225567,1,0,0:0:0:0:
320,192,225646,1,0,0:0:0:0:
448,192,225646,1,0,0:0:0:0:
192,192,225725,1,0,0:0:0:0:
64,192,225804,1,0,0:0:0:0:
320,192,225804,1,0,0:0:0:0:
192,192,225883,1,0,0:0:0:0:
64,192,225962,1,0,0:0:0:0:
192,192,226041,1,0,0:0:0:0:
320,192,226120,1,0,0:0:0:0:
448,192,226120,1,0,0:0:0:0:
64,192,226277,1,0,0:0:0:0:
448,192,226277,1,0,0:0:0:0:
320,192,226356,1,0,0:0:0:0:
192,192,226435,1,0,0:0:0:0:
448,192,226435,1,0,0:0:0:0:
320,192,226514,1,0,0:0:0:0:
64,192,226593,1,0,0:0:0:0:
192,192,226593,1,0,0:0:0:0:
64,192,226751,1,0,0:0:0:0:
192,192,226751,1,0,0:0:0:0:
320,192,226830,1,0,0:0:0:0:
64,192,226909,1,0,0:0:0:0:
448,192,226909,1,0,0:0:0:0:
192,192,226988,1,0,0:0:0:0:
64,192,227067,1,0,0:0:0:0:
320,192,227067,1,0,0:0:0:0:
192,192,227146,1,0,0:0:0:0:
320,192,227225,1,0,0:0:0:0:
448,192,227304,1,0,0:0:0:0:
64,192,227383,1,0,0:0:0:0:
192,192,227383,1,0,0:0:0:0:
448,192,227462,1,0,0:0:0:0:
192,192,227541,1,0,0:0:0:0:
320,192,227541,1,0,0:0:0:0:
64,192,227620,1,0,0:0:0:0:
192,192,227699,1,0,0:0:0:0:
320,192,227777,1,0,0:0:0:0:
64,192,227856,1,0,0:0:0:0:
192,192,227856,1,0,0:0:0:0:
320,192,228014,1,0,0:0:0:0:
192,192,228093,1,0,0:0:0:0:
320,192,228172,1,0,0:0:0:0:
448,192,228172,1,0,0:0:0:0:
192,192,228251,1,0,0:0:0:0:
64,192,228330,1,0,0:0:0:0:
448,192,228330,1,0,0:0:0:0:
192,192,228409,1,0,0:0:0:0:
320,192,228488,1,0,0:0:0:0:
448,192,228488,1,0,0:0:0:0:
64,192,228646,1,0,0:0:0:0:
192,192,228646,1,0,0:0:0:0:
320,192,228725,1,0,0:0:0:0:
448,192,228725,1,0,0:0:0:0:
64,192,228804,1,0,0:0:0:0:
192,192,228804,1,0,0:0:0:0:
320,192,228883,1,0,0:0:0:0:
448,192,228883,1,0,0:0:0:0:
64,192,228962,1,0,0:0:0:0:
192,192,228962,1,0,0:0:0:0:
320,192,229041,1,0,0:0:0:0:
448,192,229041,1,0,0:0:0:0:
192,192,229277,1,0,0:0:0:0:
320,192,229277,1,0,0:0:0:0:
448,192,229277,1,0,0:0:0:0:
64,192,229593,1,0,0:0:0:0:
320,192,229593,1,0,0:0:0:0:
448,192,229593,1,0,0:0:0:0:
192,192,229909,1,0,0:0:0:0:
64,0,229909,128,0,230225:1:0:0:0:
448,0,229909,128,0,230225:1:0:0:0:
192,192,230225,1,0,0:0:0:0:
320,192,230225,1,0,0:0:0:0:
192,192,230383,1,0,0:0:0:0:
320,192,230383,1,0,0:0:0:0:
448,0,230383,128,0,230856:1:0:0:0:
64,0,230383,128,0,231330:1:0:0:0:
