osu file format v14

[General]
AudioFilename: audio.mp3
AudioLeadIn: 0
PreviewTime: -1
Countdown: 1
SampleSet: Normal
StackLeniency: 0.7
Mode: 1
LetterboxInBreaks: 0
WidescreenStoryboard: 0

[Editor]
DistanceSpacing: 0.5
BeatDivisor: 4
GridSize: 16
TimelineZoom: 1

[Metadata]
Title:chipscape
TitleUnicode:chipscape
Artist:t+pazolite
ArtistUnicode:t+pazolite
Creator:worser player
Version:2018 mapping
Source:
Tags:
BeatmapID:1918969
BeatmapSetID:919010

[Difficulty]
HPDrainRate:2
CircleSize:5
OverallDifficulty:10
ApproachRate:10
SliderMultiplier:1.4
SliderTickRate:1

[Events]
//Background and Video events
//Break Periods
//Storyboard Layer 0 (Background)
//Storyboard Layer 1 (Fail)
//Storyboard Layer 2 (Pass)
//Storyboard Layer 3 (Foreground)
//Storyboard Sound Samples

[TimingPoints]
1100,272.727272727273,4,1,0,100,1,0

[HitObjects]
256,192,1100,5,0,0:0:0:0:
256,192,1236,1,0,0:0:0:0:
256,192,1304,1,8,0:0:0:0:
256,192,1372,1,8,0:0:0:0:
256,192,1509,1,0,0:0:0:0:
256,192,1645,1,8,0:0:0:0:
256,192,1781,1,0,0:0:0:0:
256,192,1918,1,0,0:0:0:0:
256,192,2054,1,0,0:0:0:0:
256,192,2327,1,0,0:0:0:0:
256,192,2463,1,8,0:0:0:0:
256,192,2600,1,0,0:0:0:0:
256,192,2736,1,8,0:0:0:0:
256,192,2872,1,0,0:0:0:0:
256,192,2940,1,0,0:0:0:0:
256,192,3009,1,8,0:0:0:0:
256,192,3145,1,0,0:0:0:0:
256,192,3190,1,0,0:0:0:0:
256,192,3236,1,0,0:0:0:0:
256,192,3281,1,8,0:0:0:0:
256,192,3418,1,0,0:0:0:0:
256,192,3486,1,8,0:0:0:0:
256,192,3554,1,8,0:0:0:0:
256,192,3691,1,0,0:0:0:0:
256,192,3827,1,8,0:0:0:0:
256,192,3963,1,0,0:0:0:0:
256,192,4100,1,0,0:0:0:0:
256,192,4236,1,0,0:0:0:0:
256,192,4509,1,0,0:0:0:0:
256,192,4645,1,8,0:0:0:0:
256,192,4782,1,0,0:0:0:0:
256,192,4918,1,8,0:0:0:0:
256,192,5054,1,0,0:0:0:0:
256,192,5122,1,0,0:0:0:0:
256,192,5191,1,8,0:0:0:0:
256,192,5463,1,8,0:0:0:0:
256,192,5600,1,0,0:0:0:0:
256,192,5668,1,8,0:0:0:0:
256,192,5736,1,8,0:0:0:0:
256,192,5873,1,0,0:0:0:0:
256,192,6009,1,8,0:0:0:0:
256,192,6145,1,0,0:0:0:0:
256,192,6282,1,0,0:0:0:0:
256,192,6418,1,0,0:0:0:0:
256,192,6691,1,0,0:0:0:0:
256,192,6827,1,8,0:0:0:0:
256,192,6964,1,0,0:0:0:0:
256,192,7100,1,8,0:0:0:0:
256,192,7236,1,0,0:0:0:0:
256,192,7304,1,0,0:0:0:0:
256,192,7373,1,8,0:0:0:0:
256,192,7509,1,0,0:0:0:0:
256,192,7645,1,0,0:0:0:0:
256,192,7781,1,0,0:0:0:0:
256,192,7850,1,8,0:0:0:0:
256,192,7918,1,8,0:0:0:0:
256,192,8054,1,0,0:0:0:0:
256,192,8190,1,8,0:0:0:0:
256,192,8327,1,0,0:0:0:0:
256,192,8463,1,8,0:0:0:0:
256,192,8600,1,8,0:0:0:0:
256,192,8736,1,0,0:0:0:0:
256,192,8804,1,8,0:0:0:0:
256,192,8872,1,8,0:0:0:0:
256,192,9009,1,0,0:0:0:0:
256,192,9077,1,0,0:0:0:0:
256,192,9145,1,8,0:0:0:0:
256,192,9281,1,0,0:0:0:0:
256,192,9350,1,8,0:0:0:0:
256,192,9418,1,8,0:0:0:0:
256,192,9554,1,0,0:0:0:0:
256,192,9622,1,0,0:0:0:0:
256,192,9690,1,0,0:0:0:0:
256,192,9827,1,0,0:0:0:0:
256,192,9963,1,0,0:0:0:0:
256,192,10100,1,8,0:0:0:0:
256,192,10134,1,8,0:0:0:0:
256,192,10236,1,0,0:0:0:0:
256,192,10372,1,0,0:0:0:0:
256,192,10509,1,0,0:0:0:0:
256,192,10645,1,8,0:0:0:0:
256,192,10679,1,8,0:0:0:0:
256,192,10781,1,0,0:0:0:0:
256,192,12009,1,0,0:0:0:0:
256,192,12145,1,0,0:0:0:0:
256,192,12282,1,8,0:0:0:0:
256,192,12316,1,8,0:0:0:0:
256,192,12418,1,0,0:0:0:0:
256,192,12554,1,0,0:0:0:0:
256,192,12691,1,0,0:0:0:0:
256,192,12827,1,8,0:0:0:0:
256,192,12861,1,8,0:0:0:0:
256,192,12963,1,0,0:0:0:0:
256,192,13645,1,8,0:0:0:0:
256,192,13679,1,8,0:0:0:0:
256,192,13713,1,8,0:0:0:0:
256,192,13781,1,8,0:0:0:0:
256,192,13918,1,0,0:0:0:0:
256,192,14054,1,0,0:0:0:0:
256,192,14190,1,0,0:0:0:0:
256,192,14326,1,0,0:0:0:0:
256,192,14463,1,8,0:0:0:0:
256,192,14497,1,8,0:0:0:0:
256,192,14599,1,0,0:0:0:0:
256,192,14735,1,0,0:0:0:0:
256,192,14872,1,0,0:0:0:0:
256,192,15008,1,8,0:0:0:0:
256,192,15042,1,8,0:0:0:0:
256,192,15144,1,0,0:0:0:0:
256,192,15281,1,8,0:0:0:0:
256,192,15315,1,8,0:0:0:0:
256,192,15349,1,8,0:0:0:0:
256,192,15418,1,0,0:0:0:0:
256,192,15554,1,8,0:0:0:0:
256,192,15588,1,8,0:0:0:0:
256,192,15622,1,8,0:0:0:0:
256,192,15827,1,0,0:0:0:0:
256,192,15963,1,0,0:0:0:0:
256,192,16100,1,8,0:0:0:0:
256,192,16145,1,8,0:0:0:0:
256,192,16190,1,8,0:0:0:0:
256,192,16236,1,8,0:0:0:0:
256,192,16281,1,0,0:0:0:0:
256,192,16327,1,0,0:0:0:0:
256,192,16372,1,0,0:0:0:0:
256,192,16509,1,0,0:0:0:0:
256,192,16645,1,8,0:0:0:0:
256,192,16679,1,8,0:0:0:0:
256,192,16713,1,8,0:0:0:0:
256,192,16781,1,0,0:0:0:0:
256,192,16918,1,8,0:0:0:0:
256,192,17054,1,0,0:0:0:0:
256,192,17190,1,8,0:0:0:0:
256,192,17224,1,8,0:0:0:0:
256,192,17258,1,8,0:0:0:0:
256,192,17327,1,0,0:0:0:0:
256,192,17463,1,8,0:0:0:0:
256,192,17497,1,8,0:0:0:0:
256,192,17531,1,8,0:0:0:0:
256,192,17600,1,0,0:0:0:0:
256,192,17736,1,8,0:0:0:0:
256,192,17804,1,8,0:0:0:0:
256,192,17872,1,8,0:0:0:0:
256,192,17940,1,8,0:0:0:0:
256,192,18009,1,8,0:0:0:0:
256,192,18077,1,8,0:0:0:0:
256,192,18145,1,8,0:0:0:0:
256,192,18213,1,8,0:0:0:0:
256,192,18281,1,0,0:0:0:0:
256,192,18350,1,0,0:0:0:0:
256,192,18418,1,0,0:0:0:0:
256,192,18486,1,0,0:0:0:0:
256,192,18554,1,0,0:0:0:0:
256,192,18690,1,0,0:0:0:0:
256,192,18759,1,0,0:0:0:0:
256,192,18827,1,8,0:0:0:0:
256,192,18963,1,0,0:0:0:0:
256,192,19100,1,8,0:0:0:0:
256,192,19236,1,0,0:0:0:0:
256,192,19372,1,8,0:0:0:0:
256,192,19509,1,0,0:0:0:0:
256,192,19645,1,0,0:0:0:0:
256,192,19679,1,0,0:0:0:0:
256,192,19713,1,0,0:0:0:0:
256,192,19781,1,0,0:0:0:0:
