osu file format v14

[General]
AudioFilename: audio.mp3
AudioLeadIn: 0
PreviewTime: 69827
Countdown: 1
SampleSet: Normal
StackLeniency: 0.7
Mode: 1
LetterboxInBreaks: 0
WidescreenStoryboard: 0

[Editor]
Bookmarks: 36009,53463,70918,89463,97100,114554,132009,149463,166645,178918,200216,217671,226398
DistanceSpacing: 2.1
BeatDivisor: 4
GridSize: 32
TimelineZoom: 3.299999

[Metadata]
Title:chipscape
TitleUnicode:chipscape
Artist:t+pazolite
ArtistUnicode:t+pazolite
Creator:SilverCatalyst
Version:Inner Oni
Source:
Tags:
BeatmapID:1500075
BeatmapSetID:709546

[Difficulty]
HPDrainRate:5
CircleSize:2
OverallDifficulty:7
ApproachRate:0
SliderMultiplier:1.5999999666214
SliderTickRate:1

[Events]
//Background and Video events
0,0,"infinity.jpg",0,0
//Break Periods
2,114686,121481
//Storyboard Layer 0 (Background)
//Storyboard Layer 1 (Fail)
//Storyboard Layer 2 (Pass)
//Storyboard Layer 3 (Foreground)
//Storyboard Sound Samples

[TimingPoints]
1100,272.727272727273,4,1,0,100,1,0
1100,-166.666666666667,4,1,0,40,0,0
9827,-153.846153846154,4,1,0,45,0,0
13645,-153.846153846154,4,1,0,45,0,0
13781,-151.515151515152,4,1,0,40,0,0
13850,-149.253731343284,4,1,0,35,0,0
13918,-147.058823529412,4,1,0,30,0,0
14054,-144.927536231884,4,1,0,25,0,0
14190,-142.857142857143,4,1,0,50,0,0
17940,-140.845070422535,4,1,0,50,0,0
18009,-138.888888888889,4,1,0,50,0,0
18077,-136.986301369863,4,1,0,50,0,0
18145,-135.135135135135,4,1,0,50,0,0
18213,-133.333333333333,4,1,0,50,0,0
18281,-131.578947368421,4,1,0,50,0,0
18350,-129.87012987013,4,1,0,50,0,0
18418,-128.205128205128,4,1,0,50,0,0
18486,-126.582278481013,4,1,0,50,0,0
18554,-125,4,1,0,65,0,0
35463,-126.582278481013,4,1,0,75,0,0
35531,-128.205128205128,4,1,0,75,0,0
35600,-129.87012987013,4,1,0,75,0,0
35668,-131.578947368421,4,1,0,75,0,0
35736,-133.333333333333,4,1,0,75,0,0
35804,-135.135135135135,4,1,0,75,0,0
35872,-136.986301369863,4,1,0,75,0,0
35940,-138.888888888889,4,1,0,75,0,0
36009,-140.845070422535,4,1,0,75,0,0
36554,-142.857142857143,4,1,0,55,0,0
52781,-133.333333333333,4,1,0,55,0,0
52918,-125,4,1,0,55,0,0
53054,-117.647058823529,4,1,0,55,0,0
53190,-111.111111111111,4,1,0,55,0,0
53327,-105.263157894737,4,1,0,55,0,0
53463,-100,4,1,0,70,0,1
69827,-102.040816326531,4,1,0,70,0,0
70372,-104.166666666667,4,1,0,70,0,0
70440,-106.382978723404,4,1,0,70,0,0
70509,-108.695652173913,4,1,0,70,0,0
70577,-111.111111111111,4,1,0,70,0,0
70645,-113.636363636364,4,1,0,70,0,0
70713,-116.279069767442,4,1,0,70,0,0
70781,-119.047619047619,4,1,0,70,0,0
70850,-121.951219512195,4,1,0,70,0,0
70918,-125,4,1,0,70,0,0
89327,-142.857142857143,4,1,0,55,0,0
96009,-138.888888888889,4,1,0,55,0,0
96281,-135.135135135135,4,1,0,55,0,0
96554,-131.578947368421,4,1,0,55,0,0
96827,-128.205128205128,4,1,0,55,0,0
97100,-125,4,1,0,70,0,0
105554,-126.582278481013,4,1,0,70,0,0
105622,-128.205128205128,4,1,0,70,0,0
105690,-129.87012987013,4,1,0,70,0,0
105759,-131.578947368421,4,1,0,70,0,0
105827,-133.333333333333,4,1,0,65,0,0
123281,-166.666666666667,4,1,0,65,0,0
131463,-163.934426229508,4,1,0,65,0,0
131531,-161.290322580645,4,1,0,65,0,0
131600,-158.730158730159,4,1,0,65,0,0
131668,-156.25,4,1,0,65,0,0
131736,-153.846153846154,4,1,0,65,0,0
131804,-151.515151515152,4,1,0,65,0,0
131872,-149.253731343284,4,1,0,65,0,0
131940,-147.058823529412,4,1,0,65,0,0
132009,-144.927536231884,4,1,0,65,0,0
132145,-142.857142857143,4,1,0,65,0,0
147009,-140.845070422535,4,1,0,65,0,0
147077,-138.888888888889,4,1,0,65,0,0
147145,-136.986301369863,4,1,0,65,0,0
147213,-135.135135135135,4,1,0,65,0,0
147281,-133.333333333333,4,1,0,65,0,0
147418,-131.578947368421,4,1,0,65,0,0
147554,-129.87012987013,4,1,0,65,0,0
147690,-128.205128205128,4,1,0,65,0,0
147759,-126.582278481013,4,1,0,65,0,0
147827,-125,4,1,0,65,0,0
147895,-123.456790123457,4,1,0,65,0,0
147963,-121.951219512195,4,1,0,65,0,0
148031,-120.481927710843,4,1,0,65,0,0
148168,-119.047619047619,4,1,0,65,0,0
148304,-117.647058823529,4,1,0,65,0,0
148440,-116.279069767442,4,1,0,65,0,0
148509,-114.942528735632,4,1,0,65,0,0
148645,-113.636363636364,4,1,0,65,0,0
148679,-112.994350282486,4,1,0,65,0,0
148713,-112.359550561798,4,1,0,65,0,0
148781,-111.111111111111,4,1,0,65,0,0
148850,-109.89010989011,4,1,0,65,0,0
148918,-108.695652173913,4,1,0,65,0,0
148986,-107.52688172043,4,1,0,65,0,0
149054,-106.382978723404,4,1,0,65,0,0
149122,-105.263157894737,4,1,0,65,0,0
149190,-104.166666666667,4,1,0,65,0,0
149259,-103.092783505155,4,1,0,65,0,0
149327,-102.040816326531,4,1,0,65,0,0
149395,-101.010101010101,4,1,0,65,0,0
149463,-100,4,1,0,70,0,1
158190,-95.2380952380952,4,1,0,75,0,1
162554,-90.9090909090909,4,1,0,80,0,1
166645,-133.333333333333,4,1,0,80,0,0
168009,-133.333333333333,4,1,0,75,0,0
169100,-133.333333333333,4,1,0,70,0,0
170190,-133.333333333333,4,1,0,65,0,0
171281,-133.333333333333,4,1,0,60,0,0
172372,-133.333333333333,4,1,0,55,0,0
173463,-133.333333333333,4,1,0,50,0,0
174554,-133.333333333333,4,1,0,45,0,0
175645,-133.333333333333,4,1,0,40,0,0
176736,-133.333333333333,4,1,0,80,0,0
178918,315.789473684211,4,1,0,100,1,0
178918,-166.666666666667,4,1,0,25,0,0
189023,-153.846153846154,4,1,0,30,0,0
191549,-142.857142857143,4,1,0,35,0,0
193444,-140.845070422535,4,1,0,65,0,0
193602,-138.888888888889,4,1,0,25,0,0
193681,-136.986301369863,4,1,0,25,0,0
193760,-135.135135135135,4,1,0,25,0,0
194075,-133.333333333333,4,1,0,45,0,0
199126,272.727272727273,4,1,0,100,1,0
199126,-133.333333333333,4,1,0,100,0,0
200216,-125,4,1,0,65,0,0
218626,-142.857142857143,4,1,0,55,0,0
225307,-138.888888888889,4,1,0,55,0,0
225580,-135.135135135135,4,1,0,55,0,0
225853,-131.578947368421,4,1,0,55,0,0
226126,-128.205128205128,4,1,0,55,0,0
226398,-125,4,1,0,65,0,0
244944,-125,4,1,0,50,0,0
245216,-125,4,1,0,43,0,0
245489,-125,4,1,0,37,0,0
245762,-125,4,1,0,31,0,0
246035,-125,4,1,0,25,0,0
246307,-125,4,1,0,18,0,0
246580,-125,4,1,0,12,0,0
246853,-125,4,1,0,6,0,0
247126,-125,4,1,0,5,0,0

[HitObjects]
256,192,1100,5,0,0:0:0:0:
256,192,1236,1,0,0:0:0:0:
256,192,1304,1,0,0:0:0:0:
256,192,1372,1,2,0:0:0:0:
256,192,1509,1,0,0:0:0:0:
256,192,1645,1,2,0:0:0:0:
256,192,1781,1,0,0:0:0:0:
256,192,1918,1,2,0:0:0:0:
256,192,2054,1,0,0:0:0:0:
256,192,2327,1,0,0:0:0:0:
256,192,2463,1,2,0:0:0:0:
256,192,2600,1,2,0:0:0:0:
256,192,2736,1,0,0:0:0:0:
256,192,2872,1,0,0:0:0:0:
256,192,2940,1,0,0:0:0:0:
256,192,3009,1,2,0:0:0:0:
256,192,3145,1,0,0:0:0:0:
256,192,3281,1,2,0:0:0:0:
256,192,3418,1,0,0:0:0:0:
256,192,3486,1,0,0:0:0:0:
256,192,3554,1,2,0:0:0:0:
256,192,3690,1,0,0:0:0:0:
256,192,3827,1,2,0:0:0:0:
256,192,3963,1,0,0:0:0:0:
256,192,4100,1,2,0:0:0:0:
256,192,4236,1,0,0:0:0:0:
256,192,4509,1,0,0:0:0:0:
256,192,4645,1,2,0:0:0:0:
256,192,4781,1,2,0:0:0:0:
256,192,4918,1,0,0:0:0:0:
256,192,5054,1,0,0:0:0:0:
256,192,5122,1,0,0:0:0:0:
256,192,5190,1,2,0:0:0:0:
256,192,5463,1,0,0:0:0:0:
256,192,5600,1,2,0:0:0:0:
256,192,5668,1,2,0:0:0:0:
256,192,5736,1,2,0:0:0:0:
256,192,5872,1,0,0:0:0:0:
256,192,6009,1,2,0:0:0:0:
256,192,6145,1,0,0:0:0:0:
256,192,6281,1,0,0:0:0:0:
256,192,6418,1,0,0:0:0:0:
256,192,6690,1,0,0:0:0:0:
256,192,6827,1,2,0:0:0:0:
256,192,6963,1,2,0:0:0:0:
256,192,7100,1,0,0:0:0:0:
256,192,7236,1,2,0:0:0:0:
256,192,7304,1,2,0:0:0:0:
256,192,7372,1,2,0:0:0:0:
256,192,7509,1,0,0:0:0:0:
256,192,7645,1,0,0:0:0:0:
256,192,7781,1,2,0:0:0:0:
256,192,7850,1,0,0:0:0:0:
256,192,7918,1,2,0:0:0:0:
256,192,8054,1,0,0:0:0:0:
256,192,8190,1,2,0:0:0:0:
256,192,8327,1,2,0:0:0:0:
256,192,8463,1,0,0:0:0:0:
256,192,8600,1,0,0:0:0:0:
256,192,8736,1,0,0:0:0:0:
256,192,8804,1,2,0:0:0:0:
256,192,8872,1,2,0:0:0:0:
256,192,9009,1,2,0:0:0:0:
256,192,9077,1,2,0:0:0:0:
256,192,9145,1,0,0:0:0:0:
256,192,9281,1,0,0:0:0:0:
256,192,9349,1,2,0:0:0:0:
256,192,9417,1,2,0:0:0:0:
256,192,9554,1,2,0:0:0:0:
256,192,9622,1,2,0:0:0:0:
256,192,9690,1,0,0:0:0:0:
256,192,9827,1,0,0:0:0:0:
256,192,9963,1,0,0:0:0:0:
256,192,10100,1,2,0:0:0:0:
256,192,10236,1,0,0:0:0:0:
256,192,10304,1,0,0:0:0:0:
256,192,10372,1,2,0:0:0:0:
256,192,10440,1,2,0:0:0:0:
256,192,10509,1,0,0:0:0:0:
256,192,10645,1,2,0:0:0:0:
256,192,10781,1,0,0:0:0:0:
256,192,10850,1,0,0:0:0:0:
256,192,12009,1,0,0:0:0:0:
256,192,12145,1,0,0:0:0:0:
256,192,12281,1,2,0:0:0:0:
256,192,12418,1,2,0:0:0:0:
256,192,12486,1,0,0:0:0:0:
256,192,12554,1,2,0:0:0:0:
256,192,12622,1,2,0:0:0:0:
256,192,12690,1,0,0:0:0:0:
256,192,12827,1,2,0:0:0:0:
256,192,12963,1,2,0:0:0:0:
256,192,13031,1,0,0:0:0:0:
256,192,13645,1,2,0:0:0:0:
256,192,13781,1,2,0:0:0:0:
256,192,13850,1,0,0:0:0:0:
256,192,13918,1,0,0:0:0:0:
256,192,14054,1,0,0:0:0:0:
256,192,14190,1,0,0:0:0:0:
256,192,14327,1,0,0:0:0:0:
256,192,14395,1,0,0:0:0:0:
256,192,14463,1,2,0:0:0:0:
256,192,14600,1,0,0:0:0:0:
256,192,14668,1,2,0:0:0:0:
256,192,14736,1,0,0:0:0:0:
256,192,14804,1,0,0:0:0:0:
256,192,14872,1,0,0:0:0:0:
256,192,15009,1,2,0:0:0:0:
256,192,15145,1,0,0:0:0:0:
256,192,15213,1,0,0:0:0:0:
256,192,15281,1,2,0:0:0:0:
256,192,15418,1,2,0:0:0:0:
256,192,15486,1,0,0:0:0:0:
256,192,15554,1,0,0:0:0:0:
256,192,15622,1,0,0:0:0:0:
256,192,15690,1,2,0:0:0:0:
256,192,15827,1,2,0:0:0:0:
256,192,15895,1,0,0:0:0:0:
256,192,15963,1,0,0:0:0:0:
256,192,16031,1,0,0:0:0:0:
256,192,16100,1,2,0:0:0:0:
256,192,16236,1,2,0:0:0:0:
256,192,16304,1,2,0:0:0:0:
256,192,16372,1,0,0:0:0:0:
256,192,16509,1,0,0:0:0:0:
256,192,16645,1,2,0:0:0:0:
256,192,16781,1,2,0:0:0:0:
256,192,16850,1,2,0:0:0:0:
256,192,16918,1,0,0:0:0:0:
256,192,16986,1,0,0:0:0:0:
256,192,17054,1,0,0:0:0:0:
256,192,17190,1,2,0:0:0:0:
256,192,17327,1,0,0:0:0:0:
256,192,17395,1,0,0:0:0:0:
256,192,17463,1,2,0:0:0:0:
256,192,17600,1,2,0:0:0:0:
256,192,17668,1,2,0:0:0:0:
256,192,17736,1,0,0:0:0:0:
256,192,17804,1,0,0:0:0:0:
256,192,17872,1,2,0:0:0:0:
256,192,17940,1,2,0:0:0:0:
256,192,18009,1,2,0:0:0:0:
256,192,18077,1,2,0:0:0:0:
256,192,18145,1,2,0:0:0:0:
256,192,18213,1,2,0:0:0:0:
256,192,18281,1,0,0:0:0:0:
256,192,18350,1,0,0:0:0:0:
256,192,18418,1,0,0:0:0:0:
256,192,18486,1,0,0:0:0:0:
256,192,18554,1,0,0:0:0:0:
256,192,18690,1,0,0:0:0:0:
256,192,18827,1,2,0:0:0:0:
256,192,18963,1,0,0:0:0:0:
256,192,19031,1,2,0:0:0:0:
256,192,19100,1,0,0:0:0:0:
256,192,19168,1,2,0:0:0:0:
256,192,19236,1,2,0:0:0:0:
256,192,19304,1,0,0:0:0:0:
256,192,19372,1,0,0:0:0:0:
256,192,19509,1,2,0:0:0:0:
256,192,19645,1,0,0:0:0:0:
256,192,19781,1,0,0:0:0:0:
256,192,19918,1,2,0:0:0:0:
256,192,20054,1,0,0:0:0:0:
256,192,20122,1,2,0:0:0:0:
256,192,20190,1,0,0:0:0:0:
256,192,20259,1,2,0:0:0:0:
256,192,20327,1,2,0:0:0:0:
256,192,20361,1,2,0:0:0:0:
256,192,20395,1,2,0:0:0:0:
256,192,20463,1,2,0:0:0:0:
256,192,20497,1,2,0:0:0:0:
256,192,20531,1,2,0:0:0:0:
256,192,20600,1,2,0:0:0:0:
256,192,20634,1,2,0:0:0:0:
256,192,20668,1,2,0:0:0:0:
256,192,20736,1,0,0:0:0:0:
256,192,20872,1,2,0:0:0:0:
256,192,20940,1,2,0:0:0:0:
256,192,21009,1,0,0:0:0:0:
256,192,21145,1,2,0:0:0:0:
256,192,21179,1,2,0:0:0:0:
256,192,21213,1,2,0:0:0:0:
256,192,21281,1,0,0:0:0:0:
256,192,21418,1,0,0:0:0:0:
256,192,21554,1,2,0:0:0:0:
256,192,21588,1,0,0:0:0:0:
256,192,21622,1,2,0:0:0:0:
256,192,21690,1,0,0:0:0:0:
256,192,21759,1,0,0:0:0:0:
256,192,21827,1,0,0:0:0:0:
256,192,21895,1,2,0:0:0:0:
256,192,21963,1,0,0:0:0:0:
256,192,22031,1,2,0:0:0:0:
256,192,22100,1,0,0:0:0:0:
256,192,22168,1,0,0:0:0:0:
256,192,22236,1,2,0:0:0:0:
256,192,22372,1,2,0:0:0:0:
256,192,22440,1,2,0:0:0:0:
256,192,22509,1,0,0:0:0:0:
256,192,22577,1,0,0:0:0:0:
256,192,22645,1,0,0:0:0:0:
256,192,22713,1,0,0:0:0:0:
256,192,22781,1,2,0:0:0:0:
256,192,22850,1,2,0:0:0:0:
256,192,22918,1,0,0:0:0:0:
256,192,23054,1,0,0:0:0:0:
256,192,23190,1,2,0:0:0:0:
256,192,23327,1,2,0:0:0:0:
256,192,23395,1,2,0:0:0:0:
256,192,23463,1,0,0:0:0:0:
256,192,23531,1,2,0:0:0:0:
256,192,23600,1,0,0:0:0:0:
256,192,23736,1,2,0:0:0:0:
256,192,23872,1,2,0:0:0:0:
256,192,23940,1,2,0:0:0:0:
256,192,24009,1,0,0:0:0:0:
256,192,24145,1,0,0:0:0:0:
256,192,24281,1,0,0:0:0:0:
256,192,24418,1,2,0:0:0:0:
256,192,24554,1,0,0:0:0:0:
256,192,24690,1,2,0:0:0:0:
256,192,24725,1,2,0:0:0:0:
256,192,24759,1,2,0:0:0:0:
256,192,24827,1,0,0:0:0:0:
256,192,24861,1,0,0:0:0:0:
256,192,24895,1,0,0:0:0:0:
256,192,24963,1,2,0:0:0:0:
256,192,24997,1,2,0:0:0:0:
256,192,25031,1,2,0:0:0:0:
256,192,25100,1,0,0:0:0:0:
256,192,25168,1,0,0:0:0:0:
256,192,25236,1,2,0:0:0:0:
256,192,25304,1,0,0:0:0:0:
256,192,25372,1,2,0:0:0:0:
256,192,25509,1,2,0:0:0:0:
256,192,25543,1,2,0:0:0:0:
256,192,25577,1,2,0:0:0:0:
256,192,25645,1,0,0:0:0:0:
256,192,25781,1,0,0:0:0:0:
256,192,25918,1,2,0:0:0:0:
256,192,25952,1,0,0:0:0:0:
256,192,25986,1,0,0:0:0:0:
256,192,26054,1,0,0:0:0:0:
256,192,26122,1,0,0:0:0:0:
256,192,26190,1,0,0:0:0:0:
256,192,26259,1,2,0:0:0:0:
256,192,26327,1,2,0:0:0:0:
256,192,26463,1,0,0:0:0:0:
256,192,26531,1,2,0:0:0:0:
256,192,26600,1,2,0:0:0:0:
256,192,26736,1,0,0:0:0:0:
256,192,26804,1,0,0:0:0:0:
256,192,26872,1,2,0:0:0:0:
256,192,27009,1,0,0:0:0:0:
256,192,27077,1,0,0:0:0:0:
256,192,27145,1,2,0:0:0:0:
256,192,27281,1,0,0:0:0:0:
256,192,27418,1,0,0:0:0:0:
256,192,27554,1,2,0:0:0:0:
256,192,27690,1,2,0:0:0:0:
256,192,27759,1,0,0:0:0:0:
256,192,27827,1,0,0:0:0:0:
256,192,27895,1,2,0:0:0:0:
256,192,27963,1,0,0:0:0:0:
256,192,28100,1,2,0:0:0:0:
256,192,28236,1,2,0:0:0:0:
256,192,28304,1,2,0:0:0:0:
256,192,28372,1,0,0:0:0:0:
256,192,28509,1,0,0:0:0:0:
256,192,28645,1,2,0:0:0:0:
256,192,28781,1,2,0:0:0:0:
256,192,28850,1,0,0:0:0:0:
256,192,28918,1,0,0:0:0:0:
256,192,29054,1,2,0:0:0:0:
256,192,29088,1,2,0:0:0:0:
256,192,29122,1,2,0:0:0:0:
256,192,29190,1,2,0:0:0:0:
256,192,29225,1,2,0:0:0:0:
256,192,29259,1,2,0:0:0:0:
256,192,29327,1,2,0:0:0:0:
256,192,29361,1,2,0:0:0:0:
256,192,29395,1,2,0:0:0:0:
256,192,29463,1,0,0:0:0:0:
256,192,29531,1,0,0:0:0:0:
256,192,29600,1,2,0:0:0:0:
256,192,29668,1,2,0:0:0:0:
256,192,29736,1,0,0:0:0:0:
256,192,29872,1,0,0:0:0:0:
256,192,29906,1,2,0:0:0:0:
256,192,29940,1,0,0:0:0:0:
256,192,30009,1,0,0:0:0:0:
256,192,30145,1,0,0:0:0:0:
256,192,30281,1,2,0:0:0:0:
256,192,30315,1,2,0:0:0:0:
256,192,30350,1,2,0:0:0:0:
256,192,30418,1,0,0:0:0:0:
256,192,30486,1,0,0:0:0:0:
256,192,30554,1,0,0:0:0:0:
256,192,30690,1,0,0:0:0:0:
256,192,30827,1,2,0:0:0:0:
256,192,30963,1,2,0:0:0:0:
256,192,31100,1,0,0:0:0:0:
256,192,31168,1,2,0:0:0:0:
256,192,31236,1,0,0:0:0:0:
256,192,31304,1,2,0:0:0:0:
256,192,31372,1,2,0:0:0:0:
256,192,31440,1,2,0:0:0:0:
256,192,31509,1,2,0:0:0:0:
256,192,31577,1,2,0:0:0:0:
256,192,31645,1,0,0:0:0:0:
256,192,31781,1,0,0:0:0:0:
256,192,31918,1,2,0:0:0:0:
256,192,32054,1,2,0:0:0:0:
256,192,32122,1,2,0:0:0:0:
256,192,32190,1,0,0:0:0:0:
256,192,32259,1,2,0:0:0:0:
256,192,32327,1,0,0:0:0:0:
256,192,32463,1,2,0:0:0:0:
256,192,32600,1,0,0:0:0:0:
256,192,32668,1,2,0:0:0:0:
256,192,32736,1,0,0:0:0:0:
256,192,32872,1,0,0:0:0:0:
256,192,33009,1,2,0:0:0:0:
256,192,33145,1,2,0:0:0:0:
256,192,33213,1,2,0:0:0:0:
256,192,33281,1,0,0:0:0:0:
256,192,33350,1,0,0:0:0:0:
256,192,33418,5,0,0:0:0:0:
256,192,33452,1,0,0:0:0:0:
256,192,33487,1,0,0:0:0:0:
256,192,33555,1,2,0:0:0:0:
256,192,33589,1,2,0:0:0:0:
256,192,33623,1,2,0:0:0:0:
256,192,33691,1,2,0:0:0:0:
256,192,33725,1,2,0:0:0:0:
256,192,33759,1,2,0:0:0:0:
256,192,33827,1,0,0:0:0:0:
256,192,33895,1,0,0:0:0:0:
256,192,33963,1,2,0:0:0:0:
256,192,34031,1,2,0:0:0:0:
256,192,34100,1,0,0:0:0:0:
256,192,34236,1,2,0:0:0:0:
256,192,34270,1,2,0:0:0:0:
256,192,34304,1,2,0:0:0:0:
256,192,34372,1,0,0:0:0:0:
256,192,34440,1,0,0:0:0:0:
256,192,34509,1,0,0:0:0:0:
256,192,34577,1,0,0:0:0:0:
256,192,34645,1,2,0:0:0:0:
256,192,34679,1,0,0:0:0:0:
256,192,34713,1,0,0:0:0:0:
256,192,34781,1,0,0:0:0:0:
256,192,34918,1,2,0:0:0:0:
256,192,34986,1,0,0:0:0:0:
256,192,35054,1,0,0:0:0:0:
256,192,35122,1,2,0:0:0:0:
256,192,35190,1,2,0:0:0:0:
256,192,35327,1,2,0:0:0:0:
256,192,35463,1,2,0:0:0:0:
256,192,35531,1,2,0:0:0:0:
256,192,35600,1,0,0:0:0:0:
256,192,35668,1,0,0:0:0:0:
256,192,35736,1,2,0:0:0:0:
256,192,35804,1,2,0:0:0:0:
256,192,35872,1,2,0:0:0:0:
256,192,35940,1,2,0:0:0:0:
256,192,36009,5,0,0:0:0:0:
256,192,36554,1,0,0:0:0:0:
256,192,36690,1,0,0:0:0:0:
256,192,36827,1,2,0:0:0:0:
256,192,36963,1,0,0:0:0:0:
256,192,37236,1,0,0:0:0:0:
256,192,37509,1,2,0:0:0:0:
256,192,37781,1,0,0:0:0:0:
256,192,38054,1,2,0:0:0:0:
256,192,38190,1,0,0:0:0:0:
256,192,38736,1,0,0:0:0:0:
256,192,38872,1,2,0:0:0:0:
256,192,39009,1,0,0:0:0:0:
256,192,39145,1,2,0:0:0:0:
256,192,39418,1,0,0:0:0:0:
256,192,39690,1,0,0:0:0:0:
256,192,39963,1,0,0:0:0:0:
256,192,40236,1,2,0:0:0:0:
256,192,40372,1,0,0:0:0:0:
256,192,40918,1,2,0:0:0:0:
256,192,41054,1,2,0:0:0:0:
256,192,41190,1,0,0:0:0:0:
256,192,41327,1,2,0:0:0:0:
256,192,41600,1,0,0:0:0:0:
256,192,41872,1,0,0:0:0:0:
256,192,42145,1,0,0:0:0:0:
256,192,42418,1,2,0:0:0:0:
256,192,42554,1,0,0:0:0:0:
256,192,43100,1,2,0:0:0:0:
256,192,43236,1,2,0:0:0:0:
256,192,43372,1,0,0:0:0:0:
256,192,43509,1,0,0:0:0:0:
256,192,43781,1,0,0:0:0:0:
256,192,44054,1,0,0:0:0:0:
256,192,44190,1,0,0:0:0:0:
256,192,44327,1,2,0:0:0:0:
256,192,44463,1,2,0:0:0:0:
256,192,44600,1,2,0:0:0:0:
256,192,44736,1,0,0:0:0:0:
256,192,45281,1,0,0:0:0:0:
256,192,45418,1,2,0:0:0:0:
256,192,45554,1,2,0:0:0:0:
256,192,45690,1,0,0:0:0:0:
256,192,45963,1,0,0:0:0:0:
256,192,46236,1,2,0:0:0:0:
256,192,46509,1,0,0:0:0:0:
256,192,46781,1,2,0:0:0:0:
256,192,46918,1,0,0:0:0:0:
256,192,47463,1,0,0:0:0:0:
256,192,47600,1,2,0:0:0:0:
256,192,47736,1,0,0:0:0:0:
256,192,47872,1,2,0:0:0:0:
256,192,48145,1,0,0:0:0:0:
256,192,48418,1,2,0:0:0:0:
256,192,48690,1,0,0:0:0:0:
256,192,48963,1,2,0:0:0:0:
256,192,49100,1,0,0:0:0:0:
256,192,49645,1,2,0:0:0:0:
256,192,49781,1,2,0:0:0:0:
256,192,49918,1,0,0:0:0:0:
256,192,50054,1,2,0:0:0:0:
256,192,50327,1,0,0:0:0:0:
256,192,50600,1,0,0:0:0:0:
256,192,50872,1,0,0:0:0:0:
256,192,51145,1,2,0:0:0:0:
256,192,51281,1,0,0:0:0:0:
256,192,51827,1,2,0:0:0:0:
256,192,51963,1,0,0:0:0:0:
256,192,52100,1,0,0:0:0:0:
256,192,52236,1,0,0:0:0:0:
256,192,52509,1,0,0:0:0:0:
256,192,52781,1,0,0:0:0:0:
256,192,52918,1,2,0:0:0:0:
256,192,53054,1,0,0:0:0:0:
256,192,53190,1,2,0:0:0:0:
256,192,53327,1,2,0:0:0:0:
256,192,53463,1,0,0:0:0:0:
256,192,53600,1,2,0:0:0:0:
256,192,53736,1,2,0:0:0:0:
256,192,53872,1,2,0:0:0:0:
256,192,53940,1,2,0:0:0:0:
256,192,54009,1,0,0:0:0:0:
256,192,54077,1,2,0:0:0:0:
256,192,54145,1,0,0:0:0:0:
256,192,54281,1,0,0:0:0:0:
256,192,54418,1,2,0:0:0:0:
256,192,54486,1,2,0:0:0:0:
256,192,54554,1,0,0:0:0:0:
256,192,54690,1,2,0:0:0:0:
256,192,54758,1,2,0:0:0:0:
256,192,54827,1,0,0:0:0:0:
256,192,54963,1,0,0:0:0:0:
256,192,55100,1,2,0:0:0:0:
256,192,55168,1,2,0:0:0:0:
256,192,55236,1,0,0:0:0:0:
256,192,55304,1,0,0:0:0:0:
256,192,55372,1,0,0:0:0:0:
256,192,55509,1,2,0:0:0:0:
256,192,55543,1,2,0:0:0:0:
256,192,55577,1,2,0:0:0:0:
256,192,55645,1,0,0:0:0:0:
256,192,55781,1,2,0:0:0:0:
256,192,55918,1,0,0:0:0:0:
256,192,56054,1,0,0:0:0:0:
256,192,56122,1,2,0:0:0:0:
256,192,56190,1,0,0:0:0:0:
256,192,56259,1,0,0:0:0:0:
256,192,56327,1,2,0:0:0:0:
256,192,56463,1,0,0:0:0:0:
256,192,56531,1,0,0:0:0:0:
256,192,56600,1,2,0:0:0:0:
256,192,56668,1,0,0:0:0:0:
256,192,56736,1,2,0:0:0:0:
256,192,56804,1,2,0:0:0:0:
256,192,56872,1,2,0:0:0:0:
256,192,56940,1,2,0:0:0:0:
256,192,57009,1,0,0:0:0:0:
256,192,57043,1,0,0:0:0:0:
256,192,57077,1,0,0:0:0:0:
256,192,57111,1,0,0:0:0:0:
256,192,57145,1,2,0:0:0:0:
256,192,57213,1,0,0:0:0:0:
256,192,57281,1,2,0:0:0:0:
256,192,57418,1,2,0:0:0:0:
256,192,57554,1,2,0:0:0:0:
256,192,57622,1,2,0:0:0:0:
256,192,57690,1,0,0:0:0:0:
256,192,57759,1,0,0:0:0:0:
256,192,57827,1,0,0:0:0:0:
256,192,57861,1,2,0:0:0:0:
256,192,57895,1,0,0:0:0:0:
256,192,57963,1,2,0:0:0:0:
256,192,57997,1,2,0:0:0:0:
256,192,58031,1,2,0:0:0:0:
256,192,58100,1,0,0:0:0:0:
256,192,58134,1,0,0:0:0:0:
256,192,58168,1,0,0:0:0:0:
256,192,58236,1,2,0:0:0:0:
256,192,58270,1,2,0:0:0:0:
256,192,58304,1,0,0:0:0:0:
256,192,58372,1,0,0:0:0:0:
256,192,58440,1,0,0:0:0:0:
256,192,58509,1,2,0:0:0:0:
256,192,58645,1,2,0:0:0:0:
256,192,58781,1,2,0:0:0:0:
256,192,58850,1,0,0:0:0:0:
256,192,58918,1,2,0:0:0:0:
256,192,59054,1,2,0:0:0:0:
256,192,59122,1,0,0:0:0:0:
256,192,59190,1,2,0:0:0:0:
256,192,59327,1,2,0:0:0:0:
256,192,59463,1,2,0:0:0:0:
256,192,59531,1,0,0:0:0:0:
256,192,59600,1,2,0:0:0:0:
256,192,59668,1,2,0:0:0:0:
256,192,59736,1,2,0:0:0:0:
256,192,59872,1,6,0:0:0:0:
256,192,60009,1,0,0:0:0:0:
256,192,60145,1,2,0:0:0:0:
256,192,60281,1,0,0:0:0:0:
256,192,60418,1,2,0:0:0:0:
256,192,60486,1,0,0:0:0:0:
256,192,60554,1,0,0:0:0:0:
256,192,60622,1,0,0:0:0:0:
256,192,60690,1,2,0:0:0:0:
256,192,60827,1,0,0:0:0:0:
256,192,60895,1,0,0:0:0:0:
256,192,60963,1,2,0:0:0:0:
256,192,61031,1,0,0:0:0:0:
256,192,61100,1,2,0:0:0:0:
256,192,61236,1,2,0:0:0:0:
256,192,61372,1,2,0:0:0:0:
256,192,61440,1,2,0:0:0:0:
256,192,61509,1,0,0:0:0:0:
256,192,61577,1,0,0:0:0:0:
256,192,61645,1,2,0:0:0:0:
256,192,61713,1,2,0:0:0:0:
256,192,61781,1,2,0:0:0:0:
256,192,61815,1,2,0:0:0:0:
256,192,61850,1,2,0:0:0:0:
256,192,61918,1,2,0:0:0:0:
256,192,61952,1,2,0:0:0:0:
256,192,61986,1,2,0:0:0:0:
256,192,62054,1,0,0:0:0:0:
256,192,62088,1,0,0:0:0:0:
256,192,62122,1,0,0:0:0:0:
256,192,62190,1,0,0:0:0:0:
256,192,62327,1,2,0:0:0:0:
256,192,62463,1,0,0:0:0:0:
256,192,62600,1,0,0:0:0:0:
256,192,62668,1,0,0:0:0:0:
256,192,62736,1,2,0:0:0:0:
256,192,62804,1,2,0:0:0:0:
256,192,62872,1,0,0:0:0:0:
256,192,63009,1,2,0:0:0:0:
256,192,63145,1,0,0:0:0:0:
256,192,63213,1,0,0:0:0:0:
256,192,63281,1,2,0:0:0:0:
256,192,63418,1,2,0:0:0:0:
256,192,63486,1,2,0:0:0:0:
256,192,63554,1,2,0:0:0:0:
256,192,63690,1,2,0:0:0:0:
256,192,63827,1,0,0:0:0:0:
256,192,63895,1,0,0:0:0:0:
256,192,63963,1,2,0:0:0:0:
256,192,64031,1,2,0:0:0:0:
256,192,64100,1,2,0:0:0:0:
256,192,64236,1,6,0:0:0:0:
256,192,64372,1,0,0:0:0:0:
256,192,64509,1,2,0:0:0:0:
256,192,64645,1,0,0:0:0:0:
256,192,64781,1,2,0:0:0:0:
256,192,64850,1,2,0:0:0:0:
256,192,64918,1,0,0:0:0:0:
256,192,64986,1,0,0:0:0:0:
256,192,65054,1,2,0:0:0:0:
256,192,65190,1,0,0:0:0:0:
256,192,65259,1,0,0:0:0:0:
256,192,65327,1,2,0:0:0:0:
256,192,65395,1,0,0:0:0:0:
256,192,65463,1,2,0:0:0:0:
256,192,65531,1,2,0:0:0:0:
256,192,65600,1,0,0:0:0:0:
256,192,65668,1,0,0:0:0:0:
256,192,65736,1,2,0:0:0:0:
256,192,65770,1,2,0:0:0:0:
256,192,65804,1,2,0:0:0:0:
256,192,65872,1,0,0:0:0:0:
256,192,65940,1,2,0:0:0:0:
256,192,66009,1,0,0:0:0:0:
256,192,66145,1,2,0:0:0:0:
256,192,66281,1,2,0:0:0:0:
256,192,66315,1,2,0:0:0:0:
256,192,66350,1,2,0:0:0:0:
256,192,66384,1,2,0:0:0:0:
256,192,66418,1,0,0:0:0:0:
256,192,66452,1,0,0:0:0:0:
256,192,66486,1,0,0:0:0:0:
256,192,66520,1,0,0:0:0:0:
256,192,66554,1,0,0:0:0:0:
256,192,66690,1,2,0:0:0:0:
256,192,66827,1,0,0:0:0:0:
256,192,66963,1,2,0:0:0:0:
256,192,67031,1,0,0:0:0:0:
256,192,67100,1,0,0:0:0:0:
256,192,67168,1,0,0:0:0:0:
256,192,67236,1,2,0:0:0:0:
256,192,67372,1,2,0:0:0:0:
256,192,67440,1,2,0:0:0:0:
256,192,67509,1,0,0:0:0:0:
256,192,67577,1,0,0:0:0:0:
256,192,67645,1,2,0:0:0:0:
256,192,67781,1,0,0:0:0:0:
256,192,67850,1,2,0:0:0:0:
256,192,67918,1,0,0:0:0:0:
256,192,68054,1,2,0:0:0:0:
256,192,68190,1,2,0:0:0:0:
256,192,68259,1,0,0:0:0:0:
256,192,68327,1,2,0:0:0:0:
256,192,68395,1,2,0:0:0:0:
256,192,68463,1,2,0:0:0:0:
256,192,68497,1,2,0:0:0:0:
256,192,68531,1,2,0:0:0:0:
256,192,68600,1,0,0:0:0:0:
256,192,68634,1,0,0:0:0:0:
256,192,68668,1,0,0:0:0:0:
256,192,68736,1,0,0:0:0:0:
256,192,68872,1,2,0:0:0:0:
256,192,69008,1,0,0:0:0:0:
256,192,69145,1,2,0:0:0:0:
256,192,69213,1,2,0:0:0:0:
256,192,69281,1,0,0:0:0:0:
256,192,69350,1,0,0:0:0:0:
256,192,69418,1,2,0:0:0:0:
256,192,69554,1,2,0:0:0:0:
256,192,69622,1,2,0:0:0:0:
256,192,69690,1,0,0:0:0:0:
256,192,69827,12,0,70236,0:0:0:0:
256,192,70372,5,2,0:0:0:0:
256,192,70440,1,2,0:0:0:0:
256,192,70509,1,0,0:0:0:0:
256,192,70577,1,0,0:0:0:0:
256,192,70645,1,2,0:0:0:0:
256,192,70713,1,2,0:0:0:0:
256,192,70781,1,0,0:0:0:0:
256,192,70850,1,0,0:0:0:0:
256,192,70918,1,0,0:0:0:0:
256,192,71054,1,0,0:0:0:0:
256,192,71122,1,0,0:0:0:0:
256,192,71190,1,2,0:0:0:0:
256,192,71327,1,0,0:0:0:0:
256,192,71395,1,2,0:0:0:0:
256,192,71463,1,0,0:0:0:0:
256,192,71531,1,2,0:0:0:0:
256,192,71600,1,0,0:0:0:0:
256,192,71736,1,2,0:0:0:0:
256,192,71872,1,2,0:0:0:0:
256,192,71940,1,2,0:0:0:0:
256,192,72009,1,0,0:0:0:0:
256,192,72145,1,0,0:0:0:0:
256,192,72281,1,2,0:0:0:0:
256,192,72418,1,2,0:0:0:0:
256,192,72486,1,2,0:0:0:0:
256,192,72554,1,0,0:0:0:0:
256,192,72622,1,0,0:0:0:0:
256,192,72690,1,2,0:0:0:0:
256,192,72725,1,2,0:0:0:0:
256,192,72759,1,2,0:0:0:0:
256,192,72827,1,0,0:0:0:0:
256,192,72861,1,0,0:0:0:0:
256,192,72895,1,0,0:0:0:0:
256,192,72963,1,2,0:0:0:0:
256,192,72997,1,2,0:0:0:0:
256,192,73031,1,2,0:0:0:0:
256,192,73100,1,0,0:0:0:0:
256,192,73168,1,0,0:0:0:0:
256,192,73236,1,2,0:0:0:0:
256,192,73304,1,2,0:0:0:0:
256,192,73372,1,0,0:0:0:0:
256,192,73509,1,2,0:0:0:0:
256,192,73543,1,2,0:0:0:0:
256,192,73577,1,2,0:0:0:0:
256,192,73645,1,0,0:0:0:0:
256,192,73781,1,0,0:0:0:0:
256,192,73918,1,2,0:0:0:0:
256,192,73952,1,0,0:0:0:0:
256,192,73986,1,2,0:0:0:0:
256,192,74054,1,2,0:0:0:0:
256,192,74122,1,2,0:0:0:0:
256,192,74190,1,0,0:0:0:0:
256,192,74327,1,2,0:0:0:0:
256,192,74395,1,0,0:0:0:0:
256,192,74463,1,2,0:0:0:0:
256,192,74600,1,2,0:0:0:0:
256,192,74736,1,0,0:0:0:0:
256,192,74872,1,0,0:0:0:0:
256,192,75009,1,0,0:0:0:0:
256,192,75077,1,0,0:0:0:0:
256,192,75145,1,2,0:0:0:0:
256,192,75213,1,2,0:0:0:0:
256,192,75281,1,0,0:0:0:0:
256,192,75418,1,2,0:0:0:0:
256,192,75554,1,2,0:0:0:0:
256,192,75690,1,2,0:0:0:0:
256,192,75759,1,2,0:0:0:0:
256,192,75827,1,0,0:0:0:0:
256,192,75895,1,0,0:0:0:0:
256,192,75963,1,0,0:0:0:0:
256,192,76100,1,2,0:0:0:0:
256,192,76236,1,0,0:0:0:0:
256,192,76304,1,2,0:0:0:0:
256,192,76372,1,0,0:0:0:0:
256,192,76509,1,0,0:0:0:0:
256,192,76645,1,2,0:0:0:0:
256,192,76781,1,0,0:0:0:0:
256,192,76850,1,2,0:0:0:0:
256,192,76918,1,0,0:0:0:0:
256,192,77054,1,0,0:0:0:0:
256,192,77088,1,0,0:0:0:0:
256,192,77122,1,0,0:0:0:0:
256,192,77190,1,2,0:0:0:0:
256,192,77225,1,2,0:0:0:0:
256,192,77259,1,2,0:0:0:0:
256,192,77327,1,2,0:0:0:0:
256,192,77361,1,2,0:0:0:0:
256,192,77395,1,2,0:0:0:0:
256,192,77463,1,0,0:0:0:0:
256,192,77600,1,2,0:0:0:0:
256,192,77668,1,2,0:0:0:0:
256,192,77736,1,0,0:0:0:0:
256,192,77872,1,0,0:0:0:0:
256,192,77906,1,2,0:0:0:0:
256,192,77940,1,2,0:0:0:0:
256,192,78009,1,0,0:0:0:0:
256,192,78145,1,0,0:0:0:0:
256,192,78281,1,2,0:0:0:0:
256,192,78315,1,0,0:0:0:0:
256,192,78350,1,0,0:0:0:0:
256,192,78418,1,0,0:0:0:0:
256,192,78554,1,2,0:0:0:0:
256,192,78622,1,2,0:0:0:0:
256,192,78690,1,0,0:0:0:0:
256,192,78759,1,2,0:0:0:0:
256,192,78827,1,0,0:0:0:0:
256,192,78963,1,0,0:0:0:0:
256,192,79100,1,0,0:0:0:0:
256,192,79168,1,2,0:0:0:0:
256,192,79236,1,0,0:0:0:0:
256,192,79372,1,0,0:0:0:0:
256,192,79440,1,2,0:0:0:0:
256,192,79509,1,2,0:0:0:0:
256,192,79577,1,2,0:0:0:0:
256,192,79645,1,0,0:0:0:0:
256,192,79781,1,2,0:0:0:0:
256,192,79918,1,2,0:0:0:0:
256,192,80054,1,2,0:0:0:0:
256,192,80122,1,2,0:0:0:0:
256,192,80190,1,0,0:0:0:0:
256,192,80259,1,2,0:0:0:0:
256,192,80327,1,0,0:0:0:0:
256,192,80463,1,0,0:0:0:0:
256,192,80600,1,2,0:0:0:0:
256,192,80668,1,0,0:0:0:0:
256,192,80736,1,0,0:0:0:0:
256,192,80872,1,0,0:0:0:0:
256,192,81009,1,2,0:0:0:0:
256,192,81145,1,2,0:0:0:0:
256,192,81213,1,0,0:0:0:0:
256,192,81281,1,0,0:0:0:0:
256,192,81418,1,2,0:0:0:0:
256,192,81452,1,0,0:0:0:0:
256,192,81486,1,2,0:0:0:0:
256,192,81554,1,2,0:0:0:0:
256,192,81588,1,0,0:0:0:0:
256,192,81622,1,2,0:0:0:0:
256,192,81690,1,2,0:0:0:0:
256,192,81725,1,0,0:0:0:0:
256,192,81759,1,2,0:0:0:0:
256,192,81827,1,0,0:0:0:0:
256,192,81895,1,0,0:0:0:0:
256,192,81963,1,0,0:0:0:0:
256,192,82031,1,2,0:0:0:0:
256,192,82100,1,0,0:0:0:0:
256,192,82236,1,2,0:0:0:0:
256,192,82270,1,2,0:0:0:0:
256,192,82304,1,2,0:0:0:0:
256,192,82372,1,0,0:0:0:0:
256,192,82509,1,0,0:0:0:0:
256,192,82645,1,0,0:0:0:0:
256,192,82679,1,2,0:0:0:0:
256,192,82713,1,0,0:0:0:0:
256,192,82781,1,0,0:0:0:0:
256,192,82918,1,0,0:0:0:0:
256,192,82986,1,2,0:0:0:0:
256,192,83054,1,0,0:0:0:0:
256,192,83122,1,2,0:0:0:0:
256,192,83190,1,2,0:0:0:0:
256,192,83327,1,0,0:0:0:0:
256,192,83463,1,0,0:0:0:0:
256,192,83531,1,2,0:0:0:0:
256,192,83600,1,0,0:0:0:0:
256,192,83668,1,2,0:0:0:0:
256,192,83736,1,2,0:0:0:0:
256,192,83804,1,2,0:0:0:0:
256,192,83872,1,2,0:0:0:0:
256,192,83940,1,2,0:0:0:0:
256,192,84009,1,0,0:0:0:0:
256,192,84145,1,0,0:0:0:0:
256,192,84281,1,2,0:0:0:0:
256,192,84418,1,2,0:0:0:0:
256,192,84486,1,0,0:0:0:0:
256,192,84554,1,0,0:0:0:0:
256,192,84622,1,2,0:0:0:0:
256,192,84690,1,0,0:0:0:0:
256,192,84827,1,0,0:0:0:0:
256,192,84963,1,2,0:0:0:0:
256,192,85031,1,2,0:0:0:0:
256,192,85100,1,0,0:0:0:0:
256,192,85236,1,0,0:0:0:0:
256,192,85372,1,2,0:0:0:0:
256,192,85509,1,2,0:0:0:0:
256,192,85577,1,0,0:0:0:0:
256,192,85645,1,0,0:0:0:0:
256,192,85781,1,0,0:0:0:0:
256,192,85815,1,2,0:0:0:0:
256,192,85849,1,2,0:0:0:0:
256,192,85918,1,2,0:0:0:0:
256,192,85952,1,2,0:0:0:0:
256,192,85986,1,0,0:0:0:0:
256,192,86054,1,2,0:0:0:0:
256,192,86088,1,2,0:0:0:0:
256,192,86122,1,2,0:0:0:0:
256,192,86190,1,0,0:0:0:0:
256,192,86259,1,0,0:0:0:0:
256,192,86327,1,2,0:0:0:0:
256,192,86395,1,2,0:0:0:0:
256,192,86463,1,0,0:0:0:0:
256,192,86600,1,2,0:0:0:0:
256,192,86634,1,0,0:0:0:0:
256,192,86669,1,2,0:0:0:0:
256,192,86736,1,0,0:0:0:0:
256,192,86804,1,0,0:0:0:0:
256,192,86872,1,0,0:0:0:0:
256,192,87009,1,2,0:0:0:0:
256,192,87043,1,0,0:0:0:0:
256,192,87077,1,0,0:0:0:0:
256,192,87145,1,0,0:0:0:0:
256,192,87281,5,0,0:0:0:0:
256,192,87350,1,0,0:0:0:0:
256,192,87418,1,2,0:0:0:0:
256,192,87554,1,0,0:0:0:0:
256,192,87622,1,2,0:0:0:0:
256,192,87690,1,2,0:0:0:0:
256,192,87827,1,2,0:0:0:0:
256,192,87895,1,2,0:0:0:0:
256,192,87963,1,2,0:0:0:0:
256,192,88031,1,2,0:0:0:0:
256,192,88100,1,2,0:0:0:0:
256,192,88168,1,2,0:0:0:0:
256,192,88236,1,2,0:0:0:0:
256,192,88304,1,2,0:0:0:0:
256,192,88372,5,6,0:0:0:0:
256,192,88440,12,0,89190,0:0:0:0:
256,192,89327,5,0,0:0:0:0:
256,192,89600,1,0,0:0:0:0:
256,192,89736,1,0,0:0:0:0:
256,192,89872,1,2,0:0:0:0:
256,192,90009,1,0,0:0:0:0:
256,192,90145,1,0,0:0:0:0:
256,192,90213,1,0,0:0:0:0:
256,192,90281,1,2,0:0:0:0:
256,192,90418,1,0,0:0:0:0:
256,192,90554,1,0,0:0:0:0:
256,192,90690,1,2,0:0:0:0:
256,192,90759,1,0,0:0:0:0:
256,192,90827,1,2,0:0:0:0:
256,192,90963,1,0,0:0:0:0:
256,192,91100,1,2,0:0:0:0:
256,192,91236,1,0,0:0:0:0:
256,192,91372,1,2,0:0:0:0:
256,192,91509,1,0,0:0:0:0:
256,192,91781,1,0,0:0:0:0:
256,192,91918,1,0,0:0:0:0:
256,192,92054,1,2,0:0:0:0:
256,192,92190,1,0,0:0:0:0:
256,192,92327,1,0,0:0:0:0:
256,192,92395,1,0,0:0:0:0:
256,192,92463,1,2,0:0:0:0:
256,192,92736,1,0,0:0:0:0:
256,192,92872,1,0,0:0:0:0:
256,192,92940,1,2,0:0:0:0:
256,192,93009,1,2,0:0:0:0:
256,192,93145,1,0,0:0:0:0:
256,192,93281,1,2,0:0:0:0:
256,192,93418,1,0,0:0:0:0:
256,192,93554,1,2,0:0:0:0:
256,192,93690,1,0,0:0:0:0:
256,192,93963,1,0,0:0:0:0:
256,192,94100,1,0,0:0:0:0:
256,192,94236,1,2,0:0:0:0:
256,192,94372,1,0,0:0:0:0:
256,192,94509,1,0,0:0:0:0:
256,192,94577,1,2,0:0:0:0:
256,192,94645,1,2,0:0:0:0:
256,192,94781,1,0,0:0:0:0:
256,192,94918,5,0,0:0:0:0:
256,192,95054,1,0,0:0:0:0:
256,192,95122,1,0,0:0:0:0:
256,192,95190,1,2,0:0:0:0:
256,192,95327,1,0,0:0:0:0:
256,192,95463,1,2,0:0:0:0:
256,192,95600,1,0,0:0:0:0:
256,192,95736,1,2,0:0:0:0:
256,192,95872,1,2,0:0:0:0:
256,192,96009,5,0,0:0:0:0:
256,192,96077,1,2,0:0:0:0:
256,192,96145,1,2,0:0:0:0:
256,192,96281,1,2,0:0:0:0:
256,192,96350,1,2,0:0:0:0:
256,192,96418,1,0,0:0:0:0:
256,192,96554,1,0,0:0:0:0:
256,192,96622,1,0,0:0:0:0:
256,192,96690,1,2,0:0:0:0:
256,192,96827,1,2,0:0:0:0:
256,192,96895,1,0,0:0:0:0:
256,192,96963,1,0,0:0:0:0:
256,192,97100,1,0,0:0:0:0:
256,192,97236,1,0,0:0:0:0:
256,192,97372,1,2,0:0:0:0:
256,192,97509,1,2,0:0:0:0:
256,192,97577,1,2,0:0:0:0:
256,192,97645,1,0,0:0:0:0:
256,192,97713,1,2,0:0:0:0:
256,192,97781,1,0,0:0:0:0:
256,192,97918,1,2,0:0:0:0:
256,192,98054,1,2,0:0:0:0:
256,192,98122,1,2,0:0:0:0:
256,192,98190,1,0,0:0:0:0:
256,192,98327,1,0,0:0:0:0:
256,192,98463,1,2,0:0:0:0:
256,192,98600,1,2,0:0:0:0:
256,192,98668,1,2,0:0:0:0:
256,192,98736,1,0,0:0:0:0:
256,192,98872,1,0,0:0:0:0:
256,192,98906,1,0,0:0:0:0:
256,192,98940,1,0,0:0:0:0:
256,192,99009,1,0,0:0:0:0:
256,192,99043,1,0,0:0:0:0:
256,192,99077,1,0,0:0:0:0:
256,192,99145,1,0,0:0:0:0:
256,192,99179,1,0,0:0:0:0:
256,192,99213,1,0,0:0:0:0:
256,192,99281,1,0,0:0:0:0:
256,192,99350,1,2,0:0:0:0:
256,192,99418,1,0,0:0:0:0:
256,192,99486,1,2,0:0:0:0:
256,192,99554,1,0,0:0:0:0:
256,192,99690,1,2,0:0:0:0:
256,192,99725,1,2,0:0:0:0:
256,192,99759,1,2,0:0:0:0:
256,192,99827,1,0,0:0:0:0:
256,192,99963,1,0,0:0:0:0:
256,192,100100,1,2,0:0:0:0:
256,192,100134,1,0,0:0:0:0:
256,192,100168,1,0,0:0:0:0:
256,192,100236,1,2,0:0:0:0:
256,192,100304,1,0,0:0:0:0:
256,192,100372,1,0,0:0:0:0:
256,192,100509,1,0,0:0:0:0:
256,192,100577,1,2,0:0:0:0:
256,192,100645,1,2,0:0:0:0:
256,192,100781,1,2,0:0:0:0:
256,192,100918,1,0,0:0:0:0:
256,192,100986,1,2,0:0:0:0:
256,192,101054,1,0,0:0:0:0:
256,192,101122,1,2,0:0:0:0:
256,192,101190,1,2,0:0:0:0:
256,192,101259,1,2,0:0:0:0:
256,192,101327,1,2,0:0:0:0:
256,192,101395,1,2,0:0:0:0:
256,192,101463,1,0,0:0:0:0:
256,192,101600,1,0,0:0:0:0:
256,192,101736,1,2,0:0:0:0:
256,192,101872,1,2,0:0:0:0:
256,192,101940,1,2,0:0:0:0:
256,192,102009,1,0,0:0:0:0:
256,192,102077,1,0,0:0:0:0:
256,192,102145,1,2,0:0:0:0:
256,192,102281,1,2,0:0:0:0:
256,192,102418,1,2,0:0:0:0:
256,192,102486,1,0,0:0:0:0:
256,192,102554,1,0,0:0:0:0:
256,192,102690,1,0,0:0:0:0:
256,192,102827,1,2,0:0:0:0:
256,192,102963,1,2,0:0:0:0:
256,192,103031,1,0,0:0:0:0:
256,192,103100,1,0,0:0:0:0:
256,192,103236,1,0,0:0:0:0:
256,192,103270,1,0,0:0:0:0:
256,192,103304,1,2,0:0:0:0:
256,192,103372,1,0,0:0:0:0:
256,192,103406,1,2,0:0:0:0:
256,192,103440,1,2,0:0:0:0:
256,192,103509,1,2,0:0:0:0:
256,192,103543,1,2,0:0:0:0:
256,192,103577,1,2,0:0:0:0:
256,192,103645,1,0,0:0:0:0:
256,192,103713,1,0,0:0:0:0:
256,192,103781,1,2,0:0:0:0:
256,192,103850,1,2,0:0:0:0:
256,192,103918,1,0,0:0:0:0:
256,192,104054,1,2,0:0:0:0:
256,192,104088,1,2,0:0:0:0:
256,192,104122,1,2,0:0:0:0:
256,192,104190,1,0,0:0:0:0:
256,192,104259,1,2,0:0:0:0:
256,192,104327,1,0,0:0:0:0:
256,192,104463,1,0,0:0:0:0:
256,192,104497,1,0,0:0:0:0:
256,192,104531,1,0,0:0:0:0:
256,192,104600,1,0,0:0:0:0:
256,192,104736,1,0,0:0:0:0:
256,192,104804,1,0,0:0:0:0:
256,192,104872,1,2,0:0:0:0:
256,192,105009,1,0,0:0:0:0:
256,192,105077,1,2,0:0:0:0:
256,192,105145,1,2,0:0:0:0:
256,192,105281,1,2,0:0:0:0:
256,192,105350,1,0,0:0:0:0:
256,192,105418,1,2,0:0:0:0:
256,192,105486,1,0,0:0:0:0:
256,192,105554,1,2,0:0:0:0:
256,192,105622,1,2,0:0:0:0:
256,192,105690,1,2,0:0:0:0:
256,192,105759,1,2,0:0:0:0:
256,192,105827,1,0,0:0:0:0:
256,192,105963,1,0,0:0:0:0:
256,192,106100,1,2,0:0:0:0:
256,192,106236,1,2,0:0:0:0:
256,192,106304,1,2,0:0:0:0:
256,192,106372,1,0,0:0:0:0:
256,192,106440,1,2,0:0:0:0:
256,192,106509,1,0,0:0:0:0:
256,192,106645,1,0,0:0:0:0:
256,192,106781,1,2,0:0:0:0:
256,192,106850,1,0,0:0:0:0:
256,192,106918,1,0,0:0:0:0:
256,192,107054,1,0,0:0:0:0:
256,192,107190,1,2,0:0:0:0:
256,192,107327,1,0,0:0:0:0:
256,192,107395,1,0,0:0:0:0:
256,192,107463,1,0,0:0:0:0:
256,192,107531,1,0,0:0:0:0:
256,192,107600,1,2,0:0:0:0:
256,192,107634,1,2,0:0:0:0:
256,192,107668,1,2,0:0:0:0:
256,192,107736,1,2,0:0:0:0:
256,192,107770,1,2,0:0:0:0:
256,192,107804,1,2,0:0:0:0:
256,192,107872,1,2,0:0:0:0:
256,192,107906,1,2,0:0:0:0:
256,192,107940,1,2,0:0:0:0:
256,192,108009,1,2,0:0:0:0:
256,192,108077,1,0,0:0:0:0:
256,192,108145,1,2,0:0:0:0:
256,192,108213,1,2,0:0:0:0:
256,192,108281,1,0,0:0:0:0:
256,192,108418,1,2,0:0:0:0:
256,192,108452,1,2,0:0:0:0:
256,192,108486,1,2,0:0:0:0:
256,192,108554,1,0,0:0:0:0:
256,192,108690,1,0,0:0:0:0:
256,192,108827,1,2,0:0:0:0:
256,192,108861,1,0,0:0:0:0:
256,192,108895,1,0,0:0:0:0:
256,192,108963,1,0,0:0:0:0:
256,192,109031,1,0,0:0:0:0:
256,192,109100,1,0,0:0:0:0:
256,192,109236,1,0,0:0:0:0:
256,192,109304,1,2,0:0:0:0:
256,192,109372,1,0,0:0:0:0:
256,192,109509,1,0,0:0:0:0:
256,192,109645,1,0,0:0:0:0:
256,192,109713,1,2,0:0:0:0:
256,192,109781,1,0,0:0:0:0:
256,192,109850,1,2,0:0:0:0:
256,192,109918,1,0,0:0:0:0:
256,192,109986,1,0,0:0:0:0:
256,192,110054,1,2,0:0:0:0:
256,192,110122,1,2,0:0:0:0:
256,192,110190,1,0,0:0:0:0:
256,192,110327,1,2,0:0:0:0:
256,192,110463,1,2,0:0:0:0:
256,192,110600,1,0,0:0:0:0:
256,192,110668,1,0,0:0:0:0:
256,192,110736,1,0,0:0:0:0:
256,192,110804,1,2,0:0:0:0:
256,192,110872,1,0,0:0:0:0:
256,192,111009,1,0,0:0:0:0:
256,192,111145,1,2,0:0:0:0:
256,192,111213,1,0,0:0:0:0:
256,192,111281,1,0,0:0:0:0:
256,192,111418,1,0,0:0:0:0:
256,192,111554,1,2,0:0:0:0:
256,192,111690,1,0,0:0:0:0:
256,192,111759,1,0,0:0:0:0:
256,192,111827,1,0,0:0:0:0:
256,192,111963,5,2,0:0:0:0:
256,192,111997,1,2,0:0:0:0:
256,192,112031,1,2,0:0:0:0:
256,192,112100,1,2,0:0:0:0:
256,192,112134,1,2,0:0:0:0:
256,192,112168,1,2,0:0:0:0:
256,192,112236,1,2,0:0:0:0:
256,192,112270,1,2,0:0:0:0:
256,192,112304,1,2,0:0:0:0:
256,192,112372,1,0,0:0:0:0:
256,192,112440,1,0,0:0:0:0:
256,192,112509,1,2,0:0:0:0:
256,192,112577,1,2,0:0:0:0:
256,192,112645,1,0,0:0:0:0:
256,192,112781,1,2,0:0:0:0:
256,192,112815,1,0,0:0:0:0:
256,192,112850,1,2,0:0:0:0:
256,192,112918,1,0,0:0:0:0:
256,192,112986,1,2,0:0:0:0:
256,192,113054,1,0,0:0:0:0:
256,192,113190,1,2,0:0:0:0:
256,192,113225,1,2,0:0:0:0:
256,192,113259,1,2,0:0:0:0:
256,192,113327,1,0,0:0:0:0:
256,192,113395,1,0,0:0:0:0:
256,192,113463,1,0,0:0:0:0:
256,192,113600,1,0,0:0:0:0:
256,192,113668,1,2,0:0:0:0:
256,192,113736,1,2,0:0:0:0:
256,192,113872,1,2,0:0:0:0:
256,192,114009,1,2,0:0:0:0:
256,192,114077,1,2,0:0:0:0:
256,192,114145,1,0,0:0:0:0:
256,192,114281,1,0,0:0:0:0:
256,192,114350,1,0,0:0:0:0:
256,192,114418,1,2,0:0:0:0:
256,192,114486,1,2,0:0:0:0:
256,192,123281,5,0,0:0:0:0:
256,192,123554,1,0,0:0:0:0:
256,192,123827,1,2,0:0:0:0:
256,192,124100,1,2,0:0:0:0:
256,192,124236,1,2,0:0:0:0:
256,192,124372,1,0,0:0:0:0:
256,192,124509,1,2,0:0:0:0:
256,192,124645,1,0,0:0:0:0:
256,192,124918,1,2,0:0:0:0:
256,192,125190,1,0,0:0:0:0:
256,192,125327,1,0,0:0:0:0:
256,192,125463,1,2,0:0:0:0:
256,192,125736,1,0,0:0:0:0:
256,192,125872,1,0,0:0:0:0:
256,192,126009,1,0,0:0:0:0:
256,192,126145,1,0,0:0:0:0:
256,192,126281,1,2,0:0:0:0:
256,192,126554,1,0,0:0:0:0:
256,192,126690,1,0,0:0:0:0:
256,192,126827,1,0,0:0:0:0:
256,192,126963,1,0,0:0:0:0:
256,192,127100,1,2,0:0:0:0:
256,192,127372,1,8,0:0:0:0:
256,192,127509,1,2,0:0:0:0:
256,192,127645,1,0,0:0:0:0:
256,192,127918,1,0,0:0:0:0:
256,192,128190,1,2,0:0:0:0:
256,192,128463,1,0,0:0:0:0:
256,192,128600,1,0,0:0:0:0:
256,192,128736,1,2,0:0:0:0:
256,192,128872,1,2,0:0:0:0:
256,192,129009,1,0,0:0:0:0:
256,192,129145,1,0,0:0:0:0:
256,192,129281,1,2,0:0:0:0:
256,192,129418,1,2,0:0:0:0:
256,192,129554,1,0,0:0:0:0:
256,192,129690,1,2,0:0:0:0:
256,192,129827,1,0,0:0:0:0:
256,192,130100,1,0,0:0:0:0:
256,192,130372,1,2,0:0:0:0:
256,192,130645,1,0,0:0:0:0:
256,192,130781,1,0,0:0:0:0:
256,192,130918,1,2,0:0:0:0:
256,192,131054,1,2,0:0:0:0:
256,192,131190,1,0,0:0:0:0:
256,192,131327,1,0,0:0:0:0:
256,192,131463,5,2,0:0:0:0:
256,192,131531,1,2,0:0:0:0:
256,192,131600,1,0,0:0:0:0:
256,192,131668,1,0,0:0:0:0:
256,192,131736,1,2,0:0:0:0:
256,192,131804,1,2,0:0:0:0:
256,192,131872,1,0,0:0:0:0:
256,192,131940,1,0,0:0:0:0:
256,192,132009,1,0,0:0:0:0:
256,192,132145,1,0,0:0:0:0:
256,192,132281,1,2,0:0:0:0:
256,192,132418,1,2,0:0:0:0:
256,192,132486,1,0,0:0:0:0:
256,192,132554,1,2,0:0:0:0:
256,192,132622,1,0,0:0:0:0:
256,192,132690,1,0,0:0:0:0:
256,192,132827,1,2,0:0:0:0:
256,192,132963,1,0,0:0:0:0:
256,192,133031,1,0,0:0:0:0:
256,192,133100,1,2,0:0:0:0:
256,192,133236,1,2,0:0:0:0:
256,192,133304,1,2,0:0:0:0:
256,192,133372,1,0,0:0:0:0:
256,192,133440,1,0,0:0:0:0:
256,192,133509,1,2,0:0:0:0:
256,192,133645,1,2,0:0:0:0:
256,192,133713,1,0,0:0:0:0:
256,192,133781,1,0,0:0:0:0:
256,192,133918,1,0,0:0:0:0:
256,192,134054,1,2,0:0:0:0:
256,192,134088,1,2,0:0:0:0:
256,192,134122,1,2,0:0:0:0:
256,192,134156,1,2,0:0:0:0:
256,192,134190,1,0,0:0:0:0:
256,192,134327,1,0,0:0:0:0:
256,192,134463,1,2,0:0:0:0:
256,192,134600,1,2,0:0:0:0:
256,192,134668,1,0,0:0:0:0:
256,192,134736,1,0,0:0:0:0:
256,192,134804,1,0,0:0:0:0:
256,192,134872,1,2,0:0:0:0:
256,192,134940,1,2,0:0:0:0:
256,192,135009,1,0,0:0:0:0:
256,192,135077,1,0,0:0:0:0:
256,192,135145,1,2,0:0:0:0:
256,192,135213,1,2,0:0:0:0:
256,192,135281,1,2,0:0:0:0:
256,192,135315,1,2,0:0:0:0:
256,192,135350,1,2,0:0:0:0:
256,192,135418,1,0,0:0:0:0:
256,192,135486,1,0,0:0:0:0:
256,192,135554,1,0,0:0:0:0:
256,192,135690,1,2,0:0:0:0:
256,192,135725,1,2,0:0:0:0:
256,192,135759,1,2,0:0:0:0:
256,192,135827,1,0,0:0:0:0:
256,192,135895,1,0,0:0:0:0:
256,192,135963,1,2,0:0:0:0:
256,192,136031,1,2,0:0:0:0:
256,192,136100,1,0,0:0:0:0:
256,192,136134,1,0,0:0:0:0:
256,192,136168,1,0,0:0:0:0:
256,192,136236,1,0,0:0:0:0:
256,192,136270,1,0,0:0:0:0:
256,192,136304,1,0,0:0:0:0:
256,192,136372,1,2,0:0:0:0:
256,192,136440,1,2,0:0:0:0:
256,192,136509,1,0,0:0:0:0:
256,192,136577,1,0,0:0:0:0:
256,192,136645,1,0,0:0:0:0:
256,192,136781,1,2,0:0:0:0:
256,192,136815,1,2,0:0:0:0:
256,192,136850,1,2,0:0:0:0:
256,192,136918,1,2,0:0:0:0:
256,192,136986,1,0,0:0:0:0:
256,192,137054,1,0,0:0:0:0:
256,192,137190,1,2,0:0:0:0:
256,192,137225,1,2,0:0:0:0:
256,192,137259,1,2,0:0:0:0:
256,192,137327,1,0,0:0:0:0:
256,192,137395,1,0,0:0:0:0:
256,192,137463,1,2,0:0:0:0:
256,192,137497,1,2,0:0:0:0:
256,192,137531,1,2,0:0:0:0:
256,192,137600,1,2,0:0:0:0:
256,192,137668,1,0,0:0:0:0:
256,192,137736,1,0,0:0:0:0:
256,192,137804,1,0,0:0:0:0:
256,192,137872,1,2,0:0:0:0:
256,192,137940,1,2,0:0:0:0:
256,192,138009,1,0,0:0:0:0:
256,192,138077,1,0,0:0:0:0:
256,192,138145,1,0,0:0:0:0:
256,192,138281,1,2,0:0:0:0:
256,192,138350,1,0,0:0:0:0:
256,192,138418,1,2,0:0:0:0:
256,192,138486,1,2,0:0:0:0:
256,192,138554,1,0,0:0:0:0:
256,192,138690,1,0,0:0:0:0:
256,192,138827,1,2,0:0:0:0:
256,192,138963,1,2,0:0:0:0:
256,192,139031,1,0,0:0:0:0:
256,192,139100,1,0,0:0:0:0:
256,192,139168,1,2,0:0:0:0:
256,192,139236,1,0,0:0:0:0:
256,192,139304,1,2,0:0:0:0:
256,192,139440,1,2,0:0:0:0:
256,192,139577,1,2,0:0:0:0:
256,192,139645,1,0,0:0:0:0:
256,192,139713,1,0,0:0:0:0:
256,192,139781,1,0,0:0:0:0:
256,192,139918,1,2,0:0:0:0:
256,192,140054,1,2,0:0:0:0:
256,192,140122,1,2,0:0:0:0:
256,192,140190,1,0,0:0:0:0:
256,192,140259,1,2,0:0:0:0:
256,192,140327,1,2,0:0:0:0:
256,192,140395,1,2,0:0:0:0:
256,192,140463,1,2,0:0:0:0:
256,192,140531,1,2,0:0:0:0:
256,192,140600,1,0,0:0:0:0:
256,192,140668,1,0,0:0:0:0:
256,192,140736,1,0,0:0:0:0:
256,192,140872,1,2,0:0:0:0:
256,192,141009,1,2,0:0:0:0:
256,192,141145,1,0,0:0:0:0:
256,192,141213,1,0,0:0:0:0:
256,192,141281,1,0,0:0:0:0:
256,192,141350,1,2,0:0:0:0:
256,192,141418,1,0,0:0:0:0:
256,192,141554,1,2,0:0:0:0:
256,192,141690,1,0,0:0:0:0:
256,192,141759,1,0,0:0:0:0:
256,192,141827,1,2,0:0:0:0:
256,192,141963,1,0,0:0:0:0:
256,192,142031,1,0,0:0:0:0:
256,192,142100,1,0,0:0:0:0:
256,192,142168,1,0,0:0:0:0:
256,192,142236,1,2,0:0:0:0:
256,192,142372,1,0,0:0:0:0:
256,192,142440,1,0,0:0:0:0:
256,192,142509,1,0,0:0:0:0:
256,192,142577,1,0,0:0:0:0:
256,192,142645,1,2,0:0:0:0:
256,192,142781,1,2,0:0:0:0:
256,192,142850,1,2,0:0:0:0:
256,192,142918,1,0,0:0:0:0:
256,192,143054,1,0,0:0:0:0:
256,192,143190,1,2,0:0:0:0:
256,192,143327,1,2,0:0:0:0:
256,192,143395,1,0,0:0:0:0:
256,192,143463,1,0,0:0:0:0:
256,192,143497,1,0,0:0:0:0:
256,192,143531,1,0,0:0:0:0:
256,192,143565,1,0,0:0:0:0:
256,192,143600,1,2,0:0:0:0:
256,192,143634,1,2,0:0:0:0:
256,192,143668,1,2,0:0:0:0:
256,192,143702,1,2,0:0:0:0:
256,192,143736,1,0,0:0:0:0:
256,192,143804,1,0,0:0:0:0:
256,192,143872,1,2,0:0:0:0:
256,192,143940,1,2,0:0:0:0:
256,192,144009,1,0,0:0:0:0:
256,192,144145,1,2,0:0:0:0:
256,192,144213,1,0,0:0:0:0:
256,192,144281,1,0,0:0:0:0:
256,192,144350,1,0,0:0:0:0:
256,192,144418,1,2,0:0:0:0:
256,192,144554,1,0,0:0:0:0:
256,192,144622,1,0,0:0:0:0:
256,192,144690,1,2,0:0:0:0:
256,192,144759,1,2,0:0:0:0:
256,192,144827,1,0,0:0:0:0:
256,192,144963,1,0,0:0:0:0:
256,192,145100,1,2,0:0:0:0:
256,192,145168,1,2,0:0:0:0:
256,192,145236,1,0,0:0:0:0:
256,192,145304,1,0,0:0:0:0:
256,192,145372,1,0,0:0:0:0:
256,192,145509,1,2,0:0:0:0:
256,192,145645,1,2,0:0:0:0:
256,192,145713,1,0,0:0:0:0:
256,192,145781,1,0,0:0:0:0:
256,192,145918,1,2,0:0:0:0:
256,192,146054,1,0,0:0:0:0:
256,192,146122,1,0,0:0:0:0:
256,192,146190,1,2,0:0:0:0:
256,192,146327,1,2,0:0:0:0:
256,192,146395,1,0,0:0:0:0:
256,192,146463,1,0,0:0:0:0:
256,192,146531,1,0,0:0:0:0:
256,192,146600,1,2,0:0:0:0:
256,192,146668,1,2,0:0:0:0:
256,192,146736,1,0,0:0:0:0:
256,192,146872,1,0,0:0:0:0:
256,192,147009,1,2,0:0:0:0:
256,192,147077,1,2,0:0:0:0:
256,192,147145,1,2,0:0:0:0:
256,192,147213,1,2,0:0:0:0:
256,192,147281,1,0,0:0:0:0:
256,192,147418,1,0,0:0:0:0:
256,192,147554,1,2,0:0:0:0:
256,192,147690,1,2,0:0:0:0:
256,192,147759,1,0,0:0:0:0:
256,192,147827,1,0,0:0:0:0:
256,192,147895,1,8,0:0:0:0:
256,192,147963,1,0,0:0:0:0:
256,192,148031,1,8,0:0:0:0:
256,192,148168,1,8,0:0:0:0:
256,192,148304,1,8,0:0:0:0:
256,192,148440,1,0,0:0:0:0:
256,192,148509,1,0,0:0:0:0:
256,192,148645,1,8,0:0:0:0:
256,192,148679,1,8,0:0:0:0:
256,192,148713,1,8,0:0:0:0:
256,192,148781,1,8,0:0:0:0:
256,192,148850,1,8,0:0:0:0:
256,192,148918,1,0,0:0:0:0:
256,192,148986,1,0,0:0:0:0:
256,192,149054,1,0,0:0:0:0:
256,192,149122,1,0,0:0:0:0:
256,192,149190,1,8,0:0:0:0:
256,192,149259,1,8,0:0:0:0:
256,192,149327,1,0,0:0:0:0:
256,192,149395,1,0,0:0:0:0:
256,192,149463,1,0,0:0:0:0:
256,192,149600,1,0,0:0:0:0:
256,192,149736,1,8,0:0:0:0:
256,192,149872,1,8,0:0:0:0:
256,192,149940,1,0,0:0:0:0:
256,192,150009,1,0,0:0:0:0:
256,192,150077,1,8,0:0:0:0:
256,192,150145,1,8,0:0:0:0:
256,192,150281,1,8,0:0:0:0:
256,192,150418,1,0,0:0:0:0:
256,192,150486,1,0,0:0:0:0:
256,192,150554,1,8,0:0:0:0:
256,192,150690,1,8,0:0:0:0:
256,192,150759,1,0,0:0:0:0:
256,192,150827,1,8,0:0:0:0:
256,192,150963,1,8,0:0:0:0:
256,192,151100,1,0,0:0:0:0:
256,192,151168,1,8,0:0:0:0:
256,192,151236,1,8,0:0:0:0:
256,192,151304,1,8,0:0:0:0:
256,192,151372,1,8,0:0:0:0:
256,192,151509,1,8,0:0:0:0:
256,192,151543,1,8,0:0:0:0:
256,192,151577,1,8,0:0:0:0:
256,192,151645,1,0,0:0:0:0:
256,192,151713,1,0,0:0:0:0:
256,192,151781,1,8,0:0:0:0:
256,192,151918,1,0,0:0:0:0:
256,192,152054,1,8,0:0:0:0:
256,192,152122,1,0,0:0:0:0:
256,192,152190,1,0,0:0:0:0:
256,192,152259,1,0,0:0:0:0:
256,192,152327,1,8,0:0:0:0:
256,192,152463,1,0,0:0:0:0:
256,192,152531,1,0,0:0:0:0:
256,192,152600,1,8,0:0:0:0:
256,192,152668,1,0,0:0:0:0:
256,192,152736,1,8,0:0:0:0:
256,192,152804,1,8,0:0:0:0:
256,192,152872,1,8,0:0:0:0:
256,192,152940,1,8,0:0:0:0:
256,192,153009,1,8,0:0:0:0:
256,192,153043,1,8,0:0:0:0:
256,192,153077,1,8,0:0:0:0:
256,192,153145,1,8,0:0:0:0:
256,192,153179,1,8,0:0:0:0:
256,192,153213,1,0,0:0:0:0:
256,192,153247,1,0,0:0:0:0:
256,192,153281,1,8,0:0:0:0:
256,192,153418,1,0,0:0:0:0:
256,192,153554,1,8,0:0:0:0:
256,192,153622,1,8,0:0:0:0:
256,192,153690,1,0,0:0:0:0:
256,192,153759,1,0,0:0:0:0:
256,192,153827,1,0,0:0:0:0:
256,192,153895,1,0,0:0:0:0:
256,192,153929,1,0,0:0:0:0:
256,192,153963,1,2,0:0:0:0:
256,192,154100,1,8,0:0:0:0:
256,192,154236,1,8,0:0:0:0:
256,192,154304,1,0,0:0:0:0:
256,192,154372,1,0,0:0:0:0:
256,192,154406,1,0,0:0:0:0:
256,192,154440,1,0,0:0:0:0:
256,192,154509,1,0,0:0:0:0:
256,192,154645,1,8,0:0:0:0:
256,192,154781,1,0,0:0:0:0:
256,192,154850,1,0,0:0:0:0:
256,192,154918,1,8,0:0:0:0:
256,192,155054,1,0,0:0:0:0:
256,192,155088,1,8,0:0:0:0:
256,192,155122,1,0,0:0:0:0:
256,192,155156,1,8,0:0:0:0:
256,192,155190,1,8,0:0:0:0:
256,192,155327,1,8,0:0:0:0:
256,192,155463,1,8,0:0:0:0:
256,192,155531,1,0,0:0:0:0:
256,192,155600,1,8,0:0:0:0:
256,192,155622,1,8,0:0:0:0:
256,192,155668,1,8,0:0:0:0:
256,192,155690,1,8,0:0:0:0:
256,192,155736,1,8,0:0:0:0:
256,192,155759,1,8,0:0:0:0:
256,192,155872,1,8,0:0:0:0:
256,192,156009,1,0,0:0:0:0:
256,192,156077,1,0,0:0:0:0:
256,192,156111,1,8,0:0:0:0:
256,192,156145,1,8,0:0:0:0:
256,192,156281,1,8,0:0:0:0:
256,192,156418,1,8,0:0:0:0:
256,192,156486,1,0,0:0:0:0:
256,192,156554,1,0,0:0:0:0:
256,192,156622,1,0,0:0:0:0:
256,192,156690,1,8,0:0:0:0:
256,192,156827,1,0,0:0:0:0:
256,192,156895,1,0,0:0:0:0:
256,192,156963,1,8,0:0:0:0:
256,192,157031,1,0,0:0:0:0:
256,192,157100,1,8,0:0:0:0:
256,192,157236,1,8,0:0:0:0:
256,192,157372,1,8,0:0:0:0:
256,192,157440,1,8,0:0:0:0:
256,192,157509,1,0,0:0:0:0:
256,192,157577,1,0,0:0:0:0:
256,192,157645,1,8,0:0:0:0:
256,192,157713,1,8,0:0:0:0:
256,192,157781,1,0,0:0:0:0:
256,192,157815,1,0,0:0:0:0:
256,192,157850,1,0,0:0:0:0:
256,192,157918,1,0,0:0:0:0:
256,192,157952,1,0,0:0:0:0:
256,192,157986,1,0,0:0:0:0:
256,192,158054,1,8,0:0:0:0:
256,192,158088,1,8,0:0:0:0:
256,192,158122,1,8,0:0:0:0:
256,192,158190,1,0,0:0:0:0:
256,192,158327,1,8,0:0:0:0:
256,192,158463,1,8,0:0:0:0:
256,192,158600,1,8,0:0:0:0:
256,192,158668,1,0,0:0:0:0:
256,192,158736,1,0,0:0:0:0:
256,192,158804,1,8,0:0:0:0:
256,192,158872,1,8,0:0:0:0:
256,192,159009,1,0,0:0:0:0:
256,192,159145,1,8,0:0:0:0:
256,192,159213,1,0,0:0:0:0:
256,192,159281,1,8,0:0:0:0:
256,192,159418,1,8,0:0:0:0:
256,192,159486,1,0,0:0:0:0:
256,192,159554,1,8,0:0:0:0:
256,192,159588,1,8,0:0:0:0:
256,192,159622,1,8,0:0:0:0:
256,192,159690,1,8,0:0:0:0:
256,192,159725,1,8,0:0:0:0:
256,192,159759,1,8,0:0:0:0:
256,192,159827,1,8,0:0:0:0:
256,192,159895,1,0,0:0:0:0:
256,192,159963,1,8,0:0:0:0:
256,192,159997,1,8,0:0:0:0:
256,192,160031,1,0,0:0:0:0:
256,192,160065,1,0,0:0:0:0:
256,192,160100,1,8,0:0:0:0:
256,192,160134,1,8,0:0:0:0:
256,192,160236,1,8,0:0:0:0:
256,192,160372,1,0,0:0:0:0:
256,192,160509,1,8,0:0:0:0:
256,192,160645,1,0,0:0:0:0:
256,192,160781,1,8,0:0:0:0:
256,192,160850,1,8,0:0:0:0:
256,192,160918,1,0,0:0:0:0:
256,192,160986,1,0,0:0:0:0:
256,192,161054,1,8,0:0:0:0:
256,192,161190,1,0,0:0:0:0:
256,192,161259,1,0,0:0:0:0:
256,192,161327,1,8,0:0:0:0:
256,192,161395,1,0,0:0:0:0:
256,192,161463,1,8,0:0:0:0:
256,192,161486,1,8,0:0:0:0:
256,192,161531,1,8,0:0:0:0:
256,192,161554,1,8,0:0:0:0:
256,192,161600,1,0,0:0:0:0:
256,192,161622,1,0,0:0:0:0:
256,192,161668,1,0,0:0:0:0:
256,192,161690,1,0,0:0:0:0:
256,192,161736,1,0,0:0:0:0:
256,192,161770,1,0,0:0:0:0:
256,192,161804,1,0,0:0:0:0:
256,192,161838,1,8,0:0:0:0:
256,192,161872,1,8,0:0:0:0:
256,192,161940,1,0,0:0:0:0:
256,192,162009,1,8,0:0:0:0:
256,192,162145,1,8,0:0:0:0:
256,192,162281,1,8,0:0:0:0:
256,192,162350,1,8,0:0:0:0:
256,192,162418,1,0,0:0:0:0:
256,192,162486,1,0,0:0:0:0:
256,192,162554,1,0,0:0:0:0:
256,192,162690,1,8,0:0:0:0:
256,192,162827,1,8,0:0:0:0:
256,192,162963,1,8,0:0:0:0:
256,192,163031,1,8,0:0:0:0:
256,192,163100,1,0,0:0:0:0:
256,192,163168,1,0,0:0:0:0:
256,192,163236,1,8,0:0:0:0:
256,192,163372,1,0,0:0:0:0:
256,192,163509,1,0,0:0:0:0:
256,192,163577,1,0,0:0:0:0:
256,192,163645,1,8,0:0:0:0:
256,192,163781,1,8,0:0:0:0:
256,192,163850,1,0,0:0:0:0:
256,192,163918,1,8,0:0:0:0:
256,192,163952,1,8,0:0:0:0:
256,192,163986,1,8,0:0:0:0:
256,192,164054,1,8,0:0:0:0:
256,192,164088,1,8,0:0:0:0:
256,192,164122,1,8,0:0:0:0:
256,192,164190,1,0,0:0:0:0:
256,192,164259,1,0,0:0:0:0:
256,192,164327,1,8,0:0:0:0:
256,192,164350,1,8,0:0:0:0:
256,192,164395,1,8,0:0:0:0:
256,192,164418,1,8,0:0:0:0:
256,192,164463,1,8,0:0:0:0:
256,192,164486,1,8,0:0:0:0:
256,192,164600,1,8,0:0:0:0:
256,192,164736,1,0,0:0:0:0:
256,192,164872,1,8,0:0:0:0:
256,192,165009,1,0,0:0:0:0:
256,192,165145,1,8,0:0:0:0:
256,192,165213,1,8,0:0:0:0:
256,192,165281,1,0,0:0:0:0:
256,192,165350,1,8,0:0:0:0:
256,192,165418,1,8,0:0:0:0:
256,192,165554,1,8,0:0:0:0:
256,192,165622,1,8,0:0:0:0:
256,192,166645,12,0,176736,0:0:0:0:
256,192,178918,5,2,0:0:0:0:
256,192,179075,1,0,0:0:0:0:
256,192,179154,1,0,0:0:0:0:
256,192,179233,1,2,0:0:0:0:
256,192,179391,1,0,0:0:0:0:
256,192,179549,1,2,0:0:0:0:
256,192,179707,1,2,0:0:0:0:
256,192,179865,1,2,0:0:0:0:
256,192,180023,1,0,0:0:0:0:
256,192,180339,1,0,0:0:0:0:
256,192,180496,1,0,0:0:0:0:
256,192,180654,1,2,0:0:0:0:
256,192,180812,1,0,0:0:0:0:
256,192,180970,1,0,0:0:0:0:
256,192,181049,1,0,0:0:0:0:
256,192,181128,1,2,0:0:0:0:
256,192,181286,1,0,0:0:0:0:
256,192,181444,1,2,0:0:0:0:
256,192,181602,1,0,0:0:0:0:
256,192,181681,1,2,0:0:0:0:
256,192,181760,1,2,0:0:0:0:
256,192,181918,1,0,0:0:0:0:
256,192,182075,1,2,0:0:0:0:
256,192,182233,1,0,0:0:0:0:
256,192,182391,1,0,0:0:0:0:
256,192,182549,1,0,0:0:0:0:
256,192,182865,1,0,0:0:0:0:
256,192,183023,1,2,0:0:0:0:
256,192,183181,1,2,0:0:0:0:
256,192,183339,1,0,0:0:0:0:
256,192,183496,1,2,0:0:0:0:
256,192,183575,1,2,0:0:0:0:
256,192,183654,1,2,0:0:0:0:
256,192,183970,1,0,0:0:0:0:
256,192,184128,1,2,0:0:0:0:
256,192,184207,1,0,0:0:0:0:
256,192,184286,1,2,0:0:0:0:
256,192,184444,1,0,0:0:0:0:
256,192,184602,1,2,0:0:0:0:
256,192,184760,1,2,0:0:0:0:
256,192,184918,1,0,0:0:0:0:
256,192,185075,1,0,0:0:0:0:
256,192,185391,1,0,0:0:0:0:
256,192,185549,1,0,0:0:0:0:
256,192,185707,1,2,0:0:0:0:
256,192,185865,1,2,0:0:0:0:
256,192,186023,1,0,0:0:0:0:
256,192,186102,1,2,0:0:0:0:
256,192,186181,1,2,0:0:0:0:
256,192,186339,1,0,0:0:0:0:
256,192,186496,1,0,0:0:0:0:
256,192,186654,1,2,0:0:0:0:
256,192,186733,1,2,0:0:0:0:
256,192,186812,1,2,0:0:0:0:
256,192,186970,1,0,0:0:0:0:
256,192,187128,1,2,0:0:0:0:
256,192,187286,1,0,0:0:0:0:
256,192,187444,1,2,0:0:0:0:
256,192,187602,1,2,0:0:0:0:
256,192,187760,1,0,0:0:0:0:
256,192,187839,1,0,0:0:0:0:
256,192,187918,1,2,0:0:0:0:
256,192,188075,1,2,0:0:0:0:
256,192,188154,1,0,0:0:0:0:
256,192,188233,1,0,0:0:0:0:
256,192,188391,1,0,0:0:0:0:
256,192,188470,1,2,0:0:0:0:
256,192,188549,1,2,0:0:0:0:
256,192,188707,1,2,0:0:0:0:
256,192,188786,1,2,0:0:0:0:
256,192,188865,1,0,0:0:0:0:
256,192,189023,1,0,0:0:0:0:
256,192,189181,1,0,0:0:0:0:
256,192,189260,1,0,0:0:0:0:
256,192,189339,1,2,0:0:0:0:
256,192,189496,1,2,0:0:0:0:
256,192,189575,1,2,0:0:0:0:
256,192,189654,1,0,0:0:0:0:
256,192,189733,1,2,0:0:0:0:
256,192,189812,1,0,0:0:0:0:
256,192,189970,1,2,0:0:0:0:
256,192,190128,1,2,0:0:0:0:
256,192,190207,1,0,0:0:0:0:
256,192,191549,1,0,0:0:0:0:
256,192,191707,1,0,0:0:0:0:
256,192,191786,1,2,0:0:0:0:
256,192,191865,1,2,0:0:0:0:
256,192,192023,1,0,0:0:0:0:
256,192,192102,1,0,0:0:0:0:
256,192,192181,1,2,0:0:0:0:
256,192,192260,1,0,0:0:0:0:
256,192,192339,1,0,0:0:0:0:
256,192,192496,1,2,0:0:0:0:
256,192,192654,1,0,0:0:0:0:
256,192,193444,1,2,0:0:0:0:
256,192,193602,1,2,0:0:0:0:
256,192,193681,1,2,0:0:0:0:
256,192,193760,1,0,0:0:0:0:
256,192,193918,1,0,0:0:0:0:
256,192,194075,1,0,0:0:0:0:
256,192,194233,1,0,0:0:0:0:
256,192,194312,1,0,0:0:0:0:
256,192,194391,1,2,0:0:0:0:
256,192,194549,1,0,0:0:0:0:
256,192,194628,1,0,0:0:0:0:
256,192,194707,1,2,0:0:0:0:
256,192,194786,1,0,0:0:0:0:
256,192,194865,1,2,0:0:0:0:
256,192,195023,1,2,0:0:0:0:
256,192,195102,1,2,0:0:0:0:
256,192,195181,1,0,0:0:0:0:
256,192,195260,1,0,0:0:0:0:
256,192,195339,1,2,0:0:0:0:
256,192,195496,1,2,0:0:0:0:
256,192,195575,1,0,0:0:0:0:
256,192,195654,1,0,0:0:0:0:
256,192,195812,1,2,0:0:0:0:
256,192,195970,1,0,0:0:0:0:
256,192,196049,1,0,0:0:0:0:
256,192,196128,1,0,0:0:0:0:
256,192,196207,1,0,0:0:0:0:
256,192,196286,1,2,0:0:0:0:
256,192,196365,1,2,0:0:0:0:
256,192,196444,1,2,0:0:0:0:
256,192,196523,1,2,0:0:0:0:
256,192,196602,1,0,0:0:0:0:
256,192,196760,1,0,0:0:0:0:
256,192,196839,1,0,0:0:0:0:
256,192,196918,1,2,0:0:0:0:
256,192,197075,1,0,0:0:0:0:
256,192,197154,1,0,0:0:0:0:
256,192,197233,1,0,0:0:0:0:
256,192,197312,1,0,0:0:0:0:
256,192,197391,1,0,0:0:0:0:
256,192,197470,1,0,0:0:0:0:
256,192,197549,1,2,0:0:0:0:
256,192,197707,1,2,0:0:0:0:
256,192,197865,1,2,0:0:0:0:
256,192,198023,5,0,0:0:0:0:
256,192,198102,1,0,0:0:0:0:
256,192,198181,1,0,0:0:0:0:
256,192,198260,1,0,0:0:0:0:
256,192,198339,1,2,0:0:0:0:
256,192,198418,1,0,0:0:0:0:
256,192,198496,1,2,0:0:0:0:
256,192,198575,1,2,0:0:0:0:
256,192,198654,1,2,0:0:0:0:
256,192,198733,1,2,0:0:0:0:
256,192,198812,1,2,0:0:0:0:
256,192,198891,1,2,0:0:0:0:
256,192,198970,1,2,0:0:0:0:
256,192,199126,5,0,0:0:0:0:
256,192,199194,1,0,0:0:0:0:
256,192,199262,1,2,0:0:0:0:
256,192,199398,1,0,0:0:0:0:
256,192,199466,1,2,0:0:0:0:
256,192,199535,1,2,0:0:0:0:
256,192,199671,1,2,0:0:0:0:
256,192,199739,1,2,0:0:0:0:
256,192,199807,1,2,0:0:0:0:
256,192,199876,1,2,0:0:0:0:
256,192,199944,1,2,0:0:0:0:
256,192,200012,1,2,0:0:0:0:
256,192,200080,1,2,0:0:0:0:
256,192,200148,1,2,0:0:0:0:
256,192,200216,1,0,0:0:0:0:
256,192,200353,1,0,0:0:0:0:
256,192,200421,1,0,0:0:0:0:
256,192,200489,1,2,0:0:0:0:
256,192,200626,1,0,0:0:0:0:
256,192,200694,1,0,0:0:0:0:
256,192,200762,1,0,0:0:0:0:
256,192,200830,1,2,0:0:0:0:
256,192,200898,1,0,0:0:0:0:
256,192,201035,1,2,0:0:0:0:
256,192,201171,1,2,0:0:0:0:
256,192,201239,1,0,0:0:0:0:
256,192,201307,1,0,0:0:0:0:
256,192,201376,1,0,0:0:0:0:
256,192,201444,1,0,0:0:0:0:
256,192,201580,1,2,0:0:0:0:
256,192,201716,1,0,0:0:0:0:
256,192,201785,1,0,0:0:0:0:
256,192,201853,1,0,0:0:0:0:
256,192,201921,1,2,0:0:0:0:
256,192,201989,1,2,0:0:0:0:
256,192,202023,1,2,0:0:0:0:
256,192,202057,1,2,0:0:0:0:
256,192,202126,1,2,0:0:0:0:
256,192,202160,1,2,0:0:0:0:
256,192,202194,1,2,0:0:0:0:
256,192,202262,1,2,0:0:0:0:
256,192,202296,1,2,0:0:0:0:
256,192,202330,1,2,0:0:0:0:
256,192,202398,1,0,0:0:0:0:
256,192,202466,1,0,0:0:0:0:
256,192,202535,1,2,0:0:0:0:
256,192,202603,1,2,0:0:0:0:
256,192,202671,1,0,0:0:0:0:
256,192,202807,1,2,0:0:0:0:
256,192,202841,1,2,0:0:0:0:
256,192,202876,1,2,0:0:0:0:
256,192,202944,1,0,0:0:0:0:
256,192,203012,1,2,0:0:0:0:
256,192,203080,1,0,0:0:0:0:
256,192,203216,1,2,0:0:0:0:
256,192,203251,1,0,0:0:0:0:
256,192,203285,1,0,0:0:0:0:
256,192,203353,1,2,0:0:0:0:
256,192,203421,1,2,0:0:0:0:
256,192,203489,1,0,0:0:0:0:
256,192,203557,1,0,0:0:0:0:
256,192,203626,1,0,0:0:0:0:
256,192,203694,1,0,0:0:0:0:
256,192,203762,1,2,0:0:0:0:
256,192,203898,1,2,0:0:0:0:
256,192,204035,1,0,0:0:0:0:
256,192,204103,1,2,0:0:0:0:
256,192,204171,1,0,0:0:0:0:
256,192,204239,1,2,0:0:0:0:
256,192,204307,1,2,0:0:0:0:
256,192,204376,1,0,0:0:0:0:
256,192,204444,1,2,0:0:0:0:
256,192,204512,1,2,0:0:0:0:
256,192,204580,1,0,0:0:0:0:
256,192,204648,1,2,0:0:0:0:
256,192,204716,1,0,0:0:0:0:
256,192,204785,1,2,0:0:0:0:
256,192,204853,1,2,0:0:0:0:
256,192,204989,1,2,0:0:0:0:
256,192,205057,1,2,0:0:0:0:
256,192,205126,1,0,0:0:0:0:
256,192,205194,1,2,0:0:0:0:
256,192,205262,1,0,0:0:0:0:
256,192,205398,1,2,0:0:0:0:
256,192,205535,1,2,0:0:0:0:
256,192,205603,1,2,0:0:0:0:
256,192,205671,1,0,0:0:0:0:
256,192,205739,1,0,0:0:0:0:
256,192,205807,1,0,0:0:0:0:
256,192,205876,1,2,0:0:0:0:
256,192,205944,1,2,0:0:0:0:
256,192,206080,1,2,0:0:0:0:
256,192,206148,1,2,0:0:0:0:
256,192,206216,1,0,0:0:0:0:
256,192,206285,1,2,0:0:0:0:
256,192,206353,1,0,0:0:0:0:
256,192,206387,1,0,0:0:0:0:
256,192,206421,1,0,0:0:0:0:
256,192,206489,1,2,0:0:0:0:
256,192,206523,1,2,0:0:0:0:
256,192,206557,1,2,0:0:0:0:
256,192,206626,1,2,0:0:0:0:
256,192,206660,1,2,0:0:0:0:
256,192,206694,1,2,0:0:0:0:
256,192,206762,1,0,0:0:0:0:
256,192,206830,1,0,0:0:0:0:
256,192,206898,1,2,0:0:0:0:
256,192,206966,1,2,0:0:0:0:
256,192,207035,1,0,0:0:0:0:
256,192,207171,1,2,0:0:0:0:
256,192,207205,1,2,0:0:0:0:
256,192,207239,1,2,0:0:0:0:
256,192,207307,1,0,0:0:0:0:
256,192,207444,1,0,0:0:0:0:
256,192,207580,1,2,0:0:0:0:
256,192,207614,1,2,0:0:0:0:
256,192,207648,1,2,0:0:0:0:
256,192,207716,1,0,0:0:0:0:
256,192,207853,1,0,0:0:0:0:
256,192,207921,1,0,0:0:0:0:
256,192,207989,1,0,0:0:0:0:
256,192,208057,1,0,0:0:0:0:
256,192,208126,1,2,0:0:0:0:
256,192,208194,1,0,0:0:0:0:
256,192,208262,1,2,0:0:0:0:
256,192,208398,1,2,0:0:0:0:
256,192,208466,1,2,0:0:0:0:
256,192,208535,1,0,0:0:0:0:
256,192,208671,1,2,0:0:0:0:
256,192,208739,1,2,0:0:0:0:
256,192,208807,1,0,0:0:0:0:
256,192,208876,1,0,0:0:0:0:
256,192,208944,1,0,0:0:0:0:
256,192,209012,1,0,0:0:0:0:
256,192,209080,1,2,0:0:0:0:
256,192,209148,1,0,0:0:0:0:
256,192,209216,1,2,0:0:0:0:
256,192,209353,1,2,0:0:0:0:
256,192,209421,1,2,0:0:0:0:
256,192,209489,1,0,0:0:0:0:
256,192,209557,1,0,0:0:0:0:
256,192,209626,1,0,0:0:0:0:
256,192,209762,1,2,0:0:0:0:
256,192,209898,1,2,0:0:0:0:
256,192,209966,1,2,0:0:0:0:
256,192,210035,1,0,0:0:0:0:
256,192,210103,1,2,0:0:0:0:
256,192,210171,1,0,0:0:0:0:
256,192,210239,1,2,0:0:0:0:
256,192,210307,1,2,0:0:0:0:
256,192,210444,1,2,0:0:0:0:
256,192,210512,1,2,0:0:0:0:
256,192,210580,1,0,0:0:0:0:
256,192,210716,1,2,0:0:0:0:
256,192,210751,1,2,0:0:0:0:
256,192,210785,1,2,0:0:0:0:
256,192,210853,1,2,0:0:0:0:
256,192,210887,1,2,0:0:0:0:
256,192,210921,1,2,0:0:0:0:
256,192,210989,1,0,0:0:0:0:
256,192,211023,1,0,0:0:0:0:
256,192,211057,1,0,0:0:0:0:
256,192,211126,1,0,0:0:0:0:
256,192,211194,1,2,0:0:0:0:
256,192,211262,1,0,0:0:0:0:
256,192,211330,1,2,0:0:0:0:
256,192,211398,1,0,0:0:0:0:
256,192,211535,1,2,0:0:0:0:
256,192,211569,1,2,0:0:0:0:
256,192,211603,1,2,0:0:0:0:
256,192,211671,1,0,0:0:0:0:
256,192,211739,1,0,0:0:0:0:
256,192,211807,1,0,0:0:0:0:
256,192,211876,1,0,0:0:0:0:
256,192,211944,1,2,0:0:0:0:
256,192,212080,1,0,0:0:0:0:
256,192,212148,1,2,0:0:0:0:
256,192,212216,1,0,0:0:0:0:
256,192,212353,1,0,0:0:0:0:
256,192,212421,1,2,0:0:0:0:
256,192,212489,1,2,0:0:0:0:
256,192,212626,1,2,0:0:0:0:
256,192,212762,1,0,0:0:0:0:
256,192,212830,1,0,0:0:0:0:
256,192,212898,1,2,0:0:0:0:
256,192,212966,1,2,0:0:0:0:
256,192,213035,1,0,0:0:0:0:
256,192,213103,1,0,0:0:0:0:
256,192,213171,1,2,0:0:0:0:
256,192,213239,1,2,0:0:0:0:
256,192,213307,1,0,0:0:0:0:
256,192,213444,1,0,0:0:0:0:
256,192,213512,1,0,0:0:0:0:
256,192,213580,1,2,0:0:0:0:
256,192,213716,1,2,0:0:0:0:
256,192,213785,1,2,0:0:0:0:
256,192,213853,1,0,0:0:0:0:
256,192,213921,1,2,0:0:0:0:
256,192,213989,1,0,0:0:0:0:
256,192,214126,1,2,0:0:0:0:
256,192,214262,1,2,0:0:0:0:
256,192,214330,1,0,0:0:0:0:
256,192,214398,1,0,0:0:0:0:
256,192,214535,1,0,0:0:0:0:
256,192,214671,1,2,0:0:0:0:
256,192,214807,1,2,0:0:0:0:
256,192,214876,1,2,0:0:0:0:
256,192,214944,1,0,0:0:0:0:
256,192,215012,1,0,0:0:0:0:
256,192,215080,1,0,0:0:0:0:
256,192,215114,1,2,0:0:0:0:
256,192,215148,1,2,0:0:0:0:
256,192,215216,1,0,0:0:0:0:
256,192,215251,1,0,0:0:0:0:
256,192,215285,1,2,0:0:0:0:
256,192,215353,1,0,0:0:0:0:
256,192,215387,1,0,0:0:0:0:
256,192,215421,1,0,0:0:0:0:
256,192,215489,1,0,0:0:0:0:
256,192,215557,1,8,0:0:0:0:
256,192,215626,1,8,0:0:0:0:
256,192,215694,1,8,0:0:0:0:
256,192,215762,1,0,0:0:0:0:
256,192,215898,1,8,0:0:0:0:
256,192,215932,1,8,0:0:0:0:
256,192,215966,1,8,0:0:0:0:
256,192,216035,1,0,0:0:0:0:
256,192,216103,1,0,0:0:0:0:
256,192,216171,1,0,0:0:0:0:
256,192,216239,1,8,0:0:0:0:
256,192,216307,1,8,0:0:0:0:
256,192,216341,1,8,0:0:0:0:
256,192,216376,1,8,0:0:0:0:
256,192,216444,1,0,0:0:0:0:
256,192,216580,1,0,0:0:0:0:
256,192,216614,1,0,0:0:0:0:
256,192,216648,1,8,0:0:0:0:
256,192,216682,1,8,0:0:0:0:
256,192,216716,1,8,0:0:0:0:
256,192,216853,1,0,0:0:0:0:
256,192,216887,1,0,0:0:0:0:
256,192,216921,1,0,0:0:0:0:
256,192,216955,1,0,0:0:0:0:
256,192,216989,1,8,0:0:0:0:
256,192,217023,1,8,0:0:0:0:
256,192,217126,1,8,0:0:0:0:
256,192,217160,1,8,0:0:0:0:
256,192,217194,1,0,0:0:0:0:
256,192,217228,1,0,0:0:0:0:
256,192,217262,1,8,0:0:0:0:
256,192,217296,1,8,0:0:0:0:
256,192,217330,1,0,0:0:0:0:
256,192,217364,1,0,0:0:0:0:
256,192,217398,1,8,0:0:0:0:
256,192,217432,1,8,0:0:0:0:
256,192,217466,1,0,0:0:0:0:
256,192,217501,1,0,0:0:0:0:
256,192,217535,1,8,0:0:0:0:
256,192,217569,1,8,0:0:0:0:
256,192,217603,1,0,0:0:0:0:
256,192,217637,1,0,0:0:0:0:
256,192,217671,12,0,218489,0:0:0:0:
256,192,218626,5,0,0:0:0:0:
256,192,218898,1,0,0:0:0:0:
256,192,219035,1,0,0:0:0:0:
256,192,219171,1,2,0:0:0:0:
256,192,219307,1,0,0:0:0:0:
256,192,219444,1,0,0:0:0:0:
256,192,219512,1,0,0:0:0:0:
256,192,219580,1,2,0:0:0:0:
256,192,219716,1,0,0:0:0:0:
256,192,219853,1,2,0:0:0:0:
256,192,219989,1,2,0:0:0:0:
256,192,220057,1,0,0:0:0:0:
256,192,220126,1,2,0:0:0:0:
256,192,220262,1,0,0:0:0:0:
256,192,220398,1,2,0:0:0:0:
256,192,220535,1,2,0:0:0:0:
256,192,220671,1,0,0:0:0:0:
256,192,220807,1,0,0:0:0:0:
256,192,221080,1,0,0:0:0:0:
256,192,221216,1,0,0:0:0:0:
256,192,221352,1,2,0:0:0:0:
256,192,221489,1,0,0:0:0:0:
256,192,221626,1,0,0:0:0:0:
256,192,221694,1,0,0:0:0:0:
256,192,221762,1,2,0:0:0:0:
256,192,222035,1,0,0:0:0:0:
256,192,222171,1,0,0:0:0:0:
256,192,222239,1,0,0:0:0:0:
256,192,222307,1,2,0:0:0:0:
256,192,222444,1,0,0:0:0:0:
256,192,222580,1,2,0:0:0:0:
256,192,222716,1,0,0:0:0:0:
256,192,222853,1,2,0:0:0:0:
256,192,222989,1,0,0:0:0:0:
256,192,223262,1,0,0:0:0:0:
256,192,223398,1,2,0:0:0:0:
256,192,223535,1,2,0:0:0:0:
256,192,223671,1,0,0:0:0:0:
256,192,223807,1,0,0:0:0:0:
256,192,223876,1,2,0:0:0:0:
256,192,223944,1,2,0:0:0:0:
256,192,224080,1,0,0:0:0:0:
256,192,224216,1,0,0:0:0:0:
256,192,224353,1,2,0:0:0:0:
256,192,224421,1,2,0:0:0:0:
256,192,224489,1,2,0:0:0:0:
256,192,224626,1,0,0:0:0:0:
256,192,224762,1,2,0:0:0:0:
256,192,224898,1,0,0:0:0:0:
256,192,225035,1,2,0:0:0:0:
256,192,225171,1,2,0:0:0:0:
256,192,225307,1,0,0:0:0:0:
256,192,225376,1,2,0:0:0:0:
256,192,225444,1,2,0:0:0:0:
256,192,225580,1,0,0:0:0:0:
256,192,225648,1,0,0:0:0:0:
256,192,225716,1,2,0:0:0:0:
256,192,225853,1,2,0:0:0:0:
256,192,225921,1,0,0:0:0:0:
256,192,225989,1,2,0:0:0:0:
256,192,226126,1,2,0:0:0:0:
256,192,226194,1,0,0:0:0:0:
256,192,226262,1,2,0:0:0:0:
256,192,226398,1,0,0:0:0:0:
256,192,226535,1,0,0:0:0:0:
256,192,226671,1,8,0:0:0:0:
256,192,226807,1,8,0:0:0:0:
256,192,226876,1,8,0:0:0:0:
256,192,226944,1,0,0:0:0:0:
256,192,227012,1,8,0:0:0:0:
256,192,227080,1,0,0:0:0:0:
256,192,227216,1,8,0:0:0:0:
256,192,227353,1,8,0:0:0:0:
256,192,227421,1,0,0:0:0:0:
256,192,227489,1,0,0:0:0:0:
256,192,227557,1,8,0:0:0:0:
256,192,227626,1,0,0:0:0:0:
256,192,227762,1,0,0:0:0:0:
256,192,227898,1,8,0:0:0:0:
256,192,227966,1,0,0:0:0:0:
256,192,228035,1,0,0:0:0:0:
256,192,228103,1,0,0:0:0:0:
256,192,228171,1,8,0:0:0:0:
256,192,228205,1,8,0:0:0:0:
256,192,228239,1,8,0:0:0:0:
256,192,228307,1,8,0:0:0:0:
256,192,228341,1,8,0:0:0:0:
256,192,228376,1,8,0:0:0:0:
256,192,228444,1,8,0:0:0:0:
256,192,228478,1,8,0:0:0:0:
256,192,228512,1,8,0:0:0:0:
256,192,228580,1,0,0:0:0:0:
256,192,228648,1,0,0:0:0:0:
256,192,228716,1,8,0:0:0:0:
256,192,228785,1,8,0:0:0:0:
256,192,228853,1,0,0:0:0:0:
256,192,228989,1,8,0:0:0:0:
256,192,229023,1,8,0:0:0:0:
256,192,229057,1,8,0:0:0:0:
256,192,229126,1,0,0:0:0:0:
256,192,229194,1,8,0:0:0:0:
256,192,229262,1,0,0:0:0:0:
256,192,229398,1,8,0:0:0:0:
256,192,229432,1,0,0:0:0:0:
256,192,229466,1,0,0:0:0:0:
256,192,229535,1,0,0:0:0:0:
256,192,229603,1,0,0:0:0:0:
256,192,229671,1,8,0:0:0:0:
256,192,229807,1,0,0:0:0:0:
256,192,229876,1,0,0:0:0:0:
256,192,229944,1,8,0:0:0:0:
256,192,230080,1,8,0:0:0:0:
256,192,230216,1,0,0:0:0:0:
256,192,230285,1,0,0:0:0:0:
256,192,230353,1,0,0:0:0:0:
256,192,230421,1,0,0:0:0:0:
256,192,230489,1,8,0:0:0:0:
256,192,230557,1,8,0:0:0:0:
256,192,230626,1,8,0:0:0:0:
256,192,230694,1,8,0:0:0:0:
256,192,230762,1,0,0:0:0:0:
256,192,230898,1,8,0:0:0:0:
256,192,231035,1,8,0:0:0:0:
256,192,231171,1,8,0:0:0:0:
256,192,231239,1,8,0:0:0:0:
256,192,231307,1,0,0:0:0:0:
256,192,231376,1,8,0:0:0:0:
256,192,231444,1,0,0:0:0:0:
256,192,231580,1,0,0:0:0:0:
256,192,231716,1,8,0:0:0:0:
256,192,231785,1,0,0:0:0:0:
256,192,231853,1,0,0:0:0:0:
256,192,231989,1,0,0:0:0:0:
256,192,232126,1,8,0:0:0:0:
256,192,232262,1,8,0:0:0:0:
256,192,232330,1,0,0:0:0:0:
256,192,232398,1,0,0:0:0:0:
256,192,232535,1,0,0:0:0:0:
256,192,232569,1,0,0:0:0:0:
256,192,232603,1,8,0:0:0:0:
256,192,232671,1,0,0:0:0:0:
256,192,232705,1,8,0:0:0:0:
256,192,232739,1,8,0:0:0:0:
256,192,232807,1,8,0:0:0:0:
256,192,232842,1,8,0:0:0:0:
256,192,232876,1,8,0:0:0:0:
256,192,232944,1,0,0:0:0:0:
256,192,233012,1,0,0:0:0:0:
256,192,233080,1,8,0:0:0:0:
256,192,233148,1,8,0:0:0:0:
256,192,233216,1,0,0:0:0:0:
256,192,233353,1,8,0:0:0:0:
256,192,233387,1,0,0:0:0:0:
256,192,233421,1,8,0:0:0:0:
256,192,233489,1,0,0:0:0:0:
256,192,233626,1,0,0:0:0:0:
256,192,233762,1,0,0:0:0:0:
256,192,233796,1,8,0:0:0:0:
256,192,233830,1,0,0:0:0:0:
256,192,233898,1,0,0:0:0:0:
256,192,233966,1,0,0:0:0:0:
256,192,234035,1,0,0:0:0:0:
256,192,234103,1,8,0:0:0:0:
256,192,234171,1,8,0:0:0:0:
256,192,234307,1,0,0:0:0:0:
256,192,234376,1,0,0:0:0:0:
256,192,234444,1,8,0:0:0:0:
256,192,234580,1,8,0:0:0:0:
256,192,234648,1,8,0:0:0:0:
256,192,234716,1,8,0:0:0:0:
256,192,234785,1,8,0:0:0:0:
256,192,234853,1,8,0:0:0:0:
256,192,234921,1,8,0:0:0:0:
256,192,234989,1,8,0:0:0:0:
256,192,235057,1,8,0:0:0:0:
256,192,235126,1,8,0:0:0:0:
256,192,235262,1,8,0:0:0:0:
256,192,235330,1,0,0:0:0:0:
256,192,235398,1,8,0:0:0:0:
256,192,235535,1,0,0:0:0:0:
256,192,235603,1,0,0:0:0:0:
256,192,235671,1,0,0:0:0:0:
256,192,235739,1,8,0:0:0:0:
256,192,235807,1,0,0:0:0:0:
256,192,235944,1,8,0:0:0:0:
256,192,236080,1,8,0:0:0:0:
256,192,236148,1,0,0:0:0:0:
256,192,236216,1,0,0:0:0:0:
256,192,236353,1,0,0:0:0:0:
256,192,236489,1,8,0:0:0:0:
256,192,236626,1,0,0:0:0:0:
256,192,236694,1,8,0:0:0:0:
256,192,236762,1,8,0:0:0:0:
256,192,236898,1,8,0:0:0:0:
256,192,236932,1,8,0:0:0:0:
256,192,236966,1,8,0:0:0:0:
256,192,237035,1,8,0:0:0:0:
256,192,237069,1,8,0:0:0:0:
256,192,237103,1,8,0:0:0:0:
256,192,237171,1,8,0:0:0:0:
256,192,237205,1,8,0:0:0:0:
256,192,237239,1,8,0:0:0:0:
256,192,237307,1,0,0:0:0:0:
256,192,237376,1,0,0:0:0:0:
256,192,237444,1,0,0:0:0:0:
256,192,237478,1,8,0:0:0:0:
256,192,237512,1,8,0:0:0:0:
256,192,237580,1,0,0:0:0:0:
256,192,237716,1,8,0:0:0:0:
256,192,237751,1,8,0:0:0:0:
256,192,237785,1,8,0:0:0:0:
256,192,237853,1,8,0:0:0:0:
256,192,237921,1,0,0:0:0:0:
256,192,237989,1,0,0:0:0:0:
256,192,238126,1,8,0:0:0:0:
256,192,238262,1,0,0:0:0:0:
256,192,238330,1,0,0:0:0:0:
256,192,238398,1,0,0:0:0:0:
256,192,238466,1,8,0:0:0:0:
256,192,238535,1,0,0:0:0:0:
256,192,238671,1,8,0:0:0:0:
256,192,238807,1,8,0:0:0:0:
256,192,238944,1,0,0:0:0:0:
256,192,239012,1,0,0:0:0:0:
256,192,239080,1,8,0:0:0:0:
256,192,239148,1,8,0:0:0:0:
256,192,239216,1,0,0:0:0:0:
256,192,239239,1,0,0:0:0:0:
256,192,239285,1,0,0:0:0:0:
256,192,239307,1,0,0:0:0:0:
256,192,239353,1,8,0:0:0:0:
256,192,239376,1,8,0:0:0:0:
256,192,239421,1,8,0:0:0:0:
256,192,239444,1,8,0:0:0:0:
256,192,239489,1,0,0:0:0:0:
256,192,239626,1,0,0:0:0:0:
256,192,239694,1,8,0:0:0:0:
256,192,239762,1,0,0:0:0:0:
256,192,239898,1,8,0:0:0:0:
256,192,239966,1,8,0:0:0:0:
256,192,240035,1,0,0:0:0:0:
256,192,240103,1,8,0:0:0:0:
256,192,240171,1,0,0:0:0:0:
256,192,240307,1,0,0:0:0:0:
256,192,240444,1,8,0:0:0:0:
256,192,240512,1,0,0:0:0:0:
256,192,240580,1,0,0:0:0:0:
256,192,240716,1,0,0:0:0:0:
256,192,240853,1,8,0:0:0:0:
256,192,240989,1,8,0:0:0:0:
256,192,241057,1,0,0:0:0:0:
256,192,241126,1,0,0:0:0:0:
256,192,241194,1,0,0:0:0:0:
256,192,241262,1,8,0:0:0:0:
256,192,241296,1,8,0:0:0:0:
256,192,241330,1,8,0:0:0:0:
256,192,241398,1,8,0:0:0:0:
256,192,241432,1,8,0:0:0:0:
256,192,241466,1,0,0:0:0:0:
256,192,241535,1,8,0:0:0:0:
256,192,241569,1,0,0:0:0:0:
256,192,241603,1,0,0:0:0:0:
256,192,241671,1,0,0:0:0:0:
256,192,241739,1,0,0:0:0:0:
256,192,241807,1,8,0:0:0:0:
256,192,241876,1,8,0:0:0:0:
256,192,241944,1,0,0:0:0:0:
256,192,242080,1,0,0:0:0:0:
256,192,242114,1,8,0:0:0:0:
256,192,242148,1,0,0:0:0:0:
256,192,242216,1,0,0:0:0:0:
256,192,242353,1,0,0:0:0:0:
256,192,242489,1,8,0:0:0:0:
256,192,242523,1,0,0:0:0:0:
256,192,242557,1,8,0:0:0:0:
256,192,242626,1,0,0:0:0:0:
256,192,242762,1,0,0:0:0:0:
256,192,242830,1,0,0:0:0:0:
256,192,242898,1,8,0:0:0:0:
256,192,243035,1,0,0:0:0:0:
256,192,243103,1,8,0:0:0:0:
256,192,243171,1,10,0:0:0:0:
256,192,243307,1,8,0:0:0:0:
256,192,243376,1,8,0:0:0:0:
256,192,243444,1,8,0:0:0:0:
256,192,243512,1,8,0:0:0:0:
256,192,243580,1,8,0:0:0:0:
256,192,243648,1,8,0:0:0:0:
256,192,243716,1,8,0:0:0:0:
256,192,243785,1,8,0:0:0:0:
256,192,243853,6,0,L|265:180,31,15.999999666214
256,192,244944,12,0,247126,0:0:0:0:
