osu file format v14

[General]
AudioFilename: audio.mp3
AudioLeadIn: 0
PreviewTime: -1
Countdown: 3
SampleSet: Normal
StackLeniency: 0.2
Mode: 0
LetterboxInBreaks: 1
WidescreenStoryboard: 0

[Editor]
Bookmarks: 9676,19276,98476,136876,156076,184876,194476
DistanceSpacing: 1
BeatDivisor: 2
GridSize: 16
TimelineZoom: 5.000003

[Metadata]
Title:cheatreal
TitleUnicode:cheatreal
Artist:t+pazolite
ArtistUnicode:t+pazolite
Creator:LegenDarius13
Version:ye
Source:
Tags:jump training
BeatmapID:1832382
BeatmapSetID:876797

[Difficulty]
HPDrainRate:0.7
CircleSize:4.5
OverallDifficulty:9.5
ApproachRate:10
SliderMultiplier:2
SliderTickRate:1

[Events]
//Background and Video events
0,0,"34945374.jpg",0,0
//Break Periods
2,38676,57226
2,57876,66826
2,67476,76426
2,137076,155626
//Storyboard Layer 0 (Background)
//Storyboard Layer 1 (Fail)
//Storyboard Layer 2 (Pass)
//Storyboard Layer 3 (Foreground)
//Storyboard Sound Samples

[TimingPoints]
76,300,4,1,0,100,1,0

[HitObjects]
116,241,76,5,0,0:0:0:0:
248,168,226,1,0,0:0:0:0:
178,285,376,5,0,0:0:0:0:
217,115,526,1,0,0:0:0:0:
263,269,676,5,0,0:0:0:0:
131,142,826,1,0,0:0:0:0:
251,138,976,5,0,0:0:0:0:
98,258,1126,1,0,0:0:0:0:
189,190,1276,6,0,L|237:169,7,50
201,287,1876,6,0,L|247:320,7,50
54,188,2476,5,0,0:0:0:0:
224,122,2626,1,0,0:0:0:0:
175,310,2776,1,0,0:0:0:0:
49,256,2926,5,0,0:0:0:0:
263,220,3076,1,0,0:0:0:0:
55,117,3226,5,0,0:0:0:0:
258,171,3376,1,0,0:0:0:0:
61,324,3526,5,0,0:0:0:0:
205,119,3676,6,0,L|253:98,11,50
160,226,4576,5,0,0:0:0:0:
416,219,4726,5,0,0:0:0:0:
252,332,4876,5,0,0:0:0:0:
350,138,5026,1,0,0:0:0:0:
144,300,5176,5,0,0:0:0:0:
53,47,5326,1,0,0:0:0:0:
88,289,5476,5,0,0:0:0:0:
115,33,5626,1,0,0:0:0:0:
163,291,5776,5,0,0:0:0:0:
76,31,5926,1,0,0:0:0:0:
443,230,9676,5,0,0:0:0:0:
337,316,9826,1,0,0:0:0:0:
381,168,9976,1,0,0:0:0:0:
349,306,10126,1,0,0:0:0:0:
303,146,10276,1,0,0:0:0:0:
344,305,10426,1,0,0:0:0:0:
242,153,10576,1,0,0:0:0:0:
327,311,10726,1,0,0:0:0:0:
159,202,10876,5,0,0:0:0:0:
316,311,11026,1,0,0:0:0:0:
116,287,11176,1,0,0:0:0:0:
335,278,11326,1,0,0:0:0:0:
170,345,11476,1,0,0:0:0:0:
329,206,11626,1,0,0:0:0:0:
221,347,11776,1,0,0:0:0:0:
243,164,11926,1,0,0:0:0:0:
270,338,12076,5,0,0:0:0:0:
166,181,12226,1,0,0:0:0:0:
310,279,12376,1,0,0:0:0:0:
102,273,12526,1,0,0:0:0:0:
319,190,12676,1,0,0:0:0:0:
135,316,12826,1,0,0:0:0:0:
236,198,12976,1,0,0:0:0:0:
114,259,13126,1,0,0:0:0:0:
265,256,13276,5,0,0:0:0:0:
119,174,13426,1,0,0:0:0:0:
229,311,13576,1,0,0:0:0:0:
186,149,13726,1,0,0:0:0:0:
170,330,13876,1,0,0:0:0:0:
255,200,14026,1,0,0:0:0:0:
90,230,14176,1,0,0:0:0:0:
190,340,14326,1,0,0:0:0:0:
281,228,14476,5,0,0:0:0:0:
149,148,14626,1,0,0:0:0:0:
150,312,14776,1,0,0:0:0:0:
225,153,14926,1,0,0:0:0:0:
86,287,15076,1,0,0:0:0:0:
277,220,15226,1,0,0:0:0:0:
94,151,15376,1,0,0:0:0:0:
148,339,15526,1,0,0:0:0:0:
289,209,15676,5,0,0:0:0:0:
163,84,15826,1,0,0:0:0:0:
70,206,15976,1,0,0:0:0:0:
211,323,16126,1,0,0:0:0:0:
297,171,16276,1,0,0:0:0:0:
123,213,16426,1,0,0:0:0:0:
249,348,16576,1,0,0:0:0:0:
268,150,16726,1,0,0:0:0:0:
113,267,16876,5,0,0:0:0:0:
301,312,17026,1,0,0:0:0:0:
195,119,17176,1,0,0:0:0:0:
134,342,17326,1,0,0:0:0:0:
323,216,17476,1,0,0:0:0:0:
99,168,17626,1,0,0:0:0:0:
91,331,17776,1,0,0:0:0:0:
240,317,17926,1,0,0:0:0:0:
196,148,18076,5,0,0:0:0:0:
62,253,18226,5,0,0:0:0:0:
211,202,18376,5,0,0:0:0:0:
42,204,18526,5,0,0:0:0:0:
214,265,18676,5,0,0:0:0:0:
52,132,18826,5,0,0:0:0:0:
183,303,18976,5,0,0:0:0:0:
203,66,19126,5,0,0:0:0:0:
45,311,19276,5,0,0:0:0:0:
435,154,19426,1,0,0:0:0:0:
251,86,19576,1,0,0:0:0:0:
308,256,19726,1,0,0:0:0:0:
426,95,19876,1,0,0:0:0:0:
194,81,20026,1,0,0:0:0:0:
368,262,20176,1,0,0:0:0:0:
423,45,20326,1,0,0:0:0:0:
201,126,20476,1,0,0:0:0:0:
394,221,20626,1,0,0:0:0:0:
239,56,20776,1,0,0:0:0:0:
316,264,20926,1,0,0:0:0:0:
331,42,21076,1,0,0:0:0:0:
227,251,21226,1,0,0:0:0:0:
441,247,21376,1,0,0:0:0:0:
227,118,21526,1,0,0:0:0:0:
339,293,21676,1,0,0:0:0:0:
437,185,21826,1,0,0:0:0:0:
254,139,21976,1,0,0:0:0:0:
355,269,22126,1,0,0:0:0:0:
396,95,22276,1,0,0:0:0:0:
268,184,22426,1,0,0:0:0:0:
437,210,22576,1,0,0:0:0:0:
295,60,22726,1,0,0:0:0:0:
329,241,22876,1,0,0:0:0:0:
357,47,23026,1,0,0:0:0:0:
262,229,23176,1,0,0:0:0:0:
411,72,23326,1,0,0:0:0:0:
225,181,23476,1,0,0:0:0:0:
406,231,23626,1,0,0:0:0:0:
272,100,23776,1,0,0:0:0:0:
319,264,23926,1,0,0:0:0:0:
353,86,24076,1,0,0:0:0:0:
246,238,24226,1,0,0:0:0:0:
400,131,24376,1,0,0:0:0:0:
208,118,24526,1,0,0:0:0:0:
391,240,24676,1,0,0:0:0:0:
245,54,24826,1,0,0:0:0:0:
250,264,24976,1,0,0:0:0:0:
430,187,25126,1,0,0:0:0:0:
316,37,25276,1,0,0:0:0:0:
182,122,25426,1,0,0:0:0:0:
315,240,25576,1,0,0:0:0:0:
434,116,25726,1,0,0:0:0:0:
219,33,25876,1,0,0:0:0:0:
154,189,26026,1,0,0:0:0:0:
337,215,26176,1,0,0:0:0:0:
348,47,26326,1,0,0:0:0:0:
167,53,26476,1,0,0:0:0:0:
180,202,26626,1,0,0:0:0:0:
268,50,26776,1,0,0:0:0:0:
116,170,26926,1,0,0:0:0:0:
299,116,27076,1,0,0:0:0:0:
127,59,27226,1,0,0:0:0:0:
249,208,27376,1,0,0:0:0:0:
196,32,27526,1,0,0:0:0:0:
177,216,27676,1,0,0:0:0:0:
270,47,27826,1,0,0:0:0:0:
97,169,27976,1,0,0:0:0:0:
311,110,28126,1,0,0:0:0:0:
94,48,28276,1,0,0:0:0:0:
245,195,28426,1,0,0:0:0:0:
144,22,28576,1,0,0:0:0:0:
89,224,28726,1,0,0:0:0:0:
380,120,28876,5,0,0:0:0:0:
274,86,29026,1,0,0:0:0:0:
447,69,29176,1,0,0:0:0:0:
282,170,29326,1,0,0:0:0:0:
445,161,29476,1,0,0:0:0:0:
262,91,29626,1,0,0:0:0:0:
455,92,29776,1,0,0:0:0:0:
255,192,29926,1,0,0:0:0:0:
442,224,30076,1,0,0:0:0:0:
246,68,30226,1,0,0:0:0:0:
440,102,30376,1,0,0:0:0:0:
224,130,30526,1,0,0:0:0:0:
423,192,30676,1,0,0:0:0:0:
290,26,30826,1,0,0:0:0:0:
357,218,30976,1,0,0:0:0:0:
208,43,31126,1,0,0:0:0:0:
272,261,31276,1,0,0:0:0:0:
295,35,31426,1,0,0:0:0:0:
191,260,31576,1,0,0:0:0:0:
127,30,31726,1,0,0:0:0:0:
276,156,31876,1,0,0:0:0:0:
207,21,32026,1,0,0:0:0:0:
162,190,32176,1,0,0:0:0:0:
96,23,32326,1,0,0:0:0:0:
224,161,32476,1,0,0:0:0:0:
159,17,32626,1,0,0:0:0:0:
64,195,32776,1,0,0:0:0:0:
167,353,32926,1,0,0:0:0:0:
146,182,33076,1,0,0:0:0:0:
230,341,33226,1,0,0:0:0:0:
210,170,33376,1,0,0:0:0:0:
155,335,33526,1,0,0:0:0:0:
130,163,33676,1,0,0:0:0:0:
232,330,33826,1,0,0:0:0:0:
204,158,33976,1,0,0:0:0:0:
121,336,34126,1,0,0:0:0:0:
57,168,34276,1,0,0:0:0:0:
221,324,34426,1,0,0:0:0:0:
292,156,34576,1,0,0:0:0:0:
99,288,34726,1,0,0:0:0:0:
202,130,34876,1,0,0:0:0:0:
211,293,35026,1,0,0:0:0:0:
83,155,35176,1,0,0:0:0:0:
132,262,35326,1,0,0:0:0:0:
190,149,35476,1,0,0:0:0:0:
214,266,35626,1,0,0:0:0:0:
74,136,35776,1,0,0:0:0:0:
135,296,35926,1,0,0:0:0:0:
205,101,36076,1,0,0:0:0:0:
227,294,36226,1,0,0:0:0:0:
64,116,36376,1,0,0:0:0:0:
126,293,36526,1,0,0:0:0:0:
225,79,36676,1,0,0:0:0:0:
210,277,36826,1,0,0:0:0:0:
100,120,36976,1,0,0:0:0:0:
97,298,37126,1,0,0:0:0:0:
200,117,37276,1,0,0:0:0:0:
120,282,37426,1,0,0:0:0:0:
71,104,37576,1,0,0:0:0:0:
186,260,37726,1,0,0:0:0:0:
222,68,37876,1,0,0:0:0:0:
240,265,38026,1,0,0:0:0:0:
341,82,38176,1,0,0:0:0:0:
281,268,38326,1,0,0:0:0:0:
451,131,38476,1,0,0:0:0:0:
256,192,57676,5,0,0:0:0:0:
256,192,67276,5,0,0:0:0:0:
256,192,76876,5,0,0:0:0:0:
256,192,78076,1,0,0:0:0:0:
256,192,79276,1,0,0:0:0:0:
256,192,80476,1,0,0:0:0:0:
256,192,81676,1,0,0:0:0:0:
256,192,82876,1,0,0:0:0:0:
256,192,84076,1,0,0:0:0:0:
256,192,85276,1,0,0:0:0:0:
256,192,86476,5,0,0:0:0:0:
256,192,87076,1,0,0:0:0:0:
256,192,87676,1,0,0:0:0:0:
256,192,88276,1,0,0:0:0:0:
256,192,88876,1,0,0:0:0:0:
256,192,89476,1,0,0:0:0:0:
256,192,90076,1,0,0:0:0:0:
256,192,90676,1,0,0:0:0:0:
256,192,91276,5,0,0:0:0:0:
256,192,91576,1,0,0:0:0:0:
256,192,91876,1,0,0:0:0:0:
256,192,92176,1,0,0:0:0:0:
256,192,92476,1,0,0:0:0:0:
256,192,92776,1,0,0:0:0:0:
256,192,93076,1,0,0:0:0:0:
256,192,93376,1,0,0:0:0:0:
256,192,93676,5,0,0:0:0:0:
256,192,93826,1,0,0:0:0:0:
256,192,93976,1,0,0:0:0:0:
256,192,94126,1,0,0:0:0:0:
256,192,94276,1,0,0:0:0:0:
256,192,94426,1,0,0:0:0:0:
256,192,94576,1,0,0:0:0:0:
256,192,94726,1,0,0:0:0:0:
256,192,94876,5,0,0:0:0:0:
256,192,94951,1,0,0:0:0:0:
256,192,95026,1,0,0:0:0:0:
256,192,95101,1,0,0:0:0:0:
256,192,95176,1,0,0:0:0:0:
256,192,95251,1,0,0:0:0:0:
256,192,95326,1,0,0:0:0:0:
256,192,95401,1,0,0:0:0:0:
256,192,95476,1,0,0:0:0:0:
256,192,95551,1,0,0:0:0:0:
256,192,95626,1,0,0:0:0:0:
256,192,95701,1,0,0:0:0:0:
256,192,95776,1,0,0:0:0:0:
256,192,95813,12,0,98176,0:0:0:0:
256,192,98476,5,0,0:0:0:0:
97,309,98626,1,0,0:0:0:0:
280,183,98776,1,0,0:0:0:0:
63,205,98926,1,0,0:0:0:0:
302,189,99076,1,0,0:0:0:0:
68,89,99226,1,0,0:0:0:0:
268,204,99376,1,0,0:0:0:0:
125,38,99526,1,0,0:0:0:0:
259,231,99676,1,0,0:0:0:0:
174,24,99826,1,0,0:0:0:0:
247,239,99976,1,0,0:0:0:0:
219,22,100126,1,0,0:0:0:0:
230,237,100276,1,0,0:0:0:0:
281,16,100426,1,0,0:0:0:0:
225,205,100576,1,0,0:0:0:0:
374,27,100726,1,0,0:0:0:0:
225,174,100876,1,0,0:0:0:0:
458,55,101026,1,0,0:0:0:0:
229,143,101176,1,0,0:0:0:0:
476,176,101326,1,0,0:0:0:0:
251,190,101476,1,0,0:0:0:0:
484,234,101626,1,0,0:0:0:0:
261,238,101776,1,0,0:0:0:0:
462,347,101926,1,0,0:0:0:0:
251,183,102076,1,0,0:0:0:0:
363,361,102226,1,0,0:0:0:0:
247,128,102376,1,0,0:0:0:0:
223,358,102526,1,0,0:0:0:0:
283,155,102676,1,0,0:0:0:0:
93,333,102826,1,0,0:0:0:0:
283,169,102976,1,0,0:0:0:0:
37,267,103126,1,0,0:0:0:0:
263,160,103276,1,0,0:0:0:0:
20,169,103426,1,0,0:0:0:0:
269,200,103576,1,0,0:0:0:0:
48,51,103726,1,0,0:0:0:0:
263,195,103876,1,0,0:0:0:0:
115,16,104026,1,0,0:0:0:0:
260,199,104176,1,0,0:0:0:0:
254,1,104326,1,0,0:0:0:0:
246,218,104476,1,0,0:0:0:0:
330,5,104626,1,0,0:0:0:0:
226,211,104776,1,0,0:0:0:0:
447,24,104926,1,0,0:0:0:0:
230,206,105076,1,0,0:0:0:0:
493,169,105226,1,0,0:0:0:0:
225,184,105376,1,0,0:0:0:0:
474,358,105526,1,0,0:0:0:0:
248,187,105676,1,0,0:0:0:0:
383,374,105826,1,0,0:0:0:0:
242,145,105976,1,0,0:0:0:0:
169,365,106126,1,0,0:0:0:0:
276,147,106276,1,0,0:0:0:0:
7,184,106426,1,0,0:0:0:0:
304,206,106576,1,0,0:0:0:0:
44,7,106726,1,0,0:0:0:0:
257,238,106876,1,0,0:0:0:0:
302,6,107026,1,0,0:0:0:0:
239,209,107176,1,0,0:0:0:0:
473,24,107326,1,0,0:0:0:0:
210,214,107476,1,0,0:0:0:0:
503,150,107626,1,0,0:0:0:0:
183,146,107776,1,0,0:0:0:0:
491,365,107926,1,0,0:0:0:0:
255,191,108076,5,0,0:0:0:0:
121,196,108226,1,0,0:0:0:0:
204,54,108376,1,0,0:0:0:0:
237,239,108526,1,0,0:0:0:0:
88,145,108676,1,0,0:0:0:0:
277,126,108826,1,0,0:0:0:0:
163,303,108976,1,0,0:0:0:0:
185,87,109126,1,0,0:0:0:0:
262,298,109276,1,0,0:0:0:0:
79,210,109426,1,0,0:0:0:0:
288,176,109576,1,0,0:0:0:0:
134,328,109726,1,0,0:0:0:0:
128,145,109876,1,0,0:0:0:0:
252,281,110026,1,0,0:0:0:0:
65,267,110176,1,0,0:0:0:0:
243,149,110326,1,0,0:0:0:0:
182,333,110476,1,0,0:0:0:0:
142,129,110626,1,0,0:0:0:0:
305,262,110776,1,0,0:0:0:0:
103,276,110926,1,0,0:0:0:0:
208,94,111076,1,0,0:0:0:0:
253,300,111226,1,0,0:0:0:0:
133,123,111376,1,0,0:0:0:0:
307,101,111526,1,0,0:0:0:0:
214,263,111676,1,0,0:0:0:0:
232,43,111826,1,0,0:0:0:0:
378,235,111976,1,0,0:0:0:0:
176,172,112126,1,0,0:0:0:0:
368,112,112276,1,0,0:0:0:0:
303,278,112426,1,0,0:0:0:0:
212,104,112576,1,0,0:0:0:0:
399,203,112726,1,0,0:0:0:0:
204,295,112876,1,0,0:0:0:0:
361,140,113026,1,0,0:0:0:0:
300,320,113176,1,0,0:0:0:0:
238,116,113326,1,0,0:0:0:0:
454,171,113476,1,0,0:0:0:0:
256,276,113626,1,0,0:0:0:0:
370,79,113776,1,0,0:0:0:0:
437,313,113926,1,0,0:0:0:0:
204,244,114076,1,0,0:0:0:0:
413,167,114226,1,0,0:0:0:0:
272,333,114376,1,0,0:0:0:0:
254,125,114526,1,0,0:0:0:0:
389,298,114676,1,0,0:0:0:0:
171,292,114826,1,0,0:0:0:0:
321,141,114976,1,0,0:0:0:0:
380,317,115126,1,0,0:0:0:0:
150,222,115276,1,0,0:0:0:0:
343,148,115426,1,0,0:0:0:0:
207,324,115576,1,0,0:0:0:0:
105,208,115726,1,0,0:0:0:0:
286,267,115876,1,0,0:0:0:0:
65,315,116026,1,0,0:0:0:0:
230,113,116176,1,0,0:0:0:0:
331,312,116326,1,0,0:0:0:0:
48,223,116476,1,0,0:0:0:0:
246,63,116626,1,0,0:0:0:0:
303,324,116776,1,0,0:0:0:0:
63,113,116926,1,0,0:0:0:0:
280,34,117076,1,0,0:0:0:0:
240,296,117226,1,0,0:0:0:0:
31,95,117376,1,0,0:0:0:0:
338,182,117526,1,0,0:0:0:0:
55,314,117676,5,0,0:0:0:0:
66,122,117826,1,0,0:0:0:0:
216,132,117976,1,0,0:0:0:0:
205,287,118126,1,0,0:0:0:0:
52,252,118276,1,0,0:0:0:0:
96,91,118426,1,0,0:0:0:0:
245,136,118576,1,0,0:0:0:0:
191,284,118726,1,0,0:0:0:0:
55,172,118876,1,0,0:0:0:0:
186,79,119026,1,0,0:0:0:0:
285,214,119176,1,0,0:0:0:0:
123,317,119326,1,0,0:0:0:0:
66,101,119476,1,0,0:0:0:0:
235,91,119626,1,0,0:0:0:0:
258,249,119776,1,0,0:0:0:0:
84,255,119926,1,0,0:0:0:0:
131,60,120076,1,0,0:0:0:0:
297,77,120226,1,0,0:0:0:0:
222,259,120376,1,0,0:0:0:0:
68,199,120526,1,0,0:0:0:0:
157,43,120676,1,0,0:0:0:0:
308,120,120826,1,0,0:0:0:0:
188,256,120976,1,0,0:0:0:0:
97,90,121126,1,0,0:0:0:0:
268,41,121276,1,0,0:0:0:0:
303,207,121426,1,0,0:0:0:0:
138,216,121576,1,0,0:0:0:0:
202,45,121726,1,0,0:0:0:0:
350,85,121876,1,0,0:0:0:0:
273,244,122026,1,0,0:0:0:0:
105,168,122176,1,0,0:0:0:0:
172,34,122326,1,0,0:0:0:0:
309,102,122476,1,0,0:0:0:0:
214,239,122626,1,0,0:0:0:0:
90,125,122776,1,0,0:0:0:0:
243,53,122926,1,0,0:0:0:0:
316,243,123076,1,0,0:0:0:0:
120,314,123226,1,0,0:0:0:0:
54,84,123376,1,0,0:0:0:0:
268,35,123526,1,0,0:0:0:0:
300,249,123676,1,0,0:0:0:0:
124,238,123826,1,0,0:0:0:0:
222,113,123976,1,0,0:0:0:0:
336,211,124126,1,0,0:0:0:0:
224,335,124276,1,0,0:0:0:0:
110,194,124426,1,0,0:0:0:0:
244,113,124576,1,0,0:0:0:0:
331,249,124726,1,0,0:0:0:0:
219,298,124876,1,0,0:0:0:0:
174,172,125026,1,0,0:0:0:0:
307,146,125176,1,0,0:0:0:0:
340,338,125326,1,0,0:0:0:0:
134,338,125476,1,0,0:0:0:0:
140,165,125626,1,0,0:0:0:0:
340,151,125776,1,0,0:0:0:0:
314,325,125926,1,0,0:0:0:0:
116,261,126076,1,0,0:0:0:0:
213,42,126226,1,0,0:0:0:0:
414,99,126376,1,0,0:0:0:0:
303,322,126526,1,0,0:0:0:0:
105,231,126676,1,0,0:0:0:0:
217,34,126826,1,0,0:0:0:0:
400,212,126976,1,0,0:0:0:0:
118,346,127126,1,0,0:0:0:0:
45,60,127276,5,0,0:0:0:0:
252,228,127426,1,0,0:0:0:0:
144,24,127576,1,0,0:0:0:0:
72,234,127726,1,0,0:0:0:0:
265,109,127876,1,0,0:0:0:0:
43,100,128026,1,0,0:0:0:0:
227,243,128176,1,0,0:0:0:0:
160,38,128326,1,0,0:0:0:0:
57,245,128476,1,0,0:0:0:0:
286,128,128626,1,0,0:0:0:0:
42,80,128776,1,0,0:0:0:0:
210,247,128926,1,0,0:0:0:0:
142,40,129076,1,0,0:0:0:0:
94,218,129226,1,0,0:0:0:0:
240,114,129376,1,0,0:0:0:0:
67,84,129526,1,0,0:0:0:0:
196,217,129676,1,0,0:0:0:0:
160,35,129826,1,0,0:0:0:0:
110,177,129976,1,0,0:0:0:0:
238,102,130126,1,0,0:0:0:0:
76,78,130276,1,0,0:0:0:0:
198,185,130426,1,0,0:0:0:0:
161,36,130576,1,0,0:0:0:0:
93,215,130726,1,0,0:0:0:0:
259,92,130876,1,0,0:0:0:0:
59,41,131026,1,0,0:0:0:0:
193,217,131176,1,0,0:0:0:0:
185,44,131326,1,0,0:0:0:0:
85,192,131476,1,0,0:0:0:0:
268,133,131626,1,0,0:0:0:0:
98,24,131776,1,0,0:0:0:0:
182,217,131926,1,0,0:0:0:0:
206,38,132076,1,0,0:0:0:0:
51,198,132226,1,0,0:0:0:0:
255,145,132376,1,0,0:0:0:0:
66,32,132526,1,0,0:0:0:0:
146,257,132676,1,0,0:0:0:0:
219,48,132826,1,0,0:0:0:0:
35,120,132976,1,0,0:0:0:0:
241,194,133126,1,0,0:0:0:0:
141,28,133276,1,0,0:0:0:0:
61,222,133426,1,0,0:0:0:0:
255,87,133576,1,0,0:0:0:0:
39,83,133726,1,0,0:0:0:0:
220,252,133876,1,0,0:0:0:0:
157,30,134026,1,0,0:0:0:0:
41,254,134176,1,0,0:0:0:0:
286,120,134326,1,0,0:0:0:0:
33,63,134476,1,0,0:0:0:0:
203,254,134626,1,0,0:0:0:0:
168,30,134776,1,0,0:0:0:0:
40,250,134926,1,0,0:0:0:0:
262,119,135076,1,0,0:0:0:0:
41,29,135226,1,0,0:0:0:0:
125,298,135376,1,0,0:0:0:0:
286,104,135526,1,0,0:0:0:0:
24,58,135676,1,0,0:0:0:0:
209,302,135826,1,0,0:0:0:0:
206,28,135976,1,0,0:0:0:0:
37,285,136126,1,0,0:0:0:0:
334,146,136276,1,0,0:0:0:0:
27,27,136426,1,0,0:0:0:0:
160,324,136576,1,0,0:0:0:0:
291,56,136726,1,0,0:0:0:0:
31,356,136876,1,0,0:0:0:0:
256,192,156076,5,0,0:0:0:0:
128,128,156226,1,0,0:0:0:0:
160,272,156376,1,0,0:0:0:0:
243,118,156526,1,0,0:0:0:0:
81,193,156676,1,0,0:0:0:0:
258,246,156826,1,0,0:0:0:0:
123,91,156976,1,0,0:0:0:0:
136,292,157126,1,0,0:0:0:0:
293,176,157276,1,0,0:0:0:0:
110,117,157426,1,0,0:0:0:0:
142,303,157576,1,0,0:0:0:0:
294,191,157726,1,0,0:0:0:0:
110,95,157876,1,0,0:0:0:0:
110,284,158026,1,0,0:0:0:0:
268,196,158176,1,0,0:0:0:0:
94,74,158326,1,0,0:0:0:0:
164,264,158476,1,0,0:0:0:0:
204,67,158626,1,0,0:0:0:0:
111,243,158776,1,0,0:0:0:0:
264,106,158926,1,0,0:0:0:0:
72,124,159076,1,0,0:0:0:0:
256,235,159226,1,0,0:0:0:0:
132,54,159376,1,0,0:0:0:0:
124,236,159526,1,0,0:0:0:0:
203,48,159676,1,0,0:0:0:0:
213,221,159826,1,0,0:0:0:0:
91,42,159976,1,0,0:0:0:0:
147,243,160126,1,0,0:0:0:0:
214,39,160276,1,0,0:0:0:0:
257,208,160426,1,0,0:0:0:0:
94,72,160576,1,0,0:0:0:0:
195,246,160726,1,0,0:0:0:0:
137,50,160876,1,0,0:0:0:0:
258,208,161026,1,0,0:0:0:0:
65,112,161176,1,0,0:0:0:0:
297,149,161326,1,0,0:0:0:0:
73,190,161476,1,0,0:0:0:0:
287,67,161626,1,0,0:0:0:0:
115,238,161776,1,0,0:0:0:0:
240,35,161926,1,0,0:0:0:0:
165,252,162076,1,0,0:0:0:0:
172,33,162226,1,0,0:0:0:0:
216,235,162376,1,0,0:0:0:0:
92,65,162526,1,0,0:0:0:0:
289,67,162676,1,0,0:0:0:0:
101,220,162826,1,0,0:0:0:0:
296,226,162976,1,0,0:0:0:0:
90,60,163126,1,0,0:0:0:0:
98,286,163276,1,0,0:0:0:0:
284,93,163426,1,0,0:0:0:0:
57,107,163576,1,0,0:0:0:0:
211,240,163726,1,0,0:0:0:0:
157,45,163876,1,0,0:0:0:0:
100,269,164026,1,0,0:0:0:0:
278,171,164176,1,0,0:0:0:0:
53,73,164326,1,0,0:0:0:0:
216,284,164476,1,0,0:0:0:0:
225,43,164626,1,0,0:0:0:0:
58,191,164776,1,0,0:0:0:0:
238,321,164926,1,0,0:0:0:0:
313,118,165076,1,0,0:0:0:0:
27,165,165226,1,0,0:0:0:0:
258,334,165376,1,0,0:0:0:0:
467,158,165526,1,0,0:0:0:0:
205,37,165676,5,0,0:0:0:0:
260,171,165826,1,0,0:0:0:0:
292,33,165976,1,0,0:0:0:0:
320,200,166126,1,0,0:0:0:0:
417,46,166276,1,0,0:0:0:0:
360,231,166426,1,0,0:0:0:0:
485,106,166576,1,0,0:0:0:0:
429,251,166726,1,0,0:0:0:0:
410,80,166876,1,0,0:0:0:0:
346,250,167026,1,0,0:0:0:0:
255,75,167176,1,0,0:0:0:0:
277,283,167326,1,0,0:0:0:0:
161,96,167476,1,0,0:0:0:0:
212,282,167626,1,0,0:0:0:0:
71,107,167776,1,0,0:0:0:0:
83,309,167926,1,0,0:0:0:0:
198,140,168076,1,0,0:0:0:0:
34,225,168226,1,0,0:0:0:0:
258,218,168376,1,0,0:0:0:0:
36,122,168526,1,0,0:0:0:0:
285,140,168676,1,0,0:0:0:0:
53,81,168826,1,0,0:0:0:0:
289,88,168976,1,0,0:0:0:0:
135,73,169126,1,0,0:0:0:0:
365,57,169276,1,0,0:0:0:0:
178,19,169426,1,0,0:0:0:0:
357,121,169576,1,0,0:0:0:0:
238,18,169726,1,0,0:0:0:0:
318,190,169876,1,0,0:0:0:0:
290,15,170026,1,0,0:0:0:0:
370,185,170176,1,0,0:0:0:0:
362,22,170326,1,0,0:0:0:0:
456,211,170476,1,0,0:0:0:0:
370,344,170626,1,0,0:0:0:0:
297,197,170776,1,0,0:0:0:0:
447,206,170926,1,0,0:0:0:0:
349,341,171076,1,0,0:0:0:0:
243,200,171226,1,0,0:0:0:0:
431,220,171376,1,0,0:0:0:0:
294,360,171526,1,0,0:0:0:0:
246,167,171676,1,0,0:0:0:0:
445,216,171826,1,0,0:0:0:0:
240,332,171976,1,0,0:0:0:0:
226,120,172126,1,0,0:0:0:0:
444,202,172276,1,0,0:0:0:0:
209,328,172426,1,0,0:0:0:0:
260,101,172576,1,0,0:0:0:0:
424,195,172726,1,0,0:0:0:0:
205,255,172876,1,0,0:0:0:0:
353,112,173026,1,0,0:0:0:0:
334,303,173176,1,0,0:0:0:0:
223,167,173326,1,0,0:0:0:0:
426,209,173476,1,0,0:0:0:0:
251,305,173626,1,0,0:0:0:0:
363,140,173776,1,0,0:0:0:0:
363,303,173926,1,0,0:0:0:0:
225,216,174076,1,0,0:0:0:0:
448,160,174226,1,0,0:0:0:0:
240,323,174376,1,0,0:0:0:0:
222,78,174526,1,0,0:0:0:0:
443,121,174676,1,0,0:0:0:0:
272,314,174826,1,0,0:0:0:0:
117,67,174976,1,0,0:0:0:0:
467,39,175126,1,0,0:0:0:0:
64,335,175276,5,0,0:0:0:0:
213,29,175426,1,0,0:0:0:0:
400,331,175576,1,0,0:0:0:0:
34,169,175726,1,0,0:0:0:0:
370,35,175876,1,0,0:0:0:0:
253,338,176026,1,0,0:0:0:0:
68,42,176176,1,0,0:0:0:0:
437,104,176326,1,0,0:0:0:0:
91,347,176476,1,0,0:0:0:0:
265,31,176626,1,0,0:0:0:0:
459,346,176776,1,0,0:0:0:0:
47,116,176926,1,0,0:0:0:0:
430,42,177076,1,0,0:0:0:0:
373,356,177226,1,0,0:0:0:0:
254,31,177376,1,0,0:0:0:0:
123,347,177526,1,0,0:0:0:0:
355,32,177676,1,0,0:0:0:0:
452,356,177826,1,0,0:0:0:0:
225,29,177976,1,0,0:0:0:0:
51,353,178126,1,0,0:0:0:0:
355,27,178276,1,0,0:0:0:0:
440,357,178426,1,0,0:0:0:0:
37,237,178576,1,0,0:0:0:0:
390,27,178726,1,0,0:0:0:0:
462,354,178876,1,0,0:0:0:0:
30,165,179026,1,0,0:0:0:0:
347,23,179176,1,0,0:0:0:0:
226,353,179326,1,0,0:0:0:0:
25,35,179476,1,0,0:0:0:0:
484,105,179626,1,0,0:0:0:0:
71,349,179776,1,0,0:0:0:0:
172,21,179926,1,0,0:0:0:0:
483,357,180076,1,0,0:0:0:0:
37,343,180226,1,0,0:0:0:0:
74,28,180376,1,0,0:0:0:0:
462,94,180526,1,0,0:0:0:0:
449,349,180676,1,0,0:0:0:0:
28,314,180826,1,0,0:0:0:0:
85,34,180976,1,0,0:0:0:0:
470,46,181126,1,0,0:0:0:0:
397,332,181276,1,0,0:0:0:0:
45,298,181426,1,0,0:0:0:0:
280,31,181576,1,0,0:0:0:0:
471,292,181726,1,0,0:0:0:0:
54,301,181876,1,0,0:0:0:0:
504,174,182026,1,0,0:0:0:0:
74,356,182176,1,0,0:0:0:0:
494,38,182326,1,0,0:0:0:0:
144,376,182476,1,0,0:0:0:0:
400,0,182626,1,0,0:0:0:0:
243,384,182776,1,0,0:0:0:0:
173,0,182926,1,0,0:0:0:0:
510,384,183076,1,0,0:0:0:0:
19,320,183226,1,0,0:0:0:0:
505,68,183376,1,0,0:0:0:0:
231,376,183526,1,0,0:0:0:0:
88,15,183676,1,0,0:0:0:0:
470,259,183826,1,0,0:0:0:0:
0,355,183976,1,0,0:0:0:0:
247,20,184126,1,0,0:0:0:0:
283,383,184276,1,0,0:0:0:0:
0,0,184426,1,0,0:0:0:0:
512,0,184576,1,0,0:0:0:0:
0,384,184726,1,0,0:0:0:0:
512,384,184876,1,0,0:0:0:0:
0,0,185026,1,0,0:0:0:0:
512,0,185176,1,0,0:0:0:0:
0,384,185326,1,0,0:0:0:0:
512,384,185476,1,0,0:0:0:0:
0,0,185626,1,0,0:0:0:0:
512,0,185776,1,0,0:0:0:0:
0,384,185926,1,0,0:0:0:0:
512,384,186076,1,0,0:0:0:0:
0,0,186226,1,0,0:0:0:0:
512,0,186376,1,0,0:0:0:0:
0,384,186526,1,0,0:0:0:0:
512,384,186676,1,0,0:0:0:0:
0,0,186826,1,0,0:0:0:0:
0,384,186976,1,0,0:0:0:0:
512,0,187126,1,0,0:0:0:0:
512,384,187276,1,0,0:0:0:0:
0,0,187426,1,0,0:0:0:0:
0,384,187576,1,0,0:0:0:0:
512,0,187726,1,0,0:0:0:0:
512,384,187876,1,0,0:0:0:0:
0,0,188026,1,0,0:0:0:0:
0,384,188176,1,0,0:0:0:0:
512,0,188326,1,0,0:0:0:0:
512,384,188476,1,0,0:0:0:0:
0,0,188626,1,0,0:0:0:0:
0,384,188776,1,0,0:0:0:0:
512,0,188926,1,0,0:0:0:0:
512,384,189076,1,0,0:0:0:0:
0,384,189226,1,0,0:0:0:0:
0,0,189376,1,0,0:0:0:0:
512,0,189526,1,0,0:0:0:0:
512,384,189676,1,0,0:0:0:0:
0,384,189826,1,0,0:0:0:0:
0,0,189976,1,0,0:0:0:0:
512,0,190126,1,0,0:0:0:0:
512,384,190276,1,0,0:0:0:0:
0,384,190426,1,0,0:0:0:0:
0,0,190576,1,0,0:0:0:0:
512,0,190726,1,0,0:0:0:0:
512,384,190876,1,0,0:0:0:0:
0,384,191026,1,0,0:0:0:0:
0,0,191176,1,0,0:0:0:0:
512,0,191326,1,0,0:0:0:0:
512,384,191476,1,0,0:0:0:0:
0,384,191626,1,0,0:0:0:0:
0,0,191776,1,0,0:0:0:0:
512,0,191926,1,0,0:0:0:0:
512,384,192076,1,0,0:0:0:0:
0,384,192226,1,0,0:0:0:0:
0,0,192376,1,0,0:0:0:0:
512,0,192526,1,0,0:0:0:0:
512,384,192676,1,0,0:0:0:0:
0,384,192826,1,0,0:0:0:0:
0,0,192976,1,0,0:0:0:0:
512,0,193126,1,0,0:0:0:0:
512,384,193276,1,0,0:0:0:0:
0,384,193426,1,0,0:0:0:0:
0,0,193576,1,0,0:0:0:0:
512,0,193726,1,0,0:0:0:0:
512,384,193876,1,0,0:0:0:0:
0,384,194026,1,0,0:0:0:0:
0,0,194176,1,0,0:0:0:0:
512,0,194326,1,0,0:0:0:0:
512,384,194476,5,0,0:0:0:0:
