osu file format v14

[General]
AudioFilename: audio.mp3
AudioLeadIn: 0
PreviewTime: 156105
Countdown: 0
SampleSet: Soft
StackLeniency: 0.7
Mode: 3
LetterboxInBreaks: 0
SpecialStyle: 0
WidescreenStoryboard: 1

[Editor]
Bookmarks: 38482,136882,194482,213682,252082,271282
DistanceSpacing: 0.8
BeatDivisor: 6
GridSize: 32
TimelineZoom: 1.8

[Metadata]
Title:cheatreal
TitleUnicode:cheatreal
Artist:t+pazolite
ArtistUnicode:t+pazolite
Creator:DragonLazer
Version:EX
Source:
Tags:electronic hardcore tano*c j-core jcore english instrumental 浜田知幸 Hamada Tomoyuki tpaz Answer From X-Girlz CHS-0011 M3 2012 Spring M3-2012春 M3-29 Cutie & Headshaking Sounds C.H.S js jumpstream marathon stamina featured artist fa mappers' guild mpg mg
BeatmapID:4522137
BeatmapSetID:1979588

[Difficulty]
HPDrainRate:8
CircleSize:4
OverallDifficulty:8.5
ApproachRate:5
SliderMultiplier:1.4
SliderTickRate:1

[Events]
//Background and Video events
0,0,"70039796_p0.jpg",0,0
//Break Periods
//Storyboard Layer 0 (Background)
//Storyboard Layer 1 (Fail)
//Storyboard Layer 2 (Pass)
//Storyboard Layer 3 (Foreground)
//Storyboard Layer 4 (Overlay)
//Storyboard Sound Samples
Sample,16980,0,"909 SNARE.wav",50
Sample,17580,0,"909 SNARE.wav",50
Sample,37680,0,"909 SNARE.wav",50
Sample,37980,0,"909 SNARE.wav",50
Sample,38280,0,"909 SNARE.wav",50
Sample,86280,0,"CLAP.wav",70
Sample,86880,0,"CLAP.wav",70
Sample,87030,0,"CH.wav",70
Sample,87480,0,"CLAP.wav",70
Sample,87630,0,"CH.wav",70
Sample,88080,0,"CLAP.wav",70
Sample,88230,0,"CH.wav",70
Sample,88530,0,"CH.wav",70
Sample,88830,0,"CH.wav",70
Sample,89280,0,"CLAP.wav",70
Sample,89430,0,"CH.wav",70
Sample,89880,0,"CLAP.wav",70
Sample,90030,0,"CH.wav",70
Sample,90480,0,"CLAP.wav",70
Sample,90630,0,"CH.wav",70
Sample,90930,0,"CH.wav",70
Sample,91080,0,"CLAP.wav",70
Sample,91230,0,"CH.wav",70
Sample,93780,0,"909 SNARE.wav",50
Sample,94080,0,"909 SNARE.wav",50
Sample,94380,0,"909 SNARE.wav",50
Sample,94680,0,"909 SNARE.wav",50
Sample,94980,0,"909 SNARE.wav",50
Sample,95280,0,"909 SNARE.wav",50
Sample,95580,0,"909 SNARE.wav",50
Sample,95880,0,"909 SNARE.wav",50
Sample,99480,0,"SNARE.wav",70
Sample,100680,0,"SNARE.wav",70
Sample,101880,0,"SNARE.wav",70
Sample,102480,0,"SNARE.wav",70
Sample,104280,0,"SNARE.wav",70
Sample,105480,0,"SNARE.wav",70
Sample,106680,0,"SNARE.wav",70
Sample,107280,0,"SNARE.wav",70
Sample,109080,0,"SNARE.wav",70
Sample,110280,0,"SNARE.wav",70
Sample,111480,0,"SNARE.wav",70
Sample,112080,0,"SNARE.wav",70
Sample,113880,0,"SNARE.wav",70
Sample,115080,0,"SNARE.wav",70
Sample,116280,0,"SNARE.wav",70
Sample,116880,0,"SNARE.wav",70
Sample,118680,0,"SNARE.wav",70
Sample,119880,0,"SNARE.wav",70
Sample,121080,0,"SNARE.wav",70
Sample,121680,0,"SNARE.wav",70
Sample,123480,0,"SNARE.wav",70
Sample,124680,0,"SNARE.wav",70
Sample,125880,0,"SNARE.wav",70
Sample,126480,0,"SNARE.wav",70
Sample,128280,0,"SNARE.wav",70
Sample,129480,0,"SNARE.wav",70
Sample,130680,0,"SNARE.wav",70
Sample,131280,0,"SNARE.wav",70
Sample,133080,0,"SNARE.wav",70
Sample,134280,0,"SNARE.wav",70
Sample,135480,0,"SNARE.wav",70
Sample,149130,0,"CH.wav",70
Sample,150330,0,"CH.wav",70
Sample,151230,0,"CH.wav",70
Sample,175230,0,"CH.wav",70
Sample,214680,0,"SNARE.wav",70
Sample,215880,0,"SNARE.wav",70
Sample,217080,0,"SNARE.wav",70
Sample,217680,0,"SNARE.wav",70
Sample,219480,0,"SNARE.wav",70
Sample,220680,0,"SNARE.wav",70
Sample,221880,0,"SNARE.wav",70
Sample,222480,0,"SNARE.wav",70
Sample,224280,0,"SNARE.wav",70
Sample,225480,0,"SNARE.wav",70
Sample,226680,0,"SNARE.wav",70
Sample,227280,0,"SNARE.wav",70
Sample,229080,0,"SNARE.wav",70
Sample,230280,0,"SNARE.wav",70
Sample,231480,0,"SNARE.wav",70
Sample,232080,0,"SNARE.wav",70
Sample,233880,0,"SNARE.wav",70
Sample,235080,0,"SNARE.wav",70
Sample,236280,0,"SNARE.wav",70
Sample,236880,0,"SNARE.wav",70
Sample,238680,0,"SNARE.wav",70
Sample,239880,0,"SNARE.wav",70
Sample,241080,0,"SNARE.wav",70
Sample,241680,0,"SNARE.wav",70
Sample,243480,0,"SNARE.wav",70
Sample,244680,0,"SNARE.wav",70
Sample,245880,0,"SNARE.wav",70
Sample,246480,0,"SNARE.wav",70
Sample,248280,0,"SNARE.wav",70
Sample,249480,0,"SNARE.wav",70
Sample,250680,0,"SNARE.wav",70
Sample,268980,0,"909 SNARE.wav",50
Sample,269280,0,"CLAP.wav",70
Sample,271080,0,"CLAP.wav",70
Sample,285480,0,"909 SNARE.wav",50

[TimingPoints]
180,300,4,2,1,60,1,0
39780,-100,4,2,1,30,0,0
41580,-100,4,2,1,35,0,0
43380,-100,4,2,1,40,0,0
48180,-100,4,2,1,50,0,0
98580,-100,4,2,1,60,0,1
136980,-100,4,2,1,60,0,0
156180,-100,4,2,1,60,0,1
174180,-100,4,2,1,60,0,0
175380,-100,4,2,1,60,0,1
194580,-100,4,2,1,60,0,0
213780,-100,4,2,1,60,0,1
252180,-100,4,2,1,60,0,0

[HitObjects]
192,192,180,5,0,0:0:0:70:CRASH.wav
448,192,180,1,0,0:0:0:65:KICK.wav
320,192,330,1,0,0:0:0:0:
64,192,480,1,0,0:0:0:65:KICK.wav
192,192,480,1,0,0:0:0:70:SNARE.wav
320,192,555,1,0,0:0:0:0:
448,192,630,1,0,0:0:0:0:
64,192,780,1,0,0:0:0:65:KICK.wav
448,192,780,1,0,0:0:0:0:
192,192,930,1,0,0:0:0:0:
320,192,1080,1,0,0:0:0:65:KICK.wav
448,192,1080,1,0,0:0:0:70:SNARE.wav
192,192,1155,1,0,0:0:0:0:
64,192,1230,1,0,0:0:0:0:
64,192,1380,1,0,0:0:0:0:
192,192,1455,1,0,0:0:0:0:
448,192,1605,1,0,0:0:0:0:
320,192,1680,1,0,0:0:0:0:
192,192,1830,1,0,0:0:0:0:
320,192,1905,1,0,0:0:0:0:
192,192,2055,1,0,0:0:0:0:
64,192,2130,1,0,0:0:0:0:
320,192,2280,1,0,0:0:0:0:
192,192,2430,1,0,0:0:0:0:
64,192,2580,1,0,0:0:0:70:CRASH.wav
320,192,2580,1,0,0:0:0:65:KICK.wav
448,192,2730,1,0,0:0:0:0:
192,192,2880,1,0,0:0:0:65:KICK.wav
320,192,2880,1,0,0:0:0:70:SNARE.wav
64,192,2955,1,0,0:0:0:0:
448,192,3030,1,0,0:0:0:0:
64,192,3180,1,0,0:0:0:65:KICK.wav
192,192,3180,1,0,0:0:0:0:
320,192,3330,1,0,0:0:0:0:
192,192,3480,1,0,0:0:0:65:KICK.wav
448,192,3480,1,0,0:0:0:70:SNARE.wav
64,192,3555,1,0,0:0:0:0:
320,192,3630,1,0,0:0:0:0:
192,192,3780,1,0,0:0:0:0:
320,192,3855,1,0,0:0:0:0:
448,192,4005,1,0,0:0:0:0:
320,192,4080,1,0,0:0:0:0:
64,192,4230,1,0,0:0:0:0:
192,192,4305,1,0,0:0:0:0:
448,192,4455,1,0,0:0:0:0:
320,192,4530,1,0,0:0:0:0:
192,192,4680,1,0,0:0:0:70:CRASH.wav
448,192,4680,1,0,0:0:0:70:TECH KICK.wav
64,192,4830,1,0,0:0:0:70:TECH KICK.wav
320,192,4830,1,0,0:0:0:0:
64,192,4980,1,0,0:0:0:70:CRASH.wav
192,192,4980,1,0,0:0:0:65:KICK.wav
448,192,5130,1,0,0:0:0:0:
192,192,5280,1,0,0:0:0:65:KICK.wav
320,192,5280,1,0,0:0:0:70:SNARE.wav
448,192,5355,1,0,0:0:0:0:
64,192,5430,1,0,0:0:0:0:
320,192,5580,1,0,0:0:0:65:KICK.wav
448,192,5580,1,0,0:0:0:0:
64,192,5730,1,0,0:0:0:0:
192,192,5880,1,0,0:0:0:65:KICK.wav
448,192,5880,1,0,0:0:0:70:SNARE.wav
64,192,5955,1,0,0:0:0:0:
320,192,6030,1,0,0:0:0:0:
64,192,6180,1,0,0:0:0:0:
192,192,6255,1,0,0:0:0:0:
448,192,6405,1,0,0:0:0:0:
320,192,6480,1,0,0:0:0:0:
192,192,6630,1,0,0:0:0:0:
320,192,6705,1,0,0:0:0:0:
192,192,6855,1,0,0:0:0:0:
64,192,6930,1,0,0:0:0:0:
320,192,7080,1,0,0:0:0:0:
192,192,7230,1,0,0:0:0:0:
64,192,7380,1,0,0:0:0:70:CRASH.wav
448,192,7380,1,0,0:0:0:65:KICK.wav
320,192,7530,1,0,0:0:0:0:
192,192,7680,1,0,0:0:0:65:KICK.wav
448,192,7680,1,0,0:0:0:70:SNARE.wav
64,192,7755,1,0,0:0:0:0:
320,192,7830,1,0,0:0:0:0:
64,192,7980,1,0,0:0:0:65:KICK.wav
192,192,7980,1,0,0:0:0:0:
448,192,8130,1,0,0:0:0:0:
64,192,8280,1,0,0:0:0:65:KICK.wav
320,192,8280,1,0,0:0:0:70:SNARE.wav
448,192,8355,1,0,0:0:0:0:
64,192,8430,1,0,0:0:0:0:
192,192,8580,1,0,0:0:0:0:
64,192,8655,1,0,0:0:0:0:
320,192,8805,1,0,0:0:0:0:
448,192,8880,1,0,0:0:0:0:
192,192,9030,1,0,0:0:0:0:
320,192,9105,1,0,0:0:0:0:
64,192,9180,1,0,0:0:0:70:TECH KICK.wav
192,192,9180,1,0,0:0:0:50:909 SNARE.wav
448,192,9255,1,0,0:0:0:0:
320,192,9330,1,0,0:0:0:0:
64,192,9480,1,0,0:0:0:70:TECH KICK.wav
192,192,9480,1,0,0:0:0:50:909 SNARE.wav
320,192,9630,1,0,0:0:0:70:TECH KICK.wav
448,192,9630,1,0,0:0:0:50:909 SNARE.wav
64,192,9780,1,0,0:0:0:70:CRASH.wav
192,192,9780,1,0,0:0:0:65:KICK.wav
448,192,9780,1,0,0:0:0:0:
320,192,9855,1,0,0:0:0:0:
192,192,9930,1,0,0:0:0:0:
448,192,10005,1,0,0:0:0:0:
64,192,10080,1,0,0:0:0:65:KICK.wav
320,192,10080,1,0,0:0:0:70:SNARE.wav
192,192,10155,1,0,0:0:0:0:
448,192,10230,1,0,0:0:0:0:
64,192,10305,1,0,0:0:0:70:OH.wav
192,192,10305,1,0,0:0:0:0:
320,192,10380,1,0,0:0:0:65:KICK.wav
448,192,10455,1,0,0:0:0:0:
192,192,10530,1,0,0:0:0:70:OH.wav
320,192,10530,1,0,0:0:0:0:
64,192,10605,1,0,0:0:0:0:
192,192,10680,1,0,0:0:0:65:KICK.wav
448,192,10680,1,0,0:0:0:70:SNARE.wav
320,192,10755,1,0,0:0:0:0:
64,192,10830,1,0,0:0:0:0:
192,192,10905,1,0,0:0:0:0:
320,192,10980,1,0,0:0:0:70:CRASH.wav
448,192,10980,1,0,0:0:0:65:KICK.wav
64,192,11055,1,0,0:0:0:0:
320,192,11130,1,0,0:0:0:0:
192,192,11205,1,0,0:0:0:0:
64,192,11280,1,0,0:0:0:65:KICK.wav
448,192,11280,1,0,0:0:0:70:SNARE.wav
320,192,11355,1,0,0:0:0:0:
192,192,11430,1,0,0:0:0:0:
64,192,11505,1,0,0:0:0:70:OH.wav
448,192,11505,1,0,0:0:0:0:
320,192,11580,1,0,0:0:0:65:KICK.wav
192,192,11655,1,0,0:0:0:0:
64,192,11730,1,0,0:0:0:70:OH.wav
448,192,11730,1,0,0:0:0:0:
320,192,11805,1,0,0:0:0:0:
64,192,11880,1,0,0:0:0:65:KICK.wav
192,192,11880,1,0,0:0:0:70:SNARE.wav
448,192,11955,1,0,0:0:0:0:
192,192,12030,1,0,0:0:0:65:KICK.wav
320,192,12030,1,0,0:0:0:0:
64,192,12105,1,0,0:0:0:0:
320,192,12180,1,0,0:0:0:70:CRASH.wav
448,192,12180,1,0,0:0:0:65:KICK.wav
192,192,12255,1,0,0:0:0:0:
448,192,12330,1,0,0:0:0:0:
320,192,12405,1,0,0:0:0:0:
64,192,12480,1,0,0:0:0:65:KICK.wav
192,192,12480,1,0,0:0:0:70:SNARE.wav
448,192,12555,1,0,0:0:0:0:
192,192,12630,1,0,0:0:0:0:
64,192,12705,1,0,0:0:0:70:OH.wav
320,192,12705,1,0,0:0:0:0:
448,192,12780,1,0,0:0:0:65:KICK.wav
192,192,12855,1,0,0:0:0:0:
320,192,12930,1,0,0:0:0:70:OH.wav
448,192,12930,1,0,0:0:0:0:
64,192,13005,1,0,0:0:0:0:
192,192,13080,1,0,0:0:0:65:KICK.wav
320,192,13080,1,0,0:0:0:70:SNARE.wav
448,192,13155,1,0,0:0:0:0:
64,192,13230,1,0,0:0:0:0:
192,192,13305,1,0,0:0:0:0:
320,192,13380,1,0,0:0:0:70:CRASH.wav
448,192,13380,1,0,0:0:0:65:KICK.wav
64,192,13455,1,0,0:0:0:0:
192,192,13530,1,0,0:0:0:0:
448,192,13605,1,0,0:0:0:0:
64,192,13680,1,0,0:0:0:65:KICK.wav
320,192,13680,1,0,0:0:0:70:SNARE.wav
192,192,13755,1,0,0:0:0:0:
448,192,13830,1,0,0:0:0:0:
64,192,13905,1,0,0:0:0:70:OH.wav
320,192,13905,1,0,0:0:0:0:
192,192,13980,1,0,0:0:0:65:KICK.wav
448,192,14055,1,0,0:0:0:0:
64,192,14130,1,0,0:0:0:70:OH.wav
192,192,14130,1,0,0:0:0:0:
320,192,14205,1,0,0:0:0:70:SNARE.wav
448,192,14205,1,0,0:0:0:0:
64,192,14280,1,0,0:0:0:65:KICK.wav
192,192,14280,1,0,0:0:0:70:SNARE.wav
192,192,14430,1,0,0:0:0:65:KICK.wav
320,192,14430,1,0,0:0:0:0:
320,192,14580,1,0,0:0:0:70:CRASH.wav
448,192,14580,1,0,0:0:0:65:KICK.wav
64,192,14655,1,0,0:0:0:0:
448,192,14730,1,0,0:0:0:0:
64,192,14805,1,0,0:0:0:70:SNARE.wav
192,192,14880,1,0,0:0:0:65:KICK.wav
320,192,14880,1,0,0:0:0:70:SNARE.wav
448,192,14955,1,0,0:0:0:0:
320,192,15030,1,0,0:0:0:70:SNARE.wav
64,192,15105,1,0,0:0:0:0:
192,192,15180,1,0,0:0:0:65:KICK.wav
320,192,15180,1,0,0:0:0:0:
448,192,15255,1,0,0:0:0:0:
64,192,15330,1,0,0:0:0:0:
448,192,15405,1,0,0:0:0:70:SNARE.wav
192,192,15480,1,0,0:0:0:65:KICK.wav
320,192,15480,1,0,0:0:0:70:SNARE.wav
64,192,15555,1,0,0:0:0:0:
192,192,15630,1,0,0:0:0:70:SNARE.wav
448,192,15705,1,0,0:0:0:0:
192,192,15780,1,0,0:0:0:70:CRASH.wav
320,192,15780,1,0,0:0:0:65:KICK.wav
64,192,15855,1,0,0:0:0:0:
448,192,15930,1,0,0:0:0:0:
64,192,16005,1,0,0:0:0:70:SNARE.wav
192,192,16080,1,0,0:0:0:65:KICK.wav
320,192,16080,1,0,0:0:0:70:SNARE.wav
448,192,16155,1,0,0:0:0:0:
320,192,16230,1,0,0:0:0:70:SNARE.wav
64,192,16305,1,0,0:0:0:0:
192,192,16380,1,0,0:0:0:65:KICK.wav
320,192,16380,1,0,0:0:0:0:
448,192,16455,1,0,0:0:0:0:
64,192,16530,1,0,0:0:0:70:SNARE.wav
448,192,16605,1,0,0:0:0:0:
192,192,16680,1,0,0:0:0:65:KICK.wav
320,192,16680,1,0,0:0:0:70:SNARE.wav
64,192,16755,1,0,0:0:0:0:
192,192,16830,1,0,0:0:0:70:SNARE.wav
448,192,16830,1,0,0:0:0:0:
320,192,16905,1,0,0:0:0:70:SNARE.wav
64,192,16980,1,0,0:0:0:70:CRASH.wav
192,192,16980,1,0,0:0:0:70:TECH KICK.wav
320,192,17130,1,0,0:0:0:70:TECH KICK.wav
448,192,17130,1,0,0:0:0:50:909 SNARE.wav
64,192,17205,1,0,0:0:0:50:909 SNARE.wav
192,192,17205,1,0,0:0:0:0:
320,192,17280,1,0,0:0:0:70:TECH KICK.wav
448,192,17280,1,0,0:0:0:50:909 SNARE.wav
64,192,17430,1,0,0:0:0:70:TECH KICK.wav
192,192,17430,1,0,0:0:0:50:909 SNARE.wav
320,192,17505,1,0,0:0:0:50:909 SNARE.wav
448,192,17505,1,0,0:0:0:0:
64,192,17580,1,0,0:0:0:70:CRASH.wav
192,192,17580,1,0,0:0:0:70:TECH KICK.wav
320,192,17730,1,0,0:0:0:70:TECH KICK.wav
448,192,17730,1,0,0:0:0:50:909 SNARE.wav
64,192,17805,1,0,0:0:0:50:909 SNARE.wav
192,192,17805,1,0,0:0:0:0:
320,192,17880,1,0,0:0:0:70:TECH KICK.wav
448,192,17880,1,0,0:0:0:50:909 SNARE.wav
64,192,18030,1,0,0:0:0:70:TECH KICK.wav
192,192,18030,1,0,0:0:0:50:909 SNARE.wav
320,192,18180,1,0,0:0:0:70:CRASH.wav
448,192,18180,1,0,0:0:0:70:TECH KICK.wav
320,192,18330,128,0,18480:0:0:0:0:
448,192,18330,128,0,18480:0:0:0:0:
64,192,18480,1,0,0:0:0:70:CRASH.wav
192,192,18480,1,0,0:0:0:70:TECH KICK.wav
64,192,18630,128,0,18780:0:0:0:0:
192,192,18630,128,0,18780:0:0:0:0:
320,192,18780,1,0,0:0:0:70:CRASH.wav
448,192,18780,1,0,0:0:0:70:TECH KICK.wav
320,192,18930,128,0,19080:0:0:0:0:
448,192,18930,128,0,19080:0:0:0:0:
64,192,19080,1,0,0:0:0:70:CRASH.wav
192,192,19080,1,0,0:0:0:70:TECH KICK.wav
64,192,19380,1,0,0:0:0:70:CRASH.wav
192,192,19380,1,0,0:0:0:65:KICK.wav
448,192,19380,1,0,0:0:0:0:
320,192,19455,1,0,0:0:0:0:
448,192,19530,1,0,0:0:0:0:
192,192,19605,1,0,0:0:0:0:
64,192,19680,1,0,0:0:0:65:KICK.wav
320,192,19680,1,0,0:0:0:70:SNARE.wav
448,192,19755,1,0,0:0:0:0:
64,192,19830,1,0,0:0:0:0:
192,192,19905,1,0,0:0:0:0:
320,192,19980,1,0,0:0:0:65:KICK.wav
448,192,19980,1,0,0:0:0:0:
64,192,20055,1,0,0:0:0:0:
192,192,20130,1,0,0:0:0:70:OH.wav
448,192,20130,1,0,0:0:0:0:
320,192,20205,1,0,0:0:0:0:
64,192,20280,1,0,0:0:0:65:KICK.wav
192,192,20280,1,0,0:0:0:70:SNARE.wav
320,192,20355,1,0,0:0:0:0:
192,192,20430,1,0,0:0:0:70:OH.wav
448,192,20430,1,0,0:0:0:0:
64,192,20505,1,0,0:0:0:0:
320,192,20580,1,0,0:0:0:70:CRASH.wav
448,192,20580,1,0,0:0:0:65:KICK.wav
192,192,20655,1,0,0:0:0:0:
64,192,20730,1,0,0:0:0:0:
448,192,20805,1,0,0:0:0:0:
192,192,20880,1,0,0:0:0:65:KICK.wav
320,192,20880,1,0,0:0:0:70:SNARE.wav
64,192,20955,1,0,0:0:0:0:
448,192,21030,1,0,0:0:0:0:
320,192,21105,1,0,0:0:0:0:
64,192,21180,1,0,0:0:0:65:KICK.wav
192,192,21180,1,0,0:0:0:0:
448,192,21255,1,0,0:0:0:0:
192,192,21330,1,0,0:0:0:70:OH.wav
320,192,21330,1,0,0:0:0:0:
64,192,21405,1,0,0:0:0:0:
320,192,21480,1,0,0:0:0:65:KICK.wav
448,192,21480,1,0,0:0:0:70:SNARE.wav
192,192,21555,1,0,0:0:0:0:
448,192,21630,1,0,0:0:0:0:
320,192,21705,1,0,0:0:0:0:
64,192,21780,1,0,0:0:0:70:CRASH.wav
192,192,21780,1,0,0:0:0:65:KICK.wav
448,192,21855,1,0,0:0:0:0:
320,192,21930,1,0,0:0:0:0:
192,192,22005,1,0,0:0:0:0:
64,192,22080,1,0,0:0:0:65:KICK.wav
448,192,22080,1,0,0:0:0:70:SNARE.wav
192,192,22155,1,0,0:0:0:0:
320,192,22230,1,0,0:0:0:0:
448,192,22305,1,0,0:0:0:0:
64,192,22380,1,0,0:0:0:65:KICK.wav
192,192,22380,1,0,0:0:0:0:
320,192,22455,1,0,0:0:0:0:
192,192,22530,1,0,0:0:0:70:OH.wav
448,192,22530,1,0,0:0:0:0:
320,192,22605,1,0,0:0:0:0:
64,192,22680,1,0,0:0:0:65:KICK.wav
448,192,22680,1,0,0:0:0:70:SNARE.wav
192,192,22755,1,0,0:0:0:0:
64,192,22830,1,0,0:0:0:70:OH.wav
320,192,22830,1,0,0:0:0:0:
448,192,22905,1,0,0:0:0:0:
192,192,22980,1,0,0:0:0:70:CRASH.wav
320,192,22980,1,0,0:0:0:65:KICK.wav
448,192,23055,1,0,0:0:0:0:
64,192,23130,1,0,0:0:0:70:OH.wav
192,192,23130,1,0,0:0:0:0:
320,192,23205,1,0,0:0:0:0:
64,192,23280,1,0,0:0:0:65:KICK.wav
448,192,23280,1,0,0:0:0:70:SNARE.wav
192,192,23355,1,0,0:0:0:0:
320,192,23430,1,0,0:0:0:70:OH.wav
448,192,23430,1,0,0:0:0:0:
64,192,23505,1,0,0:0:0:0:
320,192,23580,1,0,0:0:0:70:TECH KICK.wav
448,192,23580,1,0,0:0:0:50:909 SNARE.wav
64,192,23655,1,0,0:0:0:70:TECH KICK.wav
192,192,23655,1,0,0:0:0:50:909 SNARE.wav
320,192,23730,1,0,0:0:0:0:
64,192,23805,1,0,0:0:0:70:TECH KICK.wav
192,192,23805,1,0,0:0:0:50:909 SNARE.wav
320,192,23880,1,0,0:0:0:65:KICK.wav
448,192,23880,1,0,0:0:0:70:SNARE.wav
192,192,23955,1,0,0:0:0:0:
64,192,24030,1,0,0:0:0:65:KICK.wav
320,192,24030,1,0,0:0:0:0:
448,192,24105,1,0,0:0:0:0:
64,192,24180,1,0,0:0:0:70:CRASH.wav
192,192,24180,1,0,0:0:0:65:KICK.wav
320,192,24255,1,0,0:0:0:0:
448,192,24330,1,0,0:0:0:0:
64,192,24405,1,0,0:0:0:0:
192,192,24480,1,0,0:0:0:65:KICK.wav
320,192,24480,1,0,0:0:0:70:SNARE.wav
448,192,24555,1,0,0:0:0:0:
320,192,24630,1,0,0:0:0:0:
192,192,24705,1,0,0:0:0:0:
320,192,24780,1,0,0:0:0:65:KICK.wav
448,192,24780,1,0,0:0:0:0:
64,192,24855,1,0,0:0:0:0:
320,192,24930,1,0,0:0:0:70:OH.wav
448,192,24930,1,0,0:0:0:0:
192,192,25005,1,0,0:0:0:0:
64,192,25080,1,0,0:0:0:65:KICK.wav
320,192,25080,1,0,0:0:0:70:SNARE.wav
448,192,25155,1,0,0:0:0:0:
64,192,25230,1,0,0:0:0:70:OH.wav
192,192,25230,1,0,0:0:0:0:
320,192,25305,1,0,0:0:0:0:
64,192,25380,1,0,0:0:0:70:CRASH.wav
448,192,25380,1,0,0:0:0:65:KICK.wav
320,192,25455,1,0,0:0:0:0:
192,192,25530,1,0,0:0:0:0:
64,192,25605,1,0,0:0:0:0:
320,192,25680,1,0,0:0:0:65:KICK.wav
448,192,25680,1,0,0:0:0:70:SNARE.wav
192,192,25755,1,0,0:0:0:0:
320,192,25830,1,0,0:0:0:0:
448,192,25905,1,0,0:0:0:0:
64,192,25980,1,0,0:0:0:65:KICK.wav
192,192,25980,1,0,0:0:0:0:
320,192,26055,1,0,0:0:0:0:
192,192,26130,1,0,0:0:0:70:OH.wav
448,192,26130,1,0,0:0:0:0:
64,192,26205,1,0,0:0:0:0:
320,192,26280,1,0,0:0:0:65:KICK.wav
448,192,26280,1,0,0:0:0:70:SNARE.wav
192,192,26355,1,0,0:0:0:0:
64,192,26430,1,0,0:0:0:0:
448,192,26505,1,0,0:0:0:0:
64,192,26580,1,0,0:0:0:70:CRASH.wav
192,192,26580,1,0,0:0:0:65:KICK.wav
320,192,26655,1,0,0:0:0:0:
448,192,26730,1,0,0:0:0:0:
192,192,26805,1,0,0:0:0:0:
64,192,26880,1,0,0:0:0:65:KICK.wav
448,192,26880,1,0,0:0:0:70:SNARE.wav
320,192,26955,1,0,0:0:0:0:
192,192,27030,1,0,0:0:0:0:
448,192,27105,1,0,0:0:0:0:
64,192,27180,1,0,0:0:0:65:KICK.wav
192,192,27180,1,0,0:0:0:0:
320,192,27255,1,0,0:0:0:0:
64,192,27330,1,0,0:0:0:70:OH.wav
192,192,27330,1,0,0:0:0:0:
448,192,27405,1,0,0:0:0:0:
64,192,27480,1,0,0:0:0:65:KICK.wav
192,192,27480,1,0,0:0:0:70:SNARE.wav
320,192,27555,1,0,0:0:0:0:
64,192,27630,1,0,0:0:0:70:OH.wav
192,192,27630,1,0,0:0:0:0:
448,192,27705,1,0,0:0:0:0:
192,192,27780,1,0,0:0:0:70:CRASH.wav
320,192,27780,1,0,0:0:0:65:KICK.wav
64,192,27855,1,0,0:0:0:0:
320,192,27930,1,0,0:0:0:0:
448,192,28005,1,0,0:0:0:0:
64,192,28080,1,0,0:0:0:65:KICK.wav
192,192,28080,1,0,0:0:0:70:SNARE.wav
320,192,28155,1,0,0:0:0:0:
448,192,28230,1,0,0:0:0:0:
192,192,28305,1,0,0:0:0:0:
64,192,28380,1,0,0:0:0:65:KICK.wav
320,192,28380,1,0,0:0:0:0:
448,192,28455,1,0,0:0:0:0:
192,192,28530,1,0,0:0:0:70:OH.wav
320,192,28530,1,0,0:0:0:0:
64,192,28605,1,0,0:0:0:0:
192,192,28680,1,0,0:0:0:65:KICK.wav
448,192,28680,1,0,0:0:0:70:SNARE.wav
320,192,28755,1,0,0:0:0:0:
64,192,28830,1,0,0:0:0:65:KICK.wav
448,192,28830,1,0,0:0:0:0:
192,192,28905,1,0,0:0:0:0:
64,192,28980,1,0,0:0:0:70:CRASH.wav
320,192,28980,1,0,0:0:0:65:KICK.wav
448,192,28980,1,0,0:0:0:0:
192,192,29055,1,0,0:0:0:0:
448,192,29130,1,0,0:0:0:0:
320,192,29205,1,0,0:0:0:0:
64,192,29280,1,0,0:0:0:65:KICK.wav
192,192,29280,1,0,0:0:0:70:SNARE.wav
320,192,29355,1,0,0:0:0:0:
448,192,29430,1,0,0:0:0:0:
64,192,29505,1,0,0:0:0:0:
192,192,29580,1,0,0:0:0:65:KICK.wav
448,192,29580,1,0,0:0:0:0:
320,192,29655,1,0,0:0:0:0:
64,192,29730,1,0,0:0:0:70:OH.wav
192,192,29730,1,0,0:0:0:0:
448,192,29805,1,0,0:0:0:0:
64,192,29880,1,0,0:0:0:65:KICK.wav
320,192,29880,1,0,0:0:0:70:SNARE.wav
192,192,29955,1,0,0:0:0:0:
320,192,30030,1,0,0:0:0:70:OH.wav
448,192,30030,1,0,0:0:0:0:
64,192,30105,1,0,0:0:0:0:
192,192,30180,1,0,0:0:0:70:CRASH.wav
448,192,30180,1,0,0:0:0:65:KICK.wav
320,192,30255,1,0,0:0:0:0:
64,192,30330,1,0,0:0:0:0:
192,192,30405,1,0,0:0:0:0:
320,192,30480,1,0,0:0:0:65:KICK.wav
448,192,30480,1,0,0:0:0:70:SNARE.wav
64,192,30555,1,0,0:0:0:0:
192,192,30630,1,0,0:0:0:0:
320,192,30705,1,0,0:0:0:0:
64,192,30780,1,0,0:0:0:65:KICK.wav
448,192,30780,1,0,0:0:0:0:
192,192,30855,1,0,0:0:0:0:
320,192,30930,1,0,0:0:0:70:OH.wav
448,192,30930,1,0,0:0:0:0:
64,192,31005,1,0,0:0:0:0:
192,192,31080,1,0,0:0:0:65:KICK.wav
320,192,31080,1,0,0:0:0:70:SNARE.wav
448,192,31155,1,0,0:0:0:0:
64,192,31230,1,0,0:0:0:0:
192,192,31305,1,0,0:0:0:0:
320,192,31380,1,0,0:0:0:70:CRASH.wav
448,192,31380,1,0,0:0:0:65:KICK.wav
64,192,31455,1,0,0:0:0:0:
192,192,31530,1,0,0:0:0:0:
448,192,31605,1,0,0:0:0:0:
64,192,31680,1,0,0:0:0:65:KICK.wav
320,192,31680,1,0,0:0:0:70:SNARE.wav
192,192,31755,1,0,0:0:0:0:
320,192,31830,1,0,0:0:0:0:
64,192,31905,1,0,0:0:0:0:
192,192,31980,1,0,0:0:0:65:KICK.wav
448,192,31980,1,0,0:0:0:0:
320,192,32055,1,0,0:0:0:0:
64,192,32130,1,0,0:0:0:70:OH.wav
192,192,32130,1,0,0:0:0:0:
320,192,32205,1,0,0:0:0:0:
64,192,32280,1,0,0:0:0:65:KICK.wav
448,192,32280,1,0,0:0:0:70:SNARE.wav
192,192,32355,1,0,0:0:0:0:
64,192,32430,1,0,0:0:0:70:OH.wav
320,192,32430,1,0,0:0:0:0:
448,192,32505,1,0,0:0:0:0:
192,192,32580,1,0,0:0:0:70:CRASH.wav
320,192,32580,1,0,0:0:0:65:KICK.wav
64,192,32655,1,0,0:0:0:0:
192,192,32730,1,0,0:0:0:70:OH.wav
448,192,32730,1,0,0:0:0:0:
320,192,32805,1,0,0:0:0:0:
64,192,32880,1,0,0:0:0:65:KICK.wav
448,192,32880,1,0,0:0:0:70:SNARE.wav
192,192,32955,1,0,0:0:0:0:
64,192,33030,1,0,0:0:0:70:OH.wav
320,192,33030,1,0,0:0:0:0:
192,192,33105,1,0,0:0:0:0:
320,192,33180,1,0,0:0:0:70:TECH KICK.wav
448,192,33180,1,0,0:0:0:50:909 SNARE.wav
64,192,33255,1,0,0:0:0:70:TECH KICK.wav
192,192,33255,1,0,0:0:0:50:909 SNARE.wav
448,192,33330,1,0,0:0:0:0:
64,192,33405,1,0,0:0:0:70:TECH KICK.wav
192,192,33405,1,0,0:0:0:50:909 SNARE.wav
320,192,33480,1,0,0:0:0:65:KICK.wav
448,192,33480,1,0,0:0:0:70:SNARE.wav
64,192,33555,1,0,0:0:0:0:
192,192,33630,1,0,0:0:0:65:KICK.wav
320,192,33630,1,0,0:0:0:0:
448,192,33705,1,0,0:0:0:0:
64,192,33780,1,0,0:0:0:70:CRASH.wav
192,192,33780,1,0,0:0:0:65:KICK.wav
320,192,33855,1,0,0:0:0:0:
448,192,33930,1,0,0:0:0:0:
64,192,34005,1,0,0:0:0:0:
192,192,34080,1,0,0:0:0:65:KICK.wav
320,192,34080,1,0,0:0:0:70:SNARE.wav
448,192,34155,1,0,0:0:0:0:
64,192,34230,1,0,0:0:0:0:
192,192,34305,1,0,0:0:0:0:
320,192,34380,1,0,0:0:0:65:KICK.wav
448,192,34380,1,0,0:0:0:0:
64,192,34455,1,0,0:0:0:0:
192,192,34530,1,0,0:0:0:70:OH.wav
320,192,34530,1,0,0:0:0:0:
448,192,34605,1,0,0:0:0:0:
64,192,34680,1,0,0:0:0:65:KICK.wav
192,192,34680,1,0,0:0:0:70:SNARE.wav
320,192,34755,1,0,0:0:0:0:
64,192,34830,1,0,0:0:0:0:
448,192,34830,1,0,0:0:0:0:
192,192,34905,1,0,0:0:0:0:
320,192,34980,1,0,0:0:0:70:CRASH.wav
448,192,34980,1,0,0:0:0:65:KICK.wav
64,192,35055,1,0,0:0:0:0:
192,192,35130,1,0,0:0:0:0:
320,192,35205,1,0,0:0:0:0:
64,192,35280,1,0,0:0:0:65:KICK.wav
448,192,35280,1,0,0:0:0:70:SNARE.wav
192,192,35355,1,0,0:0:0:0:
320,192,35430,1,0,0:0:0:0:
64,192,35505,1,0,0:0:0:0:
320,192,35580,1,0,0:0:0:65:KICK.wav
448,192,35580,1,0,0:0:0:0:
192,192,35655,1,0,0:0:0:0:
64,192,35730,1,0,0:0:0:70:OH.wav
448,192,35730,1,0,0:0:0:0:
320,192,35805,1,0,0:0:0:0:
64,192,35880,1,0,0:0:0:65:KICK.wav
192,192,35880,1,0,0:0:0:70:SNARE.wav
320,192,35955,1,0,0:0:0:0:
448,192,36030,1,0,0:0:0:0:
64,192,36105,1,0,0:0:0:0:
192,192,36180,1,0,0:0:0:70:CRASH.wav
320,192,36180,1,0,0:0:0:70:TECH KICK.wav
448,192,36180,1,0,0:0:0:50:909 SNARE.wav
64,192,36255,1,0,0:0:0:0:
192,192,36330,1,0,0:0:0:70:TECH KICK.wav
448,192,36330,1,0,0:0:0:50:909 SNARE.wav
320,192,36405,1,0,0:0:0:0:
64,192,36480,1,0,0:0:0:70:TECH KICK.wav
192,192,36480,1,0,0:0:0:50:909 SNARE.wav
448,192,36555,1,0,0:0:0:0:
64,192,36630,1,0,0:0:0:70:TECH KICK.wav
320,192,36630,1,0,0:0:0:50:909 SNARE.wav
192,192,36705,1,0,0:0:0:0:
64,192,36780,1,0,0:0:0:70:CRASH.wav
320,192,36780,1,0,0:0:0:70:TECH KICK.wav
448,192,36780,1,0,0:0:0:50:909 SNARE.wav
192,192,36855,1,0,0:0:0:0:
320,192,36930,1,0,0:0:0:0:
448,192,36930,1,0,0:0:0:0:
64,192,37005,1,0,0:0:0:0:
192,192,37080,1,0,0:0:0:70:TECH KICK.wav
448,192,37080,1,0,0:0:0:50:909 SNARE.wav
320,192,37155,1,0,0:0:0:0:
64,192,37230,1,0,0:0:0:0:
192,192,37230,1,0,0:0:0:0:
448,192,37305,1,0,0:0:0:0:
64,192,37380,1,0,0:0:0:70:CRASH.wav
192,192,37380,1,0,0:0:0:70:TECH KICK.wav
320,192,37380,1,0,0:0:0:50:909 SNARE.wav
448,192,37455,1,0,0:0:0:0:
320,192,37530,1,0,0:0:0:0:
192,192,37605,1,0,0:0:0:0:
64,192,37680,1,0,0:0:0:70:CRASH.wav
448,192,37680,1,0,0:0:0:70:TECH KICK.wav
320,192,37755,1,0,0:0:0:0:
192,192,37830,1,0,0:0:0:0:
448,192,37905,1,0,0:0:0:0:
64,192,37980,1,0,0:0:0:70:CRASH.wav
320,192,37980,1,0,0:0:0:70:TECH KICK.wav
192,192,38055,1,0,0:0:0:0:
320,192,38130,1,0,0:0:0:0:
448,192,38130,1,0,0:0:0:0:
64,192,38205,1,0,0:0:0:0:
192,192,38280,1,0,0:0:0:70:CRASH.wav
448,192,38280,1,0,0:0:0:70:TECH KICK.wav
320,192,38355,1,0,0:0:0:0:
64,192,38430,1,0,0:0:0:0:
192,192,38505,1,0,0:0:0:0:
320,192,38580,1,0,0:0:0:70:CRASH.wav
448,192,38580,1,0,0:0:0:65:KICK.wav
64,192,38730,128,0,39780:0:0:0:0:
192,192,38730,128,0,39780:0:0:0:0:
448,192,39780,1,0,0:0:0:0:
320,192,39930,1,0,0:0:0:0:
192,192,40080,1,0,0:0:0:0:
64,192,40230,1,0,0:0:0:0:
448,192,40380,128,0,40605:0:0:0:0:
320,192,40605,128,0,40830:0:0:0:0:
192,192,40830,1,0,0:0:0:0:
448,192,40980,1,0,0:0:0:0:
192,192,41130,1,0,0:0:0:0:
320,192,41280,1,0,0:0:0:0:
64,192,41430,1,0,0:0:0:0:
192,192,41580,128,0,41805:0:0:0:0:
320,192,41805,128,0,42030:0:0:0:0:
448,192,42030,1,0,0:0:0:0:
192,192,42180,1,0,0:0:0:0:
320,192,42330,1,0,0:0:0:0:
448,192,42480,1,0,0:0:0:0:
64,192,42630,1,0,0:0:0:0:
448,192,42780,128,0,43005:0:0:0:0:
192,192,43005,128,0,43230:0:0:0:0:
64,192,43230,1,0,0:0:0:0:
320,192,43380,1,0,0:0:0:0:
448,192,43530,1,0,0:0:0:0:
192,192,43680,1,0,0:0:0:0:
64,192,43830,1,0,0:0:0:0:
448,192,43980,128,0,44205:0:0:0:0:
320,192,44205,128,0,44430:0:0:0:0:
192,192,44430,1,0,0:0:0:0:
64,192,44580,1,0,0:0:0:0:
320,192,44730,1,0,0:0:0:0:
192,192,44880,1,0,0:0:0:0:
448,192,45030,1,0,0:0:0:0:
64,192,45180,128,0,45405:0:0:0:0:
192,192,45405,128,0,45630:0:0:0:0:
320,192,45630,1,0,0:0:0:0:
448,192,45780,1,0,0:0:0:0:
320,192,45930,1,0,0:0:0:0:
192,192,46080,1,0,0:0:0:0:
64,192,46230,1,0,0:0:0:0:
448,192,46380,128,0,46605:0:0:0:0:
320,192,46605,128,0,46830:0:0:0:0:
192,192,46830,1,0,0:0:0:0:
64,192,46980,1,0,0:0:0:0:
448,192,47130,1,0,0:0:0:0:
320,192,47280,1,0,0:0:0:0:
192,192,47430,1,0,0:0:0:0:
320,192,47580,128,0,47805:0:0:0:0:
192,192,47805,128,0,48030:0:0:0:0:
320,192,48030,1,0,0:0:0:0:
64,192,48180,1,0,0:0:0:70:CRASH.wav
192,192,48180,1,0,0:0:0:70:OH.wav
448,192,48180,1,0,0:0:0:0:
320,192,48255,1,0,0:0:0:0:
448,192,48330,1,0,0:0:0:0:
64,192,48405,1,0,0:0:0:0:
192,192,48480,1,0,0:0:0:70:CLAP.wav
320,192,48480,1,0,0:0:0:0:
448,192,48555,1,0,0:0:0:0:
64,192,48630,1,0,0:0:0:0:
320,192,48705,1,0,0:0:0:0:
192,192,48780,1,0,0:0:0:0:
64,192,48855,1,0,0:0:0:0:
448,192,48930,1,0,0:0:0:0:
192,192,49005,1,0,0:0:0:0:
64,192,49080,1,0,0:0:0:70:CLAP.wav
320,192,49080,1,0,0:0:0:0:
448,192,49155,1,0,0:0:0:0:
192,192,49230,1,0,0:0:0:0:
64,192,49305,1,0,0:0:0:0:
320,192,49380,1,0,0:0:0:0:
448,192,49455,1,0,0:0:0:0:
192,192,49530,1,0,0:0:0:0:
320,192,49605,1,0,0:0:0:0:
64,192,49680,1,0,0:0:0:70:CLAP.wav
448,192,49680,1,0,0:0:0:0:
192,192,49755,1,0,0:0:0:0:
320,192,49830,1,0,0:0:0:0:
448,192,49905,1,0,0:0:0:0:
192,192,49980,1,0,0:0:0:0:
64,192,50055,1,0,0:0:0:0:
320,192,50130,1,0,0:0:0:0:
192,192,50205,1,0,0:0:0:0:
320,192,50280,1,0,0:0:0:70:CLAP.wav
448,192,50280,1,0,0:0:0:0:
64,192,50355,1,0,0:0:0:0:
192,192,50430,1,0,0:0:0:0:
320,192,50505,1,0,0:0:0:0:
448,192,50580,1,0,0:0:0:0:
64,192,50655,1,0,0:0:0:0:
192,192,50730,1,0,0:0:0:0:
320,192,50805,1,0,0:0:0:0:
64,192,50880,1,0,0:0:0:70:CLAP.wav
448,192,50880,1,0,0:0:0:0:
192,192,50955,1,0,0:0:0:0:
320,192,51030,1,0,0:0:0:0:
64,192,51105,1,0,0:0:0:0:
448,192,51180,1,0,0:0:0:0:
320,192,51255,1,0,0:0:0:0:
192,192,51330,1,0,0:0:0:0:
64,192,51405,1,0,0:0:0:0:
320,192,51480,1,0,0:0:0:70:CLAP.wav
448,192,51480,1,0,0:0:0:0:
192,192,51555,1,0,0:0:0:0:
64,192,51630,1,0,0:0:0:0:
448,192,51705,1,0,0:0:0:0:
192,192,51780,1,0,0:0:0:0:
320,192,51855,1,0,0:0:0:0:
448,192,51930,1,0,0:0:0:0:
64,192,52005,1,0,0:0:0:0:
320,192,52080,1,0,0:0:0:70:CLAP.wav
448,192,52080,1,0,0:0:0:0:
192,192,52155,1,0,0:0:0:0:
448,192,52230,1,0,0:0:0:0:
64,192,52305,1,0,0:0:0:0:
192,192,52380,1,0,0:0:0:0:
448,192,52455,1,0,0:0:0:0:
320,192,52530,1,0,0:0:0:0:
192,192,52605,1,0,0:0:0:0:
64,192,52680,1,0,0:0:0:70:CLAP.wav
448,192,52680,1,0,0:0:0:0:
320,192,52755,1,0,0:0:0:0:
192,192,52830,1,0,0:0:0:0:
320,192,52905,1,0,0:0:0:0:
64,192,52980,1,0,0:0:0:0:
192,192,53055,1,0,0:0:0:0:
448,192,53130,1,0,0:0:0:0:
320,192,53205,1,0,0:0:0:0:
64,192,53280,1,0,0:0:0:70:CLAP.wav
192,192,53280,1,0,0:0:0:0:
448,192,53355,1,0,0:0:0:0:
320,192,53430,1,0,0:0:0:0:
64,192,53505,1,0,0:0:0:0:
448,192,53580,1,0,0:0:0:0:
320,192,53655,1,0,0:0:0:0:
192,192,53730,1,0,0:0:0:0:
64,192,53805,1,0,0:0:0:0:
320,192,53880,1,0,0:0:0:70:CLAP.wav
448,192,53880,1,0,0:0:0:0:
192,192,53955,1,0,0:0:0:0:
64,192,54030,1,0,0:0:0:0:
448,192,54105,1,0,0:0:0:0:
320,192,54180,1,0,0:0:0:0:
192,192,54255,1,0,0:0:0:0:
64,192,54330,1,0,0:0:0:0:
320,192,54405,1,0,0:0:0:0:
192,192,54480,1,0,0:0:0:70:CLAP.wav
448,192,54480,1,0,0:0:0:0:
64,192,54555,1,0,0:0:0:0:
320,192,54630,1,0,0:0:0:0:
192,192,54705,1,0,0:0:0:0:
448,192,54780,1,0,0:0:0:0:
64,192,54855,1,0,0:0:0:0:
192,192,54930,1,0,0:0:0:0:
448,192,55005,1,0,0:0:0:0:
64,192,55080,1,0,0:0:0:70:CLAP.wav
192,192,55080,1,0,0:0:0:0:
320,192,55155,1,0,0:0:0:0:
448,192,55230,1,0,0:0:0:0:
192,192,55305,1,0,0:0:0:0:
320,192,55380,1,0,0:0:0:0:
64,192,55455,1,0,0:0:0:0:
192,192,55530,1,0,0:0:0:0:
320,192,55605,1,0,0:0:0:0:
64,192,55680,1,0,0:0:0:70:CLAP.wav
448,192,55680,1,0,0:0:0:0:
192,192,55755,1,0,0:0:0:0:
448,192,55830,1,0,0:0:0:0:
320,192,55905,1,0,0:0:0:0:
192,192,55980,1,0,0:0:0:0:
448,192,56055,1,0,0:0:0:0:
64,192,56130,1,0,0:0:0:0:
192,192,56205,1,0,0:0:0:0:
320,192,56280,1,0,0:0:0:70:CLAP.wav
448,192,56280,1,0,0:0:0:0:
64,192,56355,1,0,0:0:0:0:
192,192,56430,1,0,0:0:0:0:
320,192,56505,1,0,0:0:0:0:
64,192,56580,1,0,0:0:0:70:OH.wav
448,192,56580,1,0,0:0:0:0:
192,192,56655,1,0,0:0:0:0:
320,192,56730,1,0,0:0:0:0:
64,192,56805,1,0,0:0:0:70:OH.wav
192,192,56805,1,0,0:0:0:0:
448,192,56880,1,0,0:0:0:0:
64,192,56955,1,0,0:0:0:0:
192,192,57030,1,0,0:0:0:70:OH.wav
448,192,57030,1,0,0:0:0:0:
320,192,57105,1,0,0:0:0:0:
64,192,57180,1,0,0:0:0:70:OH.wav
192,192,57180,1,0,0:0:0:0:
448,192,57255,1,0,0:0:0:0:
64,192,57330,1,0,0:0:0:70:OH.wav
320,192,57330,1,0,0:0:0:0:
192,192,57405,1,0,0:0:0:0:
320,192,57480,1,0,0:0:0:70:OH.wav
448,192,57480,1,0,0:0:0:0:
64,192,57555,1,0,0:0:0:0:
192,192,57630,1,0,0:0:0:0:
320,192,57705,1,0,0:0:0:0:
64,192,57780,1,0,0:0:0:70:CRASH.wav
192,192,57780,1,0,0:0:0:65:KICK.wav
320,192,57930,1,0,0:0:0:70:CH.wav
448,192,57930,128,0,58980:0:0:0:0:
192,192,58080,1,0,0:0:0:0:
64,192,58230,1,0,0:0:0:70:CH.wav
192,192,58230,1,0,0:0:0:0:
320,192,58380,128,0,58530:0:0:0:0:
64,192,58530,1,0,0:0:0:70:CH.wav
192,192,58605,1,0,0:0:0:0:
64,192,58830,1,0,0:0:0:70:CH.wav
192,192,58830,1,0,0:0:0:0:
320,192,58980,1,0,0:0:0:0:
64,192,59130,1,0,0:0:0:70:CH.wav
320,192,59130,1,0,0:0:0:0:
192,192,59280,1,0,0:0:0:0:
192,192,59430,1,0,0:0:0:70:CH.wav
448,192,59430,1,0,0:0:0:0:
64,192,59580,128,0,59730:0:0:0:0:
192,192,59730,1,0,0:0:0:70:CH.wav
448,192,59805,1,0,0:0:0:0:
192,192,60030,1,0,0:0:0:70:CH.wav
320,192,60030,1,0,0:0:0:0:
64,192,60180,1,0,0:0:0:0:
64,192,60330,1,0,0:0:0:70:CH.wav
448,192,60330,1,0,0:0:0:0:
320,192,60480,1,0,0:0:0:0:
64,192,60630,1,0,0:0:0:70:CH.wav
320,192,60630,1,0,0:0:0:0:
192,192,60780,128,0,60930:0:0:0:0:
320,192,60930,1,0,0:0:0:70:CH.wav
64,192,61005,1,0,0:0:0:0:
320,192,61230,1,0,0:0:0:70:CH.wav
448,192,61230,1,0,0:0:0:0:
448,192,61380,128,0,61530:0:0:0:0:
64,192,61530,1,0,0:0:0:70:CH.wav
192,192,61530,1,0,0:0:0:0:
320,192,61605,1,0,0:0:0:0:
192,192,61830,1,0,0:0:0:70:CH.wav
448,192,61830,1,0,0:0:0:0:
320,192,61980,128,0,62130:0:0:0:0:
64,192,62130,1,0,0:0:0:70:CH.wav
448,192,62130,1,0,0:0:0:0:
192,192,62205,1,0,0:0:0:0:
64,192,62430,1,0,0:0:0:70:CH.wav
320,192,62430,1,0,0:0:0:0:
192,192,62580,1,0,0:0:0:0:
64,192,62730,1,0,0:0:0:70:CH.wav
192,192,62730,1,0,0:0:0:0:
320,192,62880,1,0,0:0:0:0:
192,192,63030,1,0,0:0:0:70:CH.wav
320,192,63030,1,0,0:0:0:0:
448,192,63180,128,0,63330:0:0:0:0:
320,192,63330,1,0,0:0:0:70:CH.wav
192,192,63405,1,0,0:0:0:0:
192,192,63630,1,0,0:0:0:70:CH.wav
320,192,63630,1,0,0:0:0:0:
64,192,63780,1,0,0:0:0:0:
64,192,63930,1,0,0:0:0:70:CH.wav
448,192,63930,1,0,0:0:0:0:
320,192,64080,1,0,0:0:0:0:
320,192,64230,1,0,0:0:0:70:CH.wav
448,192,64230,1,0,0:0:0:0:
192,192,64380,128,0,64530:0:0:0:0:
320,192,64530,1,0,0:0:0:70:CH.wav
448,192,64605,1,0,0:0:0:0:
64,192,64830,1,0,0:0:0:70:CH.wav
192,192,64830,1,0,0:0:0:0:
320,192,64980,1,0,0:0:0:0:
320,192,65130,1,0,0:0:0:70:CH.wav
448,192,65130,1,0,0:0:0:0:
192,192,65280,1,0,0:0:0:0:
64,192,65430,1,0,0:0:0:70:CH.wav
192,192,65430,1,0,0:0:0:0:
320,192,65580,128,0,65730:0:0:0:0:
448,192,65730,1,0,0:0:0:70:CH.wav
192,192,65805,1,0,0:0:0:0:
192,192,66030,1,0,0:0:0:70:CH.wav
320,192,66030,1,0,0:0:0:0:
64,192,66180,128,0,66330:0:0:0:0:
448,192,66180,1,0,0:0:0:0:
192,192,66330,1,0,0:0:0:70:CH.wav
320,192,66405,1,0,0:0:0:0:
448,192,66405,1,0,0:0:0:0:
64,192,66630,1,0,0:0:0:70:CH.wav
192,192,66630,1,0,0:0:0:0:
320,192,66780,1,0,0:0:0:0:
448,192,66780,1,0,0:0:0:0:
64,192,66930,1,0,0:0:0:70:CH.wav
192,192,66930,1,0,0:0:0:0:
320,192,67080,1,0,0:0:0:0:
448,192,67080,1,0,0:0:0:0:
320,192,67230,1,0,0:0:0:70:CH.wav
64,192,67380,1,0,0:0:0:70:CRASH.wav
192,192,67380,1,0,0:0:0:65:KICK.wav
320,192,67530,1,0,0:0:0:70:CH.wav
448,192,67530,128,0,68580:0:0:0:0:
192,192,67680,1,0,0:0:0:70:CLAP.wav
64,192,67830,1,0,0:0:0:70:CH.wav
320,192,67830,1,0,0:0:0:0:
192,192,67980,128,0,68130:0:0:0:0:
320,192,68130,1,0,0:0:0:70:CH.wav
64,192,68205,1,0,0:0:0:0:
192,192,68280,1,0,0:0:0:70:CLAP.wav
192,192,68430,1,0,0:0:0:70:CH.wav
320,192,68430,1,0,0:0:0:0:
64,192,68580,1,0,0:0:0:0:
64,192,68730,1,0,0:0:0:70:CH.wav
320,192,68730,1,0,0:0:0:0:
192,192,68880,1,0,0:0:0:70:CLAP.wav
192,192,69030,1,0,0:0:0:70:CH.wav
448,192,69030,1,0,0:0:0:0:
320,192,69180,128,0,69330:0:0:0:0:
192,192,69330,1,0,0:0:0:70:CH.wav
448,192,69405,1,0,0:0:0:0:
64,192,69480,1,0,0:0:0:70:CLAP.wav
192,192,69630,1,0,0:0:0:70:CH.wav
320,192,69630,1,0,0:0:0:0:
64,192,69780,1,0,0:0:0:0:
64,192,69930,1,0,0:0:0:70:CH.wav
448,192,69930,1,0,0:0:0:0:
320,192,70080,1,0,0:0:0:70:CLAP.wav
64,192,70230,1,0,0:0:0:70:CH.wav
320,192,70230,1,0,0:0:0:0:
448,192,70380,128,0,70530:0:0:0:0:
320,192,70530,1,0,0:0:0:70:CH.wav
64,192,70605,1,0,0:0:0:0:
192,192,70680,1,0,0:0:0:70:CLAP.wav
320,192,70830,1,0,0:0:0:70:CH.wav
448,192,70830,1,0,0:0:0:0:
64,192,70980,128,0,71130:0:0:0:0:
320,192,71130,1,0,0:0:0:70:CH.wav
448,192,71130,1,0,0:0:0:0:
192,192,71205,1,0,0:0:0:0:
448,192,71280,1,0,0:0:0:70:CLAP.wav
64,192,71430,1,0,0:0:0:70:CH.wav
320,192,71430,1,0,0:0:0:0:
192,192,71580,128,0,71730:0:0:0:0:
320,192,71730,1,0,0:0:0:70:CH.wav
448,192,71730,1,0,0:0:0:0:
64,192,71805,1,0,0:0:0:0:
192,192,71880,1,0,0:0:0:70:CLAP.wav
64,192,72030,1,0,0:0:0:70:CH.wav
448,192,72030,1,0,0:0:0:0:
320,192,72180,1,0,0:0:0:0:
192,192,72330,1,0,0:0:0:70:CH.wav
320,192,72330,1,0,0:0:0:0:
64,192,72480,1,0,0:0:0:70:CLAP.wav
64,192,72630,1,0,0:0:0:70:CH.wav
192,192,72630,1,0,0:0:0:0:
448,192,72780,128,0,72930:0:0:0:0:
320,192,72930,1,0,0:0:0:70:CH.wav
192,192,73005,1,0,0:0:0:0:
64,192,73080,1,0,0:0:0:70:CLAP.wav
192,192,73230,1,0,0:0:0:70:CH.wav
320,192,73230,1,0,0:0:0:0:
64,192,73380,1,0,0:0:0:0:
64,192,73530,1,0,0:0:0:70:CH.wav
448,192,73530,1,0,0:0:0:0:
320,192,73680,1,0,0:0:0:70:CLAP.wav
320,192,73830,1,0,0:0:0:70:CH.wav
448,192,73830,1,0,0:0:0:0:
192,192,73980,128,0,74130:0:0:0:0:
320,192,74130,1,0,0:0:0:70:CH.wav
448,192,74205,1,0,0:0:0:0:
64,192,74280,1,0,0:0:0:70:CLAP.wav
320,192,74430,1,0,0:0:0:70:CH.wav
448,192,74430,1,0,0:0:0:0:
192,192,74580,1,0,0:0:0:0:
64,192,74730,1,0,0:0:0:70:CH.wav
192,192,74730,1,0,0:0:0:0:
320,192,74880,1,0,0:0:0:70:CLAP.wav
320,192,75030,1,0,0:0:0:70:CH.wav
448,192,75030,1,0,0:0:0:0:
192,192,75180,128,0,75330:0:0:0:0:
448,192,75330,1,0,0:0:0:70:CH.wav
64,192,75405,1,0,0:0:0:0:
320,192,75480,1,0,0:0:0:70:CLAP.wav
192,192,75630,1,0,0:0:0:70:CH.wav
320,192,75630,1,0,0:0:0:0:
64,192,75780,128,0,75930:0:0:0:0:
448,192,75780,1,0,0:0:0:0:
192,192,75930,1,0,0:0:0:70:CH.wav
320,192,76005,1,0,0:0:0:0:
448,192,76005,1,0,0:0:0:0:
64,192,76080,1,0,0:0:0:70:CLAP.wav
320,192,76230,1,0,0:0:0:70:CH.wav
448,192,76230,1,0,0:0:0:0:
64,192,76380,1,0,0:0:0:0:
192,192,76380,1,0,0:0:0:0:
320,192,76530,1,0,0:0:0:70:CH.wav
448,192,76530,1,0,0:0:0:0:
64,192,76680,1,0,0:0:0:70:CLAP.wav
192,192,76680,1,0,0:0:0:0:
448,192,76830,1,0,0:0:0:70:CH.wav
64,192,76980,1,0,0:0:0:70:CRASH.wav
320,192,76980,1,0,0:0:0:65:KICK.wav
448,192,77130,128,0,77580:0:0:0:70:CH.wav
64,192,77280,1,0,0:0:0:50:909 SNARE.wav
192,192,77280,1,0,0:0:0:70:CLAP.wav
320,192,77430,1,0,0:0:0:70:CH.wav
64,192,77580,128,0,77730:0:0:0:50:909 SNARE.wav
192,192,77580,1,0,0:0:0:0:
448,192,77730,1,0,0:0:0:70:CH.wav
192,192,77805,1,0,0:0:0:0:
64,192,77880,1,0,0:0:0:50:909 SNARE.wav
320,192,77880,1,0,0:0:0:70:CLAP.wav
192,192,78030,1,0,0:0:0:70:CH.wav
320,192,78180,1,0,0:0:0:70:CRASH.wav
448,192,78180,1,0,0:0:0:65:KICK.wav
64,192,78330,128,0,78780:0:0:0:70:CH.wav
320,192,78480,1,0,0:0:0:50:909 SNARE.wav
448,192,78480,1,0,0:0:0:70:CLAP.wav
192,192,78630,1,0,0:0:0:70:CH.wav
320,192,78780,1,0,0:0:0:50:909 SNARE.wav
448,192,78780,128,0,78930:0:0:0:0:
192,192,78930,1,0,0:0:0:70:CH.wav
64,192,79005,1,0,0:0:0:0:
320,192,79080,1,0,0:0:0:50:909 SNARE.wav
448,192,79080,1,0,0:0:0:70:CLAP.wav
64,192,79230,1,0,0:0:0:50:909 SNARE.wav
192,192,79230,1,0,0:0:0:70:CH.wav
64,192,79380,1,0,0:0:0:70:CRASH.wav
320,192,79380,1,0,0:0:0:65:KICK.wav
448,192,79530,128,0,79980:0:0:0:70:CH.wav
64,192,79680,1,0,0:0:0:50:909 SNARE.wav
192,192,79680,1,0,0:0:0:70:CLAP.wav
320,192,79830,1,0,0:0:0:70:CH.wav
64,192,79980,1,0,0:0:0:50:909 SNARE.wav
192,192,79980,128,0,80130:0:0:0:0:
320,192,80130,1,0,0:0:0:70:CH.wav
64,192,80205,1,0,0:0:0:0:
192,192,80280,1,0,0:0:0:50:909 SNARE.wav
448,192,80280,1,0,0:0:0:70:CLAP.wav
64,192,80430,1,0,0:0:0:70:CH.wav
320,192,80580,1,0,0:0:0:70:CRASH.wav
448,192,80580,1,0,0:0:0:65:KICK.wav
64,192,80730,128,0,81180:0:0:0:70:CH.wav
192,192,80880,1,0,0:0:0:50:909 SNARE.wav
448,192,80880,1,0,0:0:0:70:CLAP.wav
320,192,81030,1,0,0:0:0:70:CH.wav
192,192,81180,1,0,0:0:0:50:909 SNARE.wav
448,192,81180,128,0,81330:0:0:0:0:
320,192,81330,1,0,0:0:0:70:CH.wav
64,192,81405,1,0,0:0:0:50:909 SNARE.wav
192,192,81405,1,0,0:0:0:0:
320,192,81480,1,0,0:0:0:50:909 SNARE.wav
448,192,81480,1,0,0:0:0:70:CLAP.wav
64,192,81630,1,0,0:0:0:50:909 SNARE.wav
192,192,81630,1,0,0:0:0:70:CH.wav
64,192,81780,1,0,0:0:0:70:CRASH.wav
320,192,81780,1,0,0:0:0:65:KICK.wav
448,192,81930,128,0,82380:0:0:0:70:CH.wav
64,192,82080,1,0,0:0:0:50:909 SNARE.wav
192,192,82080,1,0,0:0:0:70:CLAP.wav
320,192,82230,1,0,0:0:0:70:CH.wav
64,192,82380,128,0,82530:0:0:0:50:909 SNARE.wav
192,192,82380,1,0,0:0:0:0:
192,192,82530,1,0,0:0:0:65:KICK.wav
320,192,82530,1,0,0:0:0:70:CH.wav
448,192,82605,1,0,0:0:0:0:
64,192,82680,1,0,0:0:0:50:909 SNARE.wav
320,192,82680,1,0,0:0:0:70:CLAP.wav
192,192,82830,1,0,0:0:0:70:CH.wav
320,192,82980,1,0,0:0:0:70:CRASH.wav
448,192,82980,1,0,0:0:0:65:KICK.wav
64,192,83130,128,0,83580:0:0:0:70:CH.wav
192,192,83280,1,0,0:0:0:50:909 SNARE.wav
448,192,83280,1,0,0:0:0:70:CLAP.wav
320,192,83430,1,0,0:0:0:70:CH.wav
192,192,83580,1,0,0:0:0:50:909 SNARE.wav
448,192,83580,128,0,83730:0:0:0:0:
64,192,83730,1,0,0:0:0:65:KICK.wav
320,192,83730,1,0,0:0:0:70:CH.wav
192,192,83805,1,0,0:0:0:0:
64,192,83880,1,0,0:0:0:50:909 SNARE.wav
448,192,83880,1,0,0:0:0:70:CLAP.wav
192,192,84030,1,0,0:0:0:65:KICK.wav
320,192,84030,1,0,0:0:0:70:CH.wav
64,192,84180,1,0,0:0:0:70:CRASH.wav
192,192,84180,1,0,0:0:0:65:KICK.wav
448,192,84330,128,0,84780:0:0:0:70:CH.wav
64,192,84480,1,0,0:0:0:50:909 SNARE.wav
192,192,84480,1,0,0:0:0:70:CLAP.wav
320,192,84630,1,0,0:0:0:70:CH.wav
64,192,84780,128,0,84930:0:0:0:50:909 SNARE.wav
192,192,84780,1,0,0:0:0:0:
192,192,84930,1,0,0:0:0:65:KICK.wav
320,192,84930,1,0,0:0:0:70:CH.wav
448,192,85005,1,0,0:0:0:0:
64,192,85080,1,0,0:0:0:50:909 SNARE.wav
320,192,85080,1,0,0:0:0:70:CLAP.wav
192,192,85230,1,0,0:0:0:70:CH.wav
320,192,85380,1,0,0:0:0:70:CRASH.wav
448,192,85380,1,0,0:0:0:65:KICK.wav
64,192,85530,128,0,85980:0:0:0:70:CH.wav
320,192,85680,1,0,0:0:0:50:909 SNARE.wav
448,192,85680,1,0,0:0:0:70:CLAP.wav
192,192,85830,1,0,0:0:0:70:CH.wav
320,192,85980,1,0,0:0:0:50:909 SNARE.wav
448,192,85980,128,0,86130:0:0:0:0:
192,192,86130,1,0,0:0:0:65:KICK.wav
320,192,86130,1,0,0:0:0:70:CH.wav
64,192,86280,1,0,0:0:0:65:KICK.wav
192,192,86280,1,0,0:0:0:50:909 SNARE.wav
64,192,86430,1,0,0:0:0:65:KICK.wav
320,192,86430,1,0,0:0:0:70:CH.wav
192,192,86580,1,0,0:0:0:70:CRASH.wav
320,192,86580,1,0,0:0:0:65:KICK.wav
448,192,86580,1,0,0:0:0:0:
64,192,86730,128,0,87030:0:0:0:70:CH.wav
448,192,86805,1,0,0:0:0:50:909 SNARE.wav
320,192,86880,1,0,0:0:0:50:909 SNARE.wav
192,192,87030,1,0,0:0:0:50:909 SNARE.wav
64,192,87180,1,0,0:0:0:65:KICK.wav
320,192,87180,1,0,0:0:0:0:
448,192,87330,128,0,87630:0:0:0:70:CH.wav
64,192,87405,1,0,0:0:0:50:909 SNARE.wav
192,192,87480,1,0,0:0:0:50:909 SNARE.wav
320,192,87630,1,0,0:0:0:50:909 SNARE.wav
192,192,87780,1,0,0:0:0:70:CRASH.wav
320,192,87780,1,0,0:0:0:65:KICK.wav
448,192,87780,1,0,0:0:0:0:
64,192,87930,128,0,88230:0:0:0:70:CH.wav
192,192,88005,1,0,0:0:0:50:909 SNARE.wav
320,192,88080,1,0,0:0:0:50:909 SNARE.wav
448,192,88230,1,0,0:0:0:50:909 SNARE.wav
192,192,88380,1,0,0:0:0:65:KICK.wav
320,192,88380,1,0,0:0:0:0:
448,192,88530,1,0,0:0:0:50:909 SNARE.wav
192,192,88680,1,0,0:0:0:65:KICK.wav
320,192,88680,1,0,0:0:0:70:CLAP.wav
64,192,88830,1,0,0:0:0:50:909 SNARE.wav
448,192,88905,1,0,0:0:0:50:909 SNARE.wav
64,192,88980,1,0,0:0:0:70:CRASH.wav
192,192,88980,1,0,0:0:0:65:KICK.wav
320,192,88980,1,0,0:0:0:0:
448,192,89130,128,0,89430:0:0:0:70:CH.wav
320,192,89205,1,0,0:0:0:50:909 SNARE.wav
192,192,89280,1,0,0:0:0:50:909 SNARE.wav
64,192,89430,1,0,0:0:0:50:909 SNARE.wav
192,192,89580,1,0,0:0:0:65:KICK.wav
320,192,89580,1,0,0:0:0:0:
64,192,89730,128,0,90030:0:0:0:70:CH.wav
448,192,89805,1,0,0:0:0:50:909 SNARE.wav
320,192,89880,1,0,0:0:0:50:909 SNARE.wav
192,192,90030,1,0,0:0:0:50:909 SNARE.wav
64,192,90180,1,0,0:0:0:70:CRASH.wav
320,192,90180,1,0,0:0:0:65:KICK.wav
448,192,90180,1,0,0:0:0:0:
192,192,90255,1,0,0:0:0:50:909 SNARE.wav
448,192,90330,128,0,90630:0:0:0:70:CH.wav
64,192,90405,1,0,0:0:0:50:909 SNARE.wav
192,192,90480,1,0,0:0:0:50:909 SNARE.wav
320,192,90630,1,0,0:0:0:50:909 SNARE.wav
64,192,90780,1,0,0:0:0:65:KICK.wav
192,192,90780,1,0,0:0:0:0:
320,192,90930,1,0,0:0:0:50:909 SNARE.wav
64,192,91005,1,0,0:0:0:65:KICK.wav
192,192,91005,1,0,0:0:0:0:
320,192,91080,1,0,0:0:0:65:KICK.wav
448,192,91080,1,0,0:0:0:50:909 SNARE.wav
64,192,91155,1,0,0:0:0:50:909 SNARE.wav
192,192,91230,1,0,0:0:0:50:909 SNARE.wav
448,192,91305,1,0,0:0:0:50:909 SNARE.wav
64,192,91380,1,0,0:0:0:70:CRASH.wav
192,192,91380,1,0,0:0:0:65:KICK.wav
320,192,91530,1,0,0:0:0:50:909 SNARE.wav
448,192,91530,1,0,0:0:0:70:CH.wav
64,192,91605,1,0,0:0:0:50:909 SNARE.wav
192,192,91605,1,0,0:0:0:0:
320,192,91680,1,0,0:0:0:65:KICK.wav
448,192,91680,1,0,0:0:0:50:909 SNARE.wav
64,192,91830,1,0,0:0:0:50:909 SNARE.wav
192,192,91830,1,0,0:0:0:70:CH.wav
320,192,91980,1,0,0:0:0:70:CRASH.wav
448,192,91980,1,0,0:0:0:65:KICK.wav
64,192,92130,1,0,0:0:0:50:909 SNARE.wav
192,192,92130,1,0,0:0:0:70:CH.wav
320,192,92205,1,0,0:0:0:50:909 SNARE.wav
448,192,92205,1,0,0:0:0:0:
64,192,92280,1,0,0:0:0:65:KICK.wav
192,192,92280,1,0,0:0:0:50:909 SNARE.wav
320,192,92430,1,0,0:0:0:50:909 SNARE.wav
448,192,92430,1,0,0:0:0:70:CH.wav
64,192,92580,1,0,0:0:0:70:CRASH.wav
320,192,92580,1,0,0:0:0:65:KICK.wav
192,192,92730,1,0,0:0:0:50:909 SNARE.wav
448,192,92730,1,0,0:0:0:70:CH.wav
64,192,92805,1,0,0:0:0:50:909 SNARE.wav
320,192,92805,1,0,0:0:0:0:
192,192,92880,1,0,0:0:0:65:KICK.wav
448,192,92880,1,0,0:0:0:50:909 SNARE.wav
64,192,93030,1,0,0:0:0:50:909 SNARE.wav
320,192,93030,1,0,0:0:0:70:CH.wav
192,192,93180,1,0,0:0:0:70:CRASH.wav
448,192,93180,1,0,0:0:0:65:KICK.wav
64,192,93330,1,0,0:0:0:50:909 SNARE.wav
320,192,93330,1,0,0:0:0:70:CH.wav
192,192,93405,1,0,0:0:0:50:909 SNARE.wav
448,192,93405,1,0,0:0:0:0:
64,192,93480,1,0,0:0:0:65:KICK.wav
320,192,93480,1,0,0:0:0:50:909 SNARE.wav
192,192,93630,1,0,0:0:0:50:909 SNARE.wav
448,192,93630,1,0,0:0:0:70:CH.wav
64,192,93780,1,0,0:0:0:70:CRASH.wav
320,192,93780,1,0,0:0:0:70:TECH KICK.wav
448,192,93855,1,0,0:0:0:50:909 SNARE.wav
64,192,93930,1,0,0:0:0:70:TECH KICK.wav
192,192,93930,1,0,0:0:0:50:909 SNARE.wav
320,192,94005,1,0,0:0:0:50:909 SNARE.wav
192,192,94080,1,0,0:0:0:70:CRASH.wav
448,192,94080,1,0,0:0:0:70:TECH KICK.wav
64,192,94155,1,0,0:0:0:50:909 SNARE.wav
320,192,94230,1,0,0:0:0:70:TECH KICK.wav
448,192,94230,1,0,0:0:0:50:909 SNARE.wav
192,192,94305,1,0,0:0:0:50:909 SNARE.wav
64,192,94380,1,0,0:0:0:70:CRASH.wav
320,192,94380,1,0,0:0:0:70:TECH KICK.wav
448,192,94455,1,0,0:0:0:50:909 SNARE.wav
192,192,94530,1,0,0:0:0:70:TECH KICK.wav
320,192,94530,1,0,0:0:0:50:909 SNARE.wav
448,192,94605,1,0,0:0:0:50:909 SNARE.wav
64,192,94680,1,0,0:0:0:70:CRASH.wav
192,192,94680,1,0,0:0:0:70:TECH KICK.wav
320,192,94755,1,0,0:0:0:50:909 SNARE.wav
64,192,94830,1,0,0:0:0:70:TECH KICK.wav
448,192,94830,1,0,0:0:0:50:909 SNARE.wav
192,192,94905,1,0,0:0:0:50:909 SNARE.wav
320,192,94980,1,0,0:0:0:70:CRASH.wav
448,192,94980,1,0,0:0:0:70:TECH KICK.wav
64,192,95055,1,0,0:0:0:70:TECH KICK.wav
192,192,95055,1,0,0:0:0:50:909 SNARE.wav
320,192,95130,1,0,0:0:0:70:TECH KICK.wav
448,192,95130,1,0,0:0:0:50:909 SNARE.wav
64,192,95205,1,0,0:0:0:70:TECH KICK.wav
192,192,95205,1,0,0:0:0:50:909 SNARE.wav
320,192,95280,1,0,0:0:0:70:CRASH.wav
448,192,95280,1,0,0:0:0:70:TECH KICK.wav
64,192,95355,1,0,0:0:0:70:TECH KICK.wav
192,192,95355,1,0,0:0:0:50:909 SNARE.wav
320,192,95430,1,0,0:0:0:70:TECH KICK.wav
448,192,95430,1,0,0:0:0:50:909 SNARE.wav
64,192,95505,1,0,0:0:0:70:TECH KICK.wav
192,192,95505,1,0,0:0:0:50:909 SNARE.wav
320,192,95580,1,0,0:0:0:70:CRASH.wav
448,192,95580,1,0,0:0:0:70:TECH KICK.wav
64,192,95655,1,0,0:0:0:70:TECH KICK.wav
192,192,95655,1,0,0:0:0:50:909 SNARE.wav
320,192,95730,1,0,0:0:0:70:TECH KICK.wav
448,192,95730,1,0,0:0:0:50:909 SNARE.wav
64,192,95805,1,0,0:0:0:70:TECH KICK.wav
192,192,95805,1,0,0:0:0:50:909 SNARE.wav
320,192,95880,128,0,97230:0:0:0:70:CRASH.wav
448,192,95880,128,0,97230:0:0:0:70:TECH KICK.wav
64,192,96030,128,0,97230:0:0:0:70:CRASH.wav
192,192,96030,128,0,97230:0:0:0:0:
320,192,97380,1,0,0:0:0:70:OH.wav
448,192,97605,1,0,0:0:0:70:OH.wav
64,192,97830,1,0,0:0:0:70:OH.wav
320,192,97980,1,0,0:0:0:70:OH.wav
192,192,98130,1,0,0:0:0:70:OH.wav
64,192,98280,1,0,0:0:0:0:
192,192,98280,1,0,0:0:0:0:
320,192,98280,1,0,0:0:0:0:
448,192,98280,1,0,0:0:0:0:
64,192,98580,1,0,0:0:0:70:CRASH.wav
192,192,98580,1,0,0:0:0:65:KICK.wav
448,192,98580,1,0,0:0:0:0:
320,192,98655,1,0,0:0:0:0:
64,192,98730,1,0,0:0:0:70:OH.wav
448,192,98730,1,0,0:0:0:0:
192,192,98805,1,0,0:0:0:0:
64,192,98880,1,0,0:0:0:65:KICK.wav
320,192,98880,1,0,0:0:0:70:SNARE.wav
448,192,98955,1,0,0:0:0:0:
192,192,99030,1,0,0:0:0:70:OH.wav
320,192,99030,1,0,0:0:0:0:
448,192,99105,1,0,0:0:0:0:
64,192,99180,1,0,0:0:0:65:KICK.wav
192,192,99180,1,0,0:0:0:0:
320,192,99255,1,0,0:0:0:0:
64,192,99330,1,0,0:0:0:0:
192,192,99405,1,0,0:0:0:70:OH.wav
448,192,99405,1,0,0:0:0:0:
320,192,99480,1,0,0:0:0:65:KICK.wav
192,192,99555,1,0,0:0:0:0:
64,192,99630,1,0,0:0:0:70:OH.wav
448,192,99630,1,0,0:0:0:0:
320,192,99705,1,0,0:0:0:0:
64,192,99780,1,0,0:0:0:70:CRASH.wav
192,192,99780,1,0,0:0:0:65:KICK.wav
320,192,99855,1,0,0:0:0:0:
192,192,99930,1,0,0:0:0:70:OH.wav
448,192,99930,1,0,0:0:0:0:
64,192,100005,1,0,0:0:0:0:
320,192,100080,1,0,0:0:0:65:KICK.wav
448,192,100080,1,0,0:0:0:70:SNARE.wav
192,192,100155,1,0,0:0:0:0:
64,192,100230,1,0,0:0:0:70:OH.wav
320,192,100230,1,0,0:0:0:0:
448,192,100305,1,0,0:0:0:0:
64,192,100380,1,0,0:0:0:65:KICK.wav
192,192,100380,1,0,0:0:0:0:
320,192,100455,1,0,0:0:0:0:
448,192,100530,1,0,0:0:0:0:
192,192,100605,1,0,0:0:0:70:OH.wav
320,192,100605,1,0,0:0:0:0:
64,192,100680,1,0,0:0:0:65:KICK.wav
448,192,100755,1,0,0:0:0:0:
64,192,100830,1,0,0:0:0:70:OH.wav
320,192,100830,1,0,0:0:0:0:
192,192,100905,1,0,0:0:0:0:
320,192,100980,1,0,0:0:0:70:CRASH.wav
448,192,100980,1,0,0:0:0:65:KICK.wav
64,192,101055,1,0,0:0:0:0:
192,192,101130,1,0,0:0:0:70:OH.wav
448,192,101130,1,0,0:0:0:0:
320,192,101205,1,0,0:0:0:0:
64,192,101280,1,0,0:0:0:65:KICK.wav
192,192,101280,1,0,0:0:0:70:SNARE.wav
320,192,101355,1,0,0:0:0:0:
64,192,101430,1,0,0:0:0:70:OH.wav
448,192,101430,1,0,0:0:0:0:
192,192,101505,1,0,0:0:0:0:
320,192,101580,1,0,0:0:0:65:KICK.wav
448,192,101580,1,0,0:0:0:0:
64,192,101655,1,0,0:0:0:0:
192,192,101730,1,0,0:0:0:0:
64,192,101805,1,0,0:0:0:70:OH.wav
448,192,101805,1,0,0:0:0:0:
320,192,101880,1,0,0:0:0:65:KICK.wav
192,192,101955,1,0,0:0:0:0:
320,192,102030,1,0,0:0:0:70:OH.wav
448,192,102030,1,0,0:0:0:0:
192,192,102105,1,0,0:0:0:0:
64,192,102180,1,0,0:0:0:70:CRASH.wav
448,192,102180,1,0,0:0:0:65:KICK.wav
320,192,102255,1,0,0:0:0:0:
192,192,102330,1,0,0:0:0:0:
64,192,102405,1,0,0:0:0:70:OH.wav
320,192,102405,1,0,0:0:0:0:
448,192,102480,1,0,0:0:0:65:KICK.wav
64,192,102555,1,0,0:0:0:0:
192,192,102630,1,0,0:0:0:70:OH.wav
320,192,102630,1,0,0:0:0:0:
448,192,102705,1,0,0:0:0:0:
64,192,102780,1,0,0:0:0:70:CRASH.wav
192,192,102780,1,0,0:0:0:65:KICK.wav
448,192,102855,1,0,0:0:0:0:
64,192,102930,1,0,0:0:0:0:
192,192,103005,1,0,0:0:0:70:OH.wav
320,192,103005,1,0,0:0:0:0:
64,192,103080,1,0,0:0:0:65:KICK.wav
448,192,103080,1,0,0:0:0:70:SNARE.wav
192,192,103230,1,0,0:0:0:65:KICK.wav
448,192,103230,1,0,0:0:0:0:
64,192,103380,1,0,0:0:0:70:CRASH.wav
192,192,103380,1,0,0:0:0:65:KICK.wav
320,192,103455,1,0,0:0:0:0:
64,192,103530,1,0,0:0:0:70:OH.wav
448,192,103530,1,0,0:0:0:0:
192,192,103605,1,0,0:0:0:0:
320,192,103680,1,0,0:0:0:65:KICK.wav
448,192,103680,1,0,0:0:0:70:SNARE.wav
192,192,103755,1,0,0:0:0:0:
64,192,103830,1,0,0:0:0:70:OH.wav
320,192,103830,1,0,0:0:0:0:
448,192,103905,1,0,0:0:0:0:
64,192,103980,1,0,0:0:0:65:KICK.wav
192,192,103980,1,0,0:0:0:0:
320,192,104055,1,0,0:0:0:0:
448,192,104130,1,0,0:0:0:0:
64,192,104205,1,0,0:0:0:70:OH.wav
320,192,104205,1,0,0:0:0:0:
192,192,104280,1,0,0:0:0:65:KICK.wav
448,192,104355,1,0,0:0:0:0:
192,192,104430,1,0,0:0:0:70:OH.wav
320,192,104430,1,0,0:0:0:0:
64,192,104505,1,0,0:0:0:0:
320,192,104580,1,0,0:0:0:70:CRASH.wav
448,192,104580,1,0,0:0:0:65:KICK.wav
192,192,104655,1,0,0:0:0:0:
64,192,104730,1,0,0:0:0:70:OH.wav
448,192,104730,1,0,0:0:0:0:
320,192,104805,1,0,0:0:0:0:
64,192,104880,1,0,0:0:0:65:KICK.wav
192,192,104880,1,0,0:0:0:70:SNARE.wav
320,192,104955,1,0,0:0:0:0:
192,192,105030,1,0,0:0:0:70:OH.wav
448,192,105030,1,0,0:0:0:0:
64,192,105105,1,0,0:0:0:0:
320,192,105180,1,0,0:0:0:65:KICK.wav
448,192,105180,1,0,0:0:0:0:
192,192,105255,1,0,0:0:0:0:
64,192,105330,1,0,0:0:0:0:
192,192,105405,1,0,0:0:0:70:OH.wav
320,192,105405,1,0,0:0:0:0:
448,192,105480,1,0,0:0:0:65:KICK.wav
320,192,105555,1,0,0:0:0:0:
64,192,105630,1,0,0:0:0:70:OH.wav
192,192,105630,1,0,0:0:0:0:
448,192,105705,1,0,0:0:0:0:
64,192,105780,1,0,0:0:0:70:CRASH.wav
320,192,105780,1,0,0:0:0:65:KICK.wav
192,192,105855,1,0,0:0:0:0:
320,192,105930,1,0,0:0:0:70:OH.wav
448,192,105930,1,0,0:0:0:0:
64,192,106005,1,0,0:0:0:0:
192,192,106080,1,0,0:0:0:65:KICK.wav
448,192,106080,1,0,0:0:0:70:SNARE.wav
320,192,106155,1,0,0:0:0:0:
64,192,106230,1,0,0:0:0:70:OH.wav
192,192,106230,1,0,0:0:0:0:
448,192,106305,1,0,0:0:0:0:
64,192,106380,1,0,0:0:0:65:KICK.wav
320,192,106380,1,0,0:0:0:0:
192,192,106455,1,0,0:0:0:0:
448,192,106530,1,0,0:0:0:0:
192,192,106605,1,0,0:0:0:70:OH.wav
320,192,106605,1,0,0:0:0:0:
64,192,106680,1,0,0:0:0:65:KICK.wav
320,192,106755,1,0,0:0:0:0:
192,192,106830,1,0,0:0:0:70:OH.wav
448,192,106830,1,0,0:0:0:0:
64,192,106905,1,0,0:0:0:0:
320,192,106980,1,0,0:0:0:70:CRASH.wav
448,192,106980,1,0,0:0:0:65:KICK.wav
192,192,107055,1,0,0:0:0:0:
64,192,107130,1,0,0:0:0:0:
192,192,107205,1,0,0:0:0:70:OH.wav
320,192,107205,1,0,0:0:0:0:
448,192,107280,1,0,0:0:0:65:KICK.wav
320,192,107355,1,0,0:0:0:0:
64,192,107430,1,0,0:0:0:70:OH.wav
192,192,107430,1,0,0:0:0:0:
448,192,107505,1,0,0:0:0:0:
192,192,107580,1,0,0:0:0:70:CRASH.wav
320,192,107580,1,0,0:0:0:65:KICK.wav
64,192,107655,1,0,0:0:0:0:
192,192,107730,1,0,0:0:0:70:OH.wav
448,192,107730,1,0,0:0:0:0:
320,192,107805,1,0,0:0:0:0:
64,192,107880,1,0,0:0:0:65:KICK.wav
448,192,107880,1,0,0:0:0:70:SNARE.wav
64,192,108030,1,0,0:0:0:65:KICK.wav
320,192,108030,1,0,0:0:0:0:
192,192,108180,1,0,0:0:0:70:CRASH.wav
320,192,108180,1,0,0:0:0:65:KICK.wav
448,192,108180,1,0,0:0:0:0:
64,192,108255,1,0,0:0:0:0:
192,192,108330,1,0,0:0:0:70:OH.wav
448,192,108330,1,0,0:0:0:0:
64,192,108405,1,0,0:0:0:0:
320,192,108480,1,0,0:0:0:65:KICK.wav
448,192,108480,1,0,0:0:0:70:SNARE.wav
192,192,108555,1,0,0:0:0:0:
64,192,108630,1,0,0:0:0:70:OH.wav
448,192,108630,1,0,0:0:0:0:
320,192,108705,1,0,0:0:0:0:
64,192,108780,1,0,0:0:0:65:KICK.wav
192,192,108780,1,0,0:0:0:0:
448,192,108855,1,0,0:0:0:0:
192,192,108930,1,0,0:0:0:0:
64,192,109005,1,0,0:0:0:70:OH.wav
320,192,109005,1,0,0:0:0:0:
448,192,109080,1,0,0:0:0:65:KICK.wav
320,192,109155,1,0,0:0:0:0:
64,192,109230,1,0,0:0:0:70:OH.wav
192,192,109230,1,0,0:0:0:0:
448,192,109305,1,0,0:0:0:0:
192,192,109380,1,0,0:0:0:70:CRASH.wav
320,192,109380,1,0,0:0:0:65:KICK.wav
64,192,109455,1,0,0:0:0:0:
320,192,109530,1,0,0:0:0:70:OH.wav
448,192,109530,1,0,0:0:0:0:
192,192,109605,1,0,0:0:0:0:
64,192,109680,1,0,0:0:0:65:KICK.wav
448,192,109680,1,0,0:0:0:70:SNARE.wav
320,192,109755,1,0,0:0:0:0:
64,192,109830,1,0,0:0:0:70:OH.wav
192,192,109830,1,0,0:0:0:0:
448,192,109905,1,0,0:0:0:0:
192,192,109980,1,0,0:0:0:65:KICK.wav
320,192,109980,1,0,0:0:0:0:
64,192,110055,1,0,0:0:0:0:
448,192,110130,1,0,0:0:0:0:
64,192,110205,1,0,0:0:0:70:OH.wav
192,192,110205,1,0,0:0:0:0:
448,192,110280,1,0,0:0:0:65:KICK.wav
320,192,110355,1,0,0:0:0:0:
64,192,110430,1,0,0:0:0:70:OH.wav
192,192,110430,1,0,0:0:0:0:
448,192,110505,1,0,0:0:0:0:
192,192,110580,1,0,0:0:0:70:CRASH.wav
320,192,110580,1,0,0:0:0:65:KICK.wav
64,192,110655,1,0,0:0:0:0:
192,192,110730,1,0,0:0:0:70:OH.wav
448,192,110730,1,0,0:0:0:0:
320,192,110805,1,0,0:0:0:0:
64,192,110880,1,0,0:0:0:65:KICK.wav
448,192,110880,1,0,0:0:0:70:SNARE.wav
192,192,110955,1,0,0:0:0:0:
64,192,111030,1,0,0:0:0:70:OH.wav
320,192,111030,1,0,0:0:0:0:
448,192,111105,1,0,0:0:0:0:
192,192,111180,1,0,0:0:0:65:KICK.wav
320,192,111180,1,0,0:0:0:0:
64,192,111255,1,0,0:0:0:0:
448,192,111330,1,0,0:0:0:0:
64,192,111405,1,0,0:0:0:70:OH.wav
320,192,111405,1,0,0:0:0:0:
192,192,111480,1,0,0:0:0:65:KICK.wav
448,192,111555,1,0,0:0:0:0:
192,192,111630,1,0,0:0:0:70:OH.wav
320,192,111630,1,0,0:0:0:0:
64,192,111705,1,0,0:0:0:0:
320,192,111780,1,0,0:0:0:70:CRASH.wav
448,192,111780,1,0,0:0:0:65:KICK.wav
192,192,111855,1,0,0:0:0:0:
448,192,111930,1,0,0:0:0:0:
64,192,112005,1,0,0:0:0:70:OH.wav
320,192,112005,1,0,0:0:0:0:
192,192,112080,1,0,0:0:0:65:KICK.wav
448,192,112155,1,0,0:0:0:0:
64,192,112230,1,0,0:0:0:70:OH.wav
192,192,112230,1,0,0:0:0:0:
320,192,112305,1,0,0:0:0:0:
64,192,112380,1,0,0:0:0:70:CRASH.wav
448,192,112380,1,0,0:0:0:65:KICK.wav
192,192,112455,1,0,0:0:0:0:
320,192,112530,1,0,0:0:0:0:
64,192,112605,1,0,0:0:0:70:OH.wav
448,192,112605,1,0,0:0:0:0:
192,192,112680,1,0,0:0:0:65:KICK.wav
320,192,112680,1,0,0:0:0:70:SNARE.wav
64,192,112830,1,0,0:0:0:65:KICK.wav
320,192,112830,1,0,0:0:0:70:OH.wav
64,192,112980,1,0,0:0:0:70:CRASH.wav
448,192,112980,1,0,0:0:0:65:KICK.wav
192,192,113055,1,0,0:0:0:0:
320,192,113130,1,0,0:0:0:70:OH.wav
448,192,113130,1,0,0:0:0:0:
64,192,113205,1,0,0:0:0:0:
192,192,113280,1,0,0:0:0:65:KICK.wav
320,192,113280,1,0,0:0:0:70:SNARE.wav
448,192,113355,1,0,0:0:0:0:
64,192,113430,1,0,0:0:0:70:OH.wav
192,192,113430,1,0,0:0:0:0:
320,192,113505,1,0,0:0:0:0:
64,192,113580,1,0,0:0:0:65:KICK.wav
448,192,113580,1,0,0:0:0:0:
192,192,113655,1,0,0:0:0:0:
320,192,113730,1,0,0:0:0:0:
64,192,113805,1,0,0:0:0:70:OH.wav
192,192,113805,1,0,0:0:0:0:
448,192,113880,1,0,0:0:0:65:KICK.wav
192,192,113955,1,0,0:0:0:0:
64,192,114030,1,0,0:0:0:70:OH.wav
320,192,114030,1,0,0:0:0:0:
448,192,114105,1,0,0:0:0:0:
64,192,114180,1,0,0:0:0:70:CRASH.wav
192,192,114180,1,0,0:0:0:65:KICK.wav
320,192,114255,1,0,0:0:0:0:
192,192,114330,1,0,0:0:0:70:OH.wav
448,192,114330,1,0,0:0:0:0:
64,192,114405,1,0,0:0:0:0:
192,192,114480,1,0,0:0:0:65:KICK.wav
320,192,114480,1,0,0:0:0:70:SNARE.wav
448,192,114555,1,0,0:0:0:0:
64,192,114630,1,0,0:0:0:70:OH.wav
320,192,114630,1,0,0:0:0:0:
192,192,114705,1,0,0:0:0:0:
64,192,114780,1,0,0:0:0:65:KICK.wav
448,192,114780,1,0,0:0:0:0:
192,192,114855,1,0,0:0:0:0:
448,192,114930,1,0,0:0:0:0:
64,192,115005,1,0,0:0:0:70:OH.wav
320,192,115005,1,0,0:0:0:0:
192,192,115080,1,0,0:0:0:65:KICK.wav
448,192,115155,1,0,0:0:0:0:
192,192,115230,1,0,0:0:0:70:OH.wav
320,192,115230,1,0,0:0:0:0:
64,192,115305,1,0,0:0:0:0:
320,192,115380,1,0,0:0:0:70:CRASH.wav
448,192,115380,1,0,0:0:0:65:KICK.wav
192,192,115455,1,0,0:0:0:0:
64,192,115530,1,0,0:0:0:70:OH.wav
448,192,115530,1,0,0:0:0:0:
320,192,115605,1,0,0:0:0:0:
64,192,115680,1,0,0:0:0:65:KICK.wav
192,192,115680,1,0,0:0:0:70:SNARE.wav
448,192,115755,1,0,0:0:0:0:
192,192,115830,1,0,0:0:0:70:OH.wav
320,192,115830,1,0,0:0:0:0:
64,192,115905,1,0,0:0:0:0:
192,192,115980,1,0,0:0:0:65:KICK.wav
448,192,115980,1,0,0:0:0:0:
320,192,116055,1,0,0:0:0:0:
64,192,116130,1,0,0:0:0:0:
192,192,116205,1,0,0:0:0:70:OH.wav
320,192,116205,1,0,0:0:0:0:
448,192,116280,1,0,0:0:0:65:KICK.wav
192,192,116355,1,0,0:0:0:0:
64,192,116430,1,0,0:0:0:70:OH.wav
320,192,116430,1,0,0:0:0:0:
448,192,116505,1,0,0:0:0:0:
192,192,116580,1,0,0:0:0:70:CRASH.wav
320,192,116580,1,0,0:0:0:65:KICK.wav
64,192,116655,1,0,0:0:0:0:
192,192,116730,1,0,0:0:0:0:
320,192,116805,1,0,0:0:0:70:OH.wav
448,192,116805,1,0,0:0:0:0:
64,192,116880,1,0,0:0:0:65:KICK.wav
448,192,116955,1,0,0:0:0:0:
192,192,117030,1,0,0:0:0:70:OH.wav
320,192,117030,1,0,0:0:0:0:
64,192,117105,1,0,0:0:0:0:
320,192,117180,1,0,0:0:0:65:KICK.wav
448,192,117180,1,0,0:0:0:0:
192,192,117255,1,0,0:0:0:0:
64,192,117330,1,0,0:0:0:70:OH.wav
448,192,117330,1,0,0:0:0:0:
320,192,117405,1,0,0:0:0:0:
64,192,117480,1,0,0:0:0:50:909 SNARE.wav
192,192,117480,1,0,0:0:0:0:
320,192,117555,1,0,0:0:0:50:909 SNARE.wav
448,192,117555,1,0,0:0:0:0:
64,192,117630,1,0,0:0:0:50:909 SNARE.wav
192,192,117630,1,0,0:0:0:0:
320,192,117705,1,0,0:0:0:50:909 SNARE.wav
448,192,117705,1,0,0:0:0:0:
64,192,117780,1,0,0:0:0:70:CRASH.wav
192,192,117780,1,0,0:0:0:65:KICK.wav
320,192,117855,1,0,0:0:0:0:
192,192,117930,1,0,0:0:0:70:OH.wav
448,192,117930,1,0,0:0:0:0:
64,192,118005,1,0,0:0:0:0:
192,192,118080,1,0,0:0:0:65:KICK.wav
320,192,118080,1,0,0:0:0:70:SNARE.wav
448,192,118155,1,0,0:0:0:0:
64,192,118230,1,0,0:0:0:70:OH.wav
320,192,118230,1,0,0:0:0:0:
192,192,118305,1,0,0:0:0:0:
64,192,118380,1,0,0:0:0:65:KICK.wav
448,192,118380,1,0,0:0:0:0:
320,192,118455,1,0,0:0:0:0:
192,192,118530,1,0,0:0:0:0:
64,192,118605,1,0,0:0:0:70:OH.wav
320,192,118605,1,0,0:0:0:0:
448,192,118680,1,0,0:0:0:65:KICK.wav
192,192,118755,1,0,0:0:0:0:
64,192,118830,1,0,0:0:0:70:OH.wav
448,192,118830,1,0,0:0:0:0:
320,192,118905,1,0,0:0:0:0:
64,192,118980,1,0,0:0:0:70:CRASH.wav
192,192,118980,1,0,0:0:0:65:KICK.wav
448,192,119055,1,0,0:0:0:0:
192,192,119130,1,0,0:0:0:70:OH.wav
320,192,119130,1,0,0:0:0:0:
64,192,119205,1,0,0:0:0:0:
320,192,119280,1,0,0:0:0:65:KICK.wav
448,192,119280,1,0,0:0:0:70:SNARE.wav
192,192,119355,1,0,0:0:0:0:
64,192,119430,1,0,0:0:0:70:OH.wav
448,192,119430,1,0,0:0:0:0:
320,192,119505,1,0,0:0:0:0:
64,192,119580,1,0,0:0:0:65:KICK.wav
192,192,119580,1,0,0:0:0:0:
448,192,119655,1,0,0:0:0:0:
192,192,119730,1,0,0:0:0:0:
64,192,119805,1,0,0:0:0:70:OH.wav
320,192,119805,1,0,0:0:0:0:
448,192,119880,1,0,0:0:0:65:KICK.wav
192,192,119955,1,0,0:0:0:0:
320,192,120030,1,0,0:0:0:70:OH.wav
448,192,120030,1,0,0:0:0:0:
64,192,120105,1,0,0:0:0:0:
192,192,120180,1,0,0:0:0:70:CRASH.wav
320,192,120180,1,0,0:0:0:65:KICK.wav
448,192,120255,1,0,0:0:0:0:
64,192,120330,1,0,0:0:0:70:OH.wav
192,192,120330,1,0,0:0:0:0:
320,192,120405,1,0,0:0:0:0:
64,192,120480,1,0,0:0:0:65:KICK.wav
448,192,120480,1,0,0:0:0:70:SNARE.wav
192,192,120555,1,0,0:0:0:0:
320,192,120630,1,0,0:0:0:70:OH.wav
448,192,120630,1,0,0:0:0:0:
64,192,120705,1,0,0:0:0:0:
192,192,120780,1,0,0:0:0:65:KICK.wav
320,192,120780,1,0,0:0:0:0:
448,192,120855,1,0,0:0:0:0:
192,192,120930,1,0,0:0:0:0:
64,192,121005,1,0,0:0:0:70:OH.wav
320,192,121005,1,0,0:0:0:0:
448,192,121080,1,0,0:0:0:65:KICK.wav
192,192,121155,1,0,0:0:0:0:
320,192,121230,1,0,0:0:0:70:OH.wav
448,192,121230,1,0,0:0:0:0:
64,192,121305,1,0,0:0:0:0:
192,192,121380,1,0,0:0:0:70:CRASH.wav
320,192,121380,1,0,0:0:0:65:KICK.wav
448,192,121455,1,0,0:0:0:0:
64,192,121530,1,0,0:0:0:0:
192,192,121605,1,0,0:0:0:70:OH.wav
448,192,121605,1,0,0:0:0:0:
320,192,121680,1,0,0:0:0:65:KICK.wav
64,192,121755,1,0,0:0:0:0:
192,192,121830,1,0,0:0:0:70:OH.wav
320,192,121830,1,0,0:0:0:0:
448,192,121905,1,0,0:0:0:0:
64,192,121980,1,0,0:0:0:70:CRASH.wav
192,192,121980,1,0,0:0:0:65:KICK.wav
320,192,122055,1,0,0:0:0:0:
448,192,122130,1,0,0:0:0:0:
64,192,122205,1,0,0:0:0:70:OH.wav
192,192,122205,1,0,0:0:0:0:
320,192,122280,1,0,0:0:0:65:KICK.wav
448,192,122280,1,0,0:0:0:70:SNARE.wav
64,192,122430,1,0,0:0:0:65:KICK.wav
320,192,122430,1,0,0:0:0:70:OH.wav
64,192,122580,1,0,0:0:0:70:CRASH.wav
448,192,122580,1,0,0:0:0:65:KICK.wav
192,192,122655,1,0,0:0:0:0:
320,192,122730,1,0,0:0:0:70:OH.wav
448,192,122730,1,0,0:0:0:0:
64,192,122805,1,0,0:0:0:0:
192,192,122880,1,0,0:0:0:65:KICK.wav
320,192,122880,1,0,0:0:0:70:SNARE.wav
448,192,122955,1,0,0:0:0:0:
64,192,123030,1,0,0:0:0:70:OH.wav
192,192,123030,1,0,0:0:0:0:
320,192,123105,1,0,0:0:0:0:
64,192,123180,1,0,0:0:0:65:KICK.wav
448,192,123180,1,0,0:0:0:0:
192,192,123255,1,0,0:0:0:0:
320,192,123330,1,0,0:0:0:0:
64,192,123405,1,0,0:0:0:70:OH.wav
448,192,123405,1,0,0:0:0:0:
192,192,123480,1,0,0:0:0:65:KICK.wav
320,192,123555,1,0,0:0:0:0:
64,192,123630,1,0,0:0:0:70:OH.wav
192,192,123630,1,0,0:0:0:0:
448,192,123705,1,0,0:0:0:0:
64,192,123780,1,0,0:0:0:70:CRASH.wav
320,192,123780,1,0,0:0:0:65:KICK.wav
448,192,123855,1,0,0:0:0:0:
192,192,123930,1,0,0:0:0:70:OH.wav
320,192,123930,1,0,0:0:0:0:
64,192,124005,1,0,0:0:0:0:
192,192,124080,1,0,0:0:0:65:KICK.wav
448,192,124080,1,0,0:0:0:70:SNARE.wav
320,192,124155,1,0,0:0:0:0:
64,192,124230,1,0,0:0:0:70:OH.wav
448,192,124230,1,0,0:0:0:0:
192,192,124305,1,0,0:0:0:0:
64,192,124380,1,0,0:0:0:65:KICK.wav
320,192,124380,1,0,0:0:0:0:
448,192,124455,1,0,0:0:0:0:
192,192,124530,1,0,0:0:0:0:
320,192,124605,1,0,0:0:0:70:OH.wav
448,192,124605,1,0,0:0:0:0:
64,192,124680,1,0,0:0:0:65:KICK.wav
320,192,124755,1,0,0:0:0:0:
192,192,124830,1,0,0:0:0:70:OH.wav
448,192,124830,1,0,0:0:0:0:
64,192,124905,1,0,0:0:0:0:
192,192,124980,1,0,0:0:0:70:CRASH.wav
320,192,124980,1,0,0:0:0:65:KICK.wav
448,192,125055,1,0,0:0:0:0:
64,192,125130,1,0,0:0:0:70:OH.wav
320,192,125130,1,0,0:0:0:0:
192,192,125205,1,0,0:0:0:0:
64,192,125280,1,0,0:0:0:65:KICK.wav
448,192,125280,1,0,0:0:0:70:SNARE.wav
320,192,125355,1,0,0:0:0:0:
192,192,125430,1,0,0:0:0:70:OH.wav
448,192,125430,1,0,0:0:0:0:
64,192,125505,1,0,0:0:0:0:
192,192,125580,1,0,0:0:0:65:KICK.wav
320,192,125580,1,0,0:0:0:0:
64,192,125655,1,0,0:0:0:0:
320,192,125730,1,0,0:0:0:0:
192,192,125805,1,0,0:0:0:70:OH.wav
448,192,125805,1,0,0:0:0:0:
64,192,125880,1,0,0:0:0:65:KICK.wav
320,192,125955,1,0,0:0:0:0:
64,192,126030,1,0,0:0:0:70:OH.wav
192,192,126030,1,0,0:0:0:0:
448,192,126105,1,0,0:0:0:0:
192,192,126180,1,0,0:0:0:70:CRASH.wav
320,192,126180,1,0,0:0:0:65:KICK.wav
64,192,126255,1,0,0:0:0:0:
448,192,126330,1,0,0:0:0:0:
64,192,126405,1,0,0:0:0:70:OH.wav
192,192,126405,1,0,0:0:0:0:
320,192,126480,1,0,0:0:0:65:KICK.wav
192,192,126555,1,0,0:0:0:0:
64,192,126630,1,0,0:0:0:70:OH.wav
448,192,126630,1,0,0:0:0:0:
320,192,126705,1,0,0:0:0:0:
192,192,126780,1,0,0:0:0:70:CRASH.wav
448,192,126780,1,0,0:0:0:65:KICK.wav
64,192,126855,1,0,0:0:0:0:
192,192,126930,1,0,0:0:0:70:OH.wav
320,192,126930,1,0,0:0:0:0:
448,192,127005,1,0,0:0:0:0:
64,192,127080,1,0,0:0:0:65:KICK.wav
320,192,127080,1,0,0:0:0:70:SNARE.wav
192,192,127230,1,0,0:0:0:65:KICK.wav
320,192,127230,1,0,0:0:0:0:
64,192,127380,1,0,0:0:0:70:CRASH.wav
192,192,127380,1,0,0:0:0:65:KICK.wav
448,192,127380,1,0,0:0:0:0:
320,192,127455,1,0,0:0:0:0:
192,192,127530,1,0,0:0:0:70:OH.wav
448,192,127530,1,0,0:0:0:0:
64,192,127605,1,0,0:0:0:0:
320,192,127680,1,0,0:0:0:65:KICK.wav
448,192,127680,1,0,0:0:0:70:SNARE.wav
192,192,127755,1,0,0:0:0:0:
64,192,127830,1,0,0:0:0:70:OH.wav
320,192,127830,1,0,0:0:0:0:
448,192,127905,1,0,0:0:0:0:
64,192,127980,1,0,0:0:0:65:KICK.wav
192,192,127980,1,0,0:0:0:0:
320,192,128055,1,0,0:0:0:0:
192,192,128130,1,0,0:0:0:0:
320,192,128205,1,0,0:0:0:70:OH.wav
448,192,128205,1,0,0:0:0:0:
64,192,128280,1,0,0:0:0:65:KICK.wav
192,192,128355,1,0,0:0:0:0:
64,192,128430,1,0,0:0:0:70:OH.wav
448,192,128430,1,0,0:0:0:0:
320,192,128505,1,0,0:0:0:0:
64,192,128580,1,0,0:0:0:70:CRASH.wav
192,192,128580,1,0,0:0:0:65:KICK.wav
448,192,128655,1,0,0:0:0:0:
192,192,128730,1,0,0:0:0:70:OH.wav
320,192,128730,1,0,0:0:0:0:
64,192,128805,1,0,0:0:0:0:
320,192,128880,1,0,0:0:0:65:KICK.wav
448,192,128880,1,0,0:0:0:70:SNARE.wav
192,192,128955,1,0,0:0:0:0:
64,192,129030,1,0,0:0:0:70:OH.wav
448,192,129030,1,0,0:0:0:0:
192,192,129105,1,0,0:0:0:0:
320,192,129180,1,0,0:0:0:65:KICK.wav
448,192,129180,1,0,0:0:0:0:
64,192,129255,1,0,0:0:0:0:
192,192,129330,1,0,0:0:0:0:
64,192,129405,1,0,0:0:0:70:OH.wav
448,192,129405,1,0,0:0:0:0:
320,192,129480,1,0,0:0:0:65:KICK.wav
192,192,129555,1,0,0:0:0:0:
64,192,129630,1,0,0:0:0:70:OH.wav
448,192,129630,1,0,0:0:0:0:
320,192,129705,1,0,0:0:0:0:
64,192,129780,1,0,0:0:0:70:CRASH.wav
192,192,129780,1,0,0:0:0:65:KICK.wav
320,192,129855,1,0,0:0:0:0:
64,192,129930,1,0,0:0:0:70:OH.wav
448,192,129930,1,0,0:0:0:0:
192,192,130005,1,0,0:0:0:0:
320,192,130080,1,0,0:0:0:65:KICK.wav
448,192,130080,1,0,0:0:0:70:SNARE.wav
192,192,130155,1,0,0:0:0:0:
64,192,130230,1,0,0:0:0:70:OH.wav
320,192,130230,1,0,0:0:0:0:
448,192,130305,1,0,0:0:0:0:
64,192,130380,1,0,0:0:0:65:KICK.wav
192,192,130380,1,0,0:0:0:0:
320,192,130455,1,0,0:0:0:0:
448,192,130530,1,0,0:0:0:0:
64,192,130605,1,0,0:0:0:70:OH.wav
320,192,130605,1,0,0:0:0:0:
192,192,130680,1,0,0:0:0:65:KICK.wav
448,192,130755,1,0,0:0:0:0:
192,192,130830,1,0,0:0:0:70:OH.wav
320,192,130830,1,0,0:0:0:0:
64,192,130905,1,0,0:0:0:0:
320,192,130980,1,0,0:0:0:70:CRASH.wav
448,192,130980,1,0,0:0:0:65:KICK.wav
192,192,131055,1,0,0:0:0:0:
64,192,131130,1,0,0:0:0:0:
320,192,131205,1,0,0:0:0:70:OH.wav
448,192,131205,1,0,0:0:0:0:
192,192,131280,1,0,0:0:0:65:KICK.wav
64,192,131355,1,0,0:0:0:0:
192,192,131430,1,0,0:0:0:70:OH.wav
320,192,131430,1,0,0:0:0:0:
448,192,131505,1,0,0:0:0:0:
64,192,131580,1,0,0:0:0:70:CRASH.wav
192,192,131580,1,0,0:0:0:65:KICK.wav
320,192,131655,1,0,0:0:0:0:
448,192,131730,1,0,0:0:0:0:
64,192,131805,1,0,0:0:0:70:OH.wav
192,192,131805,1,0,0:0:0:0:
320,192,131880,1,0,0:0:0:65:KICK.wav
448,192,131880,1,0,0:0:0:70:SNARE.wav
192,192,132030,1,0,0:0:0:65:KICK.wav
320,192,132030,1,0,0:0:0:0:
64,192,132180,1,0,0:0:0:70:CRASH.wav
192,192,132180,1,0,0:0:0:65:KICK.wav
320,192,132255,1,0,0:0:0:0:
64,192,132330,1,0,0:0:0:70:OH.wav
448,192,132330,1,0,0:0:0:0:
192,192,132405,1,0,0:0:0:0:
64,192,132480,1,0,0:0:0:65:KICK.wav
320,192,132480,1,0,0:0:0:70:SNARE.wav
448,192,132555,1,0,0:0:0:0:
192,192,132630,1,0,0:0:0:70:OH.wav
320,192,132630,1,0,0:0:0:0:
64,192,132705,1,0,0:0:0:0:
192,192,132780,1,0,0:0:0:65:KICK.wav
448,192,132780,1,0,0:0:0:0:
320,192,132855,1,0,0:0:0:0:
64,192,132930,1,0,0:0:0:0:
320,192,133005,1,0,0:0:0:70:OH.wav
448,192,133005,1,0,0:0:0:0:
192,192,133080,1,0,0:0:0:65:KICK.wav
448,192,133155,1,0,0:0:0:0:
64,192,133230,1,0,0:0:0:70:OH.wav
192,192,133230,1,0,0:0:0:0:
320,192,133305,1,0,0:0:0:0:
64,192,133380,1,0,0:0:0:70:CRASH.wav
448,192,133380,1,0,0:0:0:65:KICK.wav
192,192,133455,1,0,0:0:0:0:
320,192,133530,1,0,0:0:0:70:OH.wav
448,192,133530,1,0,0:0:0:0:
64,192,133605,1,0,0:0:0:0:
192,192,133680,1,0,0:0:0:65:KICK.wav
320,192,133680,1,0,0:0:0:70:SNARE.wav
448,192,133755,1,0,0:0:0:0:
64,192,133830,1,0,0:0:0:70:OH.wav
192,192,133830,1,0,0:0:0:0:
320,192,133905,1,0,0:0:0:0:
64,192,133980,1,0,0:0:0:65:KICK.wav
448,192,133980,1,0,0:0:0:0:
192,192,134055,1,0,0:0:0:0:
320,192,134130,1,0,0:0:0:0:
192,192,134205,1,0,0:0:0:70:OH.wav
448,192,134205,1,0,0:0:0:0:
64,192,134280,1,0,0:0:0:65:KICK.wav
320,192,134355,1,0,0:0:0:0:
64,192,134430,1,0,0:0:0:70:OH.wav
192,192,134430,1,0,0:0:0:0:
448,192,134505,1,0,0:0:0:0:
192,192,134580,1,0,0:0:0:70:CRASH.wav
320,192,134580,1,0,0:0:0:65:KICK.wav
64,192,134655,1,0,0:0:0:0:
320,192,134730,1,0,0:0:0:70:OH.wav
448,192,134730,1,0,0:0:0:0:
192,192,134805,1,0,0:0:0:0:
64,192,134880,1,0,0:0:0:65:KICK.wav
448,192,134880,1,0,0:0:0:70:SNARE.wav
320,192,134955,1,0,0:0:0:0:
64,192,135030,1,0,0:0:0:70:OH.wav
192,192,135030,1,0,0:0:0:0:
448,192,135105,1,0,0:0:0:0:
192,192,135180,1,0,0:0:0:65:KICK.wav
320,192,135180,1,0,0:0:0:0:
64,192,135255,1,0,0:0:0:0:
320,192,135330,1,0,0:0:0:0:
64,192,135405,1,0,0:0:0:70:OH.wav
448,192,135405,1,0,0:0:0:0:
192,192,135480,1,0,0:0:0:65:KICK.wav
448,192,135555,1,0,0:0:0:0:
64,192,135630,1,0,0:0:0:70:OH.wav
320,192,135630,1,0,0:0:0:0:
192,192,135705,1,0,0:0:0:0:
320,192,135780,1,0,0:0:0:65:KICK.wav
448,192,135780,1,0,0:0:0:0:
64,192,135930,1,0,0:0:0:70:CH.wav
192,192,135967,1,0,0:0:0:0:
448,192,136005,1,0,0:0:0:0:
320,192,136042,1,0,0:0:0:0:
64,192,136080,1,0,0:0:0:0:
192,192,136117,1,0,0:0:0:0:
448,192,136155,1,0,0:0:0:0:
320,192,136192,1,0,0:0:0:0:
64,192,136230,1,0,0:0:0:70:CH.wav
192,192,136267,1,0,0:0:0:0:
320,192,136305,1,0,0:0:0:0:
448,192,136342,1,0,0:0:0:0:
64,192,136380,1,0,0:0:0:0:
192,192,136417,1,0,0:0:0:0:
320,192,136455,1,0,0:0:0:0:
448,192,136492,1,0,0:0:0:0:
64,192,136530,1,0,0:0:0:70:CH.wav
192,192,136567,1,0,0:0:0:0:
448,192,136605,1,0,0:0:0:0:
320,192,136642,1,0,0:0:0:0:
64,192,136680,1,0,0:0:0:0:
192,192,136717,1,0,0:0:0:0:
448,192,136755,1,0,0:0:0:0:
320,192,136792,1,0,0:0:0:0:
192,192,136830,1,0,0:0:0:70:CH.wav
64,192,136867,1,0,0:0:0:0:
320,192,136905,1,0,0:0:0:0:
192,192,136942,1,0,0:0:0:0:
64,192,136980,1,0,0:0:0:70:CRASH.wav
448,192,136980,128,0,138180:0:0:0:65:KICK.wav
192,192,137130,1,0,0:0:0:0:
64,192,137205,1,0,0:0:0:0:
320,192,137280,1,0,0:0:0:0:
64,192,137430,1,0,0:0:0:0:
192,192,137580,1,0,0:0:0:0:
320,192,137730,1,0,0:0:0:0:
64,192,137880,1,0,0:0:0:0:
192,192,138030,1,0,0:0:0:0:
64,192,138180,1,0,0:0:0:0:
192,192,138330,1,0,0:0:0:0:
320,192,138405,1,0,0:0:0:0:
448,192,138480,1,0,0:0:0:0:
192,192,138630,128,0,138705:0:0:0:70:OH.wav
320,192,138780,128,0,138855:0:0:0:70:OH.wav
64,192,138930,128,0,139005:0:0:0:70:OH.wav
448,192,139080,1,0,0:0:0:0:
192,192,139230,1,0,0:0:0:70:OH.wav
320,192,139230,128,0,139530:0:0:0:0:
448,192,139380,1,0,0:0:0:0:
64,192,139530,128,0,139830:0:0:0:70:OH.wav
192,192,139530,1,0,0:0:0:0:
448,192,139605,1,0,0:0:0:0:
320,192,139680,1,0,0:0:0:0:
192,192,139830,128,0,140130:0:0:0:70:OH.wav
64,192,139980,1,0,0:0:0:0:
320,192,140130,128,0,140280:0:0:0:70:OH.wav
64,192,140280,1,0,0:0:0:0:
192,192,140430,1,0,0:0:0:70:OH.wav
448,192,140430,128,0,140730:0:0:0:0:
64,192,140580,1,0,0:0:0:0:
192,192,140730,128,0,141030:0:0:0:70:OH.wav
320,192,140730,1,0,0:0:0:0:
64,192,140805,1,0,0:0:0:0:
448,192,140880,1,0,0:0:0:0:
320,192,141030,128,0,141330:0:0:0:70:OH.wav
448,192,141180,1,0,0:0:0:0:
64,192,141330,128,0,141480:0:0:0:70:OH.wav
192,192,141330,1,0,0:0:0:0:
320,192,141480,1,0,0:0:0:0:
192,192,141630,1,0,0:0:0:70:OH.wav
448,192,141630,128,0,142680:0:0:0:0:
64,192,141780,1,0,0:0:0:0:
192,192,141930,1,0,0:0:0:0:
320,192,142005,1,0,0:0:0:0:
64,192,142080,1,0,0:0:0:0:
192,192,142230,1,0,0:0:0:0:
64,192,142380,1,0,0:0:0:0:
192,192,142530,1,0,0:0:0:0:
320,192,142680,1,0,0:0:0:0:
64,192,142830,1,0,0:0:0:0:
448,192,142980,1,0,0:0:0:0:
192,192,143130,1,0,0:0:0:0:
320,192,143205,1,0,0:0:0:0:
448,192,143280,1,0,0:0:0:0:
64,192,143430,1,0,0:0:0:0:
192,192,143580,128,0,144180:0:0:0:70:OH.wav
320,192,143580,1,0,0:0:0:0:
448,192,143730,1,0,0:0:0:0:
320,192,143880,1,0,0:0:0:0:
64,192,144030,1,0,0:0:0:0:
320,192,144180,1,0,0:0:0:70:OH.wav
448,192,144180,128,0,145380:0:0:0:0:
64,192,144330,1,0,0:0:0:0:
192,192,144405,1,0,0:0:0:0:
320,192,144480,1,0,0:0:0:0:
192,192,144630,1,0,0:0:0:0:
64,192,144780,1,0,0:0:0:0:
320,192,144930,1,0,0:0:0:0:
192,192,145080,1,0,0:0:0:0:
320,192,145230,1,0,0:0:0:0:
64,192,145380,1,0,0:0:0:0:
192,192,145530,1,0,0:0:0:0:
320,192,145605,1,0,0:0:0:0:
448,192,145680,1,0,0:0:0:0:
64,192,145830,128,0,145905:0:0:0:70:OH.wav
192,192,145980,128,0,146055:0:0:0:70:OH.wav
320,192,146130,128,0,146430:0:0:0:70:OH.wav
448,192,146130,1,0,0:0:0:0:
64,192,146280,1,0,0:0:0:0:
64,192,146430,1,0,0:0:0:70:OH.wav
192,192,146430,128,0,147780:0:0:0:0:
320,192,146580,1,0,0:0:0:0:
448,192,146730,1,0,0:0:0:70:CH.wav
320,192,146805,1,0,0:0:0:0:
448,192,146880,1,0,0:0:0:0:
64,192,147030,1,0,0:0:0:70:CH.wav
320,192,147180,1,0,0:0:0:0:
64,192,147330,1,0,0:0:0:70:CH.wav
320,192,147480,1,0,0:0:0:0:
64,192,147630,1,0,0:0:0:70:CH.wav
448,192,147780,1,0,0:0:0:0:
320,192,147930,1,0,0:0:0:70:CH.wav
192,192,148005,1,0,0:0:0:0:
64,192,148080,1,0,0:0:0:0:
192,192,148230,128,0,148305:0:0:0:70:OH.wav
448,192,148230,1,0,0:0:0:70:CH.wav
320,192,148380,128,0,148455:0:0:0:70:OH.wav
64,192,148530,1,0,0:0:0:70:OH.wav
448,192,148530,128,0,148605:0:0:0:70:CH.wav
320,192,148680,1,0,0:0:0:0:
64,192,148830,1,0,0:0:0:70:OH.wav
192,192,148830,128,0,149130:0:0:0:70:CH.wav
448,192,148980,1,0,0:0:0:0:
320,192,149130,128,0,149430:0:0:0:70:OH.wav
64,192,149205,1,0,0:0:0:0:
448,192,149280,1,0,0:0:0:0:
64,192,149430,128,0,149730:0:0:0:70:OH.wav
192,192,149430,1,0,0:0:0:70:CH.wav
320,192,149580,1,0,0:0:0:0:
192,192,149730,1,0,0:0:0:70:OH.wav
448,192,149730,128,0,149880:0:0:0:70:CH.wav
320,192,149880,1,0,0:0:0:0:
64,192,150030,1,0,0:0:0:70:OH.wav
192,192,150030,128,0,150330:0:0:0:70:CH.wav
320,192,150180,1,0,0:0:0:0:
448,192,150330,128,0,150630:0:0:0:70:OH.wav
320,192,150405,1,0,0:0:0:0:
64,192,150480,1,0,0:0:0:0:
192,192,150630,1,0,0:0:0:70:OH.wav
320,192,150630,128,0,150930:0:0:0:70:CH.wav
448,192,150780,1,0,0:0:0:0:
64,192,150930,128,0,151230:0:0:0:70:OH.wav
192,192,150930,1,0,0:0:0:70:CH.wav
448,192,151080,1,0,0:0:0:0:
320,192,151230,128,0,151380:0:0:0:70:OH.wav
64,192,151380,1,0,0:0:0:65:KICK.wav
192,192,151380,1,0,0:0:0:70:OH.wav
448,192,151455,1,0,0:0:0:0:
320,192,151530,1,0,0:0:0:70:CH.wav
64,192,151605,1,0,0:0:0:0:
320,192,151680,1,0,0:0:0:65:KICK.wav
448,192,151680,1,0,0:0:0:70:CLAP.wav
192,192,151755,1,0,0:0:0:0:
64,192,151830,1,0,0:0:0:70:CH.wav
448,192,151905,1,0,0:0:0:0:
192,192,151980,1,0,0:0:0:65:KICK.wav
320,192,151980,1,0,0:0:0:0:
64,192,152055,1,0,0:0:0:0:
448,192,152130,1,0,0:0:0:70:CH.wav
320,192,152205,1,0,0:0:0:0:
64,192,152280,1,0,0:0:0:65:KICK.wav
192,192,152280,1,0,0:0:0:70:CLAP.wav
448,192,152355,1,0,0:0:0:0:
320,192,152430,1,0,0:0:0:70:CH.wav
64,192,152505,1,0,0:0:0:0:
192,192,152580,1,0,0:0:0:65:KICK.wav
448,192,152580,1,0,0:0:0:70:OH.wav
320,192,152655,1,0,0:0:0:0:
64,192,152730,1,0,0:0:0:70:CH.wav
192,192,152805,1,0,0:0:0:0:
320,192,152880,1,0,0:0:0:65:KICK.wav
448,192,152880,1,0,0:0:0:70:CLAP.wav
64,192,152955,1,0,0:0:0:0:
448,192,153030,1,0,0:0:0:70:CH.wav
320,192,153105,1,0,0:0:0:0:
64,192,153180,1,0,0:0:0:65:KICK.wav
192,192,153180,128,0,153255:0:0:0:70:OH.wav
448,192,153255,1,0,0:0:0:0:
320,192,153330,1,0,0:0:0:70:CH.wav
192,192,153405,1,0,0:0:0:0:
64,192,153480,1,0,0:0:0:65:KICK.wav
448,192,153480,1,0,0:0:0:70:CLAP.wav
320,192,153555,1,0,0:0:0:0:
192,192,153630,1,0,0:0:0:70:CH.wav
448,192,153705,1,0,0:0:0:0:
64,192,153780,1,0,0:0:0:65:KICK.wav
320,192,153780,128,0,153855:0:0:0:70:OH.wav
64,192,153930,1,0,0:0:0:65:KICK.wav
192,192,153930,1,0,0:0:0:70:CH.wav
192,192,154080,1,0,0:0:0:65:KICK.wav
448,192,154080,1,0,0:0:0:0:
320,192,154230,1,0,0:0:0:65:KICK.wav
448,192,154230,1,0,0:0:0:70:CH.wav
64,192,154380,1,0,0:0:0:65:KICK.wav
320,192,154380,1,0,0:0:0:0:
64,192,154530,1,0,0:0:0:65:KICK.wav
192,192,154530,1,0,0:0:0:70:CH.wav
192,192,154680,1,0,0:0:0:65:KICK.wav
448,192,154680,1,0,0:0:0:0:
64,192,154830,1,0,0:0:0:65:KICK.wav
448,192,154830,1,0,0:0:0:70:CH.wav
192,192,154980,1,0,0:0:0:0:
320,192,154980,1,0,0:0:0:0:
448,192,155055,1,0,0:0:0:0:
192,192,155130,1,0,0:0:0:70:CH.wav
64,192,155205,1,0,0:0:0:0:
320,192,155205,1,0,0:0:0:0:
448,192,155280,1,0,0:0:0:0:
64,192,155355,1,0,0:0:0:0:
320,192,155430,1,0,0:0:0:70:CH.wav
448,192,155430,1,0,0:0:0:0:
192,192,155505,1,0,0:0:0:0:
64,192,155580,1,0,0:0:0:0:
320,192,155655,1,0,0:0:0:0:
64,192,155730,1,0,0:0:0:70:CH.wav
448,192,155730,1,0,0:0:0:0:
192,192,155805,1,0,0:0:0:0:
448,192,155880,1,0,0:0:0:0:
320,192,155917,1,0,0:0:0:0:
64,192,155955,1,0,0:0:0:0:
192,192,155992,1,0,0:0:0:0:
448,192,156030,1,0,0:0:0:70:CH.wav
320,192,156067,1,0,0:0:0:0:
64,192,156105,1,0,0:0:0:0:
192,192,156142,1,0,0:0:0:0:
320,192,156180,1,0,0:0:0:70:CRASH.wav
448,192,156180,1,0,0:0:0:65:KICK.wav
64,192,156255,1,0,0:0:0:0:
192,192,156330,1,0,0:0:0:70:OH.wav
320,192,156330,1,0,0:0:0:0:
448,192,156405,1,0,0:0:0:0:
64,192,156480,1,0,0:0:0:65:KICK.wav
192,192,156480,1,0,0:0:0:70:SNARE.wav
448,192,156555,1,0,0:0:0:0:
64,192,156630,1,0,0:0:0:70:OH.wav
320,192,156630,1,0,0:0:0:0:
448,192,156705,1,0,0:0:0:0:
64,192,156780,1,0,0:0:0:65:KICK.wav
192,192,156780,1,0,0:0:0:0:
320,192,156855,1,0,0:0:0:0:
64,192,156930,1,0,0:0:0:70:OH.wav
192,192,156930,1,0,0:0:0:0:
448,192,157005,1,0,0:0:0:0:
64,192,157080,1,0,0:0:0:65:KICK.wav
192,192,157080,1,0,0:0:0:70:SNARE.wav
320,192,157155,1,0,0:0:0:0:
64,192,157230,1,0,0:0:0:70:OH.wav
192,192,157230,1,0,0:0:0:0:
448,192,157305,1,0,0:0:0:0:
192,192,157380,1,0,0:0:0:70:CRASH.wav
320,192,157380,1,0,0:0:0:65:KICK.wav
64,192,157455,1,0,0:0:0:0:
192,192,157530,1,0,0:0:0:70:OH.wav
448,192,157530,1,0,0:0:0:0:
320,192,157605,1,0,0:0:0:0:
64,192,157680,1,0,0:0:0:65:KICK.wav
448,192,157680,1,0,0:0:0:70:SNARE.wav
192,192,157755,1,0,0:0:0:0:
320,192,157830,1,0,0:0:0:70:OH.wav
448,192,157830,1,0,0:0:0:0:
64,192,157905,1,0,0:0:0:0:
192,192,157980,1,0,0:0:0:65:KICK.wav
320,192,157980,1,0,0:0:0:0:
448,192,158055,1,0,0:0:0:0:
192,192,158130,1,0,0:0:0:70:OH.wav
320,192,158130,1,0,0:0:0:0:
64,192,158205,1,0,0:0:0:0:
192,192,158280,1,0,0:0:0:65:KICK.wav
320,192,158280,1,0,0:0:0:70:SNARE.wav
448,192,158355,1,0,0:0:0:0:
192,192,158430,1,0,0:0:0:70:OH.wav
320,192,158430,1,0,0:0:0:0:
64,192,158505,1,0,0:0:0:0:
320,192,158580,1,0,0:0:0:70:CRASH.wav
448,192,158580,1,0,0:0:0:65:KICK.wav
192,192,158655,1,0,0:0:0:0:
64,192,158730,1,0,0:0:0:70:OH.wav
320,192,158730,1,0,0:0:0:0:
448,192,158805,1,0,0:0:0:0:
64,192,158880,1,0,0:0:0:65:KICK.wav
192,192,158880,1,0,0:0:0:70:SNARE.wav
320,192,158955,1,0,0:0:0:0:
192,192,159030,1,0,0:0:0:70:OH.wav
448,192,159030,1,0,0:0:0:0:
64,192,159105,1,0,0:0:0:0:
320,192,159180,1,0,0:0:0:65:KICK.wav
448,192,159180,1,0,0:0:0:0:
192,192,159255,1,0,0:0:0:0:
320,192,159330,1,0,0:0:0:70:OH.wav
448,192,159330,1,0,0:0:0:0:
64,192,159405,1,0,0:0:0:0:
320,192,159480,1,0,0:0:0:65:KICK.wav
448,192,159480,1,0,0:0:0:70:SNARE.wav
192,192,159555,1,0,0:0:0:0:
320,192,159630,1,0,0:0:0:70:OH.wav
448,192,159630,1,0,0:0:0:0:
64,192,159705,1,0,0:0:0:0:
192,192,159780,1,0,0:0:0:70:CRASH.wav
320,192,159780,1,0,0:0:0:65:KICK.wav
448,192,159855,1,0,0:0:0:0:
64,192,159930,1,0,0:0:0:70:OH.wav
192,192,159930,1,0,0:0:0:0:
320,192,160005,1,0,0:0:0:0:
64,192,160080,1,0,0:0:0:65:KICK.wav
448,192,160080,1,0,0:0:0:70:SNARE.wav
192,192,160155,1,0,0:0:0:0:
320,192,160230,1,0,0:0:0:70:OH.wav
448,192,160230,1,0,0:0:0:0:
192,192,160305,1,0,0:0:0:0:
64,192,160380,1,0,0:0:0:65:KICK.wav
320,192,160380,1,0,0:0:0:0:
448,192,160455,1,0,0:0:0:0:
64,192,160530,1,0,0:0:0:70:OH.wav
192,192,160530,1,0,0:0:0:0:
64,192,160680,1,0,0:0:0:65:KICK.wav
320,192,160680,1,0,0:0:0:70:SNARE.wav
448,192,160680,1,0,0:0:0:0:
64,192,160830,1,0,0:0:0:65:KICK.wav
192,192,160830,1,0,0:0:0:70:OH.wav
448,192,160830,1,0,0:0:0:0:
64,192,160980,1,0,0:0:0:70:CRASH.wav
192,192,160980,1,0,0:0:0:65:KICK.wav
320,192,160980,1,0,0:0:0:0:
448,192,161055,1,0,0:0:0:0:
192,192,161130,1,0,0:0:0:70:OH.wav
320,192,161130,1,0,0:0:0:0:
448,192,161205,1,0,0:0:0:0:
64,192,161280,1,0,0:0:0:65:KICK.wav
320,192,161280,1,0,0:0:0:70:SNARE.wav
192,192,161355,1,0,0:0:0:0:
64,192,161430,1,0,0:0:0:70:OH.wav
448,192,161430,1,0,0:0:0:0:
320,192,161505,1,0,0:0:0:0:
192,192,161580,1,0,0:0:0:65:KICK.wav
448,192,161580,1,0,0:0:0:0:
64,192,161655,1,0,0:0:0:0:
192,192,161730,1,0,0:0:0:70:OH.wav
448,192,161730,1,0,0:0:0:0:
320,192,161805,1,0,0:0:0:0:
192,192,161880,1,0,0:0:0:65:KICK.wav
448,192,161880,1,0,0:0:0:70:SNARE.wav
64,192,161955,1,0,0:0:0:0:
192,192,162030,1,0,0:0:0:70:OH.wav
448,192,162030,1,0,0:0:0:0:
320,192,162105,1,0,0:0:0:0:
64,192,162180,1,0,0:0:0:70:CRASH.wav
448,192,162180,1,0,0:0:0:65:KICK.wav
192,192,162255,1,0,0:0:0:0:
64,192,162330,1,0,0:0:0:70:OH.wav
320,192,162330,1,0,0:0:0:0:
448,192,162405,1,0,0:0:0:0:
192,192,162480,1,0,0:0:0:65:KICK.wav
320,192,162480,1,0,0:0:0:70:SNARE.wav
448,192,162555,1,0,0:0:0:0:
64,192,162630,1,0,0:0:0:70:OH.wav
192,192,162630,1,0,0:0:0:0:
448,192,162705,1,0,0:0:0:0:
64,192,162780,1,0,0:0:0:65:KICK.wav
320,192,162780,1,0,0:0:0:0:
192,192,162855,1,0,0:0:0:0:
64,192,162930,1,0,0:0:0:70:OH.wav
320,192,162930,1,0,0:0:0:0:
448,192,163005,1,0,0:0:0:0:
64,192,163080,1,0,0:0:0:65:KICK.wav
320,192,163080,1,0,0:0:0:70:SNARE.wav
192,192,163155,1,0,0:0:0:0:
64,192,163230,1,0,0:0:0:70:OH.wav
320,192,163230,1,0,0:0:0:0:
448,192,163305,1,0,0:0:0:0:
64,192,163380,1,0,0:0:0:70:CRASH.wav
192,192,163380,1,0,0:0:0:65:KICK.wav
320,192,163455,1,0,0:0:0:0:
64,192,163530,1,0,0:0:0:70:OH.wav
448,192,163530,1,0,0:0:0:0:
192,192,163605,1,0,0:0:0:0:
320,192,163680,1,0,0:0:0:65:KICK.wav
448,192,163680,1,0,0:0:0:70:SNARE.wav
64,192,163755,1,0,0:0:0:0:
192,192,163830,1,0,0:0:0:70:OH.wav
448,192,163830,1,0,0:0:0:0:
320,192,163905,1,0,0:0:0:0:
64,192,163980,1,0,0:0:0:65:KICK.wav
448,192,163980,1,0,0:0:0:0:
192,192,164055,1,0,0:0:0:0:
64,192,164130,1,0,0:0:0:70:OH.wav
448,192,164130,1,0,0:0:0:0:
320,192,164205,1,0,0:0:0:0:
64,192,164280,1,0,0:0:0:65:KICK.wav
448,192,164280,1,0,0:0:0:70:SNARE.wav
192,192,164355,1,0,0:0:0:0:
64,192,164430,1,0,0:0:0:70:OH.wav
448,192,164430,1,0,0:0:0:0:
320,192,164505,1,0,0:0:0:0:
64,192,164580,1,0,0:0:0:70:CRASH.wav
192,192,164580,1,0,0:0:0:65:KICK.wav
448,192,164655,1,0,0:0:0:0:
64,192,164730,1,0,0:0:0:70:OH.wav
320,192,164730,1,0,0:0:0:0:
192,192,164805,1,0,0:0:0:0:
320,192,164880,1,0,0:0:0:65:KICK.wav
448,192,164880,1,0,0:0:0:70:SNARE.wav
64,192,164955,1,0,0:0:0:0:
192,192,165030,1,0,0:0:0:70:OH.wav
448,192,165030,1,0,0:0:0:0:
320,192,165105,1,0,0:0:0:0:
64,192,165180,1,0,0:0:0:65:KICK.wav
192,192,165180,1,0,0:0:0:0:
448,192,165255,1,0,0:0:0:0:
192,192,165330,1,0,0:0:0:70:OH.wav
320,192,165330,1,0,0:0:0:0:
64,192,165480,1,0,0:0:0:65:KICK.wav
192,192,165480,1,0,0:0:0:70:SNARE.wav
448,192,165480,1,0,0:0:0:0:
64,192,165630,1,0,0:0:0:65:KICK.wav
320,192,165630,1,0,0:0:0:70:OH.wav
448,192,165630,1,0,0:0:0:0:
192,192,165780,1,0,0:0:0:70:CRASH.wav
320,192,165780,1,0,0:0:0:65:KICK.wav
448,192,165780,1,0,0:0:0:0:
64,192,165855,1,0,0:0:0:0:
192,192,165930,1,0,0:0:0:70:OH.wav
320,192,165930,1,0,0:0:0:0:
448,192,166005,1,0,0:0:0:0:
64,192,166080,1,0,0:0:0:65:KICK.wav
192,192,166080,1,0,0:0:0:70:SNARE.wav
320,192,166155,1,0,0:0:0:0:
64,192,166230,1,0,0:0:0:70:OH.wav
448,192,166230,1,0,0:0:0:0:
192,192,166305,1,0,0:0:0:0:
320,192,166380,1,0,0:0:0:65:KICK.wav
448,192,166380,1,0,0:0:0:0:
64,192,166455,1,0,0:0:0:0:
320,192,166530,1,0,0:0:0:70:OH.wav
448,192,166530,1,0,0:0:0:0:
192,192,166605,1,0,0:0:0:0:
320,192,166680,1,0,0:0:0:65:KICK.wav
448,192,166680,1,0,0:0:0:70:SNARE.wav
64,192,166755,1,0,0:0:0:0:
320,192,166830,1,0,0:0:0:70:OH.wav
448,192,166830,1,0,0:0:0:0:
192,192,166905,1,0,0:0:0:0:
64,192,166980,1,0,0:0:0:70:CRASH.wav
448,192,166980,1,0,0:0:0:65:KICK.wav
320,192,167055,1,0,0:0:0:0:
64,192,167130,1,0,0:0:0:70:OH.wav
192,192,167130,1,0,0:0:0:0:
448,192,167205,1,0,0:0:0:0:
192,192,167280,1,0,0:0:0:65:KICK.wav
320,192,167280,1,0,0:0:0:70:SNARE.wav
64,192,167355,1,0,0:0:0:0:
320,192,167430,1,0,0:0:0:70:OH.wav
448,192,167430,1,0,0:0:0:0:
192,192,167505,1,0,0:0:0:0:
64,192,167580,1,0,0:0:0:65:KICK.wav
448,192,167580,1,0,0:0:0:0:
320,192,167655,1,0,0:0:0:0:
64,192,167730,1,0,0:0:0:70:OH.wav
448,192,167730,1,0,0:0:0:0:
192,192,167805,1,0,0:0:0:0:
64,192,167880,1,0,0:0:0:65:KICK.wav
448,192,167880,1,0,0:0:0:70:SNARE.wav
320,192,167955,1,0,0:0:0:0:
64,192,168030,1,0,0:0:0:70:OH.wav
448,192,168030,1,0,0:0:0:0:
192,192,168105,1,0,0:0:0:0:
320,192,168180,1,0,0:0:0:70:CRASH.wav
448,192,168180,1,0,0:0:0:65:KICK.wav
64,192,168255,1,0,0:0:0:0:
192,192,168330,1,0,0:0:0:70:OH.wav
448,192,168330,1,0,0:0:0:0:
320,192,168405,1,0,0:0:0:0:
64,192,168480,1,0,0:0:0:65:KICK.wav
448,192,168480,1,0,0:0:0:70:SNARE.wav
320,192,168555,1,0,0:0:0:0:
64,192,168630,1,0,0:0:0:70:OH.wav
192,192,168630,1,0,0:0:0:0:
448,192,168705,1,0,0:0:0:0:
192,192,168780,1,0,0:0:0:65:KICK.wav
320,192,168780,1,0,0:0:0:0:
64,192,168855,1,0,0:0:0:0:
192,192,168930,1,0,0:0:0:70:OH.wav
320,192,168930,1,0,0:0:0:0:
448,192,169005,1,0,0:0:0:0:
192,192,169080,1,0,0:0:0:65:KICK.wav
320,192,169080,1,0,0:0:0:70:SNARE.wav
64,192,169155,1,0,0:0:0:0:
192,192,169230,1,0,0:0:0:70:OH.wav
320,192,169230,1,0,0:0:0:0:
448,192,169305,1,0,0:0:0:0:
64,192,169380,1,0,0:0:0:70:CRASH.wav
192,192,169380,1,0,0:0:0:65:KICK.wav
320,192,169455,1,0,0:0:0:0:
64,192,169530,1,0,0:0:0:70:OH.wav
448,192,169530,1,0,0:0:0:0:
192,192,169605,1,0,0:0:0:0:
320,192,169680,1,0,0:0:0:65:KICK.wav
448,192,169680,1,0,0:0:0:70:SNARE.wav
64,192,169755,1,0,0:0:0:0:
192,192,169830,1,0,0:0:0:70:OH.wav
320,192,169830,1,0,0:0:0:0:
448,192,169905,1,0,0:0:0:0:
64,192,169980,1,0,0:0:0:65:KICK.wav
192,192,169980,1,0,0:0:0:0:
192,192,170130,1,0,0:0:0:70:OH.wav
320,192,170130,1,0,0:0:0:0:
64,192,170205,1,0,0:0:0:0:
192,192,170280,1,0,0:0:0:65:KICK.wav
320,192,170280,1,0,0:0:0:70:SNARE.wav
448,192,170280,1,0,0:0:0:0:
64,192,170430,1,0,0:0:0:65:KICK.wav
320,192,170430,1,0,0:0:0:70:OH.wav
448,192,170430,1,0,0:0:0:0:
64,192,170580,1,0,0:0:0:70:CRASH.wav
192,192,170580,1,0,0:0:0:65:KICK.wav
448,192,170580,1,0,0:0:0:0:
320,192,170655,1,0,0:0:0:0:
64,192,170730,1,0,0:0:0:70:OH.wav
192,192,170730,1,0,0:0:0:0:
448,192,170805,1,0,0:0:0:0:
64,192,170880,1,0,0:0:0:65:KICK.wav
320,192,170880,1,0,0:0:0:70:SNARE.wav
192,192,170955,1,0,0:0:0:0:
320,192,171030,1,0,0:0:0:70:OH.wav
448,192,171030,1,0,0:0:0:0:
64,192,171105,1,0,0:0:0:0:
192,192,171180,1,0,0:0:0:65:KICK.wav
448,192,171180,1,0,0:0:0:0:
320,192,171255,1,0,0:0:0:0:
192,192,171330,1,0,0:0:0:70:OH.wav
448,192,171330,1,0,0:0:0:0:
64,192,171405,1,0,0:0:0:0:
192,192,171480,1,0,0:0:0:65:KICK.wav
448,192,171480,1,0,0:0:0:70:SNARE.wav
320,192,171555,1,0,0:0:0:0:
192,192,171630,1,0,0:0:0:70:OH.wav
448,192,171630,1,0,0:0:0:0:
64,192,171705,1,0,0:0:0:0:
320,192,171780,1,0,0:0:0:70:CRASH.wav
448,192,171780,1,0,0:0:0:65:KICK.wav
192,192,171855,1,0,0:0:0:0:
64,192,171930,1,0,0:0:0:70:OH.wav
448,192,171930,1,0,0:0:0:0:
320,192,172005,1,0,0:0:0:0:
64,192,172080,1,0,0:0:0:65:KICK.wav
192,192,172080,1,0,0:0:0:70:SNARE.wav
320,192,172155,1,0,0:0:0:0:
64,192,172230,1,0,0:0:0:70:OH.wav
448,192,172230,1,0,0:0:0:0:
192,192,172305,1,0,0:0:0:0:
64,192,172380,1,0,0:0:0:65:KICK.wav
320,192,172380,1,0,0:0:0:0:
448,192,172455,1,0,0:0:0:0:
64,192,172530,1,0,0:0:0:70:OH.wav
320,192,172530,1,0,0:0:0:0:
192,192,172605,1,0,0:0:0:0:
64,192,172680,1,0,0:0:0:65:KICK.wav
320,192,172680,1,0,0:0:0:70:SNARE.wav
448,192,172755,1,0,0:0:0:0:
64,192,172830,1,0,0:0:0:70:OH.wav
320,192,172830,1,0,0:0:0:0:
192,192,172905,1,0,0:0:0:0:
320,192,172980,1,0,0:0:0:70:CRASH.wav
448,192,172980,1,0,0:0:0:65:KICK.wav
64,192,173055,1,0,0:0:0:0:
192,192,173130,1,0,0:0:0:70:OH.wav
320,192,173130,1,0,0:0:0:0:
448,192,173205,1,0,0:0:0:0:
64,192,173280,1,0,0:0:0:65:KICK.wav
320,192,173280,1,0,0:0:0:70:SNARE.wav
192,192,173355,1,0,0:0:0:0:
320,192,173430,1,0,0:0:0:70:OH.wav
448,192,173430,1,0,0:0:0:0:
192,192,173505,1,0,0:0:0:0:
64,192,173580,1,0,0:0:0:65:KICK.wav
448,192,173580,1,0,0:0:0:0:
320,192,173655,1,0,0:0:0:0:
64,192,173730,1,0,0:0:0:70:OH.wav
448,192,173730,1,0,0:0:0:0:
192,192,173805,1,0,0:0:0:0:
64,192,173880,1,0,0:0:0:65:KICK.wav
448,192,173880,1,0,0:0:0:70:SNARE.wav
320,192,173955,1,0,0:0:0:0:
64,192,174030,1,0,0:0:0:70:OH.wav
448,192,174030,1,0,0:0:0:0:
192,192,174105,1,0,0:0:0:0:
320,192,174180,1,0,0:0:0:0:
448,192,174180,1,0,0:0:0:0:
64,192,174255,1,0,0:0:0:0:
320,192,174330,1,0,0:0:0:70:CH.wav
192,192,174405,1,0,0:0:0:0:
448,192,174405,1,0,0:0:0:0:
64,192,174480,1,0,0:0:0:0:
448,192,174555,1,0,0:0:0:0:
192,192,174630,128,0,174680:0:0:0:70:OH.wav
320,192,174630,1,0,0:0:0:70:CH.wav
64,192,174705,1,0,0:0:0:0:
320,192,174780,128,0,174830:0:0:0:70:OH.wav
448,192,174780,1,0,0:0:0:0:
192,192,174855,1,0,0:0:0:0:
64,192,174930,128,0,174980:0:0:0:70:OH.wav
448,192,174930,1,0,0:0:0:70:CH.wav
192,192,175005,1,0,0:0:0:0:
448,192,175080,1,0,0:0:0:0:
320,192,175117,1,0,0:0:0:0:
64,192,175155,1,0,0:0:0:0:
192,192,175192,1,0,0:0:0:0:
448,192,175230,128,0,175280:0:0:0:70:OH.wav
320,192,175267,1,0,0:0:0:0:
64,192,175305,1,0,0:0:0:0:
192,192,175342,1,0,0:0:0:0:
320,192,175380,1,0,0:0:0:70:CRASH.wav
448,192,175380,1,0,0:0:0:65:KICK.wav
64,192,175455,1,0,0:0:0:0:
192,192,175530,1,0,0:0:0:70:OH.wav
448,192,175530,1,0,0:0:0:0:
64,192,175605,1,0,0:0:0:0:
192,192,175680,1,0,0:0:0:65:KICK.wav
320,192,175680,1,0,0:0:0:70:SNARE.wav
448,192,175755,1,0,0:0:0:0:
64,192,175830,1,0,0:0:0:70:OH.wav
320,192,175830,1,0,0:0:0:0:
448,192,175905,1,0,0:0:0:0:
64,192,175980,1,0,0:0:0:65:KICK.wav
192,192,175980,1,0,0:0:0:0:
320,192,176055,1,0,0:0:0:0:
64,192,176130,1,0,0:0:0:70:OH.wav
192,192,176130,1,0,0:0:0:0:
448,192,176205,1,0,0:0:0:0:
64,192,176280,1,0,0:0:0:65:KICK.wav
192,192,176280,1,0,0:0:0:70:SNARE.wav
320,192,176355,1,0,0:0:0:0:
64,192,176430,1,0,0:0:0:70:OH.wav
192,192,176430,1,0,0:0:0:0:
448,192,176505,1,0,0:0:0:0:
64,192,176580,1,0,0:0:0:70:CRASH.wav
320,192,176580,1,0,0:0:0:65:KICK.wav
192,192,176655,1,0,0:0:0:0:
320,192,176730,1,0,0:0:0:70:OH.wav
448,192,176730,1,0,0:0:0:0:
64,192,176805,1,0,0:0:0:0:
192,192,176880,1,0,0:0:0:65:KICK.wav
448,192,176880,1,0,0:0:0:70:SNARE.wav
64,192,176955,1,0,0:0:0:0:
192,192,177030,128,0,177080:0:0:0:70:OH.wav
320,192,177030,1,0,0:0:0:0:
64,192,177105,1,0,0:0:0:0:
320,192,177180,1,0,0:0:0:65:KICK.wav
448,192,177180,128,0,177230:0:0:0:0:
192,192,177255,1,0,0:0:0:0:
320,192,177330,128,0,177380:0:0:0:70:OH.wav
448,192,177330,1,0,0:0:0:0:
64,192,177405,1,0,0:0:0:0:
320,192,177480,1,0,0:0:0:65:KICK.wav
448,192,177480,1,0,0:0:0:70:SNARE.wav
192,192,177555,1,0,0:0:0:0:
320,192,177630,1,0,0:0:0:70:OH.wav
448,192,177630,128,0,177680:0:0:0:0:
64,192,177705,1,0,0:0:0:0:
192,192,177780,1,0,0:0:0:70:CRASH.wav
320,192,177780,1,0,0:0:0:65:KICK.wav
448,192,177855,1,0,0:0:0:0:
64,192,177930,128,0,177980:0:0:0:70:OH.wav
192,192,177930,1,0,0:0:0:0:
320,192,178005,1,0,0:0:0:0:
192,192,178080,1,0,0:0:0:65:KICK.wav
448,192,178080,1,0,0:0:0:70:SNARE.wav
64,192,178155,1,0,0:0:0:0:
320,192,178230,128,0,178280:0:0:0:70:OH.wav
448,192,178230,1,0,0:0:0:0:
64,192,178305,1,0,0:0:0:0:
192,192,178380,1,0,0:0:0:65:KICK.wav
320,192,178380,1,0,0:0:0:0:
448,192,178455,1,0,0:0:0:0:
192,192,178530,128,0,178580:0:0:0:70:OH.wav
320,192,178530,1,0,0:0:0:0:
64,192,178605,1,0,0:0:0:0:
192,192,178680,1,0,0:0:0:65:KICK.wav
320,192,178680,1,0,0:0:0:70:SNARE.wav
448,192,178755,1,0,0:0:0:0:
192,192,178830,1,0,0:0:0:70:OH.wav
320,192,178830,128,0,178880:0:0:0:0:
64,192,178905,1,0,0:0:0:0:
320,192,178980,1,0,0:0:0:70:CRASH.wav
448,192,178980,1,0,0:0:0:65:KICK.wav
192,192,179055,1,0,0:0:0:0:
64,192,179130,128,0,179180:0:0:0:70:OH.wav
448,192,179130,1,0,0:0:0:0:
192,192,179205,1,0,0:0:0:0:
64,192,179280,1,0,0:0:0:65:KICK.wav
320,192,179280,1,0,0:0:0:70:SNARE.wav
448,192,179355,1,0,0:0:0:0:
192,192,179430,128,0,179480:0:0:0:70:OH.wav
320,192,179430,1,0,0:0:0:0:
64,192,179505,1,0,0:0:0:0:
192,192,179580,1,0,0:0:0:65:KICK.wav
448,192,179580,1,0,0:0:0:0:
320,192,179655,1,0,0:0:0:0:
64,192,179730,1,0,0:0:0:70:OH.wav
448,192,179730,128,0,179780:0:0:0:0:
192,192,179880,1,0,0:0:0:65:KICK.wav
320,192,179880,1,0,0:0:0:70:SNARE.wav
448,192,179880,1,0,0:0:0:0:
64,192,180030,1,0,0:0:0:65:KICK.wav
320,192,180030,128,0,180080:0:0:0:70:OH.wav
448,192,180030,1,0,0:0:0:0:
64,192,180180,1,0,0:0:0:70:CRASH.wav
192,192,180180,1,0,0:0:0:65:KICK.wav
448,192,180180,1,0,0:0:0:0:
320,192,180255,1,0,0:0:0:0:
64,192,180330,1,0,0:0:0:70:OH.wav
448,192,180330,1,0,0:0:0:0:
192,192,180405,1,0,0:0:0:0:
320,192,180480,1,0,0:0:0:65:KICK.wav
448,192,180480,1,0,0:0:0:70:SNARE.wav
64,192,180555,1,0,0:0:0:0:
192,192,180630,1,0,0:0:0:70:OH.wav
320,192,180630,1,0,0:0:0:0:
64,192,180705,1,0,0:0:0:0:
192,192,180780,1,0,0:0:0:65:KICK.wav
448,192,180780,1,0,0:0:0:0:
320,192,180855,1,0,0:0:0:0:
192,192,180930,1,0,0:0:0:70:OH.wav
448,192,180930,1,0,0:0:0:0:
64,192,181005,1,0,0:0:0:0:
192,192,181080,1,0,0:0:0:65:KICK.wav
448,192,181080,1,0,0:0:0:70:SNARE.wav
320,192,181155,1,0,0:0:0:0:
192,192,181230,1,0,0:0:0:70:OH.wav
448,192,181230,1,0,0:0:0:0:
64,192,181305,1,0,0:0:0:0:
320,192,181380,1,0,0:0:0:70:CRASH.wav
448,192,181380,1,0,0:0:0:65:KICK.wav
192,192,181455,1,0,0:0:0:0:
64,192,181530,1,0,0:0:0:70:OH.wav
448,192,181530,1,0,0:0:0:0:
320,192,181605,1,0,0:0:0:0:
64,192,181680,1,0,0:0:0:65:KICK.wav
448,192,181680,1,0,0:0:0:70:SNARE.wav
192,192,181755,1,0,0:0:0:0:
448,192,181830,1,0,0:0:0:70:OH.wav
64,192,181830,1,0,0:0:0:0:
192,192,181905,1,0,0:0:0:0:
64,192,181980,1,0,0:0:0:65:KICK.wav
320,192,181980,128,0,182030:0:0:0:0:
448,192,182055,1,0,0:0:0:0:
64,192,182130,1,0,0:0:0:70:OH.wav
320,192,182130,1,0,0:0:0:0:
192,192,182205,1,0,0:0:0:0:
64,192,182280,1,0,0:0:0:65:KICK.wav
320,192,182280,1,0,0:0:0:70:SNARE.wav
448,192,182355,1,0,0:0:0:0:
64,192,182430,1,0,0:0:0:70:OH.wav
320,192,182430,1,0,0:0:0:0:
192,192,182505,1,0,0:0:0:0:
320,192,182580,1,0,0:0:0:70:CRASH.wav
448,192,182580,128,0,182630:0:0:0:65:KICK.wav
64,192,182655,1,0,0:0:0:0:
192,192,182730,1,0,0:0:0:70:OH.wav
448,192,182730,1,0,0:0:0:0:
320,192,182805,1,0,0:0:0:0:
64,192,182880,1,0,0:0:0:65:KICK.wav
192,192,182880,1,0,0:0:0:70:SNARE.wav
448,192,182955,1,0,0:0:0:0:
64,192,183030,1,0,0:0:0:70:OH.wav
320,192,183030,1,0,0:0:0:0:
192,192,183105,1,0,0:0:0:0:
64,192,183180,1,0,0:0:0:65:KICK.wav
448,192,183180,1,0,0:0:0:0:
320,192,183255,1,0,0:0:0:0:
64,192,183330,1,0,0:0:0:70:OH.wav
448,192,183330,1,0,0:0:0:0:
192,192,183405,1,0,0:0:0:0:
64,192,183480,1,0,0:0:0:65:KICK.wav
448,192,183480,1,0,0:0:0:70:SNARE.wav
320,192,183555,1,0,0:0:0:0:
64,192,183630,1,0,0:0:0:70:OH.wav
448,192,183630,1,0,0:0:0:0:
192,192,183705,1,0,0:0:0:0:
320,192,183780,1,0,0:0:0:70:CRASH.wav
448,192,183780,1,0,0:0:0:65:KICK.wav
64,192,183855,1,0,0:0:0:0:
192,192,183930,1,0,0:0:0:70:OH.wav
320,192,183930,1,0,0:0:0:0:
448,192,184005,1,0,0:0:0:0:
64,192,184080,1,0,0:0:0:65:KICK.wav
192,192,184080,1,0,0:0:0:70:SNARE.wav
320,192,184155,1,0,0:0:0:0:
64,192,184230,1,0,0:0:0:70:OH.wav
448,192,184230,128,0,184280:0:0:0:0:
320,192,184305,1,0,0:0:0:0:
64,192,184380,1,0,0:0:0:65:KICK.wav
192,192,184380,128,0,184430:0:0:0:0:
448,192,184455,1,0,0:0:0:0:
192,192,184530,1,0,0:0:0:70:OH.wav
320,192,184530,128,0,184580:0:0:0:0:
64,192,184680,1,0,0:0:0:65:KICK.wav
192,192,184680,1,0,0:0:0:70:SNARE.wav
448,192,184680,1,0,0:0:0:0:
64,192,184830,128,0,184880:0:0:0:65:KICK.wav
320,192,184830,1,0,0:0:0:70:OH.wav
448,192,184830,1,0,0:0:0:0:
192,192,184980,1,0,0:0:0:70:CRASH.wav
320,192,184980,1,0,0:0:0:65:KICK.wav
448,192,184980,1,0,0:0:0:0:
64,192,185055,1,0,0:0:0:0:
192,192,185130,1,0,0:0:0:70:OH.wav
320,192,185130,1,0,0:0:0:0:
64,192,185205,1,0,0:0:0:0:
192,192,185280,1,0,0:0:0:65:KICK.wav
448,192,185280,1,0,0:0:0:70:SNARE.wav
320,192,185355,1,0,0:0:0:0:
64,192,185430,1,0,0:0:0:70:OH.wav
448,192,185430,1,0,0:0:0:0:
192,192,185505,1,0,0:0:0:0:
320,192,185580,1,0,0:0:0:65:KICK.wav
448,192,185580,1,0,0:0:0:0:
64,192,185655,1,0,0:0:0:0:
320,192,185730,1,0,0:0:0:70:OH.wav
448,192,185730,1,0,0:0:0:0:
192,192,185805,1,0,0:0:0:0:
320,192,185880,1,0,0:0:0:65:KICK.wav
448,192,185880,1,0,0:0:0:70:SNARE.wav
64,192,185955,1,0,0:0:0:0:
320,192,186030,1,0,0:0:0:70:OH.wav
448,192,186030,1,0,0:0:0:0:
192,192,186105,1,0,0:0:0:0:
64,192,186180,1,0,0:0:0:70:CRASH.wav
448,192,186180,1,0,0:0:0:65:KICK.wav
320,192,186255,1,0,0:0:0:0:
64,192,186330,1,0,0:0:0:70:OH.wav
192,192,186330,1,0,0:0:0:0:
448,192,186405,1,0,0:0:0:0:
192,192,186480,1,0,0:0:0:65:KICK.wav
320,192,186480,1,0,0:0:0:70:SNARE.wav
64,192,186555,1,0,0:0:0:0:
192,192,186630,1,0,0:0:0:70:OH.wav
448,192,186630,128,0,186680:0:0:0:0:
320,192,186705,1,0,0:0:0:0:
64,192,186780,128,0,186830:0:0:0:65:KICK.wav
192,192,186780,1,0,0:0:0:0:
320,192,186855,1,0,0:0:0:0:
64,192,186930,1,0,0:0:0:70:OH.wav
192,192,186930,128,0,186980:0:0:0:0:
448,192,187005,1,0,0:0:0:0:
64,192,187080,1,0,0:0:0:65:KICK.wav
192,192,187080,1,0,0:0:0:70:SNARE.wav
320,192,187155,1,0,0:0:0:0:
64,192,187230,128,0,187280:0:0:0:70:OH.wav
192,192,187230,1,0,0:0:0:0:
448,192,187305,1,0,0:0:0:0:
64,192,187380,1,0,0:0:0:70:CRASH.wav
320,192,187380,1,0,0:0:0:65:KICK.wav
192,192,187455,1,0,0:0:0:0:
320,192,187530,128,0,187580:0:0:0:70:OH.wav
448,192,187530,1,0,0:0:0:0:
64,192,187605,1,0,0:0:0:0:
192,192,187680,1,0,0:0:0:65:KICK.wav
448,192,187680,1,0,0:0:0:70:SNARE.wav
320,192,187755,1,0,0:0:0:0:
64,192,187830,1,0,0:0:0:70:OH.wav
192,192,187830,128,0,187880:0:0:0:0:
448,192,187905,1,0,0:0:0:0:
192,192,187980,1,0,0:0:0:65:KICK.wav
320,192,187980,1,0,0:0:0:0:
64,192,188055,1,0,0:0:0:0:
192,192,188130,1,0,0:0:0:70:OH.wav
320,192,188130,128,0,188180:0:0:0:0:
448,192,188205,1,0,0:0:0:0:
192,192,188280,1,0,0:0:0:65:KICK.wav
320,192,188280,1,0,0:0:0:70:SNARE.wav
64,192,188355,1,0,0:0:0:0:
192,192,188430,128,0,188480:0:0:0:70:OH.wav
320,192,188430,1,0,0:0:0:0:
448,192,188505,1,0,0:0:0:0:
64,192,188580,1,0,0:0:0:70:CRASH.wav
192,192,188580,1,0,0:0:0:65:KICK.wav
320,192,188655,1,0,0:0:0:0:
64,192,188730,1,0,0:0:0:70:OH.wav
448,192,188730,128,0,188780:0:0:0:0:
192,192,188805,1,0,0:0:0:0:
320,192,188880,1,0,0:0:0:65:KICK.wav
448,192,188880,1,0,0:0:0:70:SNARE.wav
64,192,188955,1,0,0:0:0:0:
192,192,189030,128,0,189080:0:0:0:70:OH.wav
320,192,189030,1,0,0:0:0:0:
448,192,189105,1,0,0:0:0:0:
64,192,189180,1,0,0:0:0:65:KICK.wav
192,192,189180,1,0,0:0:0:0:
320,192,189330,128,0,189380:0:0:0:70:OH.wav
448,192,189330,1,0,0:0:0:0:
192,192,189405,1,0,0:0:0:0:
64,192,189480,1,0,0:0:0:65:KICK.wav
320,192,189480,1,0,0:0:0:70:SNARE.wav
448,192,189480,1,0,0:0:0:0:
64,192,189630,1,0,0:0:0:65:KICK.wav
192,192,189630,128,0,189680:0:0:0:70:OH.wav
448,192,189630,1,0,0:0:0:0:
64,192,189780,1,0,0:0:0:70:CRASH.wav
192,192,189780,1,0,0:0:0:65:KICK.wav
320,192,189780,1,0,0:0:0:0:
448,192,189855,1,0,0:0:0:0:
192,192,189930,1,0,0:0:0:70:OH.wav
320,192,189930,1,0,0:0:0:0:
64,192,190005,1,0,0:0:0:0:
320,192,190080,1,0,0:0:0:65:KICK.wav
448,192,190080,1,0,0:0:0:70:SNARE.wav
192,192,190155,1,0,0:0:0:0:
64,192,190230,1,0,0:0:0:70:OH.wav
448,192,190230,1,0,0:0:0:0:
320,192,190305,1,0,0:0:0:0:
192,192,190380,1,0,0:0:0:65:KICK.wav
448,192,190380,1,0,0:0:0:0:
64,192,190455,1,0,0:0:0:0:
192,192,190530,1,0,0:0:0:70:OH.wav
448,192,190530,1,0,0:0:0:0:
320,192,190605,1,0,0:0:0:0:
192,192,190680,1,0,0:0:0:65:KICK.wav
448,192,190680,1,0,0:0:0:70:SNARE.wav
64,192,190755,1,0,0:0:0:0:
192,192,190830,1,0,0:0:0:70:OH.wav
448,192,190830,1,0,0:0:0:0:
320,192,190905,1,0,0:0:0:0:
64,192,190980,1,0,0:0:0:70:CRASH.wav
192,192,190980,1,0,0:0:0:65:KICK.wav
448,192,191055,1,0,0:0:0:0:
192,192,191130,1,0,0:0:0:70:OH.wav
320,192,191130,1,0,0:0:0:0:
64,192,191205,1,0,0:0:0:0:
320,192,191280,1,0,0:0:0:65:KICK.wav
448,192,191280,1,0,0:0:0:70:SNARE.wav
192,192,191355,1,0,0:0:0:0:
64,192,191430,1,0,0:0:0:70:OH.wav
448,192,191430,1,0,0:0:0:0:
192,192,191505,1,0,0:0:0:0:
64,192,191580,1,0,0:0:0:65:KICK.wav
320,192,191580,128,0,191630:0:0:0:0:
448,192,191655,1,0,0:0:0:0:
64,192,191730,1,0,0:0:0:70:OH.wav
320,192,191730,1,0,0:0:0:0:
192,192,191805,1,0,0:0:0:0:
64,192,191880,1,0,0:0:0:65:KICK.wav
320,192,191880,1,0,0:0:0:70:SNARE.wav
448,192,191955,1,0,0:0:0:0:
64,192,192030,1,0,0:0:0:70:OH.wav
320,192,192030,1,0,0:0:0:0:
192,192,192105,1,0,0:0:0:0:
320,192,192180,1,0,0:0:0:70:CRASH.wav
448,192,192180,128,0,192230:0:0:0:65:KICK.wav
64,192,192255,1,0,0:0:0:0:
192,192,192330,1,0,0:0:0:70:OH.wav
448,192,192330,1,0,0:0:0:0:
320,192,192405,1,0,0:0:0:0:
64,192,192480,1,0,0:0:0:65:KICK.wav
192,192,192480,1,0,0:0:0:70:SNARE.wav
448,192,192555,1,0,0:0:0:0:
64,192,192630,1,0,0:0:0:70:OH.wav
320,192,192630,1,0,0:0:0:0:
192,192,192705,1,0,0:0:0:0:
64,192,192780,1,0,0:0:0:65:KICK.wav
448,192,192780,1,0,0:0:0:0:
320,192,192855,1,0,0:0:0:0:
64,192,192930,1,0,0:0:0:70:OH.wav
448,192,192930,1,0,0:0:0:0:
192,192,193005,1,0,0:0:0:0:
64,192,193080,1,0,0:0:0:65:KICK.wav
448,192,193080,1,0,0:0:0:70:SNARE.wav
320,192,193155,1,0,0:0:0:0:
64,192,193230,1,0,0:0:0:70:OH.wav
448,192,193230,1,0,0:0:0:0:
192,192,193305,1,0,0:0:0:0:
320,192,193380,1,0,0:0:0:0:
448,192,193380,1,0,0:0:0:0:
64,192,193455,1,0,0:0:0:0:
192,192,193530,1,0,0:0:0:70:CH.wav
64,192,193605,1,0,0:0:0:0:
320,192,193605,1,0,0:0:0:0:
448,192,193680,1,0,0:0:0:0:
192,192,193755,1,0,0:0:0:0:
64,192,193830,1,0,0:0:0:70:CH.wav
448,192,193830,1,0,0:0:0:0:
320,192,193905,1,0,0:0:0:0:
64,192,193980,1,0,0:0:0:0:
192,192,193980,1,0,0:0:0:0:
448,192,194055,1,0,0:0:0:0:
192,192,194130,1,0,0:0:0:70:CH.wav
320,192,194130,1,0,0:0:0:0:
64,192,194205,1,0,0:0:0:0:
448,192,194280,1,0,0:0:0:0:
320,192,194317,1,0,0:0:0:0:
64,192,194355,1,0,0:0:0:0:
192,192,194392,1,0,0:0:0:0:
448,192,194430,1,0,0:0:0:70:CH.wav
320,192,194467,1,0,0:0:0:0:
64,192,194505,1,0,0:0:0:0:
192,192,194542,1,0,0:0:0:0:
320,192,194580,1,0,0:0:0:70:CRASH.wav
448,192,194580,1,0,0:0:0:65:KICK.wav
64,192,194730,128,0,195780:0:0:0:70:CH.wav
192,192,194730,1,0,0:0:0:0:
448,192,194880,1,0,0:0:0:0:
192,192,195030,1,0,0:0:0:70:CH.wav
448,192,195030,1,0,0:0:0:0:
448,192,195180,128,0,195330:0:0:0:0:
192,192,195330,1,0,0:0:0:70:CH.wav
320,192,195405,1,0,0:0:0:0:
192,192,195630,1,0,0:0:0:70:CH.wav
448,192,195630,1,0,0:0:0:0:
320,192,195780,1,0,0:0:0:0:
64,192,195930,1,0,0:0:0:70:CH.wav
320,192,195930,1,0,0:0:0:0:
192,192,196080,1,0,0:0:0:0:
192,192,196230,1,0,0:0:0:70:CH.wav
448,192,196230,1,0,0:0:0:0:
320,192,196380,128,0,196530:0:0:0:0:
192,192,196530,1,0,0:0:0:70:CH.wav
448,192,196605,1,0,0:0:0:0:
192,192,196830,1,0,0:0:0:70:CH.wav
320,192,196830,1,0,0:0:0:0:
64,192,196980,1,0,0:0:0:0:
64,192,197130,1,0,0:0:0:70:CH.wav
448,192,197130,1,0,0:0:0:0:
320,192,197280,1,0,0:0:0:0:
64,192,197430,1,0,0:0:0:70:CH.wav
320,192,197430,1,0,0:0:0:0:
192,192,197580,128,0,197730:0:0:0:0:
320,192,197730,1,0,0:0:0:70:CH.wav
64,192,197805,1,0,0:0:0:0:
192,192,198030,1,0,0:0:0:70:CH.wav
320,192,198030,1,0,0:0:0:0:
448,192,198180,128,0,198330:0:0:0:0:
64,192,198330,1,0,0:0:0:70:CH.wav
192,192,198330,1,0,0:0:0:0:
320,192,198405,1,0,0:0:0:0:
192,192,198630,1,0,0:0:0:70:CH.wav
448,192,198630,1,0,0:0:0:0:
320,192,198780,128,0,198930:0:0:0:0:
64,192,198930,1,0,0:0:0:70:CH.wav
448,192,198930,1,0,0:0:0:0:
192,192,199005,1,0,0:0:0:0:
64,192,199230,1,0,0:0:0:70:CH.wav
320,192,199230,1,0,0:0:0:0:
192,192,199380,1,0,0:0:0:0:
64,192,199530,1,0,0:0:0:70:CH.wav
192,192,199530,1,0,0:0:0:0:
320,192,199680,1,0,0:0:0:0:
192,192,199830,1,0,0:0:0:70:CH.wav
320,192,199830,1,0,0:0:0:0:
448,192,199980,128,0,200130:0:0:0:0:
320,192,200130,1,0,0:0:0:70:CH.wav
192,192,200205,1,0,0:0:0:0:
192,192,200430,1,0,0:0:0:70:CH.wav
320,192,200430,1,0,0:0:0:0:
64,192,200580,1,0,0:0:0:0:
64,192,200730,1,0,0:0:0:70:CH.wav
448,192,200730,1,0,0:0:0:0:
320,192,200880,1,0,0:0:0:0:
320,192,201030,1,0,0:0:0:70:CH.wav
448,192,201030,1,0,0:0:0:0:
192,192,201180,128,0,201330:0:0:0:0:
320,192,201330,1,0,0:0:0:70:CH.wav
448,192,201405,1,0,0:0:0:0:
64,192,201630,1,0,0:0:0:70:CH.wav
192,192,201630,1,0,0:0:0:0:
320,192,201780,1,0,0:0:0:0:
320,192,201930,1,0,0:0:0:70:CH.wav
448,192,201930,1,0,0:0:0:0:
192,192,202080,1,0,0:0:0:0:
64,192,202230,1,0,0:0:0:70:CH.wav
192,192,202230,1,0,0:0:0:0:
320,192,202380,128,0,202530:0:0:0:0:
448,192,202530,1,0,0:0:0:70:CH.wav
192,192,202605,1,0,0:0:0:0:
192,192,202830,1,0,0:0:0:70:CH.wav
320,192,202830,1,0,0:0:0:0:
64,192,202980,128,0,203130:0:0:0:0:
448,192,202980,1,0,0:0:0:0:
192,192,203130,1,0,0:0:0:70:CH.wav
320,192,203205,1,0,0:0:0:0:
448,192,203205,1,0,0:0:0:0:
64,192,203430,1,0,0:0:0:70:CH.wav
192,192,203430,1,0,0:0:0:0:
320,192,203580,1,0,0:0:0:0:
64,192,203730,1,0,0:0:0:70:CH.wav
192,192,203730,1,0,0:0:0:0:
320,192,203880,1,0,0:0:0:0:
448,192,203880,128,0,204030:0:0:0:0:
64,192,204030,1,0,0:0:0:70:CH.wav
192,192,204180,1,0,0:0:0:70:CRASH.wav
320,192,204180,1,0,0:0:0:65:KICK.wav
448,192,204180,1,0,0:0:0:0:
64,192,204330,128,0,205380:0:0:0:70:CH.wav
192,192,204330,1,0,0:0:0:0:
320,192,204480,1,0,0:0:0:50:909 SNARE.wav
448,192,204480,1,0,0:0:0:70:CLAP.wav
320,192,204630,1,0,0:0:0:70:CH.wav
192,192,204780,128,0,204930:0:0:0:50:909 SNARE.wav
448,192,204780,1,0,0:0:0:0:
320,192,204930,1,0,0:0:0:70:CH.wav
448,192,205005,1,0,0:0:0:0:
192,192,205080,1,0,0:0:0:50:909 SNARE.wav
320,192,205080,1,0,0:0:0:70:CLAP.wav
192,192,205230,1,0,0:0:0:70:CH.wav
320,192,205380,1,0,0:0:0:50:909 SNARE.wav
448,192,205380,1,0,0:0:0:0:
64,192,205530,1,0,0:0:0:70:CH.wav
320,192,205530,1,0,0:0:0:0:
192,192,205680,1,0,0:0:0:50:909 SNARE.wav
320,192,205680,1,0,0:0:0:70:CLAP.wav
192,192,205830,1,0,0:0:0:70:CH.wav
448,192,205830,1,0,0:0:0:0:
64,192,205980,1,0,0:0:0:50:909 SNARE.wav
320,192,205980,128,0,206130:0:0:0:0:
192,192,206130,1,0,0:0:0:70:CH.wav
448,192,206205,1,0,0:0:0:0:
64,192,206280,1,0,0:0:0:50:909 SNARE.wav
192,192,206280,1,0,0:0:0:70:CLAP.wav
320,192,206430,1,0,0:0:0:50:909 SNARE.wav
448,192,206430,1,0,0:0:0:70:CH.wav
64,192,206505,1,0,0:0:0:50:909 SNARE.wav
192,192,206505,1,0,0:0:0:0:
320,192,206580,1,0,0:0:0:50:909 SNARE.wav
448,192,206580,1,0,0:0:0:0:
192,192,206730,1,0,0:0:0:70:CH.wav
448,192,206730,1,0,0:0:0:0:
64,192,206880,1,0,0:0:0:50:909 SNARE.wav
320,192,206880,1,0,0:0:0:70:CLAP.wav
64,192,207030,1,0,0:0:0:70:CH.wav
448,192,207030,1,0,0:0:0:0:
192,192,207180,128,0,207330:0:0:0:50:909 SNARE.wav
448,192,207180,1,0,0:0:0:0:
320,192,207330,1,0,0:0:0:70:CH.wav
64,192,207405,1,0,0:0:0:0:
320,192,207480,1,0,0:0:0:50:909 SNARE.wav
448,192,207480,1,0,0:0:0:70:CLAP.wav
192,192,207630,1,0,0:0:0:70:CH.wav
320,192,207630,1,0,0:0:0:0:
320,192,207780,128,0,207930:0:0:0:50:909 SNARE.wav
448,192,207780,1,0,0:0:0:0:
64,192,207930,1,0,0:0:0:70:CH.wav
192,192,207930,1,0,0:0:0:0:
448,192,208005,1,0,0:0:0:0:
64,192,208080,1,0,0:0:0:50:909 SNARE.wav
320,192,208080,1,0,0:0:0:70:CLAP.wav
192,192,208230,1,0,0:0:0:70:CH.wav
448,192,208230,1,0,0:0:0:0:
192,192,208380,128,0,208530:0:0:0:50:909 SNARE.wav
320,192,208380,1,0,0:0:0:0:
448,192,208530,1,0,0:0:0:70:CH.wav
64,192,208605,1,0,0:0:0:50:909 SNARE.wav
192,192,208605,1,0,0:0:0:0:
320,192,208680,1,0,0:0:0:50:909 SNARE.wav
448,192,208680,1,0,0:0:0:70:CLAP.wav
64,192,208830,1,0,0:0:0:50:909 SNARE.wav
192,192,208830,1,0,0:0:0:70:CH.wav
320,192,208980,1,0,0:0:0:50:909 SNARE.wav
448,192,208980,1,0,0:0:0:70:OH.wav
64,192,209130,1,0,0:0:0:70:CH.wav
192,192,209130,1,0,0:0:0:0:
320,192,209205,1,0,0:0:0:50:909 SNARE.wav
448,192,209205,1,0,0:0:0:0:
64,192,209280,1,0,0:0:0:50:909 SNARE.wav
192,192,209280,1,0,0:0:0:70:CLAP.wav
192,192,209430,1,0,0:0:0:50:909 SNARE.wav
448,192,209430,1,0,0:0:0:70:CH.wav
64,192,209580,1,0,0:0:0:50:909 SNARE.wav
448,192,209580,128,0,209730:0:0:0:0:
320,192,209730,1,0,0:0:0:70:CH.wav
64,192,209805,1,0,0:0:0:50:909 SNARE.wav
192,192,209805,1,0,0:0:0:0:
320,192,209880,1,0,0:0:0:50:909 SNARE.wav
448,192,209880,1,0,0:0:0:70:CLAP.wav
64,192,210030,1,0,0:0:0:50:909 SNARE.wav
320,192,210030,1,0,0:0:0:70:CH.wav
192,192,210180,1,0,0:0:0:50:909 SNARE.wav
448,192,210180,1,0,0:0:0:0:
320,192,210330,1,0,0:0:0:70:CH.wav
64,192,210405,1,0,0:0:0:50:909 SNARE.wav
192,192,210405,1,0,0:0:0:0:
320,192,210480,1,0,0:0:0:50:909 SNARE.wav
448,192,210480,1,0,0:0:0:70:CLAP.wav
192,192,210630,1,0,0:0:0:50:909 SNARE.wav
320,192,210630,1,0,0:0:0:70:CH.wav
64,192,210780,128,0,210930:0:0:0:50:909 SNARE.wav
448,192,210780,1,0,0:0:0:0:
192,192,210930,1,0,0:0:0:50:909 SNARE.wav
320,192,210930,1,0,0:0:0:70:CH.wav
320,192,211080,1,0,0:0:0:50:909 SNARE.wav
448,192,211080,1,0,0:0:0:70:CLAP.wav
64,192,211230,1,0,0:0:0:50:909 SNARE.wav
192,192,211230,1,0,0:0:0:70:CH.wav
320,192,211305,1,0,0:0:0:50:909 SNARE.wav
448,192,211305,1,0,0:0:0:0:
64,192,211380,1,0,0:0:0:50:909 SNARE.wav
192,192,211380,1,0,0:0:0:0:
320,192,211530,1,0,0:0:0:50:909 SNARE.wav
448,192,211530,1,0,0:0:0:70:CH.wav
64,192,211605,1,0,0:0:0:50:909 SNARE.wav
192,192,211605,1,0,0:0:0:0:
320,192,211680,1,0,0:0:0:50:909 SNARE.wav
448,192,211680,1,0,0:0:0:70:CLAP.wav
64,192,211830,1,0,0:0:0:50:909 SNARE.wav
192,192,211830,1,0,0:0:0:70:CH.wav
320,192,211905,1,0,0:0:0:50:909 SNARE.wav
448,192,211905,1,0,0:0:0:0:
64,192,211980,1,0,0:0:0:50:909 SNARE.wav
192,192,211980,1,0,0:0:0:0:
320,192,212130,1,0,0:0:0:50:909 SNARE.wav
448,192,212130,1,0,0:0:0:70:CH.wav
64,192,212205,1,0,0:0:0:50:909 SNARE.wav
192,192,212205,1,0,0:0:0:0:
320,192,212280,1,0,0:0:0:50:909 SNARE.wav
448,192,212280,1,0,0:0:0:70:CLAP.wav
64,192,212430,1,0,0:0:0:50:909 SNARE.wav
192,192,212430,1,0,0:0:0:70:CH.wav
320,192,212505,1,0,0:0:0:50:909 SNARE.wav
448,192,212505,1,0,0:0:0:0:
192,192,212580,1,0,0:0:0:70:OH.wav
448,192,212730,1,0,0:0:0:70:CH.wav
64,192,212805,1,0,0:0:0:70:OH.wav
192,192,213030,1,0,0:0:0:70:OH.wav
448,192,213030,1,0,0:0:0:70:CH.wav
320,192,213180,1,0,0:0:0:70:OH.wav
64,192,213330,1,0,0:0:0:70:CH.wav
192,192,213480,1,0,0:0:0:70:OH.wav
448,192,213480,1,0,0:0:0:0:
64,192,213780,1,0,0:0:0:70:CRASH.wav
320,192,213780,1,0,0:0:0:65:KICK.wav
448,192,213780,1,0,0:0:0:0:
192,192,213855,1,0,0:0:0:0:
64,192,213930,1,0,0:0:0:70:OH.wav
448,192,213930,1,0,0:0:0:0:
320,192,214005,1,0,0:0:0:0:
64,192,214080,1,0,0:0:0:65:KICK.wav
192,192,214080,1,0,0:0:0:70:SNARE.wav
448,192,214155,1,0,0:0:0:0:
192,192,214230,1,0,0:0:0:70:OH.wav
320,192,214230,1,0,0:0:0:0:
64,192,214305,1,0,0:0:0:0:
320,192,214380,1,0,0:0:0:65:KICK.wav
448,192,214380,1,0,0:0:0:0:
192,192,214455,1,0,0:0:0:0:
448,192,214530,1,0,0:0:0:0:
64,192,214605,1,0,0:0:0:70:OH.wav
320,192,214605,1,0,0:0:0:0:
192,192,214680,1,0,0:0:0:65:KICK.wav
448,192,214755,1,0,0:0:0:0:
192,192,214830,1,0,0:0:0:70:OH.wav
320,192,214830,1,0,0:0:0:0:
64,192,214905,1,0,0:0:0:0:
320,192,214980,1,0,0:0:0:70:CRASH.wav
448,192,214980,1,0,0:0:0:65:KICK.wav
64,192,215055,1,0,0:0:0:0:
192,192,215130,1,0,0:0:0:70:OH.wav
448,192,215130,1,0,0:0:0:0:
320,192,215205,1,0,0:0:0:0:
64,192,215280,1,0,0:0:0:65:KICK.wav
192,192,215280,1,0,0:0:0:70:SNARE.wav
448,192,215355,1,0,0:0:0:0:
64,192,215430,1,0,0:0:0:70:OH.wav
320,192,215430,1,0,0:0:0:0:
192,192,215505,1,0,0:0:0:0:
320,192,215580,1,0,0:0:0:65:KICK.wav
448,192,215580,1,0,0:0:0:0:
64,192,215655,1,0,0:0:0:0:
448,192,215730,1,0,0:0:0:0:
192,192,215805,1,0,0:0:0:70:OH.wav
320,192,215805,1,0,0:0:0:0:
64,192,215880,1,0,0:0:0:65:KICK.wav
448,192,215955,1,0,0:0:0:0:
64,192,216030,1,0,0:0:0:70:OH.wav
320,192,216030,1,0,0:0:0:0:
192,192,216105,1,0,0:0:0:0:
320,192,216180,1,0,0:0:0:70:CRASH.wav
448,192,216180,1,0,0:0:0:65:KICK.wav
64,192,216255,1,0,0:0:0:0:
192,192,216330,1,0,0:0:0:70:OH.wav
448,192,216330,1,0,0:0:0:0:
320,192,216405,1,0,0:0:0:0:
64,192,216480,1,0,0:0:0:65:KICK.wav
192,192,216480,1,0,0:0:0:70:SNARE.wav
448,192,216555,1,0,0:0:0:0:
64,192,216630,1,0,0:0:0:70:OH.wav
320,192,216630,1,0,0:0:0:0:
192,192,216705,1,0,0:0:0:0:
320,192,216780,1,0,0:0:0:65:KICK.wav
448,192,216780,1,0,0:0:0:0:
64,192,216855,1,0,0:0:0:0:
448,192,216930,1,0,0:0:0:0:
192,192,217005,1,0,0:0:0:70:OH.wav
320,192,217005,1,0,0:0:0:0:
64,192,217080,1,0,0:0:0:65:KICK.wav
192,192,217155,1,0,0:0:0:0:
320,192,217230,1,0,0:0:0:70:OH.wav
448,192,217230,1,0,0:0:0:0:
64,192,217305,1,0,0:0:0:0:
192,192,217380,1,0,0:0:0:70:CRASH.wav
448,192,217380,1,0,0:0:0:65:KICK.wav
320,192,217455,1,0,0:0:0:0:
64,192,217530,1,0,0:0:0:0:
192,192,217605,1,0,0:0:0:70:OH.wav
320,192,217605,1,0,0:0:0:0:
448,192,217680,1,0,0:0:0:65:KICK.wav
64,192,217755,1,0,0:0:0:0:
192,192,217830,1,0,0:0:0:70:OH.wav
448,192,217830,1,0,0:0:0:0:
320,192,217905,1,0,0:0:0:0:
64,192,217980,1,0,0:0:0:70:CRASH.wav
448,192,217980,1,0,0:0:0:65:KICK.wav
192,192,218055,1,0,0:0:0:0:
320,192,218130,1,0,0:0:0:0:
64,192,218205,1,0,0:0:0:70:OH.wav
448,192,218205,1,0,0:0:0:0:
192,192,218280,1,0,0:0:0:65:KICK.wav
320,192,218280,1,0,0:0:0:70:SNARE.wav
64,192,218430,1,0,0:0:0:65:KICK.wav
320,192,218430,1,0,0:0:0:0:
192,192,218580,1,0,0:0:0:70:CRASH.wav
448,192,218580,1,0,0:0:0:65:KICK.wav
64,192,218655,1,0,0:0:0:0:
320,192,218730,1,0,0:0:0:70:OH.wav
448,192,218730,1,0,0:0:0:0:
64,192,218805,1,0,0:0:0:0:
192,192,218880,1,0,0:0:0:65:KICK.wav
320,192,218880,1,0,0:0:0:70:SNARE.wav
448,192,218955,1,0,0:0:0:0:
64,192,219030,1,0,0:0:0:70:OH.wav
192,192,219030,1,0,0:0:0:0:
320,192,219105,1,0,0:0:0:0:
64,192,219180,1,0,0:0:0:65:KICK.wav
448,192,219180,1,0,0:0:0:0:
192,192,219255,1,0,0:0:0:0:
448,192,219330,1,0,0:0:0:0:
64,192,219405,1,0,0:0:0:70:OH.wav
320,192,219405,1,0,0:0:0:0:
192,192,219480,1,0,0:0:0:65:KICK.wav
320,192,219555,1,0,0:0:0:0:
64,192,219630,1,0,0:0:0:70:OH.wav
448,192,219630,1,0,0:0:0:0:
192,192,219705,1,0,0:0:0:0:
320,192,219780,1,0,0:0:0:70:CRASH.wav
448,192,219780,1,0,0:0:0:65:KICK.wav
192,192,219855,1,0,0:0:0:0:
64,192,219930,1,0,0:0:0:70:OH.wav
320,192,219930,1,0,0:0:0:0:
448,192,220005,1,0,0:0:0:0:
64,192,220080,1,0,0:0:0:65:KICK.wav
192,192,220080,1,0,0:0:0:70:SNARE.wav
320,192,220155,1,0,0:0:0:0:
192,192,220230,1,0,0:0:0:70:OH.wav
448,192,220230,1,0,0:0:0:0:
64,192,220305,1,0,0:0:0:0:
320,192,220380,1,0,0:0:0:65:KICK.wav
448,192,220380,1,0,0:0:0:0:
192,192,220455,1,0,0:0:0:0:
448,192,220530,1,0,0:0:0:0:
64,192,220605,1,0,0:0:0:70:OH.wav
320,192,220605,1,0,0:0:0:0:
192,192,220680,1,0,0:0:0:65:KICK.wav
320,192,220755,1,0,0:0:0:0:
64,192,220830,1,0,0:0:0:70:OH.wav
192,192,220830,1,0,0:0:0:0:
448,192,220905,1,0,0:0:0:0:
192,192,220980,1,0,0:0:0:70:CRASH.wav
320,192,220980,1,0,0:0:0:65:KICK.wav
64,192,221055,1,0,0:0:0:0:
320,192,221130,1,0,0:0:0:70:OH.wav
448,192,221130,1,0,0:0:0:0:
192,192,221205,1,0,0:0:0:0:
64,192,221280,1,0,0:0:0:65:KICK.wav
448,192,221280,1,0,0:0:0:70:SNARE.wav
320,192,221355,1,0,0:0:0:0:
192,192,221430,1,0,0:0:0:70:OH.wav
448,192,221430,1,0,0:0:0:0:
64,192,221505,1,0,0:0:0:0:
320,192,221580,1,0,0:0:0:65:KICK.wav
448,192,221580,1,0,0:0:0:0:
192,192,221655,1,0,0:0:0:0:
64,192,221730,1,0,0:0:0:0:
192,192,221805,1,0,0:0:0:70:OH.wav
320,192,221805,1,0,0:0:0:0:
448,192,221880,1,0,0:0:0:65:KICK.wav
320,192,221955,1,0,0:0:0:0:
64,192,222030,1,0,0:0:0:70:OH.wav
192,192,222030,1,0,0:0:0:0:
448,192,222105,1,0,0:0:0:0:
64,192,222180,1,0,0:0:0:70:CRASH.wav
320,192,222180,1,0,0:0:0:65:KICK.wav
192,192,222255,1,0,0:0:0:0:
448,192,222330,1,0,0:0:0:0:
64,192,222405,1,0,0:0:0:70:OH.wav
192,192,222405,1,0,0:0:0:0:
320,192,222480,1,0,0:0:0:65:KICK.wav
448,192,222555,1,0,0:0:0:0:
64,192,222630,1,0,0:0:0:70:OH.wav
320,192,222630,1,0,0:0:0:0:
192,192,222705,1,0,0:0:0:0:
64,192,222780,1,0,0:0:0:70:CRASH.wav
448,192,222780,1,0,0:0:0:65:KICK.wav
320,192,222855,1,0,0:0:0:0:
64,192,222930,1,0,0:0:0:70:OH.wav
192,192,222930,1,0,0:0:0:0:
320,192,223005,1,0,0:0:0:0:
64,192,223080,1,0,0:0:0:65:KICK.wav
448,192,223080,1,0,0:0:0:70:SNARE.wav
192,192,223230,1,0,0:0:0:65:KICK.wav
320,192,223230,1,0,0:0:0:0:
192,192,223380,1,0,0:0:0:70:CRASH.wav
320,192,223380,1,0,0:0:0:65:KICK.wav
448,192,223380,1,0,0:0:0:0:
64,192,223455,1,0,0:0:0:0:
320,192,223530,1,0,0:0:0:70:OH.wav
448,192,223530,1,0,0:0:0:0:
192,192,223605,1,0,0:0:0:0:
64,192,223680,1,0,0:0:0:65:KICK.wav
320,192,223680,1,0,0:0:0:70:SNARE.wav
448,192,223755,1,0,0:0:0:0:
64,192,223830,1,0,0:0:0:70:OH.wav
192,192,223830,1,0,0:0:0:0:
320,192,223905,1,0,0:0:0:0:
192,192,223980,1,0,0:0:0:65:KICK.wav
448,192,223980,1,0,0:0:0:0:
64,192,224055,1,0,0:0:0:0:
320,192,224130,1,0,0:0:0:0:
192,192,224205,1,0,0:0:0:70:OH.wav
448,192,224205,1,0,0:0:0:0:
64,192,224280,1,0,0:0:0:65:KICK.wav
192,192,224355,1,0,0:0:0:0:
320,192,224430,1,0,0:0:0:70:OH.wav
448,192,224430,1,0,0:0:0:0:
64,192,224505,1,0,0:0:0:0:
192,192,224580,1,0,0:0:0:70:CRASH.wav
320,192,224580,1,0,0:0:0:65:KICK.wav
448,192,224655,1,0,0:0:0:0:
64,192,224730,1,0,0:0:0:70:OH.wav
192,192,224730,1,0,0:0:0:0:
320,192,224805,1,0,0:0:0:0:
64,192,224880,1,0,0:0:0:65:KICK.wav
448,192,224880,1,0,0:0:0:70:SNARE.wav
192,192,224955,1,0,0:0:0:0:
320,192,225030,1,0,0:0:0:70:OH.wav
448,192,225030,1,0,0:0:0:0:
64,192,225105,1,0,0:0:0:0:
192,192,225180,1,0,0:0:0:65:KICK.wav
320,192,225180,1,0,0:0:0:0:
448,192,225255,1,0,0:0:0:0:
64,192,225330,1,0,0:0:0:0:
192,192,225405,1,0,0:0:0:70:OH.wav
448,192,225405,1,0,0:0:0:0:
320,192,225480,1,0,0:0:0:65:KICK.wav
192,192,225555,1,0,0:0:0:0:
64,192,225630,1,0,0:0:0:70:OH.wav
448,192,225630,1,0,0:0:0:0:
320,192,225705,1,0,0:0:0:0:
64,192,225780,1,0,0:0:0:70:CRASH.wav
192,192,225780,1,0,0:0:0:65:KICK.wav
448,192,225855,1,0,0:0:0:0:
192,192,225930,1,0,0:0:0:70:OH.wav
320,192,225930,1,0,0:0:0:0:
64,192,226005,1,0,0:0:0:0:
320,192,226080,1,0,0:0:0:65:KICK.wav
448,192,226080,1,0,0:0:0:70:SNARE.wav
192,192,226155,1,0,0:0:0:0:
64,192,226230,1,0,0:0:0:70:OH.wav
448,192,226230,1,0,0:0:0:0:
320,192,226305,1,0,0:0:0:0:
64,192,226380,1,0,0:0:0:65:KICK.wav
192,192,226380,1,0,0:0:0:0:
448,192,226455,1,0,0:0:0:0:
192,192,226530,1,0,0:0:0:0:
64,192,226605,1,0,0:0:0:70:OH.wav
320,192,226605,1,0,0:0:0:0:
448,192,226680,1,0,0:0:0:65:KICK.wav
192,192,226755,1,0,0:0:0:0:
320,192,226830,1,0,0:0:0:70:OH.wav
448,192,226830,1,0,0:0:0:0:
64,192,226905,1,0,0:0:0:0:
192,192,226980,1,0,0:0:0:70:CRASH.wav
320,192,226980,1,0,0:0:0:65:KICK.wav
448,192,227055,1,0,0:0:0:0:
64,192,227130,1,0,0:0:0:0:
192,192,227205,1,0,0:0:0:70:OH.wav
448,192,227205,1,0,0:0:0:0:
320,192,227280,1,0,0:0:0:65:KICK.wav
192,192,227355,1,0,0:0:0:0:
64,192,227430,1,0,0:0:0:70:OH.wav
448,192,227430,1,0,0:0:0:0:
320,192,227505,1,0,0:0:0:0:
64,192,227580,1,0,0:0:0:70:CRASH.wav
192,192,227580,1,0,0:0:0:65:KICK.wav
448,192,227655,1,0,0:0:0:0:
320,192,227730,1,0,0:0:0:0:
64,192,227805,1,0,0:0:0:70:OH.wav
192,192,227805,1,0,0:0:0:0:
320,192,227880,1,0,0:0:0:65:KICK.wav
448,192,227880,1,0,0:0:0:70:SNARE.wav
192,192,228030,1,0,0:0:0:65:KICK.wav
320,192,228030,1,0,0:0:0:0:
192,192,228180,1,0,0:0:0:70:CRASH.wav
448,192,228180,1,0,0:0:0:65:KICK.wav
64,192,228255,1,0,0:0:0:0:
320,192,228330,1,0,0:0:0:70:OH.wav
448,192,228330,1,0,0:0:0:0:
192,192,228405,1,0,0:0:0:0:
64,192,228480,1,0,0:0:0:65:KICK.wav
320,192,228480,1,0,0:0:0:70:SNARE.wav
448,192,228555,1,0,0:0:0:0:
64,192,228630,1,0,0:0:0:70:OH.wav
192,192,228630,1,0,0:0:0:0:
320,192,228705,1,0,0:0:0:0:
192,192,228780,1,0,0:0:0:65:KICK.wav
448,192,228780,1,0,0:0:0:0:
64,192,228855,1,0,0:0:0:0:
320,192,228930,1,0,0:0:0:0:
64,192,229005,1,0,0:0:0:70:OH.wav
448,192,229005,1,0,0:0:0:0:
192,192,229080,1,0,0:0:0:65:KICK.wav
320,192,229155,1,0,0:0:0:0:
64,192,229230,1,0,0:0:0:70:OH.wav
448,192,229230,1,0,0:0:0:0:
192,192,229305,1,0,0:0:0:0:
320,192,229380,1,0,0:0:0:70:CRASH.wav
448,192,229380,1,0,0:0:0:65:KICK.wav
64,192,229455,1,0,0:0:0:0:
192,192,229530,1,0,0:0:0:70:OH.wav
448,192,229530,1,0,0:0:0:0:
320,192,229605,1,0,0:0:0:0:
64,192,229680,1,0,0:0:0:65:KICK.wav
448,192,229680,1,0,0:0:0:70:SNARE.wav
192,192,229755,1,0,0:0:0:0:
320,192,229830,1,0,0:0:0:70:OH.wav
448,192,229830,1,0,0:0:0:0:
192,192,229905,1,0,0:0:0:0:
64,192,229980,1,0,0:0:0:65:KICK.wav
320,192,229980,1,0,0:0:0:0:
448,192,230055,1,0,0:0:0:0:
192,192,230130,1,0,0:0:0:0:
320,192,230205,1,0,0:0:0:70:OH.wav
448,192,230205,1,0,0:0:0:0:
64,192,230280,1,0,0:0:0:65:KICK.wav
320,192,230355,1,0,0:0:0:0:
64,192,230430,1,0,0:0:0:70:OH.wav
192,192,230430,1,0,0:0:0:0:
448,192,230505,1,0,0:0:0:0:
192,192,230580,1,0,0:0:0:70:CRASH.wav
320,192,230580,1,0,0:0:0:65:KICK.wav
64,192,230655,1,0,0:0:0:0:
320,192,230730,1,0,0:0:0:70:OH.wav
448,192,230730,1,0,0:0:0:0:
192,192,230805,1,0,0:0:0:0:
64,192,230880,1,0,0:0:0:65:KICK.wav
448,192,230880,1,0,0:0:0:70:SNARE.wav
320,192,230955,1,0,0:0:0:0:
192,192,231030,1,0,0:0:0:70:OH.wav
448,192,231030,1,0,0:0:0:0:
64,192,231105,1,0,0:0:0:0:
192,192,231180,1,0,0:0:0:65:KICK.wav
320,192,231180,1,0,0:0:0:0:
448,192,231255,1,0,0:0:0:0:
320,192,231330,1,0,0:0:0:0:
64,192,231405,1,0,0:0:0:70:OH.wav
192,192,231405,1,0,0:0:0:0:
448,192,231480,1,0,0:0:0:65:KICK.wav
64,192,231555,1,0,0:0:0:0:
192,192,231630,1,0,0:0:0:70:OH.wav
320,192,231630,1,0,0:0:0:0:
448,192,231705,1,0,0:0:0:0:
64,192,231780,1,0,0:0:0:70:CRASH.wav
192,192,231780,1,0,0:0:0:65:KICK.wav
320,192,231855,1,0,0:0:0:0:
64,192,231930,1,0,0:0:0:0:
192,192,232005,1,0,0:0:0:70:OH.wav
320,192,232005,1,0,0:0:0:0:
448,192,232080,1,0,0:0:0:65:KICK.wav
64,192,232155,1,0,0:0:0:0:
192,192,232230,1,0,0:0:0:70:OH.wav
448,192,232230,1,0,0:0:0:0:
320,192,232305,1,0,0:0:0:0:
64,192,232380,1,0,0:0:0:65:KICK.wav
192,192,232380,1,0,0:0:0:0:
448,192,232455,1,0,0:0:0:0:
64,192,232530,1,0,0:0:0:70:OH.wav
320,192,232530,1,0,0:0:0:0:
192,192,232605,1,0,0:0:0:0:
320,192,232680,1,0,0:0:0:50:909 SNARE.wav
448,192,232680,1,0,0:0:0:0:
64,192,232755,1,0,0:0:0:50:909 SNARE.wav
192,192,232755,1,0,0:0:0:0:
320,192,232830,1,0,0:0:0:50:909 SNARE.wav
448,192,232830,1,0,0:0:0:0:
64,192,232905,1,0,0:0:0:50:909 SNARE.wav
192,192,232905,1,0,0:0:0:0:
320,192,232980,1,0,0:0:0:70:CRASH.wav
448,192,232980,1,0,0:0:0:65:KICK.wav
64,192,233055,1,0,0:0:0:0:
192,192,233130,1,0,0:0:0:70:OH.wav
320,192,233130,1,0,0:0:0:0:
448,192,233205,1,0,0:0:0:0:
64,192,233280,1,0,0:0:0:65:KICK.wav
192,192,233280,1,0,0:0:0:70:SNARE.wav
448,192,233355,1,0,0:0:0:0:
64,192,233430,1,0,0:0:0:70:OH.wav
320,192,233430,1,0,0:0:0:0:
192,192,233505,1,0,0:0:0:0:
320,192,233580,1,0,0:0:0:65:KICK.wav
448,192,233580,1,0,0:0:0:0:
64,192,233655,1,0,0:0:0:0:
448,192,233730,1,0,0:0:0:0:
192,192,233805,1,0,0:0:0:70:OH.wav
320,192,233805,1,0,0:0:0:0:
64,192,233880,1,0,0:0:0:65:KICK.wav
320,192,233955,1,0,0:0:0:0:
192,192,234030,1,0,0:0:0:70:OH.wav
448,192,234030,1,0,0:0:0:0:
64,192,234105,1,0,0:0:0:0:
320,192,234180,1,0,0:0:0:70:CRASH.wav
448,192,234180,1,0,0:0:0:65:KICK.wav
192,192,234255,1,0,0:0:0:0:
64,192,234330,1,0,0:0:0:70:OH.wav
448,192,234330,1,0,0:0:0:0:
320,192,234405,1,0,0:0:0:0:
64,192,234480,1,0,0:0:0:65:KICK.wav
192,192,234480,1,0,0:0:0:70:SNARE.wav
448,192,234555,1,0,0:0:0:0:
192,192,234630,1,0,0:0:0:70:OH.wav
320,192,234630,1,0,0:0:0:0:
64,192,234705,1,0,0:0:0:0:
320,192,234780,1,0,0:0:0:65:KICK.wav
448,192,234780,1,0,0:0:0:0:
192,192,234855,1,0,0:0:0:0:
64,192,234930,1,0,0:0:0:0:
192,192,235005,1,0,0:0:0:70:OH.wav
448,192,235005,1,0,0:0:0:0:
320,192,235080,1,0,0:0:0:65:KICK.wav
64,192,235155,1,0,0:0:0:0:
192,192,235230,1,0,0:0:0:70:OH.wav
320,192,235230,1,0,0:0:0:0:
448,192,235305,1,0,0:0:0:0:
64,192,235380,1,0,0:0:0:70:CRASH.wav
192,192,235380,1,0,0:0:0:65:KICK.wav
320,192,235455,1,0,0:0:0:0:
64,192,235530,1,0,0:0:0:70:OH.wav
448,192,235530,1,0,0:0:0:0:
192,192,235605,1,0,0:0:0:0:
320,192,235680,1,0,0:0:0:65:KICK.wav
448,192,235680,1,0,0:0:0:70:SNARE.wav
64,192,235755,1,0,0:0:0:0:
192,192,235830,1,0,0:0:0:70:OH.wav
320,192,235830,1,0,0:0:0:0:
448,192,235905,1,0,0:0:0:0:
64,192,235980,1,0,0:0:0:65:KICK.wav
192,192,235980,1,0,0:0:0:0:
448,192,236055,1,0,0:0:0:0:
64,192,236130,1,0,0:0:0:0:
192,192,236205,1,0,0:0:0:70:OH.wav
320,192,236205,1,0,0:0:0:0:
448,192,236280,1,0,0:0:0:65:KICK.wav
320,192,236355,1,0,0:0:0:0:
64,192,236430,1,0,0:0:0:70:OH.wav
192,192,236430,1,0,0:0:0:0:
448,192,236505,1,0,0:0:0:0:
192,192,236580,1,0,0:0:0:70:CRASH.wav
320,192,236580,1,0,0:0:0:65:KICK.wav
64,192,236655,1,0,0:0:0:0:
320,192,236730,1,0,0:0:0:0:
192,192,236805,1,0,0:0:0:70:OH.wav
448,192,236805,1,0,0:0:0:0:
64,192,236880,1,0,0:0:0:65:KICK.wav
320,192,236955,1,0,0:0:0:0:
64,192,237030,1,0,0:0:0:70:OH.wav
192,192,237030,1,0,0:0:0:0:
448,192,237105,1,0,0:0:0:0:
192,192,237180,1,0,0:0:0:70:CRASH.wav
320,192,237180,1,0,0:0:0:65:KICK.wav
64,192,237255,1,0,0:0:0:0:
448,192,237330,1,0,0:0:0:0:
64,192,237405,1,0,0:0:0:70:OH.wav
192,192,237405,1,0,0:0:0:0:
320,192,237480,1,0,0:0:0:65:KICK.wav
448,192,237480,1,0,0:0:0:70:SNARE.wav
64,192,237630,1,0,0:0:0:65:KICK.wav
320,192,237630,1,0,0:0:0:0:
64,192,237780,1,0,0:0:0:70:CRASH.wav
448,192,237780,1,0,0:0:0:65:KICK.wav
192,192,237855,1,0,0:0:0:0:
320,192,237930,1,0,0:0:0:70:OH.wav
448,192,237930,1,0,0:0:0:0:
64,192,238005,1,0,0:0:0:0:
192,192,238080,1,0,0:0:0:65:KICK.wav
320,192,238080,1,0,0:0:0:70:SNARE.wav
448,192,238155,1,0,0:0:0:0:
64,192,238230,1,0,0:0:0:70:OH.wav
192,192,238230,1,0,0:0:0:0:
320,192,238305,1,0,0:0:0:0:
64,192,238380,1,0,0:0:0:65:KICK.wav
448,192,238380,1,0,0:0:0:0:
192,192,238455,1,0,0:0:0:0:
320,192,238530,1,0,0:0:0:0:
192,192,238605,1,0,0:0:0:70:OH.wav
448,192,238605,1,0,0:0:0:0:
64,192,238680,1,0,0:0:0:65:KICK.wav
320,192,238755,1,0,0:0:0:0:
64,192,238830,1,0,0:0:0:70:OH.wav
192,192,238830,1,0,0:0:0:0:
448,192,238905,1,0,0:0:0:0:
192,192,238980,1,0,0:0:0:70:CRASH.wav
320,192,238980,1,0,0:0:0:65:KICK.wav
64,192,239055,1,0,0:0:0:0:
320,192,239130,1,0,0:0:0:70:OH.wav
448,192,239130,1,0,0:0:0:0:
192,192,239205,1,0,0:0:0:0:
64,192,239280,1,0,0:0:0:65:KICK.wav
448,192,239280,1,0,0:0:0:70:SNARE.wav
320,192,239355,1,0,0:0:0:0:
64,192,239430,1,0,0:0:0:70:OH.wav
192,192,239430,1,0,0:0:0:0:
448,192,239505,1,0,0:0:0:0:
192,192,239580,1,0,0:0:0:65:KICK.wav
320,192,239580,1,0,0:0:0:0:
64,192,239655,1,0,0:0:0:0:
448,192,239730,1,0,0:0:0:0:
64,192,239805,1,0,0:0:0:70:OH.wav
320,192,239805,1,0,0:0:0:0:
192,192,239880,1,0,0:0:0:65:KICK.wav
448,192,239955,1,0,0:0:0:0:
192,192,240030,1,0,0:0:0:70:OH.wav
320,192,240030,1,0,0:0:0:0:
64,192,240105,1,0,0:0:0:0:
320,192,240180,1,0,0:0:0:70:CRASH.wav
448,192,240180,1,0,0:0:0:65:KICK.wav
64,192,240255,1,0,0:0:0:0:
192,192,240330,1,0,0:0:0:70:OH.wav
320,192,240330,1,0,0:0:0:0:
448,192,240405,1,0,0:0:0:0:
64,192,240480,1,0,0:0:0:65:KICK.wav
192,192,240480,1,0,0:0:0:70:SNARE.wav
320,192,240555,1,0,0:0:0:0:
64,192,240630,1,0,0:0:0:70:OH.wav
448,192,240630,1,0,0:0:0:0:
192,192,240705,1,0,0:0:0:0:
320,192,240780,1,0,0:0:0:65:KICK.wav
448,192,240780,1,0,0:0:0:0:
192,192,240855,1,0,0:0:0:0:
64,192,240930,1,0,0:0:0:0:
192,192,241005,1,0,0:0:0:70:OH.wav
320,192,241005,1,0,0:0:0:0:
448,192,241080,1,0,0:0:0:65:KICK.wav
320,192,241155,1,0,0:0:0:0:
64,192,241230,1,0,0:0:0:70:OH.wav
192,192,241230,1,0,0:0:0:0:
448,192,241305,1,0,0:0:0:0:
192,192,241380,1,0,0:0:0:70:CRASH.wav
320,192,241380,1,0,0:0:0:65:KICK.wav
64,192,241455,1,0,0:0:0:0:
320,192,241530,1,0,0:0:0:0:
64,192,241605,1,0,0:0:0:70:OH.wav
192,192,241605,1,0,0:0:0:0:
448,192,241680,1,0,0:0:0:65:KICK.wav
192,192,241755,1,0,0:0:0:0:
320,192,241830,1,0,0:0:0:70:OH.wav
448,192,241830,1,0,0:0:0:0:
64,192,241905,1,0,0:0:0:0:
192,192,241980,1,0,0:0:0:70:CRASH.wav
448,192,241980,1,0,0:0:0:65:KICK.wav
320,192,242055,1,0,0:0:0:0:
64,192,242130,1,0,0:0:0:70:OH.wav
192,192,242130,1,0,0:0:0:0:
448,192,242205,1,0,0:0:0:0:
192,192,242280,1,0,0:0:0:65:KICK.wav
320,192,242280,1,0,0:0:0:70:SNARE.wav
64,192,242430,1,0,0:0:0:65:KICK.wav
448,192,242430,1,0,0:0:0:0:
192,192,242580,1,0,0:0:0:70:CRASH.wav
320,192,242580,1,0,0:0:0:65:KICK.wav
448,192,242580,1,0,0:0:0:0:
64,192,242655,1,0,0:0:0:0:
320,192,242730,1,0,0:0:0:70:OH.wav
448,192,242730,1,0,0:0:0:0:
192,192,242805,1,0,0:0:0:0:
64,192,242880,1,0,0:0:0:65:KICK.wav
448,192,242880,1,0,0:0:0:70:SNARE.wav
320,192,242955,1,0,0:0:0:0:
64,192,243030,1,0,0:0:0:70:OH.wav
192,192,243030,1,0,0:0:0:0:
448,192,243105,1,0,0:0:0:0:
192,192,243180,1,0,0:0:0:65:KICK.wav
320,192,243180,1,0,0:0:0:0:
64,192,243255,1,0,0:0:0:0:
320,192,243330,1,0,0:0:0:0:
64,192,243405,1,0,0:0:0:70:OH.wav
192,192,243405,1,0,0:0:0:0:
448,192,243480,1,0,0:0:0:65:KICK.wav
192,192,243555,1,0,0:0:0:0:
320,192,243630,1,0,0:0:0:70:OH.wav
448,192,243630,1,0,0:0:0:0:
64,192,243705,1,0,0:0:0:0:
192,192,243780,1,0,0:0:0:70:CRASH.wav
320,192,243780,1,0,0:0:0:65:KICK.wav
448,192,243855,1,0,0:0:0:0:
64,192,243930,1,0,0:0:0:70:OH.wav
320,192,243930,1,0,0:0:0:0:
192,192,244005,1,0,0:0:0:0:
320,192,244080,1,0,0:0:0:65:KICK.wav
448,192,244080,1,0,0:0:0:70:SNARE.wav
64,192,244155,1,0,0:0:0:0:
192,192,244230,1,0,0:0:0:70:OH.wav
448,192,244230,1,0,0:0:0:0:
320,192,244305,1,0,0:0:0:0:
64,192,244380,1,0,0:0:0:65:KICK.wav
192,192,244380,1,0,0:0:0:0:
320,192,244455,1,0,0:0:0:0:
448,192,244530,1,0,0:0:0:0:
64,192,244605,1,0,0:0:0:70:OH.wav
192,192,244605,1,0,0:0:0:0:
320,192,244680,1,0,0:0:0:65:KICK.wav
448,192,244755,1,0,0:0:0:0:
192,192,244830,1,0,0:0:0:70:OH.wav
320,192,244830,1,0,0:0:0:0:
64,192,244905,1,0,0:0:0:0:
320,192,244980,1,0,0:0:0:70:CRASH.wav
448,192,244980,1,0,0:0:0:65:KICK.wav
192,192,245055,1,0,0:0:0:0:
64,192,245130,1,0,0:0:0:70:OH.wav
448,192,245130,1,0,0:0:0:0:
320,192,245205,1,0,0:0:0:0:
64,192,245280,1,0,0:0:0:65:KICK.wav
192,192,245280,1,0,0:0:0:70:SNARE.wav
320,192,245355,1,0,0:0:0:0:
192,192,245430,1,0,0:0:0:70:OH.wav
448,192,245430,1,0,0:0:0:0:
64,192,245505,1,0,0:0:0:0:
320,192,245580,1,0,0:0:0:65:KICK.wav
448,192,245580,1,0,0:0:0:0:
64,192,245655,1,0,0:0:0:0:
192,192,245730,1,0,0:0:0:0:
64,192,245805,1,0,0:0:0:70:OH.wav
320,192,245805,1,0,0:0:0:0:
448,192,245880,1,0,0:0:0:65:KICK.wav
192,192,245955,1,0,0:0:0:0:
320,192,246030,1,0,0:0:0:70:OH.wav
448,192,246030,1,0,0:0:0:0:
64,192,246105,1,0,0:0:0:0:
192,192,246180,1,0,0:0:0:70:CRASH.wav
320,192,246180,1,0,0:0:0:65:KICK.wav
64,192,246255,1,0,0:0:0:0:
448,192,246330,1,0,0:0:0:0:
192,192,246405,1,0,0:0:0:70:OH.wav
320,192,246405,1,0,0:0:0:0:
448,192,246480,1,0,0:0:0:65:KICK.wav
192,192,246555,1,0,0:0:0:0:
64,192,246630,1,0,0:0:0:70:OH.wav
320,192,246630,1,0,0:0:0:0:
448,192,246705,1,0,0:0:0:0:
64,192,246780,1,0,0:0:0:70:CRASH.wav
192,192,246780,1,0,0:0:0:65:KICK.wav
320,192,246855,1,0,0:0:0:0:
64,192,246930,1,0,0:0:0:0:
192,192,247005,1,0,0:0:0:70:OH.wav
320,192,247005,1,0,0:0:0:0:
64,192,247080,1,0,0:0:0:65:KICK.wav
448,192,247080,1,0,0:0:0:70:SNARE.wav
192,192,247230,1,0,0:0:0:65:KICK.wav
448,192,247230,1,0,0:0:0:0:
64,192,247380,1,0,0:0:0:70:CRASH.wav
320,192,247380,1,0,0:0:0:65:KICK.wav
192,192,247455,1,0,0:0:0:0:
64,192,247530,1,0,0:0:0:70:OH.wav
448,192,247530,1,0,0:0:0:0:
320,192,247605,1,0,0:0:0:0:
192,192,247680,1,0,0:0:0:65:KICK.wav
448,192,247680,1,0,0:0:0:70:SNARE.wav
64,192,247755,1,0,0:0:0:0:
192,192,247830,1,0,0:0:0:70:OH.wav
320,192,247830,1,0,0:0:0:0:
64,192,247905,1,0,0:0:0:0:
320,192,247980,1,0,0:0:0:65:KICK.wav
448,192,247980,1,0,0:0:0:0:
192,192,248055,1,0,0:0:0:0:
64,192,248130,1,0,0:0:0:0:
192,192,248205,1,0,0:0:0:70:OH.wav
448,192,248205,1,0,0:0:0:0:
320,192,248280,1,0,0:0:0:65:KICK.wav
64,192,248355,1,0,0:0:0:0:
192,192,248430,1,0,0:0:0:70:OH.wav
320,192,248430,1,0,0:0:0:0:
448,192,248505,1,0,0:0:0:0:
64,192,248580,1,0,0:0:0:70:CRASH.wav
192,192,248580,1,0,0:0:0:65:KICK.wav
320,192,248655,1,0,0:0:0:0:
64,192,248730,1,0,0:0:0:70:OH.wav
448,192,248730,1,0,0:0:0:0:
192,192,248805,1,0,0:0:0:0:
320,192,248880,1,0,0:0:0:65:KICK.wav
448,192,248880,1,0,0:0:0:70:SNARE.wav
64,192,248955,1,0,0:0:0:0:
192,192,249030,1,0,0:0:0:70:OH.wav
320,192,249030,1,0,0:0:0:0:
448,192,249105,1,0,0:0:0:0:
64,192,249180,1,0,0:0:0:65:KICK.wav
192,192,249180,1,0,0:0:0:0:
320,192,249255,1,0,0:0:0:0:
64,192,249330,1,0,0:0:0:0:
192,192,249405,1,0,0:0:0:70:OH.wav
448,192,249405,1,0,0:0:0:0:
320,192,249480,1,0,0:0:0:65:KICK.wav
64,192,249555,1,0,0:0:0:0:
192,192,249630,1,0,0:0:0:70:OH.wav
320,192,249630,1,0,0:0:0:0:
448,192,249705,1,0,0:0:0:0:
64,192,249780,1,0,0:0:0:70:CRASH.wav
192,192,249780,1,0,0:0:0:65:KICK.wav
320,192,249855,1,0,0:0:0:0:
192,192,249930,1,0,0:0:0:70:OH.wav
448,192,249930,1,0,0:0:0:0:
64,192,250005,1,0,0:0:0:0:
320,192,250080,1,0,0:0:0:65:KICK.wav
448,192,250080,1,0,0:0:0:70:SNARE.wav
192,192,250155,1,0,0:0:0:0:
64,192,250230,1,0,0:0:0:70:OH.wav
320,192,250230,1,0,0:0:0:0:
448,192,250305,1,0,0:0:0:0:
64,192,250380,1,0,0:0:0:65:KICK.wav
192,192,250380,1,0,0:0:0:0:
320,192,250455,1,0,0:0:0:0:
64,192,250530,1,0,0:0:0:0:
192,192,250605,1,0,0:0:0:70:OH.wav
448,192,250605,1,0,0:0:0:0:
320,192,250680,1,0,0:0:0:65:KICK.wav
192,192,250755,1,0,0:0:0:0:
64,192,250830,1,0,0:0:0:70:OH.wav
448,192,250830,1,0,0:0:0:0:
320,192,250905,1,0,0:0:0:0:
192,192,250980,1,0,0:0:0:65:KICK.wav
448,192,250980,1,0,0:0:0:0:
64,192,251130,1,0,0:0:0:70:CH.wav
192,192,251167,1,0,0:0:0:0:
320,192,251205,1,0,0:0:0:0:
448,192,251242,1,0,0:0:0:0:
64,192,251280,1,0,0:0:0:0:
192,192,251317,1,0,0:0:0:0:
448,192,251355,1,0,0:0:0:0:
320,192,251392,1,0,0:0:0:0:
64,192,251430,1,0,0:0:0:70:CH.wav
192,192,251467,1,0,0:0:0:0:
448,192,251505,1,0,0:0:0:0:
320,192,251542,1,0,0:0:0:0:
64,192,251580,1,0,0:0:0:0:
192,192,251617,1,0,0:0:0:0:
448,192,251655,1,0,0:0:0:0:
320,192,251692,1,0,0:0:0:0:
64,192,251730,1,0,0:0:0:70:CH.wav
192,192,251767,1,0,0:0:0:0:
320,192,251805,1,0,0:0:0:0:
448,192,251842,1,0,0:0:0:0:
64,192,251880,1,0,0:0:0:0:
192,192,251917,1,0,0:0:0:0:
448,192,251955,1,0,0:0:0:0:
320,192,251992,1,0,0:0:0:0:
192,192,252030,1,0,0:0:0:70:CH.wav
64,192,252067,1,0,0:0:0:0:
320,192,252105,1,0,0:0:0:0:
192,192,252142,1,0,0:0:0:0:
64,192,252180,1,0,0:0:0:70:CRASH.wav
448,192,252180,1,0,0:0:0:65:KICK.wav
320,192,252255,1,0,0:0:0:0:
192,192,252330,1,0,0:0:0:0:
64,192,252405,1,0,0:0:0:0:
320,192,252480,1,0,0:0:0:65:KICK.wav
448,192,252480,1,0,0:0:0:70:SNARE.wav
192,192,252555,1,0,0:0:0:0:
448,192,252630,1,0,0:0:0:0:
320,192,252705,1,0,0:0:0:0:
64,192,252780,1,0,0:0:0:65:KICK.wav
192,192,252780,1,0,0:0:0:0:
448,192,252855,1,0,0:0:0:0:
192,192,252930,1,0,0:0:0:70:OH.wav
320,192,252930,1,0,0:0:0:0:
64,192,253005,1,0,0:0:0:0:
320,192,253080,1,0,0:0:0:65:KICK.wav
448,192,253080,1,0,0:0:0:70:SNARE.wav
192,192,253155,1,0,0:0:0:0:
64,192,253230,1,0,0:0:0:70:OH.wav
448,192,253230,1,0,0:0:0:0:
320,192,253305,1,0,0:0:0:0:
64,192,253380,1,0,0:0:0:70:CRASH.wav
192,192,253380,1,0,0:0:0:65:KICK.wav
448,192,253455,1,0,0:0:0:0:
320,192,253530,1,0,0:0:0:0:
64,192,253605,1,0,0:0:0:0:
192,192,253680,1,0,0:0:0:65:KICK.wav
448,192,253680,1,0,0:0:0:70:SNARE.wav
320,192,253755,1,0,0:0:0:0:
448,192,253830,1,0,0:0:0:0:
192,192,253905,1,0,0:0:0:0:
64,192,253980,1,0,0:0:0:65:KICK.wav
320,192,253980,1,0,0:0:0:0:
448,192,254055,1,0,0:0:0:0:
192,192,254130,1,0,0:0:0:70:OH.wav
320,192,254130,1,0,0:0:0:0:
64,192,254205,1,0,0:0:0:0:
192,192,254280,1,0,0:0:0:65:KICK.wav
448,192,254280,1,0,0:0:0:70:SNARE.wav
320,192,254355,1,0,0:0:0:0:
448,192,254430,1,0,0:0:0:0:
64,192,254505,1,0,0:0:0:0:
192,192,254580,1,0,0:0:0:70:CRASH.wav
320,192,254580,1,0,0:0:0:65:KICK.wav
448,192,254655,1,0,0:0:0:0:
64,192,254730,1,0,0:0:0:0:
192,192,254805,1,0,0:0:0:0:
320,192,254880,1,0,0:0:0:65:KICK.wav
448,192,254880,1,0,0:0:0:70:SNARE.wav
64,192,254955,1,0,0:0:0:0:
320,192,255030,1,0,0:0:0:0:
192,192,255105,1,0,0:0:0:0:
64,192,255180,1,0,0:0:0:65:KICK.wav
448,192,255180,1,0,0:0:0:0:
320,192,255255,1,0,0:0:0:0:
192,192,255330,1,0,0:0:0:70:OH.wav
448,192,255330,1,0,0:0:0:0:
64,192,255405,1,0,0:0:0:0:
192,192,255480,1,0,0:0:0:65:KICK.wav
320,192,255480,1,0,0:0:0:70:SNARE.wav
448,192,255555,1,0,0:0:0:0:
64,192,255630,1,0,0:0:0:70:OH.wav
320,192,255630,1,0,0:0:0:0:
192,192,255705,1,0,0:0:0:0:
64,192,255780,1,0,0:0:0:70:CRASH.wav
448,192,255780,1,0,0:0:0:65:KICK.wav
192,192,255855,1,0,0:0:0:0:
320,192,255930,1,0,0:0:0:70:OH.wav
448,192,255930,1,0,0:0:0:0:
64,192,256005,1,0,0:0:0:0:
192,192,256080,1,0,0:0:0:65:KICK.wav
320,192,256080,1,0,0:0:0:70:SNARE.wav
64,192,256155,1,0,0:0:0:0:
192,192,256230,1,0,0:0:0:70:OH.wav
448,192,256230,1,0,0:0:0:0:
320,192,256305,1,0,0:0:0:0:
64,192,256380,1,0,0:0:0:50:909 SNARE.wav
192,192,256380,1,0,0:0:0:0:
320,192,256455,1,0,0:0:0:50:909 SNARE.wav
448,192,256455,1,0,0:0:0:0:
64,192,256530,1,0,0:0:0:0:
320,192,256605,1,0,0:0:0:50:909 SNARE.wav
448,192,256605,1,0,0:0:0:0:
64,192,256680,1,0,0:0:0:65:KICK.wav
192,192,256680,1,0,0:0:0:70:SNARE.wav
192,192,256830,1,0,0:0:0:65:KICK.wav
320,192,256830,1,0,0:0:0:0:
448,192,256830,1,0,0:0:0:0:
320,192,256980,1,0,0:0:0:70:CRASH.wav
448,192,256980,1,0,0:0:0:65:KICK.wav
192,192,257055,1,0,0:0:0:0:
64,192,257130,1,0,0:0:0:0:
320,192,257205,1,0,0:0:0:0:
192,192,257280,1,0,0:0:0:65:KICK.wav
448,192,257280,1,0,0:0:0:70:SNARE.wav
64,192,257355,1,0,0:0:0:0:
320,192,257430,1,0,0:0:0:0:
64,192,257505,1,0,0:0:0:0:
320,192,257580,1,0,0:0:0:65:KICK.wav
448,192,257580,1,0,0:0:0:0:
192,192,257655,1,0,0:0:0:0:
64,192,257730,1,0,0:0:0:70:OH.wav
448,192,257730,1,0,0:0:0:0:
320,192,257805,1,0,0:0:0:0:
64,192,257880,1,0,0:0:0:65:KICK.wav
192,192,257880,1,0,0:0:0:70:SNARE.wav
448,192,257955,1,0,0:0:0:0:
192,192,258030,1,0,0:0:0:70:OH.wav
320,192,258030,1,0,0:0:0:0:
64,192,258105,1,0,0:0:0:0:
320,192,258180,1,0,0:0:0:70:CRASH.wav
448,192,258180,1,0,0:0:0:65:KICK.wav
192,192,258255,1,0,0:0:0:0:
64,192,258330,1,0,0:0:0:0:
448,192,258405,1,0,0:0:0:0:
192,192,258480,1,0,0:0:0:65:KICK.wav
320,192,258480,1,0,0:0:0:70:SNARE.wav
64,192,258555,1,0,0:0:0:0:
448,192,258630,1,0,0:0:0:0:
320,192,258705,1,0,0:0:0:0:
64,192,258780,1,0,0:0:0:65:KICK.wav
192,192,258780,1,0,0:0:0:0:
448,192,258855,1,0,0:0:0:0:
192,192,258930,1,0,0:0:0:70:OH.wav
320,192,258930,1,0,0:0:0:0:
64,192,259005,1,0,0:0:0:0:
320,192,259080,1,0,0:0:0:65:KICK.wav
448,192,259080,1,0,0:0:0:70:SNARE.wav
192,192,259155,1,0,0:0:0:0:
64,192,259230,1,0,0:0:0:0:
320,192,259305,1,0,0:0:0:0:
64,192,259380,1,0,0:0:0:70:CRASH.wav
448,192,259380,1,0,0:0:0:65:KICK.wav
192,192,259455,1,0,0:0:0:0:
448,192,259530,1,0,0:0:0:0:
320,192,259605,1,0,0:0:0:0:
64,192,259680,1,0,0:0:0:65:KICK.wav
192,192,259680,1,0,0:0:0:70:SNARE.wav
448,192,259755,1,0,0:0:0:0:
64,192,259830,1,0,0:0:0:0:
192,192,259905,1,0,0:0:0:0:
320,192,259980,1,0,0:0:0:65:KICK.wav
448,192,259980,1,0,0:0:0:0:
64,192,260055,1,0,0:0:0:0:
320,192,260130,1,0,0:0:0:70:OH.wav
448,192,260130,1,0,0:0:0:0:
192,192,260205,1,0,0:0:0:0:
320,192,260280,1,0,0:0:0:65:KICK.wav
448,192,260280,1,0,0:0:0:70:SNARE.wav
64,192,260355,1,0,0:0:0:0:
320,192,260430,1,0,0:0:0:70:OH.wav
448,192,260430,1,0,0:0:0:0:
192,192,260505,1,0,0:0:0:0:
64,192,260580,1,0,0:0:0:70:CRASH.wav
320,192,260580,1,0,0:0:0:65:KICK.wav
448,192,260655,1,0,0:0:0:0:
192,192,260730,1,0,0:0:0:0:
320,192,260805,1,0,0:0:0:0:
64,192,260880,1,0,0:0:0:65:KICK.wav
448,192,260880,1,0,0:0:0:70:SNARE.wav
192,192,260955,1,0,0:0:0:0:
448,192,261030,1,0,0:0:0:0:
320,192,261105,1,0,0:0:0:0:
64,192,261180,1,0,0:0:0:70:CRASH.wav
192,192,261180,1,0,0:0:0:65:KICK.wav
448,192,261255,1,0,0:0:0:0:
64,192,261330,1,0,0:0:0:70:OH.wav
320,192,261330,1,0,0:0:0:0:
192,192,261405,1,0,0:0:0:0:
320,192,261480,1,0,0:0:0:65:KICK.wav
448,192,261480,1,0,0:0:0:70:SNARE.wav
64,192,261630,1,0,0:0:0:65:KICK.wav
192,192,261630,1,0,0:0:0:0:
320,192,261630,1,0,0:0:0:0:
64,192,261780,1,0,0:0:0:70:CRASH.wav
192,192,261780,1,0,0:0:0:65:KICK.wav
448,192,261780,1,0,0:0:0:0:
320,192,261855,1,0,0:0:0:0:
192,192,261930,1,0,0:0:0:0:
64,192,262005,1,0,0:0:0:0:
320,192,262080,1,0,0:0:0:65:KICK.wav
448,192,262080,1,0,0:0:0:70:SNARE.wav
192,192,262155,1,0,0:0:0:0:
320,192,262230,1,0,0:0:0:0:
64,192,262305,1,0,0:0:0:0:
192,192,262380,1,0,0:0:0:65:KICK.wav
448,192,262380,1,0,0:0:0:0:
320,192,262455,1,0,0:0:0:0:
64,192,262530,1,0,0:0:0:70:OH.wav
192,192,262530,1,0,0:0:0:0:
320,192,262605,1,0,0:0:0:0:
64,192,262680,1,0,0:0:0:65:KICK.wav
448,192,262680,1,0,0:0:0:70:SNARE.wav
192,192,262755,1,0,0:0:0:0:
320,192,262830,1,0,0:0:0:70:OH.wav
448,192,262830,1,0,0:0:0:0:
64,192,262905,1,0,0:0:0:0:
192,192,262980,1,0,0:0:0:70:CRASH.wav
320,192,262980,1,0,0:0:0:65:KICK.wav
448,192,263055,1,0,0:0:0:0:
64,192,263130,1,0,0:0:0:0:
320,192,263205,1,0,0:0:0:0:
64,192,263280,1,0,0:0:0:65:KICK.wav
192,192,263280,1,0,0:0:0:70:SNARE.wav
448,192,263355,1,0,0:0:0:0:
320,192,263430,1,0,0:0:0:0:
192,192,263505,1,0,0:0:0:0:
64,192,263580,1,0,0:0:0:65:KICK.wav
320,192,263580,1,0,0:0:0:0:
448,192,263655,1,0,0:0:0:0:
64,192,263730,1,0,0:0:0:70:OH.wav
192,192,263730,1,0,0:0:0:0:
320,192,263805,1,0,0:0:0:0:
192,192,263880,1,0,0:0:0:65:KICK.wav
448,192,263880,1,0,0:0:0:70:SNARE.wav
64,192,263955,1,0,0:0:0:0:
320,192,264030,1,0,0:0:0:0:
192,192,264105,1,0,0:0:0:0:
320,192,264180,1,0,0:0:0:70:CRASH.wav
448,192,264180,1,0,0:0:0:65:KICK.wav
64,192,264255,1,0,0:0:0:0:
192,192,264330,1,0,0:0:0:0:
448,192,264405,1,0,0:0:0:0:
64,192,264480,1,0,0:0:0:65:KICK.wav
320,192,264480,1,0,0:0:0:70:SNARE.wav
192,192,264555,1,0,0:0:0:0:
320,192,264630,1,0,0:0:0:0:
64,192,264705,1,0,0:0:0:0:
192,192,264780,1,0,0:0:0:65:KICK.wav
448,192,264780,1,0,0:0:0:0:
320,192,264855,1,0,0:0:0:0:
64,192,264930,1,0,0:0:0:70:OH.wav
192,192,264930,1,0,0:0:0:0:
448,192,265005,1,0,0:0:0:0:
64,192,265080,1,0,0:0:0:65:KICK.wav
320,192,265080,1,0,0:0:0:70:SNARE.wav
192,192,265155,1,0,0:0:0:0:
320,192,265230,1,0,0:0:0:70:OH.wav
448,192,265230,1,0,0:0:0:0:
64,192,265305,1,0,0:0:0:0:
192,192,265380,1,0,0:0:0:70:CRASH.wav
448,192,265380,1,0,0:0:0:65:KICK.wav
320,192,265455,1,0,0:0:0:0:
64,192,265530,1,0,0:0:0:70:OH.wav
448,192,265530,1,0,0:0:0:0:
320,192,265605,1,0,0:0:0:0:
64,192,265680,1,0,0:0:0:65:KICK.wav
192,192,265680,1,0,0:0:0:70:SNARE.wav
448,192,265755,1,0,0:0:0:0:
192,192,265830,1,0,0:0:0:70:OH.wav
320,192,265830,1,0,0:0:0:0:
64,192,265905,1,0,0:0:0:0:
320,192,265980,1,0,0:0:0:50:909 SNARE.wav
448,192,265980,1,0,0:0:0:0:
64,192,266055,1,0,0:0:0:50:909 SNARE.wav
192,192,266055,1,0,0:0:0:0:
448,192,266130,1,0,0:0:0:0:
64,192,266205,1,0,0:0:0:50:909 SNARE.wav
192,192,266205,1,0,0:0:0:0:
320,192,266280,1,0,0:0:0:65:KICK.wav
448,192,266280,1,0,0:0:0:70:SNARE.wav
64,192,266430,1,0,0:0:0:65:KICK.wav
192,192,266430,1,0,0:0:0:0:
320,192,266430,1,0,0:0:0:0:
64,192,266580,1,0,0:0:0:70:CRASH.wav
192,192,266580,1,0,0:0:0:65:KICK.wav
448,192,266580,1,0,0:0:0:0:
320,192,266655,1,0,0:0:0:0:
448,192,266730,1,0,0:0:0:0:
192,192,266805,1,0,0:0:0:0:
64,192,266880,1,0,0:0:0:65:KICK.wav
320,192,266880,1,0,0:0:0:70:SNARE.wav
448,192,266955,1,0,0:0:0:0:
64,192,267030,1,0,0:0:0:0:
192,192,267105,1,0,0:0:0:0:
320,192,267180,1,0,0:0:0:65:KICK.wav
448,192,267180,1,0,0:0:0:0:
192,192,267255,1,0,0:0:0:0:
64,192,267330,1,0,0:0:0:70:OH.wav
320,192,267330,1,0,0:0:0:0:
448,192,267405,1,0,0:0:0:0:
64,192,267480,1,0,0:0:0:65:KICK.wav
192,192,267480,1,0,0:0:0:70:SNARE.wav
320,192,267555,1,0,0:0:0:0:
64,192,267630,1,0,0:0:0:70:OH.wav
448,192,267630,1,0,0:0:0:0:
320,192,267705,1,0,0:0:0:0:
192,192,267780,1,0,0:0:0:70:CRASH.wav
448,192,267780,1,0,0:0:0:65:KICK.wav
64,192,267855,1,0,0:0:0:0:
320,192,267930,1,0,0:0:0:0:
192,192,268005,1,0,0:0:0:0:
64,192,268080,1,0,0:0:0:65:KICK.wav
448,192,268080,1,0,0:0:0:70:SNARE.wav
320,192,268155,1,0,0:0:0:0:
192,192,268230,1,0,0:0:0:0:
320,192,268305,1,0,0:0:0:0:
64,192,268380,1,0,0:0:0:65:KICK.wav
448,192,268380,1,0,0:0:0:0:
192,192,268455,1,0,0:0:0:0:
320,192,268530,1,0,0:0:0:70:OH.wav
448,192,268530,1,0,0:0:0:0:
192,192,268605,1,0,0:0:0:0:
64,192,268680,1,0,0:0:0:65:KICK.wav
448,192,268680,1,0,0:0:0:70:SNARE.wav
320,192,268755,1,0,0:0:0:0:
64,192,268830,1,0,0:0:0:0:
192,192,268905,1,0,0:0:0:0:
320,192,268980,1,0,0:0:0:70:CRASH.wav
448,192,268980,1,0,0:0:0:70:TECH KICK.wav
192,192,269130,1,0,0:0:0:70:TECH KICK.wav
320,192,269130,1,0,0:0:0:50:909 SNARE.wav
64,192,269280,1,0,0:0:0:70:TECH KICK.wav
192,192,269280,1,0,0:0:0:50:909 SNARE.wav
192,192,269430,1,0,0:0:0:70:TECH KICK.wav
320,192,269430,1,0,0:0:0:50:909 SNARE.wav
64,192,269580,1,0,0:0:0:70:CRASH.wav
320,192,269580,1,0,0:0:0:70:TECH KICK.wav
448,192,269580,1,0,0:0:0:50:909 SNARE.wav
192,192,269730,1,0,0:0:0:0:
448,192,269730,1,0,0:0:0:0:
64,192,269880,1,0,0:0:0:70:TECH KICK.wav
320,192,269880,1,0,0:0:0:50:909 SNARE.wav
448,192,269880,1,0,0:0:0:70:CLAP.wav
192,192,270030,1,0,0:0:0:0:
448,192,270030,1,0,0:0:0:0:
64,192,270180,1,0,0:0:0:70:CRASH.wav
192,192,270180,1,0,0:0:0:70:TECH KICK.wav
320,192,270180,1,0,0:0:0:50:909 SNARE.wav
320,192,270330,1,0,0:0:0:0:
64,192,270480,1,0,0:0:0:70:TECH KICK.wav
192,192,270480,1,0,0:0:0:50:909 SNARE.wav
448,192,270480,1,0,0:0:0:70:CLAP.wav
64,192,270630,1,0,0:0:0:0:
192,192,270780,1,0,0:0:0:70:CRASH.wav
320,192,270780,1,0,0:0:0:70:TECH KICK.wav
448,192,270780,1,0,0:0:0:50:909 SNARE.wav
64,192,270930,1,0,0:0:0:0:
320,192,270930,1,0,0:0:0:0:
64,192,271080,1,0,0:0:0:70:TECH KICK.wav
192,192,271080,1,0,0:0:0:50:909 SNARE.wav
320,192,271230,1,0,0:0:0:0:
64,192,271380,1,0,0:0:0:70:CRASH.wav
192,192,271380,1,0,0:0:0:70:TECH KICK.wav
448,192,271380,1,0,0:0:0:0:
320,192,271530,1,0,0:0:0:0:
64,192,271680,1,0,0:0:0:70:TECH KICK.wav
192,192,271680,1,0,0:0:0:50:909 SNARE.wav
448,192,271830,1,0,0:0:0:0:
64,192,271980,1,0,0:0:0:70:TECH KICK.wav
320,192,271980,1,0,0:0:0:0:
320,192,272130,1,0,0:0:0:0:
64,192,272280,1,0,0:0:0:70:TECH KICK.wav
448,192,272280,1,0,0:0:0:50:909 SNARE.wav
192,192,272430,1,0,0:0:0:0:
64,192,272580,1,0,0:0:0:70:TECH KICK.wav
320,192,272580,1,0,0:0:0:0:
448,192,272730,1,0,0:0:0:0:
192,192,272880,1,0,0:0:0:70:TECH KICK.wav
320,192,272880,1,0,0:0:0:50:909 SNARE.wav
64,192,273030,1,0,0:0:0:0:
192,192,273180,1,0,0:0:0:70:TECH KICK.wav
448,192,273180,1,0,0:0:0:0:
320,192,273330,1,0,0:0:0:0:
64,192,273480,1,0,0:0:0:70:TECH KICK.wav
448,192,273480,1,0,0:0:0:50:909 SNARE.wav
64,192,273780,1,0,0:0:0:70:TECH KICK.wav
320,192,273780,1,0,0:0:0:0:
448,192,273930,1,0,0:0:0:0:
192,192,274080,1,0,0:0:0:70:TECH KICK.wav
320,192,274080,1,0,0:0:0:50:909 SNARE.wav
64,192,274230,1,0,0:0:0:0:
192,192,274380,1,0,0:0:0:70:TECH KICK.wav
448,192,274380,1,0,0:0:0:0:
192,192,274530,1,0,0:0:0:0:
64,192,274680,1,0,0:0:0:70:TECH KICK.wav
448,192,274680,1,0,0:0:0:50:909 SNARE.wav
320,192,274830,1,0,0:0:0:0:
64,192,274980,1,0,0:0:0:70:TECH KICK.wav
192,192,274980,1,0,0:0:0:0:
448,192,275130,1,0,0:0:0:0:
192,192,275280,128,0,275430:0:0:0:70:TECH KICK.wav
320,192,275280,1,0,0:0:0:50:909 SNARE.wav
64,192,275430,1,0,0:0:0:0:
320,192,275580,1,0,0:0:0:70:TECH KICK.wav
448,192,275580,1,0,0:0:0:0:
64,192,275655,1,0,0:0:0:0:
192,192,275655,1,0,0:0:0:0:
448,192,275730,1,0,0:0:0:0:
64,192,275805,1,0,0:0:0:0:
192,192,275805,1,0,0:0:0:0:
320,192,275880,1,0,0:0:0:70:TECH KICK.wav
448,192,275880,1,0,0:0:0:50:909 SNARE.wav
192,192,276030,1,0,0:0:0:70:TECH KICK.wav
64,192,276180,1,0,0:0:0:70:TECH KICK.wav
448,192,276180,1,0,0:0:0:0:
320,192,276330,1,0,0:0:0:0:
192,192,276480,1,0,0:0:0:70:TECH KICK.wav
448,192,276480,1,0,0:0:0:50:909 SNARE.wav
64,192,276630,1,0,0:0:0:0:
192,192,276780,1,0,0:0:0:70:TECH KICK.wav
320,192,276780,1,0,0:0:0:0:
320,192,276930,1,0,0:0:0:0:
64,192,277080,1,0,0:0:0:70:TECH KICK.wav
192,192,277080,1,0,0:0:0:50:909 SNARE.wav
448,192,277230,1,0,0:0:0:0:
192,192,277380,1,0,0:0:0:70:TECH KICK.wav
320,192,277380,1,0,0:0:0:0:
64,192,277530,1,0,0:0:0:0:
320,192,277680,1,0,0:0:0:70:TECH KICK.wav
448,192,277680,1,0,0:0:0:50:909 SNARE.wav
192,192,277830,1,0,0:0:0:0:
64,192,277980,1,0,0:0:0:70:TECH KICK.wav
320,192,277980,1,0,0:0:0:0:
448,192,278130,1,0,0:0:0:0:
192,192,278280,1,0,0:0:0:70:TECH KICK.wav
320,192,278280,1,0,0:0:0:50:909 SNARE.wav
64,192,278580,1,0,0:0:0:70:TECH KICK.wav
448,192,278580,1,0,0:0:0:0:
320,192,278730,1,0,0:0:0:0:
64,192,278880,1,0,0:0:0:70:TECH KICK.wav
192,192,278880,1,0,0:0:0:50:909 SNARE.wav
448,192,279030,1,0,0:0:0:0:
192,192,279180,1,0,0:0:0:70:TECH KICK.wav
320,192,279180,1,0,0:0:0:0:
192,192,279330,1,0,0:0:0:0:
192,192,279480,1,0,0:0:0:70:TECH KICK.wav
448,192,279480,1,0,0:0:0:50:909 SNARE.wav
192,192,279630,1,0,0:0:0:0:
64,192,279780,1,0,0:0:0:70:TECH KICK.wav
320,192,279780,1,0,0:0:0:0:
448,192,279930,1,0,0:0:0:0:
64,192,280080,1,0,0:0:0:70:TECH KICK.wav
192,192,280080,1,0,0:0:0:50:909 SNARE.wav
320,192,280230,1,0,0:0:0:0:
192,192,280380,1,0,0:0:0:70:TECH KICK.wav
448,192,280380,1,0,0:0:0:0:
64,192,280530,1,0,0:0:0:0:
320,192,280530,1,0,0:0:0:0:
192,192,280680,1,0,0:0:0:70:TECH KICK.wav
448,192,280680,1,0,0:0:0:50:909 SNARE.wav
192,192,280830,1,0,0:0:0:70:TECH KICK.wav
320,192,280830,1,0,0:0:0:0:
64,192,280980,1,0,0:0:0:70:CRASH.wav
320,192,280980,1,0,0:0:0:70:TECH KICK.wav
448,192,280980,1,0,0:0:0:50:909 SNARE.wav
192,192,281130,1,0,0:0:0:0:
320,192,281130,1,0,0:0:0:0:
64,192,281280,1,0,0:0:0:70:TECH KICK.wav
192,192,281280,1,0,0:0:0:50:909 SNARE.wav
320,192,281280,1,0,0:0:0:0:
64,192,281430,1,0,0:0:0:0:
448,192,281430,1,0,0:0:0:0:
192,192,281580,1,0,0:0:0:70:TECH KICK.wav
320,192,281580,1,0,0:0:0:50:909 SNARE.wav
448,192,281580,1,0,0:0:0:0:
64,192,281730,1,0,0:0:0:0:
192,192,281730,1,0,0:0:0:0:
64,192,281880,1,0,0:0:0:70:TECH KICK.wav
320,192,281880,1,0,0:0:0:50:909 SNARE.wav
448,192,281880,1,0,0:0:0:0:
192,192,282030,1,0,0:0:0:0:
320,192,282030,1,0,0:0:0:0:
64,192,282180,1,0,0:0:0:70:TECH KICK.wav
192,192,282180,1,0,0:0:0:50:909 SNARE.wav
448,192,282180,1,0,0:0:0:0:
64,192,282330,1,0,0:0:0:0:
320,192,282330,1,0,0:0:0:0:
192,192,282480,1,0,0:0:0:70:TECH KICK.wav
320,192,282480,1,0,0:0:0:50:909 SNARE.wav
448,192,282480,1,0,0:0:0:0:
64,192,282630,1,0,0:0:0:0:
448,192,282630,1,0,0:0:0:0:
64,192,282780,1,0,0:0:0:70:TECH KICK.wav
192,192,282780,1,0,0:0:0:50:909 SNARE.wav
320,192,282780,1,0,0:0:0:0:
192,192,282930,1,0,0:0:0:0:
448,192,282930,1,0,0:0:0:0:
64,192,283080,1,0,0:0:0:70:TECH KICK.wav
320,192,283080,1,0,0:0:0:50:909 SNARE.wav
448,192,283080,1,0,0:0:0:0:
64,192,283230,1,0,0:0:0:70:TECH KICK.wav
192,192,283230,1,0,0:0:0:0:
320,192,283230,1,0,0:0:0:0:
64,192,283380,1,0,0:0:0:70:CRASH.wav
192,192,283380,1,0,0:0:0:70:TECH KICK.wav
448,192,283380,1,0,0:0:0:50:909 SNARE.wav
320,192,283530,1,0,0:0:0:0:
448,192,283530,1,0,0:0:0:0:
64,192,283680,1,0,0:0:0:70:TECH KICK.wav
192,192,283680,1,0,0:0:0:50:909 SNARE.wav
320,192,283680,1,0,0:0:0:0:
64,192,283830,1,0,0:0:0:0:
448,192,283830,1,0,0:0:0:0:
192,192,283980,1,0,0:0:0:70:TECH KICK.wav
320,192,283980,1,0,0:0:0:50:909 SNARE.wav
448,192,283980,1,0,0:0:0:0:
64,192,284130,1,0,0:0:0:0:
192,192,284130,1,0,0:0:0:0:
64,192,284280,1,0,0:0:0:70:TECH KICK.wav
320,192,284280,1,0,0:0:0:50:909 SNARE.wav
448,192,284280,1,0,0:0:0:0:
192,192,284430,1,0,0:0:0:0:
320,192,284430,1,0,0:0:0:0:
64,192,284580,1,0,0:0:0:70:TECH KICK.wav
192,192,284580,1,0,0:0:0:50:909 SNARE.wav
448,192,284580,1,0,0:0:0:0:
64,192,284730,1,0,0:0:0:0:
320,192,284730,1,0,0:0:0:0:
192,192,284880,1,0,0:0:0:70:TECH KICK.wav
320,192,284880,1,0,0:0:0:50:909 SNARE.wav
448,192,284880,1,0,0:0:0:0:
64,192,285030,1,0,0:0:0:0:
192,192,285030,1,0,0:0:0:0:
320,192,285180,1,0,0:0:0:70:TECH KICK.wav
448,192,285180,1,0,0:0:0:50:909 SNARE.wav
64,192,285255,1,0,0:0:0:0:
192,192,285255,1,0,0:0:0:0:
448,192,285330,1,0,0:0:0:0:
64,192,285405,1,0,0:0:0:50:909 SNARE.wav
192,192,285405,1,0,0:0:0:0:
320,192,285480,1,0,0:0:0:70:CRASH.wav
448,192,285480,1,0,0:0:0:70:TECH KICK.wav
64,192,285630,1,0,0:0:0:70:TECH KICK.wav
320,192,285630,1,0,0:0:0:0:
192,192,285780,1,0,0:0:0:70:TECH KICK.wav
320,192,285780,1,0,0:0:0:0:
64,192,285855,1,0,0:0:0:0:
320,192,285930,1,0,0:0:0:0:
448,192,285930,1,0,0:0:0:0:
192,192,286005,1,0,0:0:0:50:909 SNARE.wav
64,192,286080,1,0,0:0:0:70:TECH KICK.wav
448,192,286080,1,0,0:0:0:50:909 SNARE.wav
320,192,286155,1,0,0:0:0:0:
64,192,286230,1,0,0:0:0:50:909 SNARE.wav
192,192,286230,1,0,0:0:0:0:
320,192,286305,1,0,0:0:0:0:
192,192,286380,1,0,0:0:0:70:TECH KICK.wav
448,192,286380,1,0,0:0:0:0:
64,192,286455,1,0,0:0:0:0:
320,192,286530,1,0,0:0:0:0:
448,192,286530,1,0,0:0:0:0:
192,192,286605,1,0,0:0:0:50:909 SNARE.wav
64,192,286680,1,0,0:0:0:70:TECH KICK.wav
320,192,286680,1,0,0:0:0:50:909 SNARE.wav
448,192,286755,1,0,0:0:0:0:
64,192,286830,1,0,0:0:0:50:909 SNARE.wav
192,192,286830,1,0,0:0:0:0:
320,192,286905,1,0,0:0:0:0:
192,192,286980,1,0,0:0:0:70:TECH KICK.wav
448,192,286980,1,0,0:0:0:0:
64,192,287055,1,0,0:0:0:0:
320,192,287130,1,0,0:0:0:0:
448,192,287130,1,0,0:0:0:0:
192,192,287205,1,0,0:0:0:50:909 SNARE.wav
64,192,287280,1,0,0:0:0:70:TECH KICK.wav
320,192,287280,1,0,0:0:0:50:909 SNARE.wav
448,192,287355,1,0,0:0:0:0:
64,192,287430,1,0,0:0:0:50:909 SNARE.wav
192,192,287430,1,0,0:0:0:0:
320,192,287505,1,0,0:0:0:0:
192,192,287580,1,0,0:0:0:70:TECH KICK.wav
448,192,287580,1,0,0:0:0:0:
64,192,287655,1,0,0:0:0:0:
192,192,287730,1,0,0:0:0:50:909 SNARE.wav
448,192,287730,1,0,0:0:0:0:
320,192,287805,1,0,0:0:0:0:
64,192,287880,1,0,0:0:0:70:TECH KICK.wav
192,192,287880,1,0,0:0:0:50:909 SNARE.wav
320,192,287955,1,0,0:0:0:0:
64,192,288030,1,0,0:0:0:50:909 SNARE.wav
448,192,288030,1,0,0:0:0:0:
192,192,288105,1,0,0:0:0:50:909 SNARE.wav
320,192,288180,1,0,0:0:0:70:CRASH.wav
448,192,288180,1,0,0:0:0:70:TECH KICK.wav
192,192,288255,1,0,0:0:0:0:
64,192,288330,1,0,0:0:0:70:TECH KICK.wav
448,192,288330,1,0,0:0:0:50:909 SNARE.wav
192,192,288405,1,0,0:0:0:50:909 SNARE.wav
320,192,288405,1,0,0:0:0:0:
64,192,288480,1,0,0:0:0:70:TECH KICK.wav
448,192,288480,1,0,0:0:0:0:
320,192,288555,1,0,0:0:0:0:
64,192,288630,1,0,0:0:0:70:TECH KICK.wav
192,192,288630,1,0,0:0:0:50:909 SNARE.wav
320,192,288705,1,0,0:0:0:50:909 SNARE.wav
448,192,288705,1,0,0:0:0:0:
64,192,288780,1,0,0:0:0:70:TECH KICK.wav
192,192,288780,1,0,0:0:0:0:
320,192,288855,1,0,0:0:0:0:
64,192,288930,1,0,0:0:0:70:TECH KICK.wav
448,192,288930,1,0,0:0:0:50:909 SNARE.wav
192,192,289005,1,0,0:0:0:50:909 SNARE.wav
320,192,289005,1,0,0:0:0:0:
64,192,289080,1,0,0:0:0:70:TECH KICK.wav
448,192,289080,1,0,0:0:0:0:
192,192,289155,1,0,0:0:0:0:
320,192,289230,1,0,0:0:0:70:TECH KICK.wav
448,192,289230,1,0,0:0:0:50:909 SNARE.wav
192,192,289305,1,0,0:0:0:50:909 SNARE.wav
64,192,289380,1,0,0:0:0:70:CRASH.wav
320,192,289380,1,0,0:0:0:70:TECH KICK.wav
64,192,289530,128,0,289680:0:0:0:0:
192,192,289530,128,0,289680:0:0:0:0:
320,192,289680,1,0,0:0:0:70:CRASH.wav
448,192,289680,1,0,0:0:0:70:TECH KICK.wav
320,192,289830,128,0,289980:0:0:0:0:
448,192,289830,128,0,289980:0:0:0:0:
64,192,289980,1,0,0:0:0:70:CRASH.wav
192,192,289980,1,0,0:0:0:70:TECH KICK.wav
64,192,290130,128,0,290280:0:0:0:0:
192,192,290130,128,0,290280:0:0:0:0:
320,192,290280,1,0,0:0:0:70:CRASH.wav
448,192,290280,1,0,0:0:0:70:TECH KICK.wav
192,192,290430,128,0,292680:0:0:0:70:CRASH.wav
320,192,290430,128,0,292680:0:0:0:0:
