osu file format v14

[General]
AudioFilename: audio.mp3
AudioLeadIn: 0
PreviewTime: 37573
Countdown: 0
SampleSet: None
StackLeniency: 0.7
Mode: 3
LetterboxInBreaks: 0
SpecialStyle: 1
WidescreenStoryboard: 0

[Editor]
DistanceSpacing: 0.8
BeatDivisor: 4
GridSize: 4
TimelineZoom: 1.6

[Metadata]
Title:You are the Miserable
TitleUnicode:You are the Miserable
Artist:t+pazolite
ArtistUnicode:t+pazolite
Creator:Tona
Version:Another
Source:Lanota 1.5
Tags:bom bam here we go
BeatmapID:1591965
BeatmapSetID:756554

[Difficulty]
HPDrainRate:8
CircleSize:4
OverallDifficulty:8
ApproachRate:5
SliderMultiplier:1.4
SliderTickRate:1

[Events]
//Background and Video events
0,0,"maxresdefault.jpg",0,0
//Break Periods
//Storyboard Layer 0 (Background)
//Storyboard Layer 1 (Fail)
//Storyboard Layer 2 (Pass)
//Storyboard Layer 3 (Foreground)
//Storyboard Sound Samples

[TimingPoints]
2972,368.098159509202,4,2,0,20,1,0
14751,-100,4,2,0,40,0,0

[HitObjects]
64,192,2971,128,0,4444:0:0:0:0:
192,192,4444,128,0,5916:0:0:0:0:
320,192,5916,128,0,7389:0:0:0:0:
192,192,7389,128,0,8125:0:0:0:0:
320,192,8125,128,0,8861:0:0:0:0:
448,192,8861,128,0,11806:0:0:0:0:
192,192,10333,128,0,11806:0:0:0:0:
64,192,11806,128,0,13278:0:0:0:0:
320,192,11806,128,0,13278:0:0:0:0:
448,192,13278,128,0,14751:0:0:0:0:
64,192,14751,1,0,0:0:0:0:
192,192,14751,1,0,0:0:0:0:
320,192,14751,1,0,0:0:0:0:
320,192,14935,1,0,0:0:0:0:
448,192,15027,1,0,0:0:0:0:
320,192,15119,1,0,0:0:0:0:
64,192,15303,1,0,0:0:0:0:
192,192,15395,1,0,0:0:0:0:
320,192,15487,1,0,0:0:0:0:
192,192,15579,1,0,0:0:0:0:
64,192,15671,1,0,0:0:0:0:
448,192,15763,1,0,0:0:0:0:
320,192,15855,1,0,0:0:0:0:
192,192,15947,1,0,0:0:0:0:
64,192,16039,1,0,0:0:0:0:
320,192,16039,1,0,0:0:0:0:
448,192,16039,1,0,0:0:0:0:
64,192,16223,1,0,0:0:0:0:
448,192,16223,1,0,0:0:0:0:
320,192,16223,1,0,0:0:0:0:
320,192,16407,1,0,0:0:0:0:
448,192,16499,1,0,0:0:0:0:
320,192,16591,1,0,0:0:0:0:
64,192,16775,1,0,0:0:0:0:
192,192,16867,1,0,0:0:0:0:
320,192,16959,1,0,0:0:0:0:
192,192,17051,1,0,0:0:0:0:
448,192,17143,1,0,0:0:0:0:
320,192,17235,1,0,0:0:0:0:
192,192,17327,1,0,0:0:0:0:
320,192,17419,1,0,0:0:0:0:
192,192,17511,1,0,0:0:0:0:
64,192,17511,1,0,0:0:0:0:
448,192,17511,1,0,0:0:0:0:
64,192,17695,1,0,0:0:0:0:
448,192,17695,1,0,0:0:0:0:
192,192,17695,1,0,0:0:0:0:
320,192,17879,1,0,0:0:0:0:
448,192,17971,1,0,0:0:0:0:
320,192,18064,1,0,0:0:0:0:
64,192,18248,1,0,0:0:0:0:
192,192,18340,1,0,0:0:0:0:
320,192,18432,1,0,0:0:0:0:
192,192,18524,1,0,0:0:0:0:
448,192,18616,1,0,0:0:0:0:
320,192,18708,1,0,0:0:0:0:
192,192,18800,1,0,0:0:0:0:
320,192,18892,1,0,0:0:0:0:
448,192,18984,1,0,0:0:0:0:
192,192,18984,1,0,0:0:0:0:
64,192,18984,1,0,0:0:0:0:
64,192,19168,1,0,0:0:0:0:
448,192,19168,1,0,0:0:0:0:
192,192,19168,1,0,0:0:0:0:
192,192,19352,1,0,0:0:0:0:
320,192,19444,1,0,0:0:0:0:
192,192,19536,1,0,0:0:0:0:
448,192,19536,1,0,0:0:0:0:
64,192,19628,1,0,0:0:0:0:
448,192,19720,1,0,0:0:0:0:
192,192,19720,1,0,0:0:0:0:
320,192,19812,1,0,0:0:0:0:
448,192,19904,1,0,0:0:0:0:
320,192,19996,1,0,0:0:0:0:
192,192,20088,1,0,0:0:0:0:
320,192,20180,1,0,0:0:0:0:
448,192,20272,1,0,0:0:0:0:
192,192,20364,1,0,0:0:0:0:
64,192,20456,1,0,0:0:0:0:
192,192,20548,1,0,0:0:0:0:
64,192,20640,1,0,0:0:0:0:
320,192,20640,1,0,0:0:0:0:
448,192,20640,1,0,0:0:0:0:
320,192,20824,1,0,0:0:0:0:
448,192,20916,1,0,0:0:0:0:
320,192,21008,1,0,0:0:0:0:
192,192,21100,1,0,0:0:0:0:
320,192,21192,128,0,21745:0:0:0:0:
64,192,21192,1,0,0:0:0:0:
192,192,21284,1,0,0:0:0:0:
448,192,21376,1,0,0:0:0:0:
192,192,21468,1,0,0:0:0:0:
64,192,21560,1,0,0:0:0:0:
192,192,21652,1,0,0:0:0:0:
448,192,21745,1,0,0:0:0:0:
192,192,21837,1,0,0:0:0:0:
64,192,21929,1,0,0:0:0:0:
320,192,21929,1,0,0:0:0:0:
448,192,21929,1,0,0:0:0:0:
64,192,22113,1,0,0:0:0:0:
448,192,22113,1,0,0:0:0:0:
320,192,22113,1,0,0:0:0:0:
320,192,22297,1,0,0:0:0:0:
448,192,22389,1,0,0:0:0:0:
320,192,22481,1,0,0:0:0:0:
192,192,22573,1,0,0:0:0:0:
320,192,22665,128,0,23217:0:0:0:0:
448,192,22665,1,0,0:0:0:0:
192,192,22757,1,0,0:0:0:0:
64,192,22849,1,0,0:0:0:0:
192,192,22941,1,0,0:0:0:0:
448,192,23033,1,0,0:0:0:0:
192,192,23125,1,0,0:0:0:0:
448,192,23217,1,0,0:0:0:0:
192,192,23309,1,0,0:0:0:0:
64,192,23401,1,0,0:0:0:0:
320,192,23401,1,0,0:0:0:0:
448,192,23401,1,0,0:0:0:0:
64,192,23585,1,0,0:0:0:0:
320,192,23585,1,0,0:0:0:0:
448,192,23585,1,0,0:0:0:0:
320,192,23769,1,0,0:0:0:0:
448,192,23861,1,0,0:0:0:0:
320,192,23953,1,0,0:0:0:0:
64,192,24137,1,0,0:0:0:0:
192,192,24137,1,0,0:0:0:0:
320,192,24137,1,0,0:0:0:0:
320,192,24321,1,0,0:0:0:0:
448,192,24413,1,0,0:0:0:0:
320,192,24505,1,0,0:0:0:0:
64,192,24689,1,0,0:0:0:0:
448,192,24689,1,0,0:0:0:0:
192,192,24689,1,0,0:0:0:0:
320,192,24781,1,0,0:0:0:0:
448,192,24873,1,0,0:0:0:0:
320,192,24965,1,0,0:0:0:0:
64,192,25057,1,0,0:0:0:0:
192,192,25241,1,0,0:0:0:0:
64,192,25333,1,0,0:0:0:0:
192,192,25425,1,0,0:0:0:0:
64,192,25518,1,0,0:0:0:0:
192,192,25610,1,0,0:0:0:0:
320,192,25702,1,0,0:0:0:0:
192,192,25794,1,0,0:0:0:0:
320,192,25886,1,0,0:0:0:0:
192,192,25978,1,0,0:0:0:0:
320,192,26070,1,0,0:0:0:0:
448,192,26162,1,0,0:0:0:0:
320,192,26254,1,0,0:0:0:0:
448,192,26346,1,0,0:0:0:0:
320,192,26438,1,0,0:0:0:0:
448,192,26530,1,0,0:0:0:0:
192,192,26530,1,0,0:0:0:0:
64,192,26530,128,0,27266:0:0:0:0:
448,192,26806,1,0,0:0:0:0:
192,192,26898,1,0,0:0:0:0:
320,192,26898,1,0,0:0:0:0:
320,192,27266,1,0,0:0:0:0:
448,192,27266,1,0,0:0:0:0:
192,192,27266,128,0,27818:0:0:0:0:
320,192,27634,1,0,0:0:0:0:
448,192,27634,1,0,0:0:0:0:
192,192,28002,128,0,28554:0:0:0:0:
320,192,28002,1,0,0:0:0:0:
448,192,28002,1,0,0:0:0:0:
320,192,28370,1,0,0:0:0:0:
448,192,28370,1,0,0:0:0:0:
192,192,28738,128,0,29291:0:0:0:0:
320,192,28738,1,0,0:0:0:0:
448,192,28738,1,0,0:0:0:0:
320,192,29106,1,0,0:0:0:0:
448,192,29106,1,0,0:0:0:0:
64,192,29106,128,0,29383:0:0:0:0:
320,192,29475,1,0,0:0:0:0:
448,192,29475,1,0,0:0:0:0:
192,192,29475,128,0,30947:0:0:0:0:
320,192,29843,1,0,0:0:0:0:
448,192,29843,1,0,0:0:0:0:
448,192,30211,1,0,0:0:0:0:
320,192,30211,128,0,30947:0:0:0:0:
64,192,30211,1,0,0:0:0:0:
448,192,30579,1,0,0:0:0:0:
64,192,30579,1,0,0:0:0:0:
448,192,30947,128,0,31499:0:0:0:0:
192,192,31315,1,0,0:0:0:0:
320,192,31315,1,0,0:0:0:0:
64,192,31683,128,0,32419:0:0:0:0:
192,192,31683,1,0,0:0:0:0:
320,192,31683,1,0,0:0:0:0:
448,192,32051,128,0,32327:0:0:0:0:
192,192,32051,1,0,0:0:0:0:
320,192,32051,1,0,0:0:0:0:
320,192,32419,1,0,0:0:0:0:
192,192,32419,128,0,33892:0:0:0:0:
448,192,32695,1,0,0:0:0:0:
320,192,32787,1,0,0:0:0:0:
64,192,32787,1,0,0:0:0:0:
320,192,33156,1,0,0:0:0:0:
448,192,33156,1,0,0:0:0:0:
320,192,33524,1,0,0:0:0:0:
448,192,33524,1,0,0:0:0:0:
320,192,33892,128,0,35732:0:0:0:0:
64,192,33892,1,0,0:0:0:0:
192,192,34260,1,0,0:0:0:0:
448,192,34260,1,0,0:0:0:0:
192,192,34628,1,0,0:0:0:0:
448,192,34628,1,0,0:0:0:0:
192,192,34996,1,0,0:0:0:0:
448,192,34996,1,0,0:0:0:0:
192,192,35364,1,0,0:0:0:0:
448,192,35364,1,0,0:0:0:0:
192,192,35732,1,0,0:0:0:0:
448,192,35732,1,0,0:0:0:0:
192,192,35916,1,0,0:0:0:0:
320,192,36008,1,0,0:0:0:0:
448,192,36100,128,0,36652:0:0:0:0:
192,192,36100,1,0,0:0:0:0:
64,192,36100,1,0,0:0:0:0:
320,192,36192,1,0,0:0:0:0:
192,192,36284,1,0,0:0:0:0:
320,192,36376,1,0,0:0:0:0:
64,192,36468,1,0,0:0:0:0:
192,192,36468,1,0,0:0:0:0:
320,192,36560,1,0,0:0:0:0:
192,192,36652,1,0,0:0:0:0:
192,192,36837,1,0,0:0:0:0:
64,192,36837,1,0,0:0:0:0:
320,192,36837,128,0,37941:0:0:0:0:
192,192,38309,1,0,0:0:0:0:
64,192,38309,1,0,0:0:0:0:
448,192,38309,1,0,0:0:0:0:
320,192,38493,1,0,0:0:0:0:
448,192,38585,1,0,0:0:0:0:
320,192,38677,1,0,0:0:0:0:
64,192,38677,1,0,0:0:0:0:
192,192,38677,1,0,0:0:0:0:
192,192,38861,1,0,0:0:0:0:
320,192,38953,1,0,0:0:0:0:
192,192,39045,1,0,0:0:0:0:
64,192,39045,1,0,0:0:0:0:
448,192,39045,1,0,0:0:0:0:
192,192,39229,1,0,0:0:0:0:
64,192,39413,1,0,0:0:0:0:
192,192,39413,1,0,0:0:0:0:
448,192,39413,1,0,0:0:0:0:
320,192,39597,1,0,0:0:0:0:
192,192,39781,1,0,0:0:0:0:
64,192,39781,1,0,0:0:0:0:
320,192,39781,1,0,0:0:0:0:
192,192,39965,1,0,0:0:0:0:
64,192,40149,1,0,0:0:0:0:
192,192,40149,1,0,0:0:0:0:
320,192,40149,1,0,0:0:0:0:
320,192,40333,1,0,0:0:0:0:
192,192,40518,1,0,0:0:0:0:
64,192,40518,1,0,0:0:0:0:
448,192,40518,1,0,0:0:0:0:
448,192,40702,1,0,0:0:0:0:
320,192,40794,1,0,0:0:0:0:
64,192,40886,1,0,0:0:0:0:
192,192,40886,1,0,0:0:0:0:
192,192,41070,1,0,0:0:0:0:
64,192,41254,1,0,0:0:0:0:
192,192,41254,1,0,0:0:0:0:
320,192,41254,1,0,0:0:0:0:
320,192,41438,1,0,0:0:0:0:
64,192,41622,1,0,0:0:0:0:
192,192,41622,1,0,0:0:0:0:
448,192,41622,1,0,0:0:0:0:
320,192,41806,1,0,0:0:0:0:
64,192,41990,1,0,0:0:0:0:
192,192,41990,1,0,0:0:0:0:
320,192,41990,1,0,0:0:0:0:
192,192,42174,1,0,0:0:0:0:
64,192,42358,1,0,0:0:0:0:
192,192,42358,1,0,0:0:0:0:
320,192,42358,1,0,0:0:0:0:
192,192,42542,1,0,0:0:0:0:
64,192,42726,1,0,0:0:0:0:
192,192,42726,1,0,0:0:0:0:
320,192,42726,1,0,0:0:0:0:
320,192,42910,1,0,0:0:0:0:
192,192,43094,1,0,0:0:0:0:
64,192,43094,1,0,0:0:0:0:
448,192,43094,1,0,0:0:0:0:
192,192,43278,1,0,0:0:0:0:
64,192,43462,1,0,0:0:0:0:
192,192,43462,1,0,0:0:0:0:
320,192,43462,1,0,0:0:0:0:
448,192,43554,1,0,0:0:0:0:
320,192,43646,1,0,0:0:0:0:
448,192,43738,1,0,0:0:0:0:
64,192,43830,1,0,0:0:0:0:
192,192,43830,1,0,0:0:0:0:
320,192,43830,1,0,0:0:0:0:
448,192,43922,1,0,0:0:0:0:
320,192,44014,1,0,0:0:0:0:
448,192,44106,1,0,0:0:0:0:
64,192,44198,1,0,0:0:0:0:
192,192,44198,1,0,0:0:0:0:
320,192,44198,1,0,0:0:0:0:
192,192,44383,1,0,0:0:0:0:
192,192,44567,1,0,0:0:0:0:
64,192,44567,1,0,0:0:0:0:
320,192,44567,1,0,0:0:0:0:
320,192,44751,1,0,0:0:0:0:
192,192,44935,1,0,0:0:0:0:
64,192,44935,1,0,0:0:0:0:
448,192,44935,1,0,0:0:0:0:
320,192,45119,1,0,0:0:0:0:
192,192,45303,1,0,0:0:0:0:
64,192,45303,1,0,0:0:0:0:
320,192,45303,1,0,0:0:0:0:
192,192,45487,1,0,0:0:0:0:
192,192,45671,1,0,0:0:0:0:
64,192,45671,1,0,0:0:0:0:
320,192,45671,1,0,0:0:0:0:
192,192,45855,1,0,0:0:0:0:
192,192,46039,1,0,0:0:0:0:
64,192,46039,1,0,0:0:0:0:
320,192,46039,1,0,0:0:0:0:
320,192,46223,1,0,0:0:0:0:
64,192,46407,1,0,0:0:0:0:
192,192,46407,1,0,0:0:0:0:
448,192,46407,1,0,0:0:0:0:
320,192,46591,1,0,0:0:0:0:
448,192,46683,1,0,0:0:0:0:
192,192,46775,1,0,0:0:0:0:
64,192,46775,1,0,0:0:0:0:
320,192,46775,1,0,0:0:0:0:
448,192,46959,1,0,0:0:0:0:
64,192,47143,1,0,0:0:0:0:
192,192,47143,1,0,0:0:0:0:
320,192,47143,1,0,0:0:0:0:
320,192,47327,1,0,0:0:0:0:
64,192,47511,1,0,0:0:0:0:
192,192,47511,1,0,0:0:0:0:
320,192,47511,1,0,0:0:0:0:
192,192,47695,1,0,0:0:0:0:
64,192,47879,1,0,0:0:0:0:
192,192,47879,1,0,0:0:0:0:
320,192,47879,1,0,0:0:0:0:
320,192,48064,1,0,0:0:0:0:
192,192,48248,1,0,0:0:0:0:
64,192,48248,1,0,0:0:0:0:
320,192,48248,1,0,0:0:0:0:
192,192,48616,1,0,0:0:0:0:
448,192,48616,1,0,0:0:0:0:
64,192,48616,1,0,0:0:0:0:
64,192,48800,1,0,0:0:0:0:
192,192,48861,1,0,0:0:0:0:
320,192,48922,1,0,0:0:0:0:
448,192,48984,128,0,49168:0:0:0:0:
192,192,49168,1,0,0:0:0:0:
64,192,49229,1,0,0:0:0:0:
192,192,49291,1,0,0:0:0:0:
320,192,49352,128,0,49536:0:0:0:0:
64,192,49597,1,0,0:0:0:0:
192,192,49659,1,0,0:0:0:0:
64,192,49720,128,0,50088:0:0:0:0:
320,192,49720,1,0,0:0:0:0:
192,192,49812,1,0,0:0:0:0:
320,192,49904,1,0,0:0:0:0:
448,192,49996,1,0,0:0:0:0:
192,192,50088,1,0,0:0:0:0:
320,192,50088,1,0,0:0:0:0:
192,192,50272,1,0,0:0:0:0:
64,192,50456,1,0,0:0:0:0:
192,192,50456,1,0,0:0:0:0:
320,192,50456,1,0,0:0:0:0:
448,192,50640,1,0,0:0:0:0:
192,192,50640,1,0,0:0:0:0:
192,192,50824,1,0,0:0:0:0:
64,192,50824,1,0,0:0:0:0:
448,192,50824,1,0,0:0:0:0:
320,192,51008,1,0,0:0:0:0:
64,192,51192,1,0,0:0:0:0:
192,192,51192,1,0,0:0:0:0:
320,192,51192,1,0,0:0:0:0:
192,192,51376,1,0,0:0:0:0:
64,192,51560,1,0,0:0:0:0:
192,192,51560,1,0,0:0:0:0:
320,192,51560,1,0,0:0:0:0:
320,192,51745,1,0,0:0:0:0:
64,192,51929,1,0,0:0:0:0:
192,192,51929,1,0,0:0:0:0:
320,192,51929,1,0,0:0:0:0:
448,192,52113,1,0,0:0:0:0:
192,192,52113,1,0,0:0:0:0:
64,192,52297,1,0,0:0:0:0:
192,192,52297,1,0,0:0:0:0:
320,192,52297,1,0,0:0:0:0:
448,192,52481,1,0,0:0:0:0:
320,192,52573,1,0,0:0:0:0:
64,192,52665,1,0,0:0:0:0:
192,192,52665,1,0,0:0:0:0:
448,192,52665,1,0,0:0:0:0:
192,192,52849,1,0,0:0:0:0:
64,192,53033,1,0,0:0:0:0:
192,192,53033,1,0,0:0:0:0:
320,192,53033,1,0,0:0:0:0:
320,192,53217,1,0,0:0:0:0:
64,192,53401,1,0,0:0:0:0:
192,192,53401,1,0,0:0:0:0:
320,192,53401,1,0,0:0:0:0:
448,192,53585,1,0,0:0:0:0:
192,192,53585,1,0,0:0:0:0:
64,192,53769,1,0,0:0:0:0:
192,192,53769,1,0,0:0:0:0:
448,192,53769,1,0,0:0:0:0:
320,192,53953,1,0,0:0:0:0:
192,192,54137,1,0,0:0:0:0:
64,192,54137,1,0,0:0:0:0:
320,192,54137,1,0,0:0:0:0:
192,192,54321,1,0,0:0:0:0:
64,192,54505,1,0,0:0:0:0:
192,192,54505,1,0,0:0:0:0:
320,192,54505,1,0,0:0:0:0:
192,192,54689,1,0,0:0:0:0:
64,192,54873,1,0,0:0:0:0:
192,192,54873,1,0,0:0:0:0:
320,192,54873,1,0,0:0:0:0:
192,192,55057,1,0,0:0:0:0:
448,192,55057,1,0,0:0:0:0:
448,192,55241,1,0,0:0:0:0:
64,192,55241,1,0,0:0:0:0:
320,192,55333,1,0,0:0:0:0:
192,192,55425,1,0,0:0:0:0:
64,192,55518,1,0,0:0:0:0:
192,192,55610,1,0,0:0:0:0:
448,192,55610,1,0,0:0:0:0:
320,192,55702,1,0,0:0:0:0:
192,192,55794,1,0,0:0:0:0:
64,192,55886,1,0,0:0:0:0:
192,192,55978,1,0,0:0:0:0:
320,192,55978,1,0,0:0:0:0:
448,192,55978,1,0,0:0:0:0:
192,192,56162,1,0,0:0:0:0:
192,192,56346,1,0,0:0:0:0:
64,192,56346,1,0,0:0:0:0:
448,192,56346,1,0,0:0:0:0:
192,192,56530,1,0,0:0:0:0:
192,192,56714,1,0,0:0:0:0:
64,192,56714,1,0,0:0:0:0:
320,192,56714,1,0,0:0:0:0:
320,192,56898,1,0,0:0:0:0:
64,192,57082,1,0,0:0:0:0:
192,192,57082,1,0,0:0:0:0:
448,192,57082,1,0,0:0:0:0:
320,192,57266,1,0,0:0:0:0:
64,192,57450,1,0,0:0:0:0:
192,192,57450,1,0,0:0:0:0:
320,192,57450,1,0,0:0:0:0:
192,192,57634,1,0,0:0:0:0:
64,192,57818,1,0,0:0:0:0:
192,192,57818,1,0,0:0:0:0:
320,192,57818,1,0,0:0:0:0:
320,192,58002,1,0,0:0:0:0:
64,192,58186,1,0,0:0:0:0:
320,192,58186,1,0,0:0:0:0:
192,192,58186,1,0,0:0:0:0:
448,192,58370,1,0,0:0:0:0:
320,192,58462,1,0,0:0:0:0:
448,192,58554,1,0,0:0:0:0:
192,192,58554,1,0,0:0:0:0:
64,192,58554,1,0,0:0:0:0:
320,192,58738,1,0,0:0:0:0:
64,192,58922,1,0,0:0:0:0:
192,192,58922,1,0,0:0:0:0:
320,192,58922,1,0,0:0:0:0:
192,192,59106,1,0,0:0:0:0:
64,192,59291,1,0,0:0:0:0:
192,192,59291,1,0,0:0:0:0:
448,192,59291,1,0,0:0:0:0:
64,192,59475,1,0,0:0:0:0:
64,192,59659,1,0,0:0:0:0:
192,192,59659,1,0,0:0:0:0:
448,192,59659,1,0,0:0:0:0:
192,192,59843,1,0,0:0:0:0:
64,192,60027,1,0,0:0:0:0:
192,192,60027,1,0,0:0:0:0:
320,192,60027,1,0,0:0:0:0:
320,192,60211,1,0,0:0:0:0:
448,192,60395,1,0,0:0:0:0:
320,192,60395,1,0,0:0:0:0:
64,192,60487,1,0,0:0:0:0:
192,192,60579,1,0,0:0:0:0:
320,192,60671,1,0,0:0:0:0:
192,192,60763,1,0,0:0:0:0:
320,192,60855,1,0,0:0:0:0:
448,192,60947,1,0,0:0:0:0:
320,192,61039,1,0,0:0:0:0:
192,192,61131,1,0,0:0:0:0:
320,192,61223,1,0,0:0:0:0:
448,192,61315,1,0,0:0:0:0:
320,192,61407,1,0,0:0:0:0:
448,192,61499,1,0,0:0:0:0:
320,192,61591,1,0,0:0:0:0:
192,192,61683,1,0,0:0:0:0:
320,192,61775,1,0,0:0:0:0:
192,192,61867,1,0,0:0:0:0:
64,192,61867,128,0,63340:0:0:0:0:
192,192,63340,128,0,64812:0:0:0:0:
320,192,64812,128,0,65180:0:0:0:0:
192,192,65088,128,0,65364:0:0:0:0:
320,192,65364,128,0,65548:0:0:0:0:
448,192,65548,128,0,65824:0:0:0:0:
320,192,65824,128,0,66100:0:0:0:0:
192,192,66100,128,0,66284:0:0:0:0:
320,192,66284,128,0,66560:0:0:0:0:
448,192,66560,128,0,66837:0:0:0:0:
192,192,66837,128,0,67021:0:0:0:0:
64,192,67021,128,0,67113:0:0:0:0:
64,192,67205,1,0,0:0:0:0:
192,192,67266,1,0,0:0:0:0:
320,192,67327,1,0,0:0:0:0:
448,192,67389,1,0,0:0:0:0:
320,192,67481,1,0,0:0:0:0:
448,192,67573,1,0,0:0:0:0:
320,192,67665,1,0,0:0:0:0:
448,192,67757,128,0,68033:0:0:0:0:
64,192,68033,128,0,68309:0:0:0:0:
192,192,68309,128,0,68493:0:0:0:0:
320,192,68493,128,0,68769:0:0:0:0:
192,192,68769,128,0,69045:0:0:0:0:
320,192,69045,128,0,69229:0:0:0:0:
448,192,69229,128,0,69505:0:0:0:0:
320,192,69505,128,0,69781:0:0:0:0:
192,192,69781,128,0,69965:0:0:0:0:
64,192,69965,1,0,0:0:0:0:
64,192,70149,1,0,0:0:0:0:
192,192,70211,1,0,0:0:0:0:
320,192,70272,1,0,0:0:0:0:
192,192,70333,128,0,70702:0:0:0:0:
320,192,70702,128,0,70978:0:0:0:0:
192,192,70978,128,0,71254:0:0:0:0:
64,192,71254,128,0,71438:0:0:0:0:
192,192,71438,128,0,71714:0:0:0:0:
320,192,71714,128,0,71990:0:0:0:0:
192,192,71990,128,0,72174:0:0:0:0:
448,192,72174,128,0,72358:0:0:0:0:
320,192,72358,128,0,72450:0:0:0:0:
192,192,72450,1,0,0:0:0:0:
192,192,72634,1,0,0:0:0:0:
320,192,72726,128,0,72910:0:0:0:0:
192,192,72910,1,0,0:0:0:0:
64,192,73002,1,0,0:0:0:0:
192,192,73094,1,0,0:0:0:0:
64,192,73186,1,0,0:0:0:0:
192,192,73278,1,0,0:0:0:0:
320,192,73370,1,0,0:0:0:0:
448,192,73462,1,0,0:0:0:0:
320,192,73554,1,0,0:0:0:0:
64,192,73646,1,0,0:0:0:0:
448,192,73646,1,0,0:0:0:0:
192,192,73646,128,0,73922:0:0:0:0:
64,192,73922,128,0,74198:0:0:0:0:
192,192,74198,128,0,74383:0:0:0:0:
320,192,74383,128,0,74659:0:0:0:0:
192,192,74659,128,0,74935:0:0:0:0:
320,192,74935,128,0,75119:0:0:0:0:
448,192,75119,128,0,75395:0:0:0:0:
320,192,75395,128,0,75671:0:0:0:0:
192,192,75671,128,0,75855:0:0:0:0:
64,192,75855,128,0,76039:0:0:0:0:
192,192,76039,1,0,0:0:0:0:
320,192,76100,1,0,0:0:0:0:
448,192,76162,1,0,0:0:0:0:
320,192,76223,128,0,76591:0:0:0:0:
448,192,76591,128,0,76867:0:0:0:0:
192,192,76867,128,0,77143:0:0:0:0:
320,192,77143,128,0,77327:0:0:0:0:
448,192,77327,128,0,77603:0:0:0:0:
320,192,77603,128,0,77879:0:0:0:0:
192,192,77879,128,0,78064:0:0:0:0:
448,192,78064,128,0,78340:0:0:0:0:
320,192,78340,128,0,78616:0:0:0:0:
192,192,78616,128,0,78800:0:0:0:0:
320,192,78800,1,0,0:0:0:0:
320,192,78984,1,0,0:0:0:0:
192,192,79045,1,0,0:0:0:0:
64,192,79106,1,0,0:0:0:0:
192,192,79168,128,0,79260:0:0:0:0:
320,192,79260,128,0,79352:0:0:0:0:
448,192,79352,128,0,79444:0:0:0:0:
320,192,79444,128,0,79536:0:0:0:0:
192,192,79536,128,0,79812:0:0:0:0:
64,192,79812,128,0,80088:0:0:0:0:
192,192,80088,128,0,80272:0:0:0:0:
320,192,80272,128,0,80548:0:0:0:0:
192,192,80548,128,0,80824:0:0:0:0:
320,192,80824,128,0,81008:0:0:0:0:
448,192,81008,128,0,81284:0:0:0:0:
320,192,81284,128,0,81560:0:0:0:0:
192,192,81560,128,0,81745:0:0:0:0:
320,192,81745,1,0,0:0:0:0:
192,192,81929,1,0,0:0:0:0:
320,192,81990,1,0,0:0:0:0:
448,192,82051,1,0,0:0:0:0:
320,192,82113,128,0,82481:0:0:0:0:
192,192,82481,128,0,82757:0:0:0:0:
64,192,82757,128,0,83033:0:0:0:0:
192,192,83033,128,0,83217:0:0:0:0:
320,192,83217,128,0,83493:0:0:0:0:
448,192,83493,128,0,83769:0:0:0:0:
320,192,83769,128,0,83953:0:0:0:0:
448,192,83953,128,0,84137:0:0:0:0:
320,192,84137,1,0,0:0:0:0:
192,192,84229,1,0,0:0:0:0:
64,192,84321,1,0,0:0:0:0:
192,192,84413,1,0,0:0:0:0:
448,192,84505,128,0,84689:0:0:0:0:
192,192,84689,1,0,0:0:0:0:
320,192,84781,1,0,0:0:0:0:
448,192,84873,1,0,0:0:0:0:
320,192,84965,1,0,0:0:0:0:
192,192,85057,1,0,0:0:0:0:
64,192,85149,1,0,0:0:0:0:
448,192,85241,1,0,0:0:0:0:
320,192,85333,1,0,0:0:0:0:
64,192,85425,1,0,0:0:0:0:
192,192,85425,1,0,0:0:0:0:
448,192,85425,128,0,86898:0:0:0:0:
320,192,85518,1,0,0:0:0:0:
64,192,85610,1,0,0:0:0:0:
192,192,85702,1,0,0:0:0:0:
64,192,85794,1,0,0:0:0:0:
320,192,85794,1,0,0:0:0:0:
192,192,85886,1,0,0:0:0:0:
64,192,85978,1,0,0:0:0:0:
320,192,86070,1,0,0:0:0:0:
192,192,86162,1,0,0:0:0:0:
64,192,86162,1,0,0:0:0:0:
320,192,86254,1,0,0:0:0:0:
192,192,86346,1,0,0:0:0:0:
64,192,86438,1,0,0:0:0:0:
192,192,86530,1,0,0:0:0:0:
320,192,86530,1,0,0:0:0:0:
64,192,86622,1,0,0:0:0:0:
320,192,86714,1,0,0:0:0:0:
192,192,86806,1,0,0:0:0:0:
320,192,86898,1,0,0:0:0:0:
64,192,86898,1,0,0:0:0:0:
192,192,86990,1,0,0:0:0:0:
320,192,87082,1,0,0:0:0:0:
192,192,87174,1,0,0:0:0:0:
320,192,87266,1,0,0:0:0:0:
448,192,87266,1,0,0:0:0:0:
64,192,87358,1,0,0:0:0:0:
320,192,87450,1,0,0:0:0:0:
192,192,87542,1,0,0:0:0:0:
64,192,87634,1,0,0:0:0:0:
320,192,87634,1,0,0:0:0:0:
192,192,87726,1,0,0:0:0:0:
320,192,87818,1,0,0:0:0:0:
64,192,87910,1,0,0:0:0:0:
192,192,88002,1,0,0:0:0:0:
448,192,88002,1,0,0:0:0:0:
320,192,88094,1,0,0:0:0:0:
192,192,88186,1,0,0:0:0:0:
64,192,88278,1,0,0:0:0:0:
192,192,88370,1,0,0:0:0:0:
320,192,88370,1,0,0:0:0:0:
448,192,88370,1,0,0:0:0:0:
64,192,88462,1,0,0:0:0:0:
448,192,88554,1,0,0:0:0:0:
320,192,88646,1,0,0:0:0:0:
192,192,88738,1,0,0:0:0:0:
64,192,88738,1,0,0:0:0:0:
320,192,88830,1,0,0:0:0:0:
64,192,88922,1,0,0:0:0:0:
192,192,89014,1,0,0:0:0:0:
64,192,89106,1,0,0:0:0:0:
320,192,89106,1,0,0:0:0:0:
192,192,89198,1,0,0:0:0:0:
320,192,89291,1,0,0:0:0:0:
64,192,89383,1,0,0:0:0:0:
320,192,89475,1,0,0:0:0:0:
448,192,89475,1,0,0:0:0:0:
192,192,89567,1,0,0:0:0:0:
64,192,89659,1,0,0:0:0:0:
320,192,89751,1,0,0:0:0:0:
192,192,89843,1,0,0:0:0:0:
64,192,89843,1,0,0:0:0:0:
320,192,89935,1,0,0:0:0:0:
192,192,90027,1,0,0:0:0:0:
320,192,90119,1,0,0:0:0:0:
64,192,90211,1,0,0:0:0:0:
448,192,90211,1,0,0:0:0:0:
320,192,90303,1,0,0:0:0:0:
192,192,90395,1,0,0:0:0:0:
64,192,90487,1,0,0:0:0:0:
320,192,90579,1,0,0:0:0:0:
448,192,90579,1,0,0:0:0:0:
64,192,90671,1,0,0:0:0:0:
192,192,90763,1,0,0:0:0:0:
320,192,90855,1,0,0:0:0:0:
64,192,90947,1,0,0:0:0:0:
192,192,90947,1,0,0:0:0:0:
320,192,91039,1,0,0:0:0:0:
192,192,91131,1,0,0:0:0:0:
448,192,91223,1,0,0:0:0:0:
320,192,91315,1,0,0:0:0:0:
64,192,91315,1,0,0:0:0:0:
192,192,91315,1,0,0:0:0:0:
448,192,91407,1,0,0:0:0:0:
320,192,91499,1,0,0:0:0:0:
192,192,91591,1,0,0:0:0:0:
320,192,91683,1,0,0:0:0:0:
448,192,91683,1,0,0:0:0:0:
192,192,91775,1,0,0:0:0:0:
64,192,91867,1,0,0:0:0:0:
320,192,91867,1,0,0:0:0:0:
192,192,91959,1,0,0:0:0:0:
448,192,92051,1,0,0:0:0:0:
320,192,92051,1,0,0:0:0:0:
64,192,92143,1,0,0:0:0:0:
192,192,92235,1,0,0:0:0:0:
448,192,92235,1,0,0:0:0:0:
320,192,92327,1,0,0:0:0:0:
192,192,92419,1,0,0:0:0:0:
64,192,92419,1,0,0:0:0:0:
320,192,92511,1,0,0:0:0:0:
64,192,92603,1,0,0:0:0:0:
448,192,92603,1,0,0:0:0:0:
192,192,92695,1,0,0:0:0:0:
320,192,92787,1,0,0:0:0:0:
448,192,92787,1,0,0:0:0:0:
192,192,92879,1,0,0:0:0:0:
64,192,92971,1,0,0:0:0:0:
320,192,92971,1,0,0:0:0:0:
192,192,93064,1,0,0:0:0:0:
448,192,93156,1,0,0:0:0:0:
320,192,93156,1,0,0:0:0:0:
192,192,93248,1,0,0:0:0:0:
64,192,93340,1,0,0:0:0:0:
320,192,93340,1,0,0:0:0:0:
448,192,93432,1,0,0:0:0:0:
320,192,93524,1,0,0:0:0:0:
192,192,93524,1,0,0:0:0:0:
64,192,93616,1,0,0:0:0:0:
320,192,93708,1,0,0:0:0:0:
448,192,93708,1,0,0:0:0:0:
192,192,93800,1,0,0:0:0:0:
64,192,93892,1,0,0:0:0:0:
320,192,93892,1,0,0:0:0:0:
192,192,93984,1,0,0:0:0:0:
64,192,94076,1,0,0:0:0:0:
192,192,94137,1,0,0:0:0:0:
320,192,94198,1,0,0:0:0:0:
448,192,94260,1,0,0:0:0:0:
320,192,94352,1,0,0:0:0:0:
64,192,94352,1,0,0:0:0:0:
192,192,94444,1,0,0:0:0:0:
448,192,94444,1,0,0:0:0:0:
320,192,94536,1,0,0:0:0:0:
64,192,94536,1,0,0:0:0:0:
192,192,94628,1,0,0:0:0:0:
320,192,94720,1,0,0:0:0:0:
448,192,94720,1,0,0:0:0:0:
192,192,94812,1,0,0:0:0:0:
64,192,94812,1,0,0:0:0:0:
320,192,94904,1,0,0:0:0:0:
448,192,94904,1,0,0:0:0:0:
192,192,94996,1,0,0:0:0:0:
64,192,94996,1,0,0:0:0:0:
320,192,95088,1,0,0:0:0:0:
448,192,95088,1,0,0:0:0:0:
192,192,95180,1,0,0:0:0:0:
64,192,95272,1,0,0:0:0:0:
448,192,95272,1,0,0:0:0:0:
320,192,95364,1,0,0:0:0:0:
192,192,95364,1,0,0:0:0:0:
64,192,95456,1,0,0:0:0:0:
448,192,95456,1,0,0:0:0:0:
320,192,95548,1,0,0:0:0:0:
192,192,95548,1,0,0:0:0:0:
64,192,95640,1,0,0:0:0:0:
448,192,95640,1,0,0:0:0:0:
192,192,95732,1,0,0:0:0:0:
320,192,95732,1,0,0:0:0:0:
64,192,97205,1,0,0:0:0:0:
192,192,97205,1,0,0:0:0:0:
320,192,97205,1,0,0:0:0:0:
64,192,97450,1,0,0:0:0:0:
320,192,97450,1,0,0:0:0:0:
192,192,97573,1,0,0:0:0:0:
320,192,97573,1,0,0:0:0:0:
448,192,97573,1,0,0:0:0:0:
64,192,97695,1,0,0:0:0:0:
192,192,97695,1,0,0:0:0:0:
192,192,97818,1,0,0:0:0:0:
320,192,97818,1,0,0:0:0:0:
192,192,97941,1,0,0:0:0:0:
320,192,97941,1,0,0:0:0:0:
448,192,97941,1,0,0:0:0:0:
64,192,98186,1,0,0:0:0:0:
192,192,98186,1,0,0:0:0:0:
64,192,98309,1,0,0:0:0:0:
192,192,98309,1,0,0:0:0:0:
320,192,98309,1,0,0:0:0:0:
64,192,98432,1,0,0:0:0:0:
192,192,98432,1,0,0:0:0:0:
192,192,98554,1,0,0:0:0:0:
320,192,98554,1,0,0:0:0:0:
64,192,98677,1,0,0:0:0:0:
320,192,98677,1,0,0:0:0:0:
448,192,98677,1,0,0:0:0:0:
192,192,98922,1,0,0:0:0:0:
448,192,98922,1,0,0:0:0:0:
64,192,99045,1,0,0:0:0:0:
192,192,99045,1,0,0:0:0:0:
320,192,99045,1,0,0:0:0:0:
64,192,99168,1,0,0:0:0:0:
320,192,99168,1,0,0:0:0:0:
320,192,99291,1,0,0:0:0:0:
448,192,99291,1,0,0:0:0:0:
192,192,99413,1,0,0:0:0:0:
64,192,99413,1,0,0:0:0:0:
320,192,99413,1,0,0:0:0:0:
320,192,99659,1,0,0:0:0:0:
448,192,99659,1,0,0:0:0:0:
192,192,99904,1,0,0:0:0:0:
64,192,99904,1,0,0:0:0:0:
192,192,100149,1,0,0:0:0:0:
448,192,100149,1,0,0:0:0:0:
192,192,100395,1,0,0:0:0:0:
320,192,100395,1,0,0:0:0:0:
64,192,100518,1,0,0:0:0:0:
192,192,100518,1,0,0:0:0:0:
320,192,100518,1,0,0:0:0:0:
192,192,100640,1,0,0:0:0:0:
448,192,100640,1,0,0:0:0:0:
320,192,100763,1,0,0:0:0:0:
448,192,100763,1,0,0:0:0:0:
64,192,100886,1,0,0:0:0:0:
192,192,100886,1,0,0:0:0:0:
320,192,100886,1,0,0:0:0:0:
192,192,101131,1,0,0:0:0:0:
64,192,101131,1,0,0:0:0:0:
64,192,101254,1,0,0:0:0:0:
192,192,101254,1,0,0:0:0:0:
448,192,101254,1,0,0:0:0:0:
64,192,101376,1,0,0:0:0:0:
320,192,101376,1,0,0:0:0:0:
320,192,101499,1,0,0:0:0:0:
448,192,101499,1,0,0:0:0:0:
192,192,101622,1,0,0:0:0:0:
64,192,101622,1,0,0:0:0:0:
320,192,101622,1,0,0:0:0:0:
64,192,101867,1,0,0:0:0:0:
192,192,101867,1,0,0:0:0:0:
448,192,101990,1,0,0:0:0:0:
64,192,101990,1,0,0:0:0:0:
192,192,101990,1,0,0:0:0:0:
64,192,102113,1,0,0:0:0:0:
192,192,102113,1,0,0:0:0:0:
192,192,102235,1,0,0:0:0:0:
320,192,102235,1,0,0:0:0:0:
320,192,102358,1,0,0:0:0:0:
448,192,102358,1,0,0:0:0:0:
64,192,102358,1,0,0:0:0:0:
64,192,102603,1,0,0:0:0:0:
320,192,102603,1,0,0:0:0:0:
192,192,102726,1,0,0:0:0:0:
320,192,102726,1,0,0:0:0:0:
192,192,102849,1,0,0:0:0:0:
448,192,102849,1,0,0:0:0:0:
320,192,102971,1,0,0:0:0:0:
64,192,102971,1,0,0:0:0:0:
192,192,103094,1,0,0:0:0:0:
64,192,103094,1,0,0:0:0:0:
448,192,103094,1,0,0:0:0:0:
192,192,103340,1,0,0:0:0:0:
64,192,103340,1,0,0:0:0:0:
64,192,103462,1,0,0:0:0:0:
192,192,103462,1,0,0:0:0:0:
320,192,103462,1,0,0:0:0:0:
64,192,103585,1,0,0:0:0:0:
320,192,103585,1,0,0:0:0:0:
320,192,103708,1,0,0:0:0:0:
448,192,103708,1,0,0:0:0:0:
192,192,103830,1,0,0:0:0:0:
320,192,103830,1,0,0:0:0:0:
192,192,104076,1,0,0:0:0:0:
320,192,104076,1,0,0:0:0:0:
64,192,104198,1,0,0:0:0:0:
320,192,104198,1,0,0:0:0:0:
448,192,104198,1,0,0:0:0:0:
320,192,104321,1,0,0:0:0:0:
64,192,104321,1,0,0:0:0:0:
448,192,104444,1,0,0:0:0:0:
320,192,104444,1,0,0:0:0:0:
192,192,104567,1,0,0:0:0:0:
64,192,104567,1,0,0:0:0:0:
320,192,104567,1,0,0:0:0:0:
192,192,104812,1,0,0:0:0:0:
320,192,104812,1,0,0:0:0:0:
64,192,104935,1,0,0:0:0:0:
192,192,104935,1,0,0:0:0:0:
320,192,104935,1,0,0:0:0:0:
64,192,105057,1,0,0:0:0:0:
192,192,105057,1,0,0:0:0:0:
320,192,105180,1,0,0:0:0:0:
448,192,105180,1,0,0:0:0:0:
192,192,105303,1,0,0:0:0:0:
64,192,105303,1,0,0:0:0:0:
320,192,105303,1,0,0:0:0:0:
192,192,105548,1,0,0:0:0:0:
320,192,105548,1,0,0:0:0:0:
320,192,105671,1,0,0:0:0:0:
448,192,105671,1,0,0:0:0:0:
64,192,105671,1,0,0:0:0:0:
64,192,105794,1,0,0:0:0:0:
192,192,105794,1,0,0:0:0:0:
64,192,106039,1,0,0:0:0:0:
192,192,106039,1,0,0:0:0:0:
320,192,106039,1,0,0:0:0:0:
64,192,106284,1,0,0:0:0:0:
320,192,106284,1,0,0:0:0:0:
192,192,106407,1,0,0:0:0:0:
320,192,106407,1,0,0:0:0:0:
448,192,106407,1,0,0:0:0:0:
64,192,106530,1,0,0:0:0:0:
320,192,106530,1,0,0:0:0:0:
192,192,106652,1,0,0:0:0:0:
448,192,106652,1,0,0:0:0:0:
192,192,106775,1,0,0:0:0:0:
64,192,106775,1,0,0:0:0:0:
320,192,106775,1,0,0:0:0:0:
192,192,107021,1,0,0:0:0:0:
320,192,107021,1,0,0:0:0:0:
64,192,107143,1,0,0:0:0:0:
192,192,107143,1,0,0:0:0:0:
448,192,107143,1,0,0:0:0:0:
448,192,107266,1,0,0:0:0:0:
192,192,107266,1,0,0:0:0:0:
320,192,107389,1,0,0:0:0:0:
64,192,107389,1,0,0:0:0:0:
320,192,107511,1,0,0:0:0:0:
448,192,107511,1,0,0:0:0:0:
320,192,107634,1,0,0:0:0:0:
192,192,107757,1,0,0:0:0:0:
64,192,107879,1,0,0:0:0:0:
192,192,107879,1,0,0:0:0:0:
320,192,107879,1,0,0:0:0:0:
320,192,108002,1,0,0:0:0:0:
192,192,108125,1,0,0:0:0:0:
64,192,108248,1,0,0:0:0:0:
192,192,108340,1,0,0:0:0:0:
64,192,108432,1,0,0:0:0:0:
192,192,108524,1,0,0:0:0:0:
448,192,108616,1,0,0:0:0:0:
64,192,108708,1,0,0:0:0:0:
320,192,108800,1,0,0:0:0:0:
192,192,108892,1,0,0:0:0:0:
192,192,108984,1,0,0:0:0:0:
320,192,108984,1,0,0:0:0:0:
448,192,108984,1,0,0:0:0:0:
64,192,109076,1,0,0:0:0:0:
192,192,109168,1,0,0:0:0:0:
448,192,109168,1,0,0:0:0:0:
320,192,109260,1,0,0:0:0:0:
64,192,109352,1,0,0:0:0:0:
192,192,109352,1,0,0:0:0:0:
448,192,109352,1,0,0:0:0:0:
320,192,109444,1,0,0:0:0:0:
192,192,109536,1,0,0:0:0:0:
448,192,109536,1,0,0:0:0:0:
320,192,109628,1,0,0:0:0:0:
192,192,109720,1,0,0:0:0:0:
64,192,109720,1,0,0:0:0:0:
448,192,109720,1,0,0:0:0:0:
320,192,109812,1,0,0:0:0:0:
64,192,109904,1,0,0:0:0:0:
192,192,109904,1,0,0:0:0:0:
448,192,109996,1,0,0:0:0:0:
64,192,110088,1,0,0:0:0:0:
192,192,110088,1,0,0:0:0:0:
320,192,110088,1,0,0:0:0:0:
448,192,110180,1,0,0:0:0:0:
64,192,110272,1,0,0:0:0:0:
320,192,110272,1,0,0:0:0:0:
192,192,110364,1,0,0:0:0:0:
64,192,110456,1,0,0:0:0:0:
320,192,110456,1,0,0:0:0:0:
448,192,110456,1,0,0:0:0:0:
192,192,110548,1,0,0:0:0:0:
320,192,110640,1,0,0:0:0:0:
448,192,110640,1,0,0:0:0:0:
64,192,110640,1,0,0:0:0:0:
192,192,110732,1,0,0:0:0:0:
64,192,110824,1,0,0:0:0:0:
320,192,110824,1,0,0:0:0:0:
448,192,110824,1,0,0:0:0:0:
192,192,110916,1,0,0:0:0:0:
320,192,111008,1,0,0:0:0:0:
448,192,111008,1,0,0:0:0:0:
192,192,111100,1,0,0:0:0:0:
64,192,111192,1,0,0:0:0:0:
320,192,111192,1,0,0:0:0:0:
448,192,111192,1,0,0:0:0:0:
192,192,111284,1,0,0:0:0:0:
320,192,111376,1,0,0:0:0:0:
448,192,111376,1,0,0:0:0:0:
64,192,111376,1,0,0:0:0:0:
192,192,111468,1,0,0:0:0:0:
448,192,111560,1,0,0:0:0:0:
320,192,111560,1,0,0:0:0:0:
64,192,111652,1,0,0:0:0:0:
192,192,111745,1,0,0:0:0:0:
448,192,111745,1,0,0:0:0:0:
64,192,111837,1,0,0:0:0:0:
320,192,111929,1,0,0:0:0:0:
448,192,111929,1,0,0:0:0:0:
192,192,112021,1,0,0:0:0:0:
64,192,112113,1,0,0:0:0:0:
320,192,112113,1,0,0:0:0:0:
192,192,112205,1,0,0:0:0:0:
64,192,112297,1,0,0:0:0:0:
320,192,112297,1,0,0:0:0:0:
448,192,112297,1,0,0:0:0:0:
192,192,112389,1,0,0:0:0:0:
320,192,112481,1,0,0:0:0:0:
448,192,112481,1,0,0:0:0:0:
64,192,112573,1,0,0:0:0:0:
192,192,112665,1,0,0:0:0:0:
320,192,112665,1,0,0:0:0:0:
448,192,112665,1,0,0:0:0:0:
64,192,112757,1,0,0:0:0:0:
192,192,112849,1,0,0:0:0:0:
448,192,112849,1,0,0:0:0:0:
320,192,112941,1,0,0:0:0:0:
192,192,113033,1,0,0:0:0:0:
64,192,113033,1,0,0:0:0:0:
448,192,113033,1,0,0:0:0:0:
320,192,113125,1,0,0:0:0:0:
448,192,113217,1,0,0:0:0:0:
192,192,113217,1,0,0:0:0:0:
64,192,113309,1,0,0:0:0:0:
192,192,113401,1,0,0:0:0:0:
320,192,113401,1,0,0:0:0:0:
448,192,113401,1,0,0:0:0:0:
64,192,113493,1,0,0:0:0:0:
320,192,113585,1,0,0:0:0:0:
448,192,113585,1,0,0:0:0:0:
192,192,113677,1,0,0:0:0:0:
64,192,113769,1,0,0:0:0:0:
320,192,113769,1,0,0:0:0:0:
448,192,113769,1,0,0:0:0:0:
192,192,113861,1,0,0:0:0:0:
320,192,113953,1,0,0:0:0:0:
64,192,113953,1,0,0:0:0:0:
448,192,114045,1,0,0:0:0:0:
64,192,114137,1,0,0:0:0:0:
320,192,114137,1,0,0:0:0:0:
192,192,114137,1,0,0:0:0:0:
192,192,114321,1,0,0:0:0:0:
320,192,114321,1,0,0:0:0:0:
192,192,114505,1,0,0:0:0:0:
320,192,114505,1,0,0:0:0:0:
64,192,114505,1,0,0:0:0:0:
192,192,114689,1,0,0:0:0:0:
320,192,114689,1,0,0:0:0:0:
192,192,114873,1,0,0:0:0:0:
320,192,114873,1,0,0:0:0:0:
448,192,114873,1,0,0:0:0:0:
64,192,115057,1,0,0:0:0:0:
320,192,115057,1,0,0:0:0:0:
192,192,115241,1,0,0:0:0:0:
64,192,115241,1,0,0:0:0:0:
448,192,115241,1,0,0:0:0:0:
448,192,115425,1,0,0:0:0:0:
192,192,115425,1,0,0:0:0:0:
320,192,115518,1,0,0:0:0:0:
448,192,115610,1,0,0:0:0:0:
192,192,115610,1,0,0:0:0:0:
64,192,115610,1,0,0:0:0:0:
192,192,115794,1,0,0:0:0:0:
320,192,115794,1,0,0:0:0:0:
64,192,115978,1,0,0:0:0:0:
192,192,115978,1,0,0:0:0:0:
320,192,115978,1,0,0:0:0:0:
320,192,116162,1,0,0:0:0:0:
192,192,116254,1,0,0:0:0:0:
320,192,116346,1,0,0:0:0:0:
64,192,116346,1,0,0:0:0:0:
448,192,116346,1,0,0:0:0:0:
192,192,116530,1,0,0:0:0:0:
448,192,116530,1,0,0:0:0:0:
64,192,116714,1,0,0:0:0:0:
192,192,116714,1,0,0:0:0:0:
320,192,116714,1,0,0:0:0:0:
192,192,116898,1,0,0:0:0:0:
320,192,116898,1,0,0:0:0:0:
448,192,116990,1,0,0:0:0:0:
320,192,117082,1,0,0:0:0:0:
192,192,117082,1,0,0:0:0:0:
64,192,117082,1,0,0:0:0:0:
192,192,117266,1,0,0:0:0:0:
448,192,117266,1,0,0:0:0:0:
192,192,117450,1,0,0:0:0:0:
320,192,117450,1,0,0:0:0:0:
448,192,117450,1,0,0:0:0:0:
64,192,117542,1,0,0:0:0:0:
192,192,117634,1,0,0:0:0:0:
320,192,117726,1,0,0:0:0:0:
192,192,117818,1,0,0:0:0:0:
64,192,117818,1,0,0:0:0:0:
448,192,117818,1,0,0:0:0:0:
64,192,118002,1,0,0:0:0:0:
320,192,118002,1,0,0:0:0:0:
448,192,118002,1,0,0:0:0:0:
64,192,118186,1,0,0:0:0:0:
192,192,118186,1,0,0:0:0:0:
448,192,118186,1,0,0:0:0:0:
64,192,118370,1,0,0:0:0:0:
320,192,118370,1,0,0:0:0:0:
192,192,118554,1,0,0:0:0:0:
64,192,118554,1,0,0:0:0:0:
448,192,118554,1,0,0:0:0:0:
320,192,118738,1,0,0:0:0:0:
448,192,118738,1,0,0:0:0:0:
192,192,118922,1,0,0:0:0:0:
320,192,118922,1,0,0:0:0:0:
448,192,118922,1,0,0:0:0:0:
320,192,119106,1,0,0:0:0:0:
64,192,119106,1,0,0:0:0:0:
192,192,119291,1,0,0:0:0:0:
64,192,119291,1,0,0:0:0:0:
448,192,119291,1,0,0:0:0:0:
320,192,119475,1,0,0:0:0:0:
192,192,119659,1,0,0:0:0:0:
320,192,119843,1,0,0:0:0:0:
64,192,120027,1,0,0:0:0:0:
448,192,120211,1,0,0:0:0:0:
448,192,120395,1,0,0:0:0:0:
320,192,120395,1,0,0:0:0:0:
64,192,120395,1,0,0:0:0:0:
192,192,120395,1,0,0:0:0:0:
64,192,120763,1,0,0:0:0:0:
192,192,120763,1,0,0:0:0:0:
320,192,120763,1,0,0:0:0:0:
448,192,120855,1,0,0:0:0:0:
320,192,120947,1,0,0:0:0:0:
64,192,120947,1,0,0:0:0:0:
192,192,121039,1,0,0:0:0:0:
64,192,121131,1,0,0:0:0:0:
320,192,121131,1,0,0:0:0:0:
448,192,121131,1,0,0:0:0:0:
192,192,121223,1,0,0:0:0:0:
320,192,121315,1,0,0:0:0:0:
448,192,121315,1,0,0:0:0:0:
192,192,121407,1,0,0:0:0:0:
64,192,121499,1,0,0:0:0:0:
320,192,121499,1,0,0:0:0:0:
448,192,121499,1,0,0:0:0:0:
192,192,121591,1,0,0:0:0:0:
64,192,121683,1,0,0:0:0:0:
320,192,121683,1,0,0:0:0:0:
448,192,121775,1,0,0:0:0:0:
320,192,121867,1,0,0:0:0:0:
192,192,121867,1,0,0:0:0:0:
64,192,121867,1,0,0:0:0:0:
448,192,121959,1,0,0:0:0:0:
64,192,122051,1,0,0:0:0:0:
192,192,122051,1,0,0:0:0:0:
320,192,122143,1,0,0:0:0:0:
192,192,122235,1,0,0:0:0:0:
64,192,122235,1,0,0:0:0:0:
448,192,122235,1,0,0:0:0:0:
320,192,122327,1,0,0:0:0:0:
192,192,122419,1,0,0:0:0:0:
64,192,122419,1,0,0:0:0:0:
320,192,122511,1,0,0:0:0:0:
192,192,122603,1,0,0:0:0:0:
64,192,122603,1,0,0:0:0:0:
448,192,122603,1,0,0:0:0:0:
320,192,122695,1,0,0:0:0:0:
192,192,122787,1,0,0:0:0:0:
448,192,122787,1,0,0:0:0:0:
64,192,122879,1,0,0:0:0:0:
448,192,122971,1,0,0:0:0:0:
320,192,122971,1,0,0:0:0:0:
192,192,122971,1,0,0:0:0:0:
64,192,123064,1,0,0:0:0:0:
448,192,123156,1,0,0:0:0:0:
320,192,123248,1,0,0:0:0:0:
192,192,123340,1,0,0:0:0:0:
64,192,123340,1,0,0:0:0:0:
448,192,123340,1,0,0:0:0:0:
320,192,123432,1,0,0:0:0:0:
64,192,123524,1,0,0:0:0:0:
192,192,123524,1,0,0:0:0:0:
320,192,123616,1,0,0:0:0:0:
64,192,123708,1,0,0:0:0:0:
448,192,123708,1,0,0:0:0:0:
192,192,123708,1,0,0:0:0:0:
320,192,123800,1,0,0:0:0:0:
192,192,123892,1,0,0:0:0:0:
448,192,123892,1,0,0:0:0:0:
64,192,123984,1,0,0:0:0:0:
192,192,124076,1,0,0:0:0:0:
320,192,124076,1,0,0:0:0:0:
448,192,124076,1,0,0:0:0:0:
64,192,124168,1,0,0:0:0:0:
192,192,124260,1,0,0:0:0:0:
448,192,124260,1,0,0:0:0:0:
320,192,124352,1,0,0:0:0:0:
192,192,124444,1,0,0:0:0:0:
64,192,124444,1,0,0:0:0:0:
448,192,124444,1,0,0:0:0:0:
320,192,124536,1,0,0:0:0:0:
192,192,124628,1,0,0:0:0:0:
448,192,124628,1,0,0:0:0:0:
64,192,124720,1,0,0:0:0:0:
192,192,124812,1,0,0:0:0:0:
320,192,124812,1,0,0:0:0:0:
448,192,124812,1,0,0:0:0:0:
64,192,124904,1,0,0:0:0:0:
448,192,124996,1,0,0:0:0:0:
192,192,124996,1,0,0:0:0:0:
320,192,125088,1,0,0:0:0:0:
192,192,125180,1,0,0:0:0:0:
64,192,125180,1,0,0:0:0:0:
448,192,125180,1,0,0:0:0:0:
320,192,125272,1,0,0:0:0:0:
192,192,125364,1,0,0:0:0:0:
64,192,125364,1,0,0:0:0:0:
448,192,125456,1,0,0:0:0:0:
320,192,125548,1,0,0:0:0:0:
192,192,125548,1,0,0:0:0:0:
64,192,125548,1,0,0:0:0:0:
448,192,125640,1,0,0:0:0:0:
320,192,125732,1,0,0:0:0:0:
192,192,125732,1,0,0:0:0:0:
64,192,125824,1,0,0:0:0:0:
192,192,125916,1,0,0:0:0:0:
320,192,125916,1,0,0:0:0:0:
448,192,125916,1,0,0:0:0:0:
64,192,126008,1,0,0:0:0:0:
320,192,126100,1,0,0:0:0:0:
448,192,126100,1,0,0:0:0:0:
192,192,126192,1,0,0:0:0:0:
320,192,126284,1,0,0:0:0:0:
64,192,126284,1,0,0:0:0:0:
448,192,126284,1,0,0:0:0:0:
192,192,126376,1,0,0:0:0:0:
320,192,126468,1,0,0:0:0:0:
64,192,126468,1,0,0:0:0:0:
448,192,126560,1,0,0:0:0:0:
320,192,126652,1,0,0:0:0:0:
192,192,126652,1,0,0:0:0:0:
64,192,126652,1,0,0:0:0:0:
448,192,126745,1,0,0:0:0:0:
64,192,126837,1,0,0:0:0:0:
320,192,126837,1,0,0:0:0:0:
192,192,126929,1,0,0:0:0:0:
64,192,127021,1,0,0:0:0:0:
320,192,127021,1,0,0:0:0:0:
448,192,127021,1,0,0:0:0:0:
192,192,127113,1,0,0:0:0:0:
320,192,127205,1,0,0:0:0:0:
448,192,127205,1,0,0:0:0:0:
64,192,127297,1,0,0:0:0:0:
192,192,127389,1,0,0:0:0:0:
320,192,127389,1,0,0:0:0:0:
448,192,127389,1,0,0:0:0:0:
64,192,127481,1,0,0:0:0:0:
192,192,127573,1,0,0:0:0:0:
448,192,127573,1,0,0:0:0:0:
320,192,127665,1,0,0:0:0:0:
192,192,127757,1,0,0:0:0:0:
64,192,127757,1,0,0:0:0:0:
448,192,127757,1,0,0:0:0:0:
320,192,127849,1,0,0:0:0:0:
64,192,127941,1,0,0:0:0:0:
192,192,127941,1,0,0:0:0:0:
320,192,128033,1,0,0:0:0:0:
192,192,128125,1,0,0:0:0:0:
64,192,128125,1,0,0:0:0:0:
448,192,128125,1,0,0:0:0:0:
320,192,128217,1,0,0:0:0:0:
192,192,128309,1,0,0:0:0:0:
448,192,128309,1,0,0:0:0:0:
64,192,128401,1,0,0:0:0:0:
192,192,128493,1,0,0:0:0:0:
320,192,128493,1,0,0:0:0:0:
448,192,128493,1,0,0:0:0:0:
64,192,128585,1,0,0:0:0:0:
320,192,128677,1,0,0:0:0:0:
448,192,128677,1,0,0:0:0:0:
192,192,128769,1,0,0:0:0:0:
64,192,128861,1,0,0:0:0:0:
320,192,128861,1,0,0:0:0:0:
448,192,128861,1,0,0:0:0:0:
192,192,128953,1,0,0:0:0:0:
448,192,129045,1,0,0:0:0:0:
64,192,129045,1,0,0:0:0:0:
320,192,129137,1,0,0:0:0:0:
192,192,129229,1,0,0:0:0:0:
64,192,129229,1,0,0:0:0:0:
448,192,129229,1,0,0:0:0:0:
320,192,129321,1,0,0:0:0:0:
64,192,129413,1,0,0:0:0:0:
448,192,129413,1,0,0:0:0:0:
192,192,129505,1,0,0:0:0:0:
64,192,129597,1,0,0:0:0:0:
320,192,129597,1,0,0:0:0:0:
448,192,129597,1,0,0:0:0:0:
192,192,129689,1,0,0:0:0:0:
320,192,129781,1,0,0:0:0:0:
448,192,129781,1,0,0:0:0:0:
64,192,129873,1,0,0:0:0:0:
192,192,129965,1,0,0:0:0:0:
320,192,129965,1,0,0:0:0:0:
448,192,129965,1,0,0:0:0:0:
64,192,130057,1,0,0:0:0:0:
192,192,130149,1,0,0:0:0:0:
448,192,130149,1,0,0:0:0:0:
320,192,130241,1,0,0:0:0:0:
192,192,130333,1,0,0:0:0:0:
64,192,130333,1,0,0:0:0:0:
448,192,130333,1,0,0:0:0:0:
320,192,130425,1,0,0:0:0:0:
64,192,130518,1,0,0:0:0:0:
448,192,130518,1,0,0:0:0:0:
192,192,130610,1,0,0:0:0:0:
64,192,130702,1,0,0:0:0:0:
320,192,130702,1,0,0:0:0:0:
448,192,130702,1,0,0:0:0:0:
192,192,130794,1,0,0:0:0:0:
320,192,130886,1,0,0:0:0:0:
448,192,130886,1,0,0:0:0:0:
64,192,130978,1,0,0:0:0:0:
192,192,131070,1,0,0:0:0:0:
320,192,131070,1,0,0:0:0:0:
448,192,131070,128,0,132542:0:0:0:0:
64,192,131438,1,0,0:0:0:0:
192,192,131438,1,0,0:0:0:0:
192,192,131622,1,0,0:0:0:0:
320,192,131714,1,0,0:0:0:0:
64,192,131806,1,0,0:0:0:0:
192,192,131806,1,0,0:0:0:0:
320,192,131898,1,0,0:0:0:0:
192,192,131990,1,0,0:0:0:0:
320,192,132082,1,0,0:0:0:0:
192,192,132174,1,0,0:0:0:0:
64,192,132174,128,0,132542:0:0:0:0:
320,192,132266,1,0,0:0:0:0:
192,192,132358,1,0,0:0:0:0:
320,192,132450,1,0,0:0:0:0:
192,192,132542,1,0,0:0:0:0:
320,192,132634,1,0,0:0:0:0:
192,192,132726,1,0,0:0:0:0:
64,192,132726,1,0,0:0:0:0:
320,192,132818,1,0,0:0:0:0:
192,192,132910,1,0,0:0:0:0:
64,192,132910,1,0,0:0:0:0:
448,192,132910,1,0,0:0:0:0:
320,192,133002,1,0,0:0:0:0:
192,192,133094,1,0,0:0:0:0:
448,192,133094,1,0,0:0:0:0:
64,192,133186,1,0,0:0:0:0:
192,192,133278,1,0,0:0:0:0:
320,192,133278,1,0,0:0:0:0:
448,192,133278,1,0,0:0:0:0:
64,192,133370,1,0,0:0:0:0:
192,192,133462,1,0,0:0:0:0:
448,192,133462,1,0,0:0:0:0:
320,192,133554,1,0,0:0:0:0:
192,192,133646,1,0,0:0:0:0:
64,192,133646,1,0,0:0:0:0:
448,192,133646,1,0,0:0:0:0:
320,192,133738,1,0,0:0:0:0:
192,192,133830,1,0,0:0:0:0:
448,192,133830,1,0,0:0:0:0:
64,192,133922,1,0,0:0:0:0:
192,192,134014,1,0,0:0:0:0:
320,192,134014,1,0,0:0:0:0:
448,192,134014,1,0,0:0:0:0:
64,192,134106,1,0,0:0:0:0:
320,192,134198,1,0,0:0:0:0:
448,192,134198,1,0,0:0:0:0:
192,192,134291,1,0,0:0:0:0:
64,192,134383,1,0,0:0:0:0:
320,192,134383,1,0,0:0:0:0:
448,192,134383,1,0,0:0:0:0:
192,192,134475,1,0,0:0:0:0:
320,192,134567,1,0,0:0:0:0:
448,192,134567,1,0,0:0:0:0:
192,192,134659,1,0,0:0:0:0:
320,192,134751,1,0,0:0:0:0:
448,192,134751,1,0,0:0:0:0:
64,192,134751,1,0,0:0:0:0:
192,192,134843,1,0,0:0:0:0:
448,192,134935,1,0,0:0:0:0:
320,192,135027,1,0,0:0:0:0:
192,192,135119,1,0,0:0:0:0:
64,192,135119,1,0,0:0:0:0:
448,192,135119,1,0,0:0:0:0:
320,192,135211,1,0,0:0:0:0:
192,192,135303,1,0,0:0:0:0:
448,192,135303,1,0,0:0:0:0:
64,192,135395,1,0,0:0:0:0:
192,192,135487,1,0,0:0:0:0:
320,192,135487,1,0,0:0:0:0:
448,192,135487,1,0,0:0:0:0:
64,192,135579,1,0,0:0:0:0:
192,192,135671,1,0,0:0:0:0:
448,192,135671,1,0,0:0:0:0:
320,192,135763,1,0,0:0:0:0:
192,192,135855,1,0,0:0:0:0:
64,192,135855,1,0,0:0:0:0:
448,192,135855,1,0,0:0:0:0:
320,192,135947,1,0,0:0:0:0:
192,192,136039,1,0,0:0:0:0:
448,192,136039,1,0,0:0:0:0:
64,192,136131,1,0,0:0:0:0:
192,192,136223,1,0,0:0:0:0:
320,192,136223,1,0,0:0:0:0:
448,192,136223,1,0,0:0:0:0:
64,192,136315,1,0,0:0:0:0:
320,192,136407,1,0,0:0:0:0:
448,192,136407,1,0,0:0:0:0:
192,192,136499,1,0,0:0:0:0:
64,192,136591,1,0,0:0:0:0:
320,192,136591,1,0,0:0:0:0:
448,192,136591,1,0,0:0:0:0:
192,192,136683,1,0,0:0:0:0:
320,192,136775,1,0,0:0:0:0:
64,192,136775,1,0,0:0:0:0:
448,192,136867,1,0,0:0:0:0:
320,192,136959,1,0,0:0:0:0:
192,192,136959,1,0,0:0:0:0:
64,192,136959,1,0,0:0:0:0:
448,192,137051,1,0,0:0:0:0:
320,192,137143,1,0,0:0:0:0:
64,192,137143,1,0,0:0:0:0:
192,192,137235,1,0,0:0:0:0:
320,192,137327,1,0,0:0:0:0:
64,192,137327,1,0,0:0:0:0:
448,192,137327,1,0,0:0:0:0:
192,192,137419,1,0,0:0:0:0:
448,192,137511,1,0,0:0:0:0:
320,192,137511,1,0,0:0:0:0:
64,192,137603,1,0,0:0:0:0:
320,192,137695,1,0,0:0:0:0:
448,192,137695,1,0,0:0:0:0:
192,192,137695,1,0,0:0:0:0:
64,192,137787,1,0,0:0:0:0:
192,192,137879,1,0,0:0:0:0:
320,192,137879,1,0,0:0:0:0:
448,192,137971,1,0,0:0:0:0:
64,192,138064,1,0,0:0:0:0:
192,192,138064,1,0,0:0:0:0:
320,192,138156,1,0,0:0:0:0:
448,192,138248,1,0,0:0:0:0:
192,192,138248,1,0,0:0:0:0:
320,192,138340,1,0,0:0:0:0:
192,192,138432,1,0,0:0:0:0:
64,192,138432,1,0,0:0:0:0:
448,192,138432,1,0,0:0:0:0:
320,192,138524,1,0,0:0:0:0:
192,192,138616,1,0,0:0:0:0:
448,192,138616,1,0,0:0:0:0:
320,192,138708,1,0,0:0:0:0:
64,192,138800,1,0,0:0:0:0:
192,192,138800,1,0,0:0:0:0:
320,192,138892,1,0,0:0:0:0:
192,192,138984,1,0,0:0:0:0:
64,192,138984,1,0,0:0:0:0:
448,192,139076,1,0,0:0:0:0:
320,192,139168,1,0,0:0:0:0:
192,192,139168,1,0,0:0:0:0:
64,192,139168,1,0,0:0:0:0:
448,192,139260,1,0,0:0:0:0:
192,192,139352,1,0,0:0:0:0:
320,192,139352,1,0,0:0:0:0:
64,192,139444,1,0,0:0:0:0:
192,192,139536,1,0,0:0:0:0:
320,192,139536,1,0,0:0:0:0:
448,192,139536,1,0,0:0:0:0:
64,192,139628,1,0,0:0:0:0:
192,192,139720,1,0,0:0:0:0:
320,192,139720,1,0,0:0:0:0:
448,192,139812,1,0,0:0:0:0:
320,192,139904,1,0,0:0:0:0:
192,192,139904,1,0,0:0:0:0:
64,192,139904,1,0,0:0:0:0:
448,192,139996,1,0,0:0:0:0:
64,192,140088,1,0,0:0:0:0:
192,192,140088,1,0,0:0:0:0:
448,192,140180,1,0,0:0:0:0:
320,192,140272,1,0,0:0:0:0:
192,192,140272,1,0,0:0:0:0:
64,192,140272,1,0,0:0:0:0:
448,192,140364,1,0,0:0:0:0:
192,192,140456,1,0,0:0:0:0:
320,192,140456,1,0,0:0:0:0:
64,192,140548,1,0,0:0:0:0:
192,192,140640,1,0,0:0:0:0:
320,192,140640,1,0,0:0:0:0:
448,192,140640,1,0,0:0:0:0:
64,192,140732,1,0,0:0:0:0:
320,192,140824,1,0,0:0:0:0:
448,192,140824,1,0,0:0:0:0:
64,192,140916,1,0,0:0:0:0:
192,192,141008,1,0,0:0:0:0:
320,192,141008,1,0,0:0:0:0:
448,192,141008,1,0,0:0:0:0:
64,192,141100,1,0,0:0:0:0:
192,192,141192,1,0,0:0:0:0:
320,192,141192,1,0,0:0:0:0:
448,192,141284,1,0,0:0:0:0:
320,192,141376,1,0,0:0:0:0:
192,192,141376,1,0,0:0:0:0:
64,192,141376,1,0,0:0:0:0:
448,192,141468,1,0,0:0:0:0:
192,192,141560,1,0,0:0:0:0:
64,192,141560,1,0,0:0:0:0:
320,192,141652,1,0,0:0:0:0:
448,192,141652,1,0,0:0:0:0:
192,192,141745,1,0,0:0:0:0:
64,192,141745,1,0,0:0:0:0:
320,192,141837,1,0,0:0:0:0:
448,192,141837,1,0,0:0:0:0:
64,192,141929,1,0,0:0:0:0:
192,192,141929,1,0,0:0:0:0:
320,192,142021,1,0,0:0:0:0:
448,192,142021,1,0,0:0:0:0:
192,192,142113,1,0,0:0:0:0:
64,192,142113,1,0,0:0:0:0:
320,192,142205,1,0,0:0:0:0:
448,192,142205,1,0,0:0:0:0:
192,192,142297,1,0,0:0:0:0:
64,192,142389,1,0,0:0:0:0:
320,192,142389,1,0,0:0:0:0:
192,192,142481,1,0,0:0:0:0:
448,192,142481,1,0,0:0:0:0:
320,192,142573,1,0,0:0:0:0:
64,192,142573,1,0,0:0:0:0:
192,192,142665,1,0,0:0:0:0:
448,192,142665,1,0,0:0:0:0:
320,192,142757,1,0,0:0:0:0:
64,192,142757,1,0,0:0:0:0:
192,192,142849,1,0,0:0:0:0:
448,192,142941,1,0,0:0:0:0:
64,192,142941,1,0,0:0:0:0:
192,192,143033,1,0,0:0:0:0:
320,192,143033,1,0,0:0:0:0:
448,192,143094,1,0,0:0:0:0:
320,192,143156,1,0,0:0:0:0:
192,192,143217,1,0,0:0:0:0:
64,192,143278,1,0,0:0:0:0:
192,192,143340,1,0,0:0:0:0:
320,192,143401,1,0,0:0:0:0:
448,192,143401,1,0,0:0:0:0:
192,192,143493,1,0,0:0:0:0:
64,192,143493,1,0,0:0:0:0:
320,192,143585,1,0,0:0:0:0:
448,192,143585,1,0,0:0:0:0:
192,192,143677,1,0,0:0:0:0:
64,192,143677,1,0,0:0:0:0:
320,192,143769,1,0,0:0:0:0:
448,192,143769,1,0,0:0:0:0:
192,192,143861,1,0,0:0:0:0:
64,192,143861,1,0,0:0:0:0:
448,192,143953,1,0,0:0:0:0:
320,192,144045,1,0,0:0:0:0:
64,192,144045,1,0,0:0:0:0:
192,192,144137,1,0,0:0:0:0:
448,192,144137,1,0,0:0:0:0:
320,192,144229,1,0,0:0:0:0:
64,192,144229,1,0,0:0:0:0:
448,192,144321,128,0,145794:0:0:0:0:
192,192,144321,1,0,0:0:0:0:
320,192,144505,1,0,0:0:0:0:
192,192,144597,1,0,0:0:0:0:
320,192,144689,1,0,0:0:0:0:
320,192,144873,1,0,0:0:0:0:
192,192,144965,1,0,0:0:0:0:
64,192,145057,1,0,0:0:0:0:
192,192,145149,1,0,0:0:0:0:
320,192,145241,1,0,0:0:0:0:
192,192,145333,1,0,0:0:0:0:
64,192,145425,1,0,0:0:0:0:
320,192,145610,1,0,0:0:0:0:
192,192,145610,1,0,0:0:0:0:
64,192,145610,1,0,0:0:0:0:
64,192,145794,1,0,0:0:0:0:
320,192,145794,1,0,0:0:0:0:
192,192,145794,1,0,0:0:0:0:
64,192,145978,1,0,0:0:0:0:
192,192,146070,1,0,0:0:0:0:
320,192,146162,1,0,0:0:0:0:
64,192,146346,1,0,0:0:0:0:
192,192,146438,1,0,0:0:0:0:
320,192,146530,1,0,0:0:0:0:
192,192,146622,1,0,0:0:0:0:
64,192,146714,1,0,0:0:0:0:
320,192,146806,1,0,0:0:0:0:
192,192,146898,128,0,147082:0:0:0:0:
64,192,147082,1,0,0:0:0:0:
320,192,147082,1,0,0:0:0:0:
448,192,147082,1,0,0:0:0:0:
64,192,147266,1,0,0:0:0:0:
320,192,147266,1,0,0:0:0:0:
448,192,147266,1,0,0:0:0:0:
320,192,147450,1,0,0:0:0:0:
192,192,147542,1,0,0:0:0:0:
64,192,147634,1,0,0:0:0:0:
448,192,147818,1,0,0:0:0:0:
320,192,147910,1,0,0:0:0:0:
192,192,148002,1,0,0:0:0:0:
320,192,148094,1,0,0:0:0:0:
448,192,148186,1,0,0:0:0:0:
320,192,148278,1,0,0:0:0:0:
192,192,148370,128,0,148554:0:0:0:0:
64,192,148554,1,0,0:0:0:0:
320,192,148554,1,0,0:0:0:0:
448,192,148554,1,0,0:0:0:0:
320,192,148738,1,0,0:0:0:0:
448,192,148738,1,0,0:0:0:0:
64,192,148738,1,0,0:0:0:0:
64,192,148922,1,0,0:0:0:0:
192,192,149014,1,0,0:0:0:0:
320,192,149106,1,0,0:0:0:0:
192,192,149198,1,0,0:0:0:0:
320,192,149291,1,0,0:0:0:0:
192,192,149383,1,0,0:0:0:0:
448,192,149475,1,0,0:0:0:0:
320,192,149567,1,0,0:0:0:0:
192,192,149659,1,0,0:0:0:0:
64,192,149751,1,0,0:0:0:0:
192,192,149843,1,0,0:0:0:0:
320,192,149935,1,0,0:0:0:0:
192,192,150027,128,0,150211:0:0:0:0:
64,192,150211,1,0,0:0:0:0:
320,192,150211,1,0,0:0:0:0:
448,192,150211,1,0,0:0:0:0:
64,192,150395,1,0,0:0:0:0:
192,192,150487,1,0,0:0:0:0:
320,192,150579,1,0,0:0:0:0:
448,192,150763,1,0,0:0:0:0:
320,192,150855,1,0,0:0:0:0:
192,192,150947,1,0,0:0:0:0:
64,192,151039,1,0,0:0:0:0:
192,192,151131,1,0,0:0:0:0:
320,192,151223,1,0,0:0:0:0:
192,192,151315,128,0,151499:0:0:0:0:
64,192,151499,1,0,0:0:0:0:
320,192,151499,1,0,0:0:0:0:
448,192,151499,1,0,0:0:0:0:
64,192,151683,1,0,0:0:0:0:
320,192,151683,1,0,0:0:0:0:
448,192,151683,1,0,0:0:0:0:
64,192,151867,1,0,0:0:0:0:
192,192,151959,1,0,0:0:0:0:
320,192,152051,1,0,0:0:0:0:
320,192,152235,1,0,0:0:0:0:
192,192,152327,1,0,0:0:0:0:
64,192,152419,1,0,0:0:0:0:
192,192,152481,1,0,0:0:0:0:
320,192,152542,1,0,0:0:0:0:
64,192,152603,1,0,0:0:0:0:
192,192,152695,1,0,0:0:0:0:
320,192,152787,1,0,0:0:0:0:
192,192,152879,1,0,0:0:0:0:
64,192,152971,1,0,0:0:0:0:
320,192,152971,1,0,0:0:0:0:
448,192,152971,1,0,0:0:0:0:
64,192,153156,1,0,0:0:0:0:
320,192,153156,1,0,0:0:0:0:
448,192,153156,1,0,0:0:0:0:
64,192,153340,1,0,0:0:0:0:
192,192,153432,1,0,0:0:0:0:
320,192,153524,1,0,0:0:0:0:
64,192,153708,1,0,0:0:0:0:
320,192,153708,1,0,0:0:0:0:
448,192,153708,1,0,0:0:0:0:
64,192,153892,1,0,0:0:0:0:
192,192,153984,1,0,0:0:0:0:
320,192,154076,1,0,0:0:0:0:
64,192,154260,1,0,0:0:0:0:
320,192,154260,1,0,0:0:0:0:
448,192,154260,1,0,0:0:0:0:
192,192,154352,1,0,0:0:0:0:
320,192,154444,1,0,0:0:0:0:
192,192,154536,1,0,0:0:0:0:
64,192,154628,1,0,0:0:0:0:
320,192,154628,1,0,0:0:0:0:
448,192,154628,1,0,0:0:0:0:
64,192,154812,1,0,0:0:0:0:
192,192,154904,1,0,0:0:0:0:
64,192,154996,1,0,0:0:0:0:
320,192,154996,1,0,0:0:0:0:
448,192,154996,1,0,0:0:0:0:
192,192,155088,1,0,0:0:0:0:
320,192,155180,1,0,0:0:0:0:
192,192,155272,1,0,0:0:0:0:
64,192,155364,1,0,0:0:0:0:
320,192,155364,1,0,0:0:0:0:
448,192,155364,1,0,0:0:0:0:
192,192,155456,1,0,0:0:0:0:
320,192,155548,1,0,0:0:0:0:
192,192,155640,1,0,0:0:0:0:
64,192,155732,1,0,0:0:0:0:
320,192,155732,1,0,0:0:0:0:
448,192,155732,1,0,0:0:0:0:
192,192,155824,1,0,0:0:0:0:
448,192,155916,1,0,0:0:0:0:
320,192,156008,1,0,0:0:0:0:
64,192,156100,128,0,157573:0:0:0:0:
192,192,157573,1,0,0:0:0:0:
320,192,157665,1,0,0:0:0:0:
192,192,157757,1,0,0:0:0:0:
320,192,157849,1,0,0:0:0:0:
192,192,157941,1,0,0:0:0:0:
320,192,158033,1,0,0:0:0:0:
448,192,158125,1,0,0:0:0:0:
320,192,158217,1,0,0:0:0:0:
192,192,158309,1,0,0:0:0:0:
320,192,158401,1,0,0:0:0:0:
448,192,158493,1,0,0:0:0:0:
64,192,158585,1,0,0:0:0:0:
192,192,158677,1,0,0:0:0:0:
320,192,158769,1,0,0:0:0:0:
448,192,158861,1,0,0:0:0:0:
192,192,158953,1,0,0:0:0:0:
64,192,159045,1,0,0:0:0:0:
320,192,159045,1,0,0:0:0:0:
448,192,159045,1,0,0:0:0:0:
