osu file format v14

[General]
AudioFilename: audio.mp3
AudioLeadIn: 0
PreviewTime: 26530
Countdown: 0
SampleSet: Normal
StackLeniency: 0.7
Mode: 3
LetterboxInBreaks: 0
SpecialStyle: 0
WidescreenStoryboard: 1

[Editor]
Bookmarks: 14751,38308,50087,61866,73645,85424,97203,120761,132540,144319
DistanceSpacing: 0.8
BeatDivisor: 4
GridSize: 4
TimelineZoom: 1.64

[Metadata]
Title:You are the Miserable
TitleUnicode:You are the Miserable
Artist:t+pazolite
ArtistUnicode:t+pazolite
Creator:Jaymio Piano
Version:Lanota Master Lv.15
Source:Lanota 1.5
Tags:
BeatmapID:1359626
BeatmapSetID:641149

[Difficulty]
HPDrainRate:7
CircleSize:7
OverallDifficulty:7
ApproachRate:5
SliderMultiplier:1.4
SliderTickRate:1

[Events]
//Background and Video events
0,0,"Picture.png",0,0
//Break Periods
//Storyboard Layer 0 (Background)
//Storyboard Layer 1 (Fail)
//Storyboard Layer 2 (Pass)
//Storyboard Layer 3 (Foreground)
//Storyboard Layer 4 (Overlay)
//Storyboard Sound Samples

[TimingPoints]
2972.15749326332,368.098159509202,4,1,0,25,1,0
85424,-100,4,1,0,25,0,0
88369,-95.2380952380952,4,1,0,25,0,0
91314,-90.9090909090909,4,1,0,25,0,0
92050,-86.9565217391304,4,1,0,25,0,0
92786,-83.3333333333333,4,1,0,25,0,0
94258,-76.9230769230769,4,1,0,25,0,0
95731,-66.6666666666667,4,1,0,25,0,0
96099,-100,4,1,0,25,0,0
96467,-133.333333333333,4,1,0,25,0,0
96651,6,4,1,0,25,1,0
96835,4000,4,1,0,25,1,0
96836,-1000,4,1,0,25,0,0
97173,368.092012486229,4,1,0,25,1,0
97174,-100,4,1,0,25,0,0
97203,368.092012486229,4,1,0,25,1,0
97204,-333.333333333333,4,1,0,25,0,0
102725,6,4,1,0,25,1,0
102755,4000,4,1,0,25,1,0
102756,-1000,4,1,0,25,0,0
103061,368.091384821138,4,1,0,25,1,0
103062,-100,4,1,0,25,0,0
103093,368.091384821138,4,1,0,25,1,0
103094,-166.666666666667,4,1,0,25,0,0
107510,4000,4,1,0,25,1,0
107511,-10000,4,1,0,25,0,0
107846,368.091384821138,4,1,0,40,1,0
107847,-25,4,1,0,40,0,0
107878,4000,4,1,0,40,1,0
107879,-10000,4,1,0,40,0,0
108214,368.091384821138,4,1,0,40,1,0
108215,-25,4,1,0,40,0,0
108246,368.091384821138,4,1,0,40,1,0
108247,-133.333333333333,4,1,0,40,0,0
108982,368.098159509202,4,1,0,40,1,0
108983,-100,4,1,0,40,0,0
120301,-100,4,1,0,100,0,0
120761,-100,4,1,0,40,0,1
144319,-100,4,1,0,40,0,0
156105,-500,4,1,0,40,0,0
157539,-100,4,1,0,40,0,0
157570,-133.333333333333,4,1,0,40,0,0
157938,-100,4,1,0,40,0,0
158306,-83.3333333333333,4,1,0,40,0,0
158674,-66.6666666666667,4,1,0,40,0,0

[HitObjects]
256,192,1499,128,0,2604:0:0:0:0:
109,192,2972,128,0,5916:0:0:0:0:
256,192,2972,128,0,4260:0:0:0:0:
402,192,2972,128,0,4260:0:0:0:0:
256,192,4444,128,0,5916:0:0:0:0:
475,192,4444,128,0,11622:0:0:0:0:
36,192,5916,128,0,13094:0:0:0:0:
329,192,5916,128,0,7941:0:0:0:0:
182,192,7389,128,0,8677:0:0:0:0:
329,192,8125,128,0,8677:0:0:0:0:
109,192,8861,1,0,0:0:0:0:
402,192,8953,1,0,0:0:0:0:
182,192,9045,1,0,0:0:0:0:
329,192,9137,1,0,0:0:0:0:
109,192,9229,1,0,0:0:0:0:
402,192,9321,1,0,0:0:0:0:
182,192,9413,1,0,0:0:0:0:
329,192,9505,1,0,0:0:0:0:
109,192,9597,1,0,0:0:0:0:
402,192,9689,1,0,0:0:0:0:
182,192,9781,1,0,0:0:0:0:
329,192,9873,1,0,0:0:0:0:
109,192,9965,1,0,0:0:0:0:
402,192,10057,1,0,0:0:0:0:
182,192,10149,1,0,0:0:0:0:
329,192,10241,1,0,0:0:0:0:
109,192,10333,1,0,0:0:0:0:
402,192,10426,1,0,0:0:0:0:
182,192,10518,1,0,0:0:0:0:
329,192,10610,1,0,0:0:0:0:
109,192,10702,1,0,0:0:0:0:
402,192,10794,1,0,0:0:0:0:
182,192,10886,1,0,0:0:0:0:
329,192,10978,1,0,0:0:0:0:
109,192,11070,1,0,0:0:0:0:
402,192,11162,1,0,0:0:0:0:
182,192,11254,1,0,0:0:0:0:
329,192,11346,1,0,0:0:0:0:
109,192,11438,1,0,0:0:0:0:
402,192,11530,1,0,0:0:0:0:
182,192,11622,1,0,0:0:0:0:
329,192,11714,1,0,0:0:0:0:
109,192,11806,1,0,0:0:0:0:
475,192,11806,128,0,14567:0:0:0:0:
402,192,11898,1,0,0:0:0:0:
182,192,11990,1,0,0:0:0:0:
329,192,12082,1,0,0:0:0:0:
109,192,12174,1,0,0:0:0:0:
402,192,12266,1,0,0:0:0:0:
182,192,12358,1,0,0:0:0:0:
329,192,12450,1,0,0:0:0:0:
109,192,12542,1,0,0:0:0:0:
402,192,12634,1,0,0:0:0:0:
182,192,12726,1,0,0:0:0:0:
329,192,12818,1,0,0:0:0:0:
109,192,12910,1,0,0:0:0:0:
402,192,13002,1,0,0:0:0:0:
182,192,13094,1,0,0:0:0:0:
329,192,13186,1,0,0:0:0:0:
402,192,13278,1,0,0:0:0:0:
36,192,13278,128,0,14567:0:0:0:0:
329,192,13370,1,0,0:0:0:0:
109,192,13462,1,0,0:0:0:0:
182,192,13554,1,0,0:0:0:0:
402,192,13646,1,0,0:0:0:0:
329,192,13738,1,0,0:0:0:0:
109,192,13830,1,0,0:0:0:0:
182,192,13922,1,0,0:0:0:0:
402,192,14014,1,0,0:0:0:0:
329,192,14106,1,0,0:0:0:0:
109,192,14198,1,0,0:0:0:0:
182,192,14290,1,0,0:0:0:0:
402,192,14383,1,0,0:0:0:0:
329,192,14475,1,0,0:0:0:0:
109,192,14567,1,0,0:0:0:0:
182,192,14659,1,0,0:0:0:0:
109,192,14751,128,0,14812:0:0:0:0:
402,192,14751,128,8,14812:0:0:0:0:
256,192,14935,1,0,0:0:0:0:
402,192,15027,1,0,0:0:0:0:
109,192,15119,1,0,0:0:0:0:
329,192,15119,1,0,0:0:0:0:
402,192,15303,1,0,0:0:0:0:
256,192,15395,1,0,0:0:0:0:
109,192,15487,1,0,0:0:0:0:
182,192,15579,1,0,0:0:0:0:
256,192,15671,1,0,0:0:0:0:
329,192,15763,1,0,0:0:0:0:
402,192,15855,1,0,0:0:0:0:
182,192,15855,1,0,0:0:0:0:
109,192,16039,128,8,16100:0:0:0:0:
256,192,16039,128,0,16100:0:0:0:0:
256,192,16223,128,0,16284:0:0:0:0:
402,192,16223,128,8,16284:0:0:0:0:
109,192,16407,1,0,0:0:0:0:
329,192,16499,1,0,0:0:0:0:
182,192,16591,1,0,0:0:0:0:
402,192,16591,1,0,0:0:0:0:
109,192,16775,1,0,0:0:0:0:
256,192,16867,1,0,0:0:0:0:
402,192,16959,1,0,0:0:0:0:
182,192,17051,1,0,0:0:0:0:
109,192,17143,1,0,0:0:0:0:
329,192,17235,1,0,0:0:0:0:
182,192,17327,1,0,0:0:0:0:
402,192,17327,1,0,0:0:0:0:
36,192,17511,128,8,17573:0:0:0:0:
256,192,17511,128,0,17573:0:0:0:0:
182,192,17695,128,0,17757:0:0:0:0:
475,192,17695,128,8,17757:0:0:0:0:
329,192,17879,1,0,0:0:0:0:
36,192,17971,1,0,0:0:0:0:
182,192,18063,1,0,0:0:0:0:
475,192,18063,1,0,0:0:0:0:
109,192,18247,1,0,0:0:0:0:
182,192,18339,1,0,0:0:0:0:
256,192,18432,1,0,0:0:0:0:
402,192,18432,1,0,0:0:0:0:
182,192,18524,1,0,0:0:0:0:
109,192,18616,1,0,0:0:0:0:
402,192,18708,1,0,0:0:0:0:
329,192,18800,1,0,0:0:0:0:
182,192,18800,1,0,0:0:0:0:
109,192,18984,128,8,19045:0:0:0:0:
402,192,18984,128,0,19045:0:0:0:0:
329,192,19168,128,8,19229:0:0:0:0:
36,192,19168,128,0,19229:0:0:0:0:
109,192,19352,1,0,0:0:0:0:
256,192,19444,1,0,0:0:0:0:
182,192,19536,128,8,19597:0:0:0:0:
475,192,19536,128,0,19597:0:0:0:0:
402,192,19720,1,0,0:0:0:0:
256,192,19812,1,0,0:0:0:0:
36,192,19904,128,0,19965:0:0:0:0:
475,192,19904,128,8,19965:0:0:0:0:
329,192,19996,1,0,0:0:0:0:
109,192,20088,1,0,0:0:0:0:
402,192,20180,1,0,0:0:0:0:
182,192,20272,128,8,20333:0:0:0:0:
329,192,20272,128,0,20333:0:0:0:0:
475,192,20364,1,0,0:0:0:0:
36,192,20456,1,0,0:0:0:0:
256,192,20548,1,0,0:0:0:0:
329,192,20640,128,0,20701:0:0:0:0:
475,192,20640,128,8,20701:0:0:0:0:
109,192,20640,128,0,20701:0:0:0:0:
256,192,20824,1,0,0:0:0:0:
402,192,20916,1,0,0:0:0:0:
329,192,21008,1,0,0:0:0:0:
109,192,21008,1,0,0:0:0:0:
109,192,21192,1,0,0:0:0:0:
402,192,21192,128,8,21744:0:0:0:0:
256,192,21284,1,0,0:0:0:0:
36,192,21376,1,0,0:0:0:0:
182,192,21468,1,0,0:0:0:0:
256,192,21560,1,0,0:0:0:0:
109,192,21652,1,0,0:0:0:0:
182,192,21744,1,0,0:0:0:0:
109,192,21928,128,8,21990:0:0:0:0:
402,192,21928,128,0,21990:0:0:0:0:
182,192,22112,128,8,22174:0:0:0:0:
36,192,22112,128,0,22174:0:0:0:0:
402,192,22112,128,0,22174:0:0:0:0:
329,192,22296,1,0,0:0:0:0:
109,192,22389,1,0,0:0:0:0:
256,192,22481,1,0,0:0:0:0:
475,192,22481,1,0,0:0:0:0:
109,192,22665,128,8,23217:0:0:0:0:
402,192,22665,1,0,0:0:0:0:
256,192,22757,1,0,0:0:0:0:
475,192,22849,1,0,0:0:0:0:
329,192,22941,1,0,0:0:0:0:
402,192,23033,1,0,0:0:0:0:
475,192,23125,1,0,0:0:0:0:
402,192,23217,1,0,0:0:0:0:
329,192,23309,1,0,0:0:0:0:
109,192,23401,128,0,23462:0:0:0:0:
256,192,23401,128,8,23462:0:0:0:0:
182,192,23585,128,0,23646:0:0:0:0:
475,192,23585,128,8,24076:0:0:0:0:
329,192,23769,1,0,0:0:0:0:
256,192,23861,1,0,0:0:0:0:
182,192,23953,1,0,0:0:0:0:
36,192,23953,1,0,0:0:0:0:
36,192,24137,128,8,24628:0:0:0:0:
329,192,24137,128,0,24198:0:0:0:0:
182,192,24321,1,0,0:0:0:0:
256,192,24413,1,0,0:0:0:0:
329,192,24505,1,0,0:0:0:0:
475,192,24505,1,0,0:0:0:0:
182,192,24689,128,0,24750:0:0:0:0:
329,192,24689,128,8,24750:0:0:0:0:
475,192,24781,1,0,0:0:0:0:
36,192,24873,1,0,0:0:0:0:
329,192,24965,1,0,0:0:0:0:
182,192,25057,128,0,25364:0:0:0:0:
402,192,25057,128,0,25609:0:0:0:0:
36,192,25425,1,0,0:0:0:0:
109,192,25517,1,0,0:0:0:0:
182,192,25609,1,0,0:0:0:0:
109,192,25793,128,0,26346:0:0:0:0:
329,192,25793,1,0,0:0:0:0:
402,192,25885,1,0,0:0:0:0:
329,192,25977,1,0,0:0:0:0:
402,192,26069,1,0,0:0:0:0:
329,192,26161,1,0,0:0:0:0:
402,192,26253,1,0,0:0:0:0:
329,192,26346,1,0,0:0:0:0:
402,192,26438,1,0,0:0:0:0:
329,192,26530,128,0,27174:0:0:0:0:
109,192,26530,1,0,0:0:0:0:
182,192,26714,1,0,0:0:0:0:
36,192,26806,1,0,0:0:0:0:
109,192,26898,128,0,27082:0:0:0:0:
109,192,27266,1,0,0:0:0:0:
475,192,27266,128,0,27910:0:0:0:0:
182,192,27450,1,0,0:0:0:0:
36,192,27542,1,0,0:0:0:0:
109,192,27634,128,0,27818:0:0:0:0:
329,192,28002,128,0,28646:0:0:0:0:
109,192,28002,1,0,0:0:0:0:
182,192,28186,1,0,0:0:0:0:
36,192,28278,1,0,0:0:0:0:
109,192,28370,128,0,28554:0:0:0:0:
109,192,28738,1,0,0:0:0:0:
402,192,28738,128,0,29014:0:0:0:0:
182,192,28922,1,0,0:0:0:0:
36,192,29014,1,0,0:0:0:0:
109,192,29106,1,2,0:0:0:0:
256,192,29152,1,2,0:0:0:0:
402,192,29198,1,2,0:0:0:0:
475,192,29474,1,0,0:0:0:0:
109,192,29474,128,0,30118:0:0:0:0:
402,192,29658,1,0,0:0:0:0:
475,192,29750,1,0,0:0:0:0:
329,192,29842,128,0,30026:0:0:0:0:
475,192,30210,1,0,0:0:0:0:
182,192,30210,128,0,30855:0:0:0:0:
402,192,30395,1,0,0:0:0:0:
475,192,30487,1,0,0:0:0:0:
329,192,30579,128,0,30763:0:0:0:0:
402,192,30947,1,0,0:0:0:0:
36,192,30947,128,0,31591:0:0:0:0:
329,192,31131,1,0,0:0:0:0:
475,192,31223,1,0,0:0:0:0:
402,192,31315,128,0,31499:0:0:0:0:
329,192,31683,1,0,0:0:0:0:
109,192,31683,128,0,31959:0:0:0:0:
475,192,31867,1,0,0:0:0:0:
329,192,31959,1,0,0:0:0:0:
402,192,32051,1,2,0:0:0:0:
256,192,32097,1,2,0:0:0:0:
109,192,32143,1,2,0:0:0:0:
36,192,32419,128,0,32603:0:0:0:0:
475,192,32419,128,0,33063:0:0:0:0:
329,192,32419,128,0,33063:0:0:0:0:
36,192,32787,1,0,0:0:0:0:
36,192,33155,128,0,33339:0:0:0:0:
182,192,33155,128,0,33799:0:0:0:0:
329,192,33155,128,0,33799:0:0:0:0:
36,192,33523,1,0,0:0:0:0:
36,192,33891,128,0,34075:0:0:0:0:
182,192,33891,128,0,34536:0:0:0:0:
475,192,33891,128,0,36836:0:0:0:0:
329,192,33891,128,0,34536:0:0:0:0:
36,192,34259,1,0,0:0:0:0:
329,192,34628,128,0,35272:0:0:0:0:
182,192,34628,128,0,34812:0:0:0:0:
36,192,34628,128,0,35272:0:0:0:0:
182,192,34996,1,0,0:0:0:0:
182,192,35364,1,0,0:0:0:0:
109,192,35548,1,0,0:0:0:0:
182,192,35640,1,0,0:0:0:0:
329,192,35732,1,0,0:0:0:0:
329,192,35916,1,0,0:0:0:0:
256,192,36008,1,0,0:0:0:0:
182,192,36100,1,0,0:0:0:0:
109,192,36284,1,0,0:0:0:0:
182,192,36376,1,0,0:0:0:0:
329,192,36468,1,0,0:0:0:0:
329,192,36652,1,0,0:0:0:0:
256,192,36744,1,0,0:0:0:0:
402,192,36836,128,0,37940:0:0:0:0:
36,192,36836,128,0,37756:0:0:0:0:
182,192,36836,128,0,37848:0:0:0:0:
256,192,38308,1,0,0:0:0:0:
402,192,38308,1,0,0:0:0:0:
182,192,38493,1,0,0:0:0:0:
109,192,38677,1,0,0:0:0:0:
256,192,38677,1,0,0:0:0:0:
329,192,38861,1,0,0:0:0:0:
109,192,39045,1,0,0:0:0:0:
402,192,39045,1,0,0:0:0:0:
329,192,39229,1,0,0:0:0:0:
256,192,39321,1,0,0:0:0:0:
109,192,39413,1,0,0:0:0:0:
402,192,39413,1,0,0:0:0:0:
182,192,39597,1,0,0:0:0:0:
256,192,39781,1,0,0:0:0:0:
402,192,39781,1,0,0:0:0:0:
109,192,39965,1,0,0:0:0:0:
109,192,40149,1,0,0:0:0:0:
256,192,40149,1,0,0:0:0:0:
402,192,40333,1,0,0:0:0:0:
182,192,40517,1,0,0:0:0:0:
329,192,40517,1,0,0:0:0:0:
402,192,40701,1,0,0:0:0:0:
109,192,40762,1,0,0:0:0:0:
256,192,40824,1,0,0:0:0:0:
329,192,40885,1,0,0:0:0:0:
36,192,40885,1,0,0:0:0:0:
402,192,41069,1,0,0:0:0:0:
109,192,41069,1,0,0:0:0:0:
256,192,41253,1,0,0:0:0:0:
475,192,41253,1,0,0:0:0:0:
329,192,41437,1,0,0:0:0:0:
36,192,41621,1,0,0:0:0:0:
256,192,41621,1,0,0:0:0:0:
402,192,41805,1,0,0:0:0:0:
109,192,41989,1,0,0:0:0:0:
329,192,41989,1,0,0:0:0:0:
475,192,42173,1,0,0:0:0:0:
109,192,42235,1,0,0:0:0:0:
329,192,42296,1,0,0:0:0:0:
402,192,42358,1,0,0:0:0:0:
182,192,42358,1,0,0:0:0:0:
36,192,42542,1,0,0:0:0:0:
402,192,42726,1,0,0:0:0:0:
109,192,42726,1,0,0:0:0:0:
329,192,42910,1,0,0:0:0:0:
402,192,43094,1,0,0:0:0:0:
109,192,43094,1,0,0:0:0:0:
182,192,43278,1,0,0:0:0:0:
109,192,43462,128,0,43646:0:0:0:0:
402,192,43462,1,0,0:0:0:0:
329,192,43554,1,0,0:0:0:0:
256,192,43646,1,0,0:0:0:0:
329,192,43738,1,0,0:0:0:0:
402,192,43830,128,0,44014:0:0:0:0:
109,192,43830,1,0,0:0:0:0:
182,192,43922,1,0,0:0:0:0:
256,192,44014,1,0,0:0:0:0:
182,192,44106,1,0,0:0:0:0:
109,192,44198,1,0,0:0:0:0:
475,192,44198,1,0,0:0:0:0:
256,192,44382,1,0,0:0:0:0:
36,192,44566,1,0,0:0:0:0:
402,192,44566,1,0,0:0:0:0:
329,192,44750,1,0,0:0:0:0:
109,192,44934,1,0,0:0:0:0:
475,192,44934,1,0,0:0:0:0:
182,192,45118,1,0,0:0:0:0:
36,192,45302,1,0,0:0:0:0:
402,192,45302,1,0,0:0:0:0:
329,192,45486,1,0,0:0:0:0:
109,192,45670,1,0,0:0:0:0:
475,192,45670,1,0,0:0:0:0:
256,192,45854,1,0,0:0:0:0:
36,192,46038,1,0,0:0:0:0:
402,192,46038,1,0,0:0:0:0:
329,192,46222,1,0,0:0:0:0:
109,192,46407,1,0,0:0:0:0:
475,192,46407,1,0,0:0:0:0:
182,192,46591,1,0,0:0:0:0:
256,192,46652,1,0,0:0:0:0:
475,192,46713,1,0,0:0:0:0:
329,192,46775,1,0,0:0:0:0:
36,192,46775,1,0,0:0:0:0:
109,192,46959,1,0,0:0:0:0:
256,192,46959,1,0,0:0:0:0:
329,192,47143,1,0,0:0:0:0:
475,192,47143,1,0,0:0:0:0:
182,192,47143,1,0,0:0:0:0:
256,192,47327,1,0,0:0:0:0:
36,192,47511,1,0,0:0:0:0:
182,192,47511,1,0,0:0:0:0:
329,192,47511,1,0,0:0:0:0:
109,192,47695,1,0,0:0:0:0:
329,192,47879,1,0,0:0:0:0:
475,192,47879,1,0,0:0:0:0:
182,192,48063,1,0,0:0:0:0:
329,192,48063,1,0,0:0:0:0:
36,192,48247,1,0,0:0:0:0:
182,192,48247,1,0,0:0:0:0:
182,192,48431,1,0,0:0:0:0:
329,192,48431,1,0,0:0:0:0:
329,192,48615,128,0,48707:0:0:0:0:
182,192,48615,128,0,49075:0:0:0:0:
36,192,48615,128,0,48707:0:0:0:0:
329,192,48799,1,0,0:0:0:0:
402,192,48860,1,0,0:0:0:0:
475,192,48922,128,0,49413:0:0:0:0:
329,192,48983,128,0,49075:0:0:0:0:
182,192,49167,1,0,0:0:0:0:
109,192,49229,1,0,0:0:0:0:
36,192,49290,128,0,49597:0:0:0:0:
182,192,49351,128,0,49443:0:0:0:0:
475,192,49535,1,0,0:0:0:0:
402,192,49597,1,0,0:0:0:0:
329,192,49658,1,0,0:0:0:0:
36,192,49719,1,0,0:0:0:0:
475,192,49719,128,0,49811:0:0:0:0:
109,192,49811,1,0,0:0:0:0:
182,192,49903,1,0,0:0:0:0:
256,192,49995,1,0,0:0:0:0:
329,192,50087,1,0,0:0:0:0:
402,192,50087,1,0,0:0:0:0:
109,192,50087,1,0,0:0:0:0:
182,192,50271,1,0,0:0:0:0:
109,192,50456,1,0,0:0:0:0:
402,192,50456,1,0,0:0:0:0:
475,192,50456,1,0,0:0:0:0:
256,192,50640,1,0,0:0:0:0:
36,192,50640,128,0,50732:0:0:0:0:
402,192,50824,1,0,0:0:0:0:
329,192,50824,1,0,0:0:0:0:
182,192,50824,1,0,0:0:0:0:
36,192,51008,1,0,0:0:0:0:
402,192,51192,1,0,0:0:0:0:
475,192,51192,1,0,0:0:0:0:
109,192,51192,1,0,0:0:0:0:
36,192,51376,1,0,0:0:0:0:
329,192,51560,1,0,0:0:0:0:
402,192,51560,1,0,0:0:0:0:
182,192,51560,1,0,0:0:0:0:
36,192,51744,1,0,0:0:0:0:
402,192,51928,1,0,0:0:0:0:
475,192,51928,1,0,0:0:0:0:
109,192,51928,1,0,0:0:0:0:
256,192,52112,128,2,52204:0:0:0:0:
36,192,52112,1,0,0:0:0:0:
329,192,52296,1,0,0:0:0:0:
402,192,52296,1,0,0:0:0:0:
182,192,52296,1,0,0:0:0:0:
109,192,52480,1,0,0:0:0:0:
256,192,52541,1,0,0:0:0:0:
329,192,52603,1,0,0:0:0:0:
475,192,52664,1,0,0:0:0:0:
36,192,52664,1,0,0:0:0:0:
329,192,52848,1,0,0:0:0:0:
109,192,53032,1,0,0:0:0:0:
182,192,53032,1,0,0:0:0:0:
402,192,53032,1,0,0:0:0:0:
329,192,53216,1,0,0:0:0:0:
475,192,53400,1,0,0:0:0:0:
36,192,53400,1,0,0:0:0:0:
109,192,53400,1,0,0:0:0:0:
402,192,53584,1,0,0:0:0:0:
256,192,53584,128,2,53676:0:0:0:0:
475,192,53768,1,0,0:0:0:0:
109,192,53768,1,0,0:0:0:0:
182,192,53768,1,0,0:0:0:0:
329,192,53952,1,0,0:0:0:0:
475,192,54136,1,0,0:0:0:0:
36,192,54136,1,0,0:0:0:0:
109,192,54136,1,0,0:0:0:0:
256,192,54320,1,0,0:0:0:0:
109,192,54505,1,0,0:0:0:0:
182,192,54505,1,0,0:0:0:0:
402,192,54505,1,0,0:0:0:0:
329,192,54689,1,0,0:0:0:0:
36,192,54873,1,0,0:0:0:0:
109,192,54873,1,0,0:0:0:0:
402,192,54873,1,0,0:0:0:0:
475,192,55057,1,0,0:0:0:0:
256,192,55057,128,2,55149:0:0:0:0:
109,192,55241,1,0,0:0:0:0:
402,192,55241,1,0,0:0:0:0:
329,192,55333,1,0,0:0:0:0:
256,192,55425,1,0,0:0:0:0:
182,192,55517,1,0,0:0:0:0:
109,192,55609,1,0,0:0:0:0:
402,192,55609,1,0,0:0:0:0:
182,192,55701,1,0,0:0:0:0:
256,192,55793,1,0,0:0:0:0:
329,192,55885,1,0,0:0:0:0:
402,192,55977,1,0,0:0:0:0:
36,192,55977,1,0,0:0:0:0:
182,192,56161,1,0,0:0:0:0:
329,192,56161,1,0,0:0:0:0:
109,192,56345,1,0,0:0:0:0:
475,192,56345,1,0,0:0:0:0:
402,192,56529,1,0,0:0:0:0:
182,192,56529,128,2,56621:0:0:0:0:
329,192,56713,1,0,0:0:0:0:
36,192,56713,1,0,0:0:0:0:
109,192,56897,1,0,0:0:0:0:
402,192,56897,1,0,0:0:0:0:
182,192,57081,1,0,0:0:0:0:
475,192,57081,1,0,0:0:0:0:
402,192,57265,1,0,0:0:0:0:
36,192,57265,1,0,0:0:0:0:
329,192,57449,1,0,0:0:0:0:
109,192,57449,1,0,0:0:0:0:
256,192,57633,1,0,0:0:0:0:
182,192,57633,1,0,0:0:0:0:
109,192,57817,1,0,0:0:0:0:
402,192,57817,1,0,0:0:0:0:
256,192,58001,1,0,0:0:0:0:
475,192,58001,128,2,58093:0:0:0:0:
182,192,58185,1,0,0:0:0:0:
402,192,58185,1,0,0:0:0:0:
402,192,58370,1,0,0:0:0:0:
329,192,58431,1,0,0:0:0:0:
256,192,58492,1,0,0:0:0:0:
182,192,58554,1,0,0:0:0:0:
36,192,58554,1,0,0:0:0:0:
475,192,58554,1,0,0:0:0:0:
329,192,58738,1,0,0:0:0:0:
402,192,58922,1,0,0:0:0:0:
256,192,58922,1,0,0:0:0:0:
109,192,58922,1,0,0:0:0:0:
329,192,59106,1,0,0:0:0:0:
109,192,59290,1,0,0:0:0:0:
256,192,59290,1,0,0:0:0:0:
402,192,59290,1,0,0:0:0:0:
182,192,59474,1,0,0:0:0:0:
475,192,59474,128,2,59566:0:0:0:0:
109,192,59658,1,0,0:0:0:0:
256,192,59658,1,0,0:0:0:0:
402,192,59658,1,0,0:0:0:0:
475,192,59842,1,0,0:0:0:0:
109,192,60026,1,0,0:0:0:0:
256,192,60026,1,0,0:0:0:0:
402,192,60026,1,0,0:0:0:0:
36,192,60210,1,0,0:0:0:0:
256,192,60394,1,0,0:0:0:0:
182,192,60486,1,0,0:0:0:0:
109,192,60578,1,0,0:0:0:0:
182,192,60670,1,0,0:0:0:0:
329,192,60762,1,0,0:0:0:0:
402,192,60854,1,0,0:0:0:0:
256,192,60946,1,0,0:0:0:0:
329,192,61038,1,0,0:0:0:0:
475,192,61130,1,0,0:0:0:0:
109,192,61222,1,0,0:0:0:0:
329,192,61314,1,0,0:0:0:0:
36,192,61406,1,0,0:0:0:0:
182,192,61498,1,0,0:0:0:0:
475,192,61498,1,0,0:0:0:0:
402,192,61590,1,0,0:0:0:0:
256,192,61590,1,0,0:0:0:0:
36,192,61682,1,0,0:0:0:0:
329,192,61682,1,0,0:0:0:0:
109,192,61774,1,0,0:0:0:0:
402,192,61774,1,0,0:0:0:0:
182,192,61866,1,0,0:0:0:0:
329,192,61866,128,0,63339:0:0:0:0:
475,192,61866,128,0,64811:0:0:0:0:
109,192,62142,1,0,0:0:0:0:
36,192,62419,1,0,0:0:0:0:
109,192,62603,1,0,0:0:0:0:
182,192,62879,1,0,0:0:0:0:
36,192,63155,1,0,0:0:0:0:
109,192,63339,1,0,0:0:0:0:
182,192,63615,1,0,0:0:0:0:
256,192,63891,1,0,0:0:0:0:
182,192,64075,1,0,0:0:0:0:
36,192,64259,1,0,0:0:0:0:
109,192,64351,1,0,0:0:0:0:
182,192,64443,1,0,0:0:0:0:
36,192,64811,128,0,67756:0:0:0:0:
182,192,64811,1,0,0:0:0:0:
256,192,65087,1,0,0:0:0:0:
329,192,65363,1,0,0:0:0:0:
475,192,65547,1,0,0:0:0:0:
402,192,65823,1,0,0:0:0:0:
329,192,66099,1,0,0:0:0:0:
402,192,66283,1,0,0:0:0:0:
329,192,66560,1,0,0:0:0:0:
182,192,66836,1,0,0:0:0:0:
256,192,67020,1,0,0:0:0:0:
402,192,67204,1,0,0:0:0:0:
256,192,67296,1,0,0:0:0:0:
182,192,67388,1,0,0:0:0:0:
256,192,67480,1,0,0:0:0:0:
329,192,67572,1,0,0:0:0:0:
475,192,67664,1,0,0:0:0:0:
402,192,67756,1,0,0:0:0:0:
256,192,67756,128,0,70517:0:0:0:0:
109,192,67756,1,0,0:0:0:0:
329,192,68032,1,0,0:0:0:0:
402,192,68308,1,0,0:0:0:0:
182,192,68492,1,0,0:0:0:0:
475,192,68492,1,0,0:0:0:0:
109,192,68768,1,0,0:0:0:0:
36,192,69044,1,0,0:0:0:0:
109,192,69228,1,0,0:0:0:0:
475,192,69228,1,0,0:0:0:0:
402,192,69504,1,0,0:0:0:0:
329,192,69780,1,0,0:0:0:0:
109,192,69964,1,0,0:0:0:0:
402,192,69964,1,0,0:0:0:0:
182,192,70148,1,0,0:0:0:0:
36,192,70240,1,0,0:0:0:0:
402,192,70332,1,0,0:0:0:0:
182,192,70701,1,0,0:0:0:0:
329,192,70701,1,0,0:0:0:0:
109,192,70977,1,0,0:0:0:0:
256,192,70977,1,0,0:0:0:0:
402,192,70977,1,0,0:0:0:0:
182,192,71253,1,0,0:0:0:0:
329,192,71253,1,0,0:0:0:0:
36,192,71437,1,0,0:0:0:0:
475,192,71437,1,0,0:0:0:0:
109,192,71713,1,0,0:0:0:0:
402,192,71713,1,0,0:0:0:0:
182,192,71989,1,0,0:0:0:0:
329,192,71989,1,0,0:0:0:0:
475,192,72173,1,0,0:0:0:0:
329,192,72357,1,0,0:0:0:0:
402,192,72449,1,0,0:0:0:0:
182,192,72633,1,0,0:0:0:0:
329,192,72725,1,0,0:0:0:0:
109,192,72909,1,0,0:0:0:0:
182,192,73001,1,0,0:0:0:0:
256,192,73093,1,0,0:0:0:0:
329,192,73185,1,0,0:0:0:0:
402,192,73277,1,0,0:0:0:0:
329,192,73369,1,0,0:0:0:0:
256,192,73461,1,0,0:0:0:0:
182,192,73553,1,0,0:0:0:0:
329,192,73645,1,0,0:0:0:0:
36,192,73645,128,2,73737:0:0:0:0:
475,192,73645,128,0,73737:0:0:0:0:
402,192,73921,1,0,0:0:0:0:
475,192,74197,1,0,0:0:0:0:
36,192,74197,128,2,74289:0:0:0:0:
402,192,74382,1,0,0:0:0:0:
109,192,74382,128,2,74474:0:0:0:0:
256,192,74658,1,0,0:0:0:0:
402,192,74934,1,0,0:0:0:0:
182,192,74934,128,2,75026:0:0:0:0:
475,192,75118,1,0,0:0:0:0:
109,192,75118,128,2,75210:0:0:0:0:
402,192,75394,1,0,0:0:0:0:
329,192,75670,1,0,0:0:0:0:
36,192,75670,128,2,75762:0:0:0:0:
256,192,75854,1,0,0:0:0:0:
109,192,75854,128,2,75946:0:0:0:0:
402,192,76038,1,0,0:0:0:0:
36,192,76038,128,2,76130:0:0:0:0:
329,192,76130,1,0,0:0:0:0:
109,192,76222,128,2,76314:0:0:0:0:
256,192,76222,128,0,76314:0:0:0:0:
182,192,76590,1,0,0:0:0:0:
475,192,76590,128,2,76682:0:0:0:0:
36,192,76866,1,0,0:0:0:0:
182,192,77142,1,0,0:0:0:0:
475,192,77142,128,2,77234:0:0:0:0:
256,192,77326,1,0,0:0:0:0:
402,192,77326,128,2,77418:0:0:0:0:
109,192,77602,1,0,0:0:0:0:
182,192,77878,1,0,0:0:0:0:
329,192,77878,128,2,77970:0:0:0:0:
256,192,78062,1,0,0:0:0:0:
402,192,78062,128,2,78154:0:0:0:0:
109,192,78338,1,0,0:0:0:0:
36,192,78615,1,0,0:0:0:0:
475,192,78615,128,2,78707:0:0:0:0:
109,192,78799,1,0,0:0:0:0:
402,192,78799,128,2,78891:0:0:0:0:
109,192,78983,1,0,0:0:0:0:
329,192,78983,128,2,79075:0:0:0:0:
182,192,79075,1,0,0:0:0:0:
256,192,79167,1,0,0:0:0:0:
475,192,79167,128,2,79259:0:0:0:0:
182,192,79259,1,0,0:0:0:0:
109,192,79351,1,0,0:0:0:0:
329,192,79351,1,0,0:0:0:0:
256,192,79443,1,0,0:0:0:0:
182,192,79535,1,0,0:0:0:0:
36,192,79535,1,2,0:0:0:0:
36,192,79811,1,0,0:0:0:0:
182,192,79811,1,0,0:0:0:0:
329,192,79811,1,0,0:0:0:0:
256,192,80087,1,0,0:0:0:0:
402,192,80087,128,2,80179:0:0:0:0:
36,192,80087,1,0,0:0:0:0:
36,192,80271,128,2,80363:0:0:0:0:
329,192,80271,1,0,0:0:0:0:
329,192,80547,1,0,0:0:0:0:
475,192,80547,1,0,0:0:0:0:
329,192,80823,1,0,0:0:0:0:
182,192,80823,128,2,80915:0:0:0:0:
109,192,81007,1,0,0:0:0:0:
475,192,81007,128,2,81099:0:0:0:0:
475,192,81283,1,0,0:0:0:0:
109,192,81283,1,0,0:0:0:0:
256,192,81283,1,0,0:0:0:0:
475,192,81559,1,0,0:0:0:0:
182,192,81559,1,0,0:0:0:0:
329,192,81559,128,2,81651:0:0:0:0:
475,192,81743,128,2,81835:0:0:0:0:
109,192,81743,1,0,0:0:0:0:
256,192,81927,1,0,0:0:0:0:
182,192,81927,128,2,82019:0:0:0:0:
329,192,82019,1,0,0:0:0:0:
402,192,82111,1,0,0:0:0:0:
36,192,82111,128,2,82203:0:0:0:0:
182,192,82480,1,0,0:0:0:0:
36,192,82480,128,2,82572:0:0:0:0:
109,192,82756,1,0,0:0:0:0:
329,192,82756,1,0,0:0:0:0:
182,192,83032,1,0,0:0:0:0:
402,192,83032,128,2,83124:0:0:0:0:
329,192,83216,1,0,0:0:0:0:
475,192,83216,1,0,0:0:0:0:
36,192,83216,1,2,0:0:0:0:
36,192,83400,1,2,0:0:0:0:
256,192,83492,1,0,0:0:0:0:
402,192,83492,1,0,0:0:0:0:
109,192,83584,1,2,0:0:0:0:
182,192,83768,1,2,0:0:0:0:
329,192,83768,1,0,0:0:0:0:
109,192,83952,1,0,0:0:0:0:
256,192,83952,1,0,0:0:0:0:
402,192,84136,1,0,0:0:0:0:
256,192,84228,1,0,0:0:0:0:
475,192,84412,1,0,0:0:0:0:
109,192,84504,1,0,0:0:0:0:
109,192,84688,1,0,0:0:0:0:
402,192,84688,1,0,0:0:0:0:
182,192,84780,1,0,0:0:0:0:
256,192,84872,1,0,0:0:0:0:
329,192,84964,1,0,0:0:0:0:
109,192,85056,1,0,0:0:0:0:
402,192,85056,1,0,0:0:0:0:
182,192,85148,1,0,0:0:0:0:
256,192,85240,1,0,0:0:0:0:
329,192,85332,1,0,0:0:0:0:
402,192,85424,128,0,88369:0:0:0:0:
182,192,85424,1,0,0:0:0:0:
182,192,85792,1,0,0:0:0:0:
182,192,86160,1,0,0:0:0:0:
182,192,86529,1,0,0:0:0:0:
182,192,86897,1,0,0:0:0:0:
182,192,87265,1,0,0:0:0:0:
182,192,87633,1,0,0:0:0:0:
182,192,88001,1,0,0:0:0:0:
109,192,88369,128,0,88553:0:0:0:0:
329,192,88369,1,0,0:0:0:0:
109,192,88737,128,0,88921:0:0:0:0:
329,192,88737,1,0,0:0:0:0:
109,192,89105,128,0,89289:0:0:0:0:
329,192,89105,1,0,0:0:0:0:
109,192,89473,128,0,89657:0:0:0:0:
329,192,89473,1,0,0:0:0:0:
109,192,89841,128,0,90025:0:0:0:0:
329,192,89841,1,0,0:0:0:0:
109,192,90209,128,0,90394:0:0:0:0:
329,192,90209,1,0,0:0:0:0:
329,192,90578,1,0,0:0:0:0:
402,192,90578,128,0,90670:0:0:0:0:
182,192,90762,1,0,0:0:0:0:
109,192,90762,128,0,90854:0:0:0:0:
329,192,90946,1,0,0:0:0:0:
402,192,90946,128,0,91038:0:0:0:0:
182,192,91130,1,0,0:0:0:0:
109,192,91130,128,0,91222:0:0:0:0:
109,192,91314,1,0,0:0:0:0:
182,192,91314,1,0,0:0:0:0:
402,192,91314,128,0,91498:0:0:0:0:
109,192,91498,1,0,0:0:0:0:
182,192,91498,1,0,0:0:0:0:
109,192,91682,1,0,0:0:0:0:
182,192,91682,1,0,0:0:0:0:
402,192,91682,128,0,91866:0:0:0:0:
109,192,91866,1,0,0:0:0:0:
182,192,91866,1,0,0:0:0:0:
109,192,92050,1,0,0:0:0:0:
182,192,92050,1,0,0:0:0:0:
402,192,92050,128,0,92234:0:0:0:0:
109,192,92234,1,0,0:0:0:0:
182,192,92234,1,0,0:0:0:0:
109,192,92418,1,0,0:0:0:0:
182,192,92418,1,0,0:0:0:0:
402,192,92418,128,0,92602:0:0:0:0:
109,192,92602,1,0,0:0:0:0:
182,192,92602,1,0,0:0:0:0:
109,192,92786,128,0,92878:0:0:0:0:
329,192,92786,1,0,0:0:0:0:
402,192,92786,1,0,0:0:0:0:
109,192,92970,128,0,93062:0:0:0:0:
329,192,92970,1,0,0:0:0:0:
109,192,93154,128,0,93246:0:0:0:0:
329,192,93154,1,0,0:0:0:0:
402,192,93154,1,0,0:0:0:0:
109,192,93338,128,0,93430:0:0:0:0:
329,192,93338,1,0,0:0:0:0:
109,192,93522,128,0,93614:0:0:0:0:
329,192,93522,1,0,0:0:0:0:
402,192,93522,1,0,0:0:0:0:
109,192,93706,128,0,93798:0:0:0:0:
329,192,93706,1,0,0:0:0:0:
109,192,93890,128,0,93982:0:0:0:0:
329,192,93890,1,0,0:0:0:0:
402,192,93890,1,0,0:0:0:0:
109,192,94074,128,0,94166:0:0:0:0:
329,192,94074,1,0,0:0:0:0:
402,192,94258,1,0,0:0:0:0:
256,192,94350,1,0,0:0:0:0:
109,192,94443,1,0,0:0:0:0:
402,192,94443,1,0,0:0:0:0:
256,192,94535,1,0,0:0:0:0:
109,192,94627,1,0,0:0:0:0:
402,192,94627,1,0,0:0:0:0:
256,192,94719,1,0,0:0:0:0:
109,192,94811,1,0,0:0:0:0:
402,192,94811,1,0,0:0:0:0:
256,192,94903,1,0,0:0:0:0:
109,192,94995,1,0,0:0:0:0:
402,192,94995,1,0,0:0:0:0:
256,192,95087,1,0,0:0:0:0:
109,192,95179,1,0,0:0:0:0:
402,192,95179,1,0,0:0:0:0:
256,192,95271,1,0,0:0:0:0:
109,192,95363,1,0,0:0:0:0:
402,192,95363,1,0,0:0:0:0:
256,192,95455,1,0,0:0:0:0:
109,192,95547,1,0,0:0:0:0:
402,192,95547,1,0,0:0:0:0:
256,192,95639,1,0,0:0:0:0:
109,192,95731,1,0,0:0:0:0:
329,192,95731,128,0,96651:0:0:0:0:
109,192,97203,1,0,0:0:0:0:
402,192,97203,1,0,0:0:0:0:
182,192,97448,1,0,0:0:0:0:
256,192,97693,1,0,0:0:0:0:
329,192,97816,1,0,0:0:0:0:
402,192,97939,1,0,0:0:0:0:
109,192,97939,1,0,0:0:0:0:
329,192,98184,1,0,0:0:0:0:
256,192,98429,1,0,0:0:0:0:
182,192,98552,1,0,0:0:0:0:
109,192,98675,1,0,0:0:0:0:
402,192,98675,1,0,0:0:0:0:
182,192,98920,1,0,0:0:0:0:
256,192,99166,1,0,0:0:0:0:
329,192,99288,1,0,0:0:0:0:
109,192,99411,1,0,0:0:0:0:
402,192,99411,1,0,0:0:0:0:
329,192,99656,1,0,0:0:0:0:
182,192,99871,1,0,0:0:0:0:
256,192,99871,1,0,0:0:0:0:
109,192,100147,1,0,0:0:0:0:
402,192,100147,1,0,0:0:0:0:
329,192,100393,1,0,0:0:0:0:
256,192,100638,1,0,0:0:0:0:
182,192,100761,1,0,0:0:0:0:
402,192,100883,1,0,0:0:0:0:
109,192,100883,1,0,0:0:0:0:
182,192,101129,1,0,0:0:0:0:
256,192,101374,1,0,0:0:0:0:
329,192,101497,1,0,0:0:0:0:
402,192,101620,1,0,0:0:0:0:
109,192,101620,1,0,0:0:0:0:
329,192,101865,1,0,0:0:0:0:
256,192,102110,1,0,0:0:0:0:
182,192,102233,1,0,0:0:0:0:
109,192,102356,1,0,0:0:0:0:
402,192,102356,1,0,0:0:0:0:
109,192,103093,1,0,0:0:0:0:
256,192,103093,1,0,0:0:0:0:
402,192,103093,1,0,0:0:0:0:
182,192,103369,1,0,0:0:0:0:
329,192,103369,1,0,0:0:0:0:
256,192,103583,1,0,0:0:0:0:
182,192,103706,1,0,0:0:0:0:
109,192,103829,1,0,0:0:0:0:
256,192,103829,1,0,0:0:0:0:
402,192,103829,1,0,0:0:0:0:
182,192,104105,1,0,0:0:0:0:
329,192,104105,1,0,0:0:0:0:
256,192,104350,1,0,0:0:0:0:
329,192,104473,1,0,0:0:0:0:
402,192,104565,1,0,0:0:0:0:
256,192,104565,1,0,0:0:0:0:
109,192,104565,1,0,0:0:0:0:
182,192,104810,1,0,0:0:0:0:
329,192,104810,1,0,0:0:0:0:
256,192,105056,1,0,0:0:0:0:
182,192,105178,1,0,0:0:0:0:
109,192,105301,1,0,0:0:0:0:
256,192,105301,1,0,0:0:0:0:
402,192,105301,1,0,0:0:0:0:
182,192,105546,1,0,0:0:0:0:
329,192,105546,1,0,0:0:0:0:
109,192,105792,1,0,0:0:0:0:
256,192,105792,1,0,0:0:0:0:
182,192,106037,1,0,0:0:0:0:
329,192,106037,1,0,0:0:0:0:
182,192,106283,1,0,0:0:0:0:
36,192,106283,1,0,0:0:0:0:
475,192,106528,1,0,0:0:0:0:
402,192,106651,1,0,0:0:0:0:
329,192,106773,1,0,0:0:0:0:
182,192,106773,1,0,0:0:0:0:
329,192,107019,1,0,0:0:0:0:
475,192,107019,1,0,0:0:0:0:
402,192,107264,1,0,0:0:0:0:
109,192,107264,1,0,0:0:0:0:
182,192,107387,1,0,0:0:0:0:
329,192,107387,1,0,0:0:0:0:
36,192,107510,1,0,0:0:0:0:
402,192,107510,1,0,0:0:0:0:
182,192,107878,1,0,0:0:0:0:
475,192,107878,1,0,0:0:0:0:
36,192,108246,1,2,0:0:0:0:
109,192,108338,1,0,0:0:0:0:
182,192,108430,1,0,0:0:0:0:
256,192,108522,1,0,0:0:0:0:
475,192,108614,1,2,0:0:0:0:
402,192,108706,1,0,0:0:0:0:
329,192,108798,1,0,0:0:0:0:
256,192,108890,1,0,0:0:0:0:
109,192,108982,1,0,0:0:0:0:
402,192,108982,1,0,0:0:0:0:
36,192,109227,1,0,0:0:0:0:
329,192,109227,1,0,0:0:0:0:
109,192,109350,1,0,0:0:0:0:
402,192,109350,1,0,0:0:0:0:
109,192,109534,1,0,0:0:0:0:
182,192,109626,1,0,0:0:0:0:
256,192,109718,1,0,0:0:0:0:
402,192,109718,1,0,0:0:0:0:
256,192,109963,1,0,0:0:0:0:
402,192,109963,1,0,0:0:0:0:
109,192,110086,1,0,0:0:0:0:
329,192,110086,1,0,0:0:0:0:
256,192,110270,1,0,0:0:0:0:
182,192,110362,1,0,0:0:0:0:
109,192,110454,1,0,0:0:0:0:
475,192,110454,1,0,0:0:0:0:
475,192,110638,128,2,110822:0:0:0:0:
109,192,110699,1,0,0:0:0:0:
329,192,110699,1,0,0:0:0:0:
36,192,110822,1,0,0:0:0:0:
182,192,110822,1,0,0:0:0:0:
36,192,111006,128,2,111190:0:0:0:0:
182,192,111006,1,0,0:0:0:0:
256,192,111098,1,0,0:0:0:0:
475,192,111190,1,0,0:0:0:0:
329,192,111190,1,0,0:0:0:0:
475,192,111374,128,2,111558:0:0:0:0:
109,192,111435,1,0,0:0:0:0:
256,192,111435,1,0,0:0:0:0:
36,192,111558,1,0,0:0:0:0:
36,192,111742,128,2,111926:0:0:0:0:
182,192,111742,1,0,0:0:0:0:
329,192,111742,1,0,0:0:0:0:
475,192,111926,1,0,0:0:0:0:
256,192,111926,1,0,0:0:0:0:
475,192,112172,1,0,0:0:0:0:
256,192,112172,1,0,0:0:0:0:
109,192,112294,1,0,0:0:0:0:
329,192,112294,1,0,0:0:0:0:
475,192,112478,1,0,0:0:0:0:
402,192,112570,1,0,0:0:0:0:
256,192,112662,1,0,0:0:0:0:
36,192,112662,1,0,0:0:0:0:
256,192,112908,1,0,0:0:0:0:
36,192,112908,1,0,0:0:0:0:
182,192,113031,1,0,0:0:0:0:
402,192,113031,1,0,0:0:0:0:
402,192,113215,1,0,0:0:0:0:
329,192,113307,1,0,0:0:0:0:
256,192,113399,1,0,0:0:0:0:
36,192,113399,1,0,0:0:0:0:
36,192,113583,128,2,113767:0:0:0:0:
109,192,113644,1,0,0:0:0:0:
329,192,113644,1,0,0:0:0:0:
475,192,113767,1,0,0:0:0:0:
256,192,113767,1,0,0:0:0:0:
475,192,113951,128,2,114135:0:0:0:0:
256,192,113951,1,0,0:0:0:0:
182,192,114043,1,0,0:0:0:0:
36,192,114135,1,0,0:0:0:0:
329,192,114135,1,0,0:0:0:0:
36,192,114319,128,2,114503:0:0:0:0:
182,192,114319,1,0,0:0:0:0:
475,192,114503,1,0,0:0:0:0:
256,192,114503,1,0,0:0:0:0:
182,192,114687,1,0,0:0:0:0:
109,192,114871,1,0,0:0:0:0:
402,192,114871,128,0,114963:0:0:0:0:
256,192,114871,1,0,0:0:0:0:
475,192,114871,128,0,114963:0:0:0:0:
182,192,115116,1,0,0:0:0:0:
402,192,115239,128,0,115331:0:0:0:0:
475,192,115239,128,0,115331:0:0:0:0:
256,192,115423,1,0,0:0:0:0:
329,192,115515,1,0,0:0:0:0:
402,192,115607,1,0,0:0:0:0:
109,192,115607,128,0,115699:0:0:0:0:
36,192,115607,128,0,115699:0:0:0:0:
329,192,115853,1,0,0:0:0:0:
109,192,115975,128,0,116067:0:0:0:0:
36,192,115975,128,0,116067:0:0:0:0:
256,192,116159,1,0,0:0:0:0:
182,192,116251,1,0,0:0:0:0:
109,192,116343,1,0,0:0:0:0:
329,192,116343,128,0,116435:0:0:0:0:
475,192,116343,128,0,116435:0:0:0:0:
182,192,116589,1,0,0:0:0:0:
329,192,116712,128,0,116804:0:0:0:0:
475,192,116712,128,0,116804:0:0:0:0:
256,192,116896,1,0,0:0:0:0:
329,192,116988,1,0,0:0:0:0:
402,192,117080,1,0,0:0:0:0:
182,192,117080,128,0,117172:0:0:0:0:
36,192,117080,128,0,117172:0:0:0:0:
329,192,117325,1,0,0:0:0:0:
182,192,117356,128,0,117448:0:0:0:0:
36,192,117356,128,0,117448:0:0:0:0:
182,192,117570,1,0,0:0:0:0:
329,192,117570,1,0,0:0:0:0:
36,192,117724,1,0,0:0:0:0:
182,192,117816,1,0,0:0:0:0:
402,192,117816,1,0,0:0:0:0:
182,192,118000,1,0,0:0:0:0:
402,192,118061,1,0,0:0:0:0:
109,192,118092,1,0,0:0:0:0:
182,192,118184,1,0,0:0:0:0:
182,192,118368,1,0,0:0:0:0:
329,192,118368,1,0,0:0:0:0:
109,192,118460,1,0,0:0:0:0:
475,192,118460,1,0,0:0:0:0:
182,192,118552,1,0,0:0:0:0:
402,192,118552,1,0,0:0:0:0:
182,192,118736,1,0,0:0:0:0:
402,192,118797,1,0,0:0:0:0:
109,192,118828,1,0,0:0:0:0:
182,192,118920,1,0,0:0:0:0:
475,192,119012,1,0,0:0:0:0:
182,192,119104,1,0,0:0:0:0:
329,192,119104,1,0,0:0:0:0:
109,192,119196,1,0,0:0:0:0:
182,192,119288,1,8,0:0:0:0:
475,192,119288,128,0,119564:0:0:0:0:
36,192,119288,128,0,119564:0:0:0:0:
329,192,119472,1,8,0:0:0:0:
256,192,119656,1,8,0:0:0:0:
329,192,119840,1,8,0:0:0:0:
182,192,120024,1,8,0:0:0:0:
36,192,120024,1,8,0:0:0:0:
329,192,120208,1,8,0:0:0:0:
475,192,120208,1,8,0:0:0:0:
109,192,120393,128,4,120577:0:0:0:0:
256,192,120393,128,4,120577:0:0:0:0:
402,192,120393,128,4,120577:0:0:0:0:
36,192,120761,1,0,0:0:0:0:
329,192,120761,128,0,120853:0:0:0:0:
475,192,120761,128,0,120853:0:0:0:0:
109,192,121037,1,0,0:0:0:0:
402,192,121129,128,0,121221:0:0:0:0:
256,192,121129,128,0,121221:0:0:0:0:
36,192,121313,1,0,0:0:0:0:
182,192,121497,128,0,121589:0:0:0:0:
329,192,121497,128,0,121589:0:0:0:0:
475,192,121497,1,0,0:0:0:0:
402,192,121773,1,0,0:0:0:0:
256,192,121865,128,0,121957:0:0:0:0:
109,192,121865,128,0,121957:0:0:0:0:
475,192,122049,1,0,0:0:0:0:
402,192,122233,1,0,0:0:0:0:
182,192,122233,128,0,122325:0:0:0:0:
36,192,122233,128,0,122325:0:0:0:0:
329,192,122509,1,0,0:0:0:0:
109,192,122601,128,0,122693:0:0:0:0:
256,192,122601,128,0,122693:0:0:0:0:
36,192,122785,1,0,0:0:0:0:
182,192,122969,128,0,123061:0:0:0:0:
329,192,122969,128,0,123061:0:0:0:0:
475,192,122969,1,0,0:0:0:0:
182,192,123153,1,0,0:0:0:0:
109,192,123245,1,0,0:0:0:0:
36,192,123337,1,0,0:0:0:0:
256,192,123337,128,0,123429:0:0:0:0:
402,192,123337,128,0,123429:0:0:0:0:
256,192,123705,128,0,123797:0:0:0:0:
475,192,123705,128,0,123797:0:0:0:0:
109,192,123705,1,0,0:0:0:0:
36,192,123982,1,0,0:0:0:0:
182,192,124074,128,0,124166:0:0:0:0:
402,192,124074,128,0,124166:0:0:0:0:
109,192,124258,1,0,0:0:0:0:
109,192,124442,128,0,124534:0:0:0:0:
329,192,124442,128,0,124534:0:0:0:0:
402,192,124442,1,0,0:0:0:0:
402,192,124718,1,0,0:0:0:0:
36,192,124810,128,0,124902:0:0:0:0:
256,192,124810,128,0,124902:0:0:0:0:
475,192,124994,1,0,0:0:0:0:
36,192,125178,128,0,125270:0:0:0:0:
329,192,125178,128,0,125270:0:0:0:0:
475,192,125178,1,0,0:0:0:0:
182,192,125454,1,0,0:0:0:0:
402,192,125546,128,0,125638:0:0:0:0:
36,192,125546,128,0,125638:0:0:0:0:
256,192,125730,1,0,0:0:0:0:
475,192,125914,128,0,126006:0:0:0:0:
36,192,125914,128,0,126006:0:0:0:0:
182,192,125914,1,0,0:0:0:0:
329,192,125914,1,0,0:0:0:0:
256,192,126098,1,0,0:0:0:0:
182,192,126190,1,0,0:0:0:0:
402,192,126282,1,0,0:0:0:0:
109,192,126282,1,0,0:0:0:0:
329,192,126374,1,0,0:0:0:0:
182,192,126374,1,0,0:0:0:0:
256,192,126466,1,0,0:0:0:0:
182,192,126558,1,0,0:0:0:0:
329,192,126558,1,0,0:0:0:0:
109,192,126650,1,0,0:0:0:0:
475,192,126650,128,0,126742:0:0:0:0:
36,192,126650,1,0,0:0:0:0:
256,192,126926,1,0,0:0:0:0:
36,192,127018,128,0,127110:0:0:0:0:
329,192,127018,1,0,0:0:0:0:
475,192,127018,1,0,0:0:0:0:
475,192,127202,1,0,0:0:0:0:
182,192,127386,1,0,0:0:0:0:
475,192,127386,128,0,127478:0:0:0:0:
36,192,127386,1,0,0:0:0:0:
256,192,127662,1,0,0:0:0:0:
36,192,127755,128,0,127847:0:0:0:0:
475,192,127755,1,0,0:0:0:0:
329,192,127755,1,0,0:0:0:0:
402,192,127939,1,0,0:0:0:0:
329,192,128123,1,0,0:0:0:0:
475,192,128123,1,0,0:0:0:0:
36,192,128123,128,0,128215:0:0:0:0:
256,192,128399,1,0,0:0:0:0:
475,192,128491,128,0,128583:0:0:0:0:
36,192,128491,1,0,0:0:0:0:
109,192,128675,1,0,0:0:0:0:
36,192,128859,128,0,128951:0:0:0:0:
475,192,128859,1,0,0:0:0:0:
182,192,128859,1,0,0:0:0:0:
256,192,128859,1,0,0:0:0:0:
109,192,129043,1,0,0:0:0:0:
182,192,129135,1,0,0:0:0:0:
36,192,129227,1,0,0:0:0:0:
475,192,129227,128,0,129319:0:0:0:0:
256,192,129227,1,0,0:0:0:0:
36,192,129595,128,0,129687:0:0:0:0:
475,192,129595,1,0,0:0:0:0:
182,192,129595,1,0,0:0:0:0:
329,192,129595,1,0,0:0:0:0:
256,192,129871,1,0,0:0:0:0:
36,192,129963,1,0,0:0:0:0:
475,192,129963,128,0,130055:0:0:0:0:
109,192,130147,1,0,0:0:0:0:
36,192,130331,128,0,130423:0:0:0:0:
475,192,130331,1,0,0:0:0:0:
182,192,130331,1,0,0:0:0:0:
256,192,130607,1,0,0:0:0:0:
36,192,130699,1,0,0:0:0:0:
475,192,130699,128,0,130791:0:0:0:0:
329,192,130883,1,0,0:0:0:0:
256,192,131067,128,8,131159:0:0:0:0:
402,192,131067,128,8,131159:0:0:0:0:
475,192,131067,128,0,132540:0:0:0:0:
36,192,131067,128,0,132540:0:0:0:0:
256,192,131251,1,8,0:0:0:0:
402,192,131251,1,8,0:0:0:0:
256,192,131435,128,8,131528:0:0:0:0:
109,192,131435,128,8,131528:0:0:0:0:
256,192,131620,1,8,0:0:0:0:
109,192,131620,1,8,0:0:0:0:
109,192,131804,1,0,0:0:0:0:
402,192,131804,1,0,0:0:0:0:
256,192,131896,1,0,0:0:0:0:
109,192,131988,1,0,0:0:0:0:
402,192,131988,1,0,0:0:0:0:
109,192,132172,1,0,0:0:0:0:
329,192,132264,1,0,0:0:0:0:
182,192,132356,1,0,0:0:0:0:
402,192,132448,1,0,0:0:0:0:
109,192,132540,1,2,0:0:0:0:
182,192,132724,1,2,0:0:0:0:
109,192,132816,1,2,0:0:0:0:
329,192,132816,1,0,0:0:0:0:
182,192,132908,1,2,0:0:0:0:
402,192,132908,1,0,0:0:0:0:
475,192,133092,1,0,0:0:0:0:
109,192,133092,1,2,0:0:0:0:
329,192,133276,1,0,0:0:0:0:
182,192,133276,1,2,0:0:0:0:
36,192,133276,128,2,133368:0:0:0:0:
109,192,133460,128,2,133552:0:0:0:0:
475,192,133552,1,0,0:0:0:0:
329,192,133644,1,0,0:0:0:0:
182,192,133644,1,2,0:0:0:0:
36,192,133644,128,2,133736:0:0:0:0:
402,192,133828,1,0,0:0:0:0:
329,192,134012,1,0,0:0:0:0:
36,192,134012,1,2,0:0:0:0:
182,192,134012,1,2,0:0:0:0:
182,192,134196,1,2,0:0:0:0:
109,192,134288,1,2,0:0:0:0:
475,192,134288,1,0,0:0:0:0:
182,192,134380,1,2,0:0:0:0:
402,192,134380,1,0,0:0:0:0:
109,192,134564,1,2,0:0:0:0:
475,192,134564,1,0,0:0:0:0:
329,192,134748,1,0,0:0:0:0:
36,192,134748,1,2,0:0:0:0:
182,192,134748,128,2,134840:0:0:0:0:
475,192,134932,1,0,0:0:0:0:
182,192,134932,1,2,0:0:0:0:
36,192,134932,128,2,135024:0:0:0:0:
402,192,135024,1,0,0:0:0:0:
329,192,135116,1,0,0:0:0:0:
36,192,135116,1,2,0:0:0:0:
182,192,135116,128,2,135208:0:0:0:0:
402,192,135301,1,0,0:0:0:0:
109,192,135301,1,0,0:0:0:0:
329,192,135485,1,2,0:0:0:0:
182,192,135485,1,0,0:0:0:0:
402,192,135577,1,2,0:0:0:0:
402,192,135761,1,2,0:0:0:0:
182,192,135761,1,0,0:0:0:0:
329,192,135853,1,2,0:0:0:0:
36,192,135853,1,0,0:0:0:0:
475,192,136037,1,2,0:0:0:0:
109,192,136037,1,0,0:0:0:0:
329,192,136129,1,2,0:0:0:0:
36,192,136221,1,0,0:0:0:0:
402,192,136221,1,2,0:0:0:0:
475,192,136221,128,2,136313:0:0:0:0:
402,192,136405,1,2,0:0:0:0:
329,192,136405,128,2,136497:0:0:0:0:
109,192,136497,1,0,0:0:0:0:
182,192,136589,1,0,0:0:0:0:
402,192,136589,1,2,0:0:0:0:
475,192,136589,128,2,136681:0:0:0:0:
182,192,136773,1,0,0:0:0:0:
402,192,136957,1,2,0:0:0:0:
36,192,136957,1,0,0:0:0:0:
329,192,137049,1,2,0:0:0:0:
402,192,137141,1,2,0:0:0:0:
329,192,137233,1,2,0:0:0:0:
182,192,137233,1,0,0:0:0:0:
109,192,137325,1,0,0:0:0:0:
402,192,137325,1,2,0:0:0:0:
256,192,137509,1,0,0:0:0:0:
402,192,137509,1,2,0:0:0:0:
475,192,137601,1,2,0:0:0:0:
36,192,137693,1,0,0:0:0:0:
402,192,137693,1,2,0:0:0:0:
329,192,137693,128,2,137785:0:0:0:0:
109,192,137877,1,0,0:0:0:0:
402,192,137877,128,2,137969:0:0:0:0:
475,192,137877,1,2,0:0:0:0:
182,192,137969,1,0,0:0:0:0:
256,192,138061,1,0,0:0:0:0:
475,192,138061,128,2,138153:0:0:0:0:
36,192,138061,1,2,0:0:0:0:
329,192,138153,1,0,0:0:0:0:
402,192,138245,1,0,0:0:0:0:
329,192,138337,1,0,0:0:0:0:
475,192,138429,1,0,0:0:0:0:
36,192,138429,128,2,138521:0:0:0:0:
109,192,138429,1,0,0:0:0:0:
36,192,138613,1,0,0:0:0:0:
475,192,138613,128,2,138705:0:0:0:0:
182,192,138705,1,0,0:0:0:0:
475,192,138797,1,0,0:0:0:0:
36,192,138797,128,2,138982:0:0:0:0:
256,192,138797,1,0,0:0:0:0:
329,192,138982,1,0,0:0:0:0:
36,192,139166,1,0,0:0:0:0:
475,192,139166,128,2,139258:0:0:0:0:
182,192,139166,1,0,0:0:0:0:
36,192,139350,128,2,139442:0:0:0:0:
475,192,139350,1,0,0:0:0:0:
256,192,139442,1,0,0:0:0:0:
36,192,139534,1,0,0:0:0:0:
475,192,139534,128,2,139718:0:0:0:0:
329,192,139534,1,0,0:0:0:0:
402,192,139718,1,0,0:0:0:0:
182,192,139718,1,0,0:0:0:0:
109,192,139902,1,0,0:0:0:0:
256,192,139902,1,0,0:0:0:0:
475,192,139902,128,2,139994:0:0:0:0:
36,192,140086,128,2,140178:0:0:0:0:
402,192,140086,1,0,0:0:0:0:
182,192,140178,1,0,0:0:0:0:
109,192,140270,1,0,0:0:0:0:
475,192,140270,128,2,140362:0:0:0:0:
329,192,140270,1,0,0:0:0:0:
182,192,140454,1,0,0:0:0:0:
256,192,140454,1,0,0:0:0:0:
36,192,140638,128,2,140730:0:0:0:0:
402,192,140638,1,0,0:0:0:0:
256,192,140638,1,0,0:0:0:0:
475,192,140822,128,2,140914:0:0:0:0:
109,192,140822,1,0,0:0:0:0:
329,192,140822,1,0,0:0:0:0:
256,192,140914,1,0,0:0:0:0:
36,192,141006,128,2,141098:0:0:0:0:
402,192,141006,1,0,0:0:0:0:
182,192,141006,1,0,0:0:0:0:
329,192,141190,1,0,0:0:0:0:
329,192,141374,128,0,141466:0:0:0:0:
475,192,141374,128,2,141466:0:0:0:0:
109,192,141374,1,0,0:0:0:0:
182,192,141558,128,0,141650:0:0:0:0:
36,192,141558,128,2,141650:0:0:0:0:
402,192,141558,1,0,0:0:0:0:
329,192,141742,128,0,141834:0:0:0:0:
475,192,141742,128,2,141834:0:0:0:0:
109,192,141742,1,0,0:0:0:0:
182,192,141926,128,0,142018:0:0:0:0:
36,192,141926,128,2,142018:0:0:0:0:
402,192,141926,1,0,0:0:0:0:
475,192,142110,128,2,142202:0:0:0:0:
182,192,142110,128,0,142202:0:0:0:0:
402,192,142110,1,0,0:0:0:0:
36,192,142294,128,2,142386:0:0:0:0:
109,192,142294,1,0,0:0:0:0:
329,192,142294,128,0,142386:0:0:0:0:
36,192,142478,128,0,142570:0:0:0:0:
182,192,142478,128,2,142570:0:0:0:0:
402,192,142478,1,0,0:0:0:0:
109,192,142662,1,0,0:0:0:0:
475,192,142662,128,0,142755:0:0:0:0:
36,192,142662,128,2,142755:0:0:0:0:
109,192,142847,1,0,0:0:0:0:
402,192,142847,1,0,0:0:0:0:
182,192,142939,1,0,0:0:0:0:
329,192,142939,1,0,0:0:0:0:
402,192,143031,1,0,0:0:0:0:
109,192,143031,1,0,0:0:0:0:
329,192,143123,1,0,0:0:0:0:
182,192,143123,1,0,0:0:0:0:
36,192,143215,1,0,0:0:0:0:
402,192,143215,1,0,0:0:0:0:
109,192,143307,1,0,0:0:0:0:
329,192,143307,1,0,0:0:0:0:
36,192,143399,1,0,0:0:0:0:
402,192,143399,1,0,0:0:0:0:
109,192,143491,1,0,0:0:0:0:
329,192,143491,1,0,0:0:0:0:
402,192,143583,1,0,0:0:0:0:
36,192,143583,1,0,0:0:0:0:
475,192,143675,1,0,0:0:0:0:
256,192,143675,1,0,0:0:0:0:
36,192,143767,1,0,0:0:0:0:
182,192,143767,1,0,0:0:0:0:
475,192,143859,1,0,0:0:0:0:
329,192,143859,1,0,0:0:0:0:
402,192,143951,1,0,0:0:0:0:
36,192,143951,1,0,0:0:0:0:
256,192,143951,1,0,0:0:0:0:
475,192,144043,1,0,0:0:0:0:
182,192,144043,1,0,0:0:0:0:
329,192,144043,1,0,0:0:0:0:
36,192,144135,1,0,0:0:0:0:
256,192,144135,1,0,0:0:0:0:
402,192,144135,1,0,0:0:0:0:
182,192,144227,1,0,0:0:0:0:
329,192,144227,1,0,0:0:0:0:
109,192,144319,128,0,145147:0:0:0:0:
475,192,144319,128,8,145147:0:0:0:0:
36,192,145423,1,0,0:0:0:0:
475,192,145423,1,0,0:0:0:0:
109,192,145607,128,8,145699:0:0:0:0:
329,192,145607,128,0,145699:0:0:0:0:
182,192,145791,128,0,145883:0:0:0:0:
402,192,145791,128,8,145883:0:0:0:0:
329,192,145975,1,0,0:0:0:0:
109,192,146067,1,0,0:0:0:0:
182,192,146159,1,0,0:0:0:0:
329,192,146159,1,0,0:0:0:0:
475,192,146159,1,0,0:0:0:0:
402,192,146343,1,0,0:0:0:0:
329,192,146435,1,0,0:0:0:0:
109,192,146528,1,0,0:0:0:0:
402,192,146528,1,0,0:0:0:0:
182,192,146620,1,0,0:0:0:0:
256,192,146712,1,0,0:0:0:0:
475,192,146712,1,0,0:0:0:0:
329,192,146804,1,0,0:0:0:0:
109,192,146896,1,0,0:0:0:0:
402,192,146896,1,0,0:0:0:0:
36,192,147080,128,0,147172:0:0:0:0:
329,192,147080,128,8,147172:0:0:0:0:
182,192,147264,128,0,147356:0:0:0:0:
475,192,147264,128,8,147356:0:0:0:0:
402,192,147448,1,0,0:0:0:0:
36,192,147540,1,0,0:0:0:0:
256,192,147540,1,0,0:0:0:0:
109,192,147632,1,0,0:0:0:0:
329,192,147632,1,0,0:0:0:0:
475,192,147632,1,0,0:0:0:0:
402,192,147816,1,0,0:0:0:0:
182,192,147908,1,0,0:0:0:0:
36,192,148000,1,0,0:0:0:0:
402,192,148092,1,0,0:0:0:0:
256,192,148184,1,0,0:0:0:0:
109,192,148276,1,0,0:0:0:0:
256,192,148368,1,0,0:0:0:0:
475,192,148368,1,0,0:0:0:0:
182,192,148552,128,0,148644:0:0:0:0:
329,192,148552,128,8,148644:0:0:0:0:
36,192,148736,128,0,148828:0:0:0:0:
402,192,148736,128,8,148828:0:0:0:0:
109,192,148920,1,0,0:0:0:0:
256,192,149012,1,0,0:0:0:0:
182,192,149104,128,8,149196:0:0:0:0:
475,192,149104,128,0,149196:0:0:0:0:
329,192,149288,1,0,0:0:0:0:
109,192,149380,1,0,0:0:0:0:
182,192,149472,128,0,149564:0:0:0:0:
402,192,149472,128,8,149564:0:0:0:0:
36,192,149564,1,0,0:0:0:0:
329,192,149656,1,0,0:0:0:0:
475,192,149748,1,0,0:0:0:0:
329,192,149840,128,8,149932:0:0:0:0:
109,192,149840,128,0,149932:0:0:0:0:
475,192,149932,1,0,0:0:0:0:
182,192,150024,1,0,0:0:0:0:
402,192,150208,128,0,150301:0:0:0:0:
182,192,150208,128,8,150301:0:0:0:0:
109,192,150393,1,0,0:0:0:0:
329,192,150393,1,0,0:0:0:0:
182,192,150485,1,0,0:0:0:0:
402,192,150485,1,0,0:0:0:0:
256,192,150577,1,0,0:0:0:0:
475,192,150577,1,0,0:0:0:0:
36,192,150761,128,8,151313:0:0:0:0:
329,192,150761,1,0,0:0:0:0:
402,192,150853,1,0,0:0:0:0:
475,192,150945,1,0,0:0:0:0:
182,192,150945,1,0,0:0:0:0:
402,192,151037,1,0,0:0:0:0:
256,192,151037,1,0,0:0:0:0:
329,192,151129,1,0,0:0:0:0:
256,192,151221,1,0,0:0:0:0:
402,192,151221,1,0,0:0:0:0:
182,192,151313,1,0,0:0:0:0:
475,192,151313,1,0,0:0:0:0:
182,192,151497,1,8,0:0:0:0:
402,192,151497,1,0,0:0:0:0:
109,192,151681,128,0,151773:0:0:0:0:
329,192,151681,128,8,151773:0:0:0:0:
402,192,151865,1,0,0:0:0:0:
182,192,151865,1,0,0:0:0:0:
329,192,151957,1,0,0:0:0:0:
109,192,151957,1,0,0:0:0:0:
256,192,152049,1,0,0:0:0:0:
36,192,152049,1,0,0:0:0:0:
475,192,152233,128,8,152785:0:0:0:0:
36,192,152233,1,0,0:0:0:0:
109,192,152325,1,0,0:0:0:0:
182,192,152417,1,0,0:0:0:0:
109,192,152509,1,0,0:0:0:0:
256,192,152509,1,0,0:0:0:0:
36,192,152601,1,0,0:0:0:0:
329,192,152601,1,0,0:0:0:0:
109,192,152693,1,0,0:0:0:0:
256,192,152693,1,0,0:0:0:0:
182,192,152785,1,0,0:0:0:0:
402,192,152877,1,0,0:0:0:0:
109,192,152969,1,8,0:0:0:0:
36,192,153153,128,0,153245:0:0:0:0:
182,192,153153,128,0,153245:0:0:0:0:
402,192,153153,128,8,153245:0:0:0:0:
109,192,153337,1,0,0:0:0:0:
256,192,153429,1,0,0:0:0:0:
329,192,153521,1,0,0:0:0:0:
402,192,153521,1,0,0:0:0:0:
109,192,153705,128,8,153797:0:0:0:0:
329,192,153705,128,0,153797:0:0:0:0:
475,192,153705,128,0,153797:0:0:0:0:
402,192,153889,1,0,0:0:0:0:
256,192,153982,1,0,0:0:0:0:
182,192,154074,1,0,0:0:0:0:
109,192,154074,1,0,0:0:0:0:
36,192,154258,128,0,154350:0:0:0:0:
475,192,154258,128,8,154350:0:0:0:0:
329,192,154350,1,0,0:0:0:0:
256,192,154442,1,0,0:0:0:0:
182,192,154534,1,0,0:0:0:0:
475,192,154626,128,0,154902:0:0:0:0:
36,192,154626,128,8,155270:0:0:0:0:
109,192,154626,128,0,154902:0:0:0:0:
329,192,154626,1,0,0:0:0:0:
329,192,154810,1,0,0:0:0:0:
256,192,154902,1,0,0:0:0:0:
475,192,154994,128,8,155638:0:0:0:0:
182,192,154994,1,0,0:0:0:0:
402,192,154994,128,0,155362:0:0:0:0:
182,192,155178,1,0,0:0:0:0:
256,192,155270,1,0,0:0:0:0:
36,192,155362,128,8,156098:0:0:0:0:
109,192,155362,1,0,0:0:0:0:
182,192,155454,1,0,0:0:0:0:
256,192,155546,1,0,0:0:0:0:
329,192,155638,1,0,0:0:0:0:
475,192,155730,128,8,156098:0:0:0:0:
256,192,155730,1,0,0:0:0:0:
182,192,155822,1,0,0:0:0:0:
256,192,155914,1,0,0:0:0:0:
329,192,156006,1,0,0:0:0:0:
256,192,156098,128,0,157570:0:0:0:0:
36,192,157570,1,0,0:0:0:0:
182,192,157662,1,0,0:0:0:0:
475,192,157755,1,0,0:0:0:0:
329,192,157847,1,0,0:0:0:0:
109,192,157939,1,0,0:0:0:0:
182,192,158031,1,0,0:0:0:0:
402,192,158123,1,0,0:0:0:0:
329,192,158215,1,0,0:0:0:0:
36,192,158307,1,0,0:0:0:0:
182,192,158307,1,0,0:0:0:0:
329,192,158399,1,0,0:0:0:0:
475,192,158491,1,0,0:0:0:0:
402,192,158583,1,0,0:0:0:0:
256,192,158675,1,0,0:0:0:0:
475,192,158675,1,0,0:0:0:0:
109,192,158767,1,0,0:0:0:0:
329,192,158859,1,0,0:0:0:0:
36,192,158859,1,0,0:0:0:0:
475,192,158951,1,0,0:0:0:0:
109,192,159043,128,0,159135:0:0:0:0:
256,192,159043,128,8,159135:0:0:0:0:
402,192,159043,128,0,159135:0:0:0:0:
