osu file format v14

[General]
AudioFilename: audio.mp3
AudioLeadIn: 0
PreviewTime: 26530
Countdown: 0
SampleSet: Normal
StackLeniency: 0.7
Mode: 3
LetterboxInBreaks: 0
SpecialStyle: 0
WidescreenStoryboard: 1

[Editor]
Bookmarks: 144319
DistanceSpacing: 0.8
BeatDivisor: 4
GridSize: 4
TimelineZoom: 1.72

[Metadata]
Title:You are the Miserable
TitleUnicode:You are the Miserable
Artist:t+pazolite
ArtistUnicode:t+pazolite
Creator:Jaymio Piano
Version:Lanota Acoustic Lv.5
Source:Lanota 1.5
Tags:
BeatmapID:1377639
BeatmapSetID:641149

[Difficulty]
HPDrainRate:5
CircleSize:7
OverallDifficulty:7
ApproachRate:5
SliderMultiplier:1.4
SliderTickRate:1

[Events]
//Background and Video events
0,0,"Picture.png",0,0
//Break Periods
//Storyboard Layer 0 (Background)
//Storyboard Layer 1 (Fail)
//Storyboard Layer 2 (Pass)
//Storyboard Layer 3 (Foreground)
//Storyboard Layer 4 (Overlay)
//Storyboard Sound Samples

[TimingPoints]
2972.15749326332,368.098159509202,4,1,0,40,1,0
96651,-100,4,1,0,40,0,0
120760,-100,4,1,0,40,0,1
132539,-100,4,1,0,40,0,1
141377,-100,4,1,0,60,0,1
144318,-100,4,1,0,40,0,0

[HitObjects]
256,192,2972,128,0,4444:0:0:0:133:
182,192,4444,128,0,5916:0:0:0:133:
329,192,5916,128,0,8125:0:0:0:133:
182,192,7389,128,0,8861:0:0:0:133:
402,192,8125,128,0,8861:0:0:0:133:
256,192,8861,128,0,11806:0:0:0:66:
475,192,8861,128,0,11806:0:0:0:66:
402,192,11806,128,0,14567:0:0:0:66:
182,192,11806,128,0,13278:0:0:0:66:
109,192,13278,128,0,14567:0:0:0:133:
109,192,14751,128,8,14935:0:0:0:66:
402,192,14751,128,0,14935:0:0:0:66:
109,192,15303,1,0,0:0:0:133:
402,192,15487,1,0,0:0:0:133:
182,192,15855,1,0,0:0:0:133:
109,192,16039,1,8,0:0:0:66:
329,192,16039,1,0,0:0:0:66:
182,192,16223,128,8,16407:0:0:0:66:
402,192,16223,128,0,16407:0:0:0:66:
402,192,16775,1,0,0:0:0:133:
109,192,16959,1,0,0:0:0:133:
329,192,17327,1,0,0:0:0:133:
182,192,17511,1,0,0:0:0:66:
402,192,17511,1,8,0:0:0:66:
109,192,17695,128,0,17879:0:0:0:66:
329,192,17695,128,8,17879:0:0:0:66:
402,192,18247,1,0,0:0:0:66:
109,192,18247,1,0,0:0:0:66:
182,192,18432,1,0,0:0:0:66:
329,192,18432,1,0,0:0:0:66:
109,192,18800,1,0,0:0:0:66:
402,192,18800,1,0,0:0:0:66:
329,192,18984,1,0,0:0:0:66:
182,192,18984,1,8,0:0:0:66:
256,192,19168,128,0,20640:0:0:0:66:
36,192,19168,1,8,0:0:0:66:
475,192,19536,1,8,0:0:0:133:
36,192,19904,1,0,0:0:0:66:
402,192,19904,1,8,0:0:0:66:
109,192,20272,1,0,0:0:0:66:
475,192,20272,1,8,0:0:0:66:
36,192,20640,1,0,0:0:0:66:
475,192,20640,1,8,0:0:0:66:
182,192,21192,1,0,0:0:0:66:
402,192,21192,128,0,21928:0:0:0:66:
36,192,21376,1,0,0:0:0:133:
109,192,21744,1,0,0:0:0:133:
182,192,21928,1,8,0:0:0:133:
402,192,22112,1,8,0:0:0:66:
109,192,22112,1,0,0:0:0:66:
329,192,22665,1,0,0:0:0:66:
109,192,22665,128,0,23401:0:0:0:66:
475,192,22849,1,0,0:0:0:133:
402,192,23217,1,0,0:0:0:133:
329,192,23401,1,8,0:0:0:133:
402,192,23585,128,8,24137:0:0:0:66:
182,192,23585,1,0,0:0:0:66:
109,192,23953,1,0,0:0:0:133:
182,192,24137,128,8,24689:0:0:0:133:
402,192,24505,1,0,0:0:0:133:
329,192,24689,128,8,25057:0:0:0:133:
109,192,25057,1,0,0:0:0:133:
182,192,25793,1,0,0:0:0:66:
402,192,25793,1,0,0:0:0:66:
109,192,26530,128,0,27266:0:0:0:44:
402,192,26530,1,0,0:0:0:44:
256,192,26530,1,0,0:0:0:44:
402,192,26898,1,0,0:0:0:133:
402,192,27266,128,0,28002:0:0:0:133:
109,192,27634,1,0,0:0:0:133:
109,192,28002,128,0,28738:0:0:0:133:
402,192,28370,1,0,0:0:0:133:
402,192,28738,128,0,29106:0:0:0:133:
182,192,29106,1,2,0:0:0:66:
329,192,29106,1,2,0:0:0:66:
182,192,29474,1,0,0:0:0:66:
329,192,29474,128,0,30210:0:0:0:66:
182,192,29842,1,0,0:0:0:133:
182,192,30210,128,0,30947:0:0:0:133:
329,192,30579,1,0,0:0:0:133:
329,192,30947,128,0,31683:0:0:0:133:
182,192,31315,1,0,0:0:0:133:
182,192,31683,1,0,0:0:0:133:
36,192,32051,1,2,0:0:0:44:
475,192,32051,1,2,0:0:0:44:
256,192,32051,1,2,0:0:0:44:
475,192,32419,1,0,0:0:0:66:
36,192,32419,128,0,33155:0:0:0:66:
475,192,32787,1,0,0:0:0:133:
475,192,33155,128,0,33891:0:0:0:66:
256,192,33155,1,0,0:0:0:66:
256,192,33523,1,0,0:0:0:133:
256,192,33891,128,0,36836:0:0:0:66:
36,192,33891,128,0,34628:0:0:0:66:
475,192,34259,1,0,0:0:0:133:
475,192,34628,128,0,34996:0:0:0:133:
36,192,34996,1,0,0:0:0:133:
109,192,35364,1,0,0:0:0:133:
402,192,35732,1,0,0:0:0:133:
109,192,36100,1,0,0:0:0:133:
402,192,36468,1,0,0:0:0:133:
109,192,36836,128,0,37940:0:0:0:66:
329,192,36836,128,0,37940:0:0:0:66:
402,192,38309,1,0,0:0:0:0:
256,192,38309,1,0,0:0:0:0:
109,192,38493,1,0,0:0:0:0:
256,192,38677,1,0,0:0:0:0:
109,192,38861,1,0,0:0:0:0:
329,192,39045,1,0,0:0:0:0:
182,192,39229,1,0,0:0:0:0:
329,192,39413,1,0,0:0:0:0:
109,192,39597,1,0,0:0:0:0:
402,192,39781,1,0,0:0:0:0:
182,192,39966,1,0,0:0:0:0:
329,192,40150,1,0,0:0:0:0:
109,192,40334,1,0,0:0:0:0:
329,192,40518,1,0,0:0:0:0:
256,192,40702,1,0,0:0:0:0:
182,192,40794,1,0,0:0:0:0:
109,192,40885,1,0,0:0:0:133:
256,192,41070,1,0,0:0:0:0:
402,192,41253,1,0,0:0:0:133:
182,192,41438,1,0,0:0:0:0:
329,192,41622,1,0,0:0:0:0:
182,192,41806,1,0,0:0:0:0:
402,192,41990,1,0,0:0:0:0:
256,192,42174,1,0,0:0:0:0:
402,192,42358,1,0,0:0:0:0:
256,192,42542,1,0,0:0:0:0:
329,192,42726,1,0,0:0:0:0:
109,192,42910,1,0,0:0:0:0:
329,192,43094,1,0,0:0:0:0:
109,192,43278,1,0,0:0:0:0:
402,192,43462,1,0,0:0:0:133:
329,192,43554,1,0,0:0:0:0:
256,192,43647,1,0,0:0:0:0:
182,192,43739,1,0,0:0:0:0:
109,192,43830,1,0,0:0:0:133:
182,192,43923,1,0,0:0:0:0:
256,192,44015,1,0,0:0:0:0:
329,192,44107,1,0,0:0:0:0:
402,192,44198,1,0,0:0:0:133:
182,192,44383,1,0,0:0:0:0:
329,192,44567,1,0,0:0:0:0:
182,192,44751,1,0,0:0:0:0:
402,192,44935,1,0,0:0:0:0:
109,192,45119,1,0,0:0:0:0:
402,192,45303,1,0,0:0:0:0:
109,192,45487,1,0,0:0:0:0:
329,192,45671,1,0,0:0:0:0:
182,192,45855,1,0,0:0:0:0:
329,192,46039,1,0,0:0:0:0:
182,192,46223,1,0,0:0:0:0:
329,192,46407,1,0,0:0:0:0:
109,192,46591,1,0,0:0:0:0:
182,192,46683,1,0,0:0:0:0:
329,192,46775,1,0,0:0:0:133:
109,192,46959,1,0,0:0:0:0:
402,192,47143,1,0,0:0:0:133:
182,192,47327,1,0,0:0:0:0:
402,192,47512,1,0,0:0:0:0:
182,192,47696,1,0,0:0:0:0:
109,192,47880,1,0,0:0:0:0:
329,192,48064,1,0,0:0:0:0:
109,192,48248,1,0,0:0:0:0:
402,192,48432,1,0,0:0:0:0:
109,192,48615,128,0,48983:0:0:0:66:
329,192,48615,1,0,0:0:0:66:
402,192,48983,128,0,49351:0:0:0:66:
182,192,48983,1,0,0:0:0:66:
329,192,49351,1,0,0:0:0:66:
182,192,49351,128,0,49719:0:0:0:66:
475,192,49719,1,0,0:0:0:133:
402,192,49811,1,0,0:0:0:133:
329,192,49903,1,0,0:0:0:133:
109,192,50087,1,0,0:0:0:66:
402,192,50087,1,0,0:0:0:66:
182,192,50272,1,0,0:0:0:0:
36,192,50456,1,0,0:0:0:66:
329,192,50456,1,0,0:0:0:66:
182,192,50640,1,2,0:0:0:66:
109,192,50824,1,0,0:0:0:66:
475,192,50824,1,0,0:0:0:66:
256,192,51008,1,0,0:0:0:0:
36,192,51192,1,0,0:0:0:66:
402,192,51192,1,0,0:0:0:66:
256,192,51377,1,0,0:0:0:0:
109,192,51560,1,0,0:0:0:66:
402,192,51560,1,0,0:0:0:66:
256,192,51745,1,0,0:0:0:0:
36,192,51928,1,0,0:0:0:66:
329,192,51929,1,0,0:0:0:0:
182,192,52113,1,2,0:0:0:0:
402,192,52297,1,0,0:0:0:0:
256,192,52481,1,0,0:0:0:0:
182,192,52573,1,0,0:0:0:0:
109,192,52665,1,0,0:0:0:0:
475,192,52665,128,0,52849:0:0:0:0:
109,192,53032,1,0,0:0:0:66:
402,192,53032,1,0,0:0:0:66:
182,192,53217,1,0,0:0:0:0:
36,192,53400,1,0,0:0:0:66:
329,192,53400,1,0,0:0:0:66:
182,192,53584,1,2,0:0:0:66:
109,192,53768,1,0,0:0:0:66:
475,192,53768,1,0,0:0:0:66:
256,192,53953,1,0,0:0:0:0:
36,192,54136,1,0,0:0:0:66:
402,192,54136,1,0,0:0:0:66:
256,192,54321,1,0,0:0:0:0:
109,192,54505,1,0,0:0:0:66:
475,192,54505,1,0,0:0:0:66:
329,192,54689,1,0,0:0:0:0:
402,192,54873,1,0,0:0:0:66:
109,192,54873,1,0,0:0:0:66:
36,192,55057,1,2,0:0:0:66:
109,192,55241,128,0,55425:0:0:0:66:
475,192,55241,1,0,0:0:0:66:
402,192,55609,128,0,55793:0:0:0:66:
36,192,55609,1,0,0:0:0:66:
329,192,55978,1,0,0:0:0:0:
475,192,55978,1,0,0:0:0:0:
36,192,56162,1,0,0:0:0:0:
402,192,56346,1,0,0:0:0:0:
256,192,56346,1,0,0:0:0:0:
109,192,56530,1,2,0:0:0:66:
329,192,56714,1,0,0:0:0:0:
475,192,56714,1,0,0:0:0:0:
36,192,56898,1,0,0:0:0:0:
256,192,57082,1,0,0:0:0:0:
402,192,57082,1,0,0:0:0:0:
36,192,57266,1,0,0:0:0:0:
329,192,57450,1,0,0:0:0:0:
475,192,57450,1,0,0:0:0:0:
109,192,57634,1,0,0:0:0:0:
256,192,57818,1,0,0:0:0:0:
402,192,57818,1,0,0:0:0:0:
109,192,58002,1,2,0:0:0:66:
475,192,58185,1,0,0:0:0:66:
329,192,58186,1,0,0:0:0:0:
182,192,58370,1,0,0:0:0:0:
109,192,58462,1,0,0:0:0:0:
402,192,58554,1,0,0:0:0:66:
36,192,58554,128,0,58739:0:0:0:0:
109,192,58923,1,0,0:0:0:0:
256,192,58923,1,0,0:0:0:0:
475,192,59107,1,0,0:0:0:0:
36,192,59291,1,0,0:0:0:0:
182,192,59291,1,0,0:0:0:0:
329,192,59474,1,2,0:0:0:66:
256,192,59658,1,0,0:0:0:66:
109,192,59659,1,0,0:0:0:0:
475,192,59843,1,0,0:0:0:0:
182,192,60026,1,0,0:0:0:66:
36,192,60027,1,0,0:0:0:0:
475,192,60211,1,0,0:0:0:0:
109,192,60394,1,0,0:0:0:66:
182,192,60487,1,0,0:0:0:0:
256,192,60579,1,0,0:0:0:0:
329,192,60671,1,0,0:0:0:0:
402,192,60763,1,0,0:0:0:0:
329,192,60855,1,0,0:0:0:0:
256,192,60947,1,0,0:0:0:0:
182,192,61039,1,0,0:0:0:0:
109,192,61130,1,0,0:0:0:66:
475,192,61130,1,0,0:0:0:66:
402,192,61498,1,0,0:0:0:66:
36,192,61498,1,0,0:0:0:66:
109,192,61866,128,0,64811:0:0:0:66:
402,192,61866,128,0,67756:0:0:0:66:
109,192,67756,128,0,70701:0:0:0:133:
182,192,70701,128,0,72173:0:0:0:44:
329,192,70701,128,0,71989:0:0:0:44:
329,192,72173,1,0,0:0:0:133:
109,192,72910,1,0,0:0:0:0:
182,192,73002,1,0,0:0:0:0:
256,192,73094,1,0,0:0:0:0:
329,192,73186,1,0,0:0:0:0:
402,192,73278,1,0,0:0:0:0:
329,192,73370,1,0,0:0:0:0:
256,192,73462,1,0,0:0:0:0:
182,192,73554,1,0,0:0:0:0:
402,192,73645,128,0,73829:0:0:0:66:
109,192,73645,1,0,0:0:0:66:
182,192,73923,1,0,0:0:0:0:
329,192,74197,1,0,0:0:0:133:
402,192,74382,1,0,0:0:0:133:
182,192,74659,1,0,0:0:0:0:
329,192,74934,1,0,0:0:0:133:
109,192,75118,1,0,0:0:0:133:
402,192,75395,1,0,0:0:0:0:
329,192,75670,1,0,0:0:0:133:
182,192,75854,1,0,0:0:0:133:
109,192,76039,1,0,0:0:0:0:
256,192,76131,1,0,0:0:0:0:
402,192,76222,1,0,0:0:0:133:
329,192,76590,1,0,0:0:0:133:
256,192,76867,1,0,0:0:0:0:
182,192,77142,1,0,0:0:0:133:
109,192,77326,1,0,0:0:0:133:
256,192,77604,1,0,0:0:0:0:
402,192,77878,1,0,0:0:0:133:
329,192,78062,1,0,0:0:0:133:
256,192,78340,1,0,0:0:0:0:
109,192,78615,1,0,0:0:0:133:
182,192,78799,1,2,0:0:0:66:
329,192,78800,1,0,0:0:0:0:
109,192,79167,1,0,0:0:0:0:
402,192,79167,1,2,0:0:0:0:
182,192,79535,1,0,0:0:0:0:
402,192,79535,1,0,0:0:0:0:
329,192,79811,1,0,0:0:0:0:
256,192,80088,1,0,0:0:0:133:
402,192,80271,1,0,0:0:0:0:
109,192,80272,1,0,0:0:0:133:
182,192,80547,1,0,0:0:0:0:
256,192,80824,1,0,0:0:0:133:
402,192,81008,1,0,0:0:0:133:
182,192,81008,1,0,0:0:0:0:
329,192,81283,1,0,0:0:0:0:
182,192,81561,1,0,0:0:0:133:
402,192,81743,1,0,0:0:0:0:
109,192,81745,1,0,0:0:0:133:
329,192,81927,1,0,0:0:0:0:
256,192,82019,1,0,0:0:0:0:
182,192,82113,1,0,0:0:0:133:
402,192,82480,1,0,0:0:0:0:
109,192,82481,1,0,0:0:0:133:
109,192,82756,1,0,0:0:0:0:
402,192,83032,1,0,0:0:0:0:
109,192,83216,1,0,0:0:0:0:
329,192,83216,1,0,0:0:0:0:
402,192,83492,1,0,0:0:0:0:
109,192,83768,1,0,0:0:0:0:
402,192,83952,1,0,0:0:0:0:
182,192,84228,1,0,0:0:0:0:
109,192,84504,1,0,0:0:0:0:
329,192,84688,1,0,0:0:0:0:
182,192,84688,128,0,84872:0:0:0:0:
109,192,85056,1,0,0:0:0:0:
402,192,85056,128,0,85240:0:0:0:0:
109,192,85424,128,0,88369:0:0:0:0:
329,192,85424,1,0,0:0:0:0:
329,192,85792,1,0,0:0:0:0:
329,192,86160,1,0,0:0:0:0:
329,192,86529,1,0,0:0:0:0:
329,192,86897,1,0,0:0:0:0:
329,192,87265,1,0,0:0:0:0:
329,192,87633,1,0,0:0:0:0:
329,192,88001,1,0,0:0:0:0:
402,192,88369,128,0,91314:0:0:0:0:
182,192,88369,1,0,0:0:0:0:
182,192,88737,1,0,0:0:0:0:
182,192,89105,1,0,0:0:0:0:
182,192,89473,1,0,0:0:0:0:
182,192,89841,1,0,0:0:0:0:
182,192,90209,1,0,0:0:0:0:
182,192,90578,1,0,0:0:0:0:
182,192,90762,1,0,0:0:0:0:
182,192,90946,1,0,0:0:0:0:
182,192,91130,1,0,0:0:0:0:
109,192,91314,128,0,91498:0:0:0:0:
329,192,91314,128,0,91498:0:0:0:0:
109,192,91682,128,0,91866:0:0:0:0:
329,192,91682,128,0,91866:0:0:0:0:
109,192,92050,128,0,92234:0:0:0:0:
329,192,92050,128,0,92234:0:0:0:0:
109,192,92418,128,0,92602:0:0:0:0:
329,192,92418,128,0,92602:0:0:0:0:
182,192,92786,128,0,92878:0:0:0:0:
402,192,92786,128,0,92878:0:0:0:0:
182,192,93154,128,0,93246:0:0:0:0:
402,192,93154,128,0,93246:0:0:0:0:
182,192,93522,128,0,93614:0:0:0:0:
402,192,93522,128,0,93614:0:0:0:0:
182,192,93890,128,0,93982:0:0:0:0:
402,192,93890,128,0,93982:0:0:0:0:
109,192,94258,1,0,0:0:0:0:
475,192,94258,1,0,0:0:0:0:
36,192,94627,1,0,0:0:0:0:
402,192,94627,1,0,0:0:0:0:
109,192,94995,1,0,0:0:0:0:
475,192,94995,1,0,0:0:0:0:
36,192,95363,1,0,0:0:0:0:
329,192,95363,1,0,0:0:0:0:
182,192,95731,128,0,96651:0:0:0:0:
329,192,95731,128,0,96651:0:0:0:0:
182,192,97573,1,0,0:0:0:0:
329,192,98309,1,0,0:0:0:0:
182,192,99045,1,0,0:0:0:0:
329,192,99781,1,0,0:0:0:0:
109,192,100518,1,0,0:0:0:0:
402,192,101254,1,0,0:0:0:0:
109,192,101990,1,0,0:0:0:0:
402,192,102726,1,0,0:0:0:0:
36,192,103462,1,0,0:0:0:0:
475,192,104199,1,0,0:0:0:0:
36,192,104935,1,0,0:0:0:0:
475,192,105671,1,0,0:0:0:0:
109,192,106407,1,0,0:0:0:0:
402,192,107143,5,0,0:0:0:0:
109,192,108246,5,0,0:0:0:0:
182,192,108246,1,0,0:0:0:0:
402,192,108614,1,0,0:0:0:0:
329,192,108614,1,0,0:0:0:0:
109,192,108982,1,0,0:0:0:0:
402,192,108982,1,0,0:0:0:0:
109,192,109260,1,0,0:0:0:0:
256,192,109534,1,0,0:0:0:0:
329,192,109626,1,0,0:0:0:0:
402,192,109718,1,0,0:0:0:0:
402,192,109996,1,0,0:0:0:0:
256,192,110270,1,0,0:0:0:0:
182,192,110362,1,0,0:0:0:0:
109,192,110454,1,0,0:0:0:0:
109,192,110732,1,0,0:0:0:0:
256,192,111008,1,0,0:0:0:0:
329,192,111100,1,0,0:0:0:0:
402,192,111190,1,0,0:0:0:0:
402,192,111469,1,0,0:0:0:0:
256,192,111742,1,0,0:0:0:0:
36,192,111926,1,0,0:0:0:0:
182,192,112202,1,0,0:0:0:0:
36,192,112205,1,0,0:0:0:0:
329,192,112478,1,0,0:0:0:0:
402,192,112570,1,0,0:0:0:0:
475,192,112662,1,0,0:0:0:0:
329,192,112938,1,0,0:0:0:0:
475,192,112941,1,0,0:0:0:0:
182,192,113215,1,0,0:0:0:0:
109,192,113307,1,0,0:0:0:0:
36,192,113399,1,0,0:0:0:0:
182,192,113675,1,0,0:0:0:0:
36,192,113677,1,0,0:0:0:0:
329,192,113951,1,0,0:0:0:0:
402,192,114043,1,0,0:0:0:0:
475,192,114135,1,0,0:0:0:0:
329,192,114319,1,0,0:0:0:0:
182,192,114503,1,0,0:0:0:0:
475,192,114503,1,0,0:0:0:0:
36,192,114505,1,0,0:0:0:0:
109,192,114871,128,0,115055:0:0:0:0:
329,192,114871,1,0,0:0:0:0:
109,192,115239,128,0,115423:0:0:0:0:
329,192,115242,1,0,0:0:0:0:
475,192,115423,1,0,0:0:0:0:
402,192,115515,1,0,0:0:0:0:
109,192,115607,128,0,115791:0:0:0:0:
329,192,115607,1,0,0:0:0:0:
109,192,115975,128,0,116159:0:0:0:0:
329,192,115978,1,0,0:0:0:0:
256,192,116159,1,0,0:0:0:0:
329,192,116251,1,0,0:0:0:0:
109,192,116343,128,0,116527:0:0:0:0:
402,192,116343,1,0,0:0:0:0:
109,192,116711,128,0,116895:0:0:0:0:
402,192,116714,1,0,0:0:0:0:
256,192,116895,1,0,0:0:0:0:
329,192,116988,1,0,0:0:0:0:
109,192,117080,128,0,117264:0:0:0:0:
402,192,117080,1,0,0:0:0:0:
109,192,117448,128,0,117632:0:0:0:0:
402,192,117450,1,0,0:0:0:0:
256,192,117632,1,0,0:0:0:0:
182,192,117816,1,0,0:0:0:0:
329,192,118002,1,0,0:0:0:0:
182,192,118186,1,0,0:0:0:0:
36,192,118186,1,0,0:0:0:0:
329,192,118370,1,0,0:0:0:0:
402,192,118462,1,0,0:0:0:0:
475,192,118554,1,0,0:0:0:0:
182,192,118554,1,0,0:0:0:0:
329,192,118739,1,0,0:0:0:0:
182,192,118923,1,0,0:0:0:0:
36,192,118923,1,0,0:0:0:0:
402,192,119107,1,0,0:0:0:0:
109,192,119291,1,8,0:0:0:0:
329,192,119291,128,0,119659:0:0:0:0:
109,192,119475,1,8,0:0:0:0:
109,192,119659,1,8,0:0:0:0:
109,192,119843,1,8,0:0:0:0:
182,192,120024,1,8,0:0:0:0:
329,192,120208,1,8,0:0:0:0:
109,192,120392,128,4,120576:0:0:0:0:
256,192,120392,128,0,120576:0:0:0:0:
402,192,120392,128,4,120576:0:0:0:0:
329,192,120760,1,0,0:0:0:0:
36,192,121037,1,0,0:0:0:0:
182,192,121313,1,0,0:0:0:0:
256,192,121497,1,0,0:0:0:0:
329,192,121773,1,0,0:0:0:0:
402,192,122049,1,0,0:0:0:0:
475,192,122233,1,0,0:0:0:0:
329,192,122509,1,0,0:0:0:0:
182,192,122785,1,0,0:0:0:0:
109,192,122969,1,0,0:0:0:0:
402,192,123153,1,0,0:0:0:0:
329,192,123245,1,0,0:0:0:0:
256,192,123337,1,0,0:0:0:0:
182,192,123705,1,0,0:0:0:0:
36,192,123981,1,0,0:0:0:0:
182,192,124257,1,0,0:0:0:0:
329,192,124441,1,0,0:0:0:0:
402,192,124717,1,0,0:0:0:0:
475,192,124994,1,0,0:0:0:0:
402,192,125178,1,0,0:0:0:0:
182,192,125454,1,0,0:0:0:0:
36,192,125730,1,0,0:0:0:0:
109,192,125914,128,0,126098:0:0:0:0:
402,192,125914,1,0,0:0:0:0:
109,192,126282,1,0,0:0:0:0:
402,192,126282,128,0,126466:0:0:0:0:
329,192,126650,1,0,0:0:0:0:
109,192,126650,128,0,126834:0:0:0:0:
402,192,126926,1,0,0:0:0:0:
109,192,127018,128,0,127202:0:0:0:0:
475,192,127202,1,0,0:0:0:0:
109,192,127386,128,0,127570:0:0:0:0:
402,192,127386,1,0,0:0:0:0:
329,192,127662,1,0,0:0:0:0:
109,192,127754,128,0,127938:0:0:0:0:
256,192,127938,1,0,0:0:0:0:
182,192,128122,1,0,0:0:0:0:
402,192,128122,128,0,128306:0:0:0:0:
109,192,128398,1,0,0:0:0:0:
402,192,128490,128,0,128674:0:0:0:0:
36,192,128674,1,0,0:0:0:0:
402,192,128858,128,0,129043:0:0:0:0:
182,192,128858,1,0,0:0:0:0:
36,192,129043,1,0,0:0:0:0:
109,192,129135,1,0,0:0:0:0:
402,192,129227,128,0,129411:0:0:0:0:
182,192,129227,1,0,0:0:0:0:
109,192,129595,1,0,0:0:0:0:
329,192,129595,1,0,0:0:0:0:
182,192,129871,1,0,0:0:0:0:
402,192,129963,1,0,0:0:0:0:
329,192,130147,1,0,0:0:0:0:
402,192,130331,1,0,0:0:0:0:
182,192,130331,1,0,0:0:0:0:
329,192,130607,1,0,0:0:0:0:
109,192,130699,1,0,0:0:0:0:
182,192,130883,1,0,0:0:0:0:
402,192,131070,1,8,0:0:0:0:
329,192,131254,1,8,0:0:0:0:
256,192,131438,1,8,0:0:0:0:
182,192,131619,1,8,0:0:0:0:
109,192,131803,1,8,0:0:0:0:
256,192,132174,128,0,132358:0:0:0:0:
475,192,132174,128,0,132358:0:0:0:0:
36,192,132174,128,0,132358:0:0:0:0:
256,192,132539,1,2,0:0:0:0:
109,192,132542,1,0,0:0:0:133:
256,192,132907,1,2,0:0:0:0:
402,192,132910,1,0,0:0:0:133:
256,192,133276,1,2,0:0:0:0:
109,192,133278,1,0,0:0:0:133:
329,192,133460,1,0,0:0:0:0:
256,192,133644,1,2,0:0:0:0:
402,192,133647,1,0,0:0:0:133:
256,192,134012,1,2,0:0:0:0:
109,192,134015,1,0,0:0:0:133:
256,192,134380,1,2,0:0:0:0:
402,192,134383,1,0,0:0:0:133:
256,192,134748,1,2,0:0:0:0:
109,192,134751,1,0,0:0:0:133:
329,192,134932,1,0,0:0:0:0:
256,192,135116,1,2,0:0:0:0:
402,192,135119,1,0,0:0:0:133:
329,192,135484,1,2,0:0:0:0:
109,192,135487,1,0,0:0:0:133:
402,192,135852,1,2,0:0:0:0:
182,192,135855,1,0,0:0:0:133:
329,192,136220,1,2,0:0:0:0:
109,192,136223,1,0,0:0:0:133:
256,192,136404,1,0,0:0:0:0:
402,192,136588,1,2,0:0:0:0:
182,192,136591,1,0,0:0:0:133:
329,192,136956,1,2,0:0:0:0:
109,192,136959,1,0,0:0:0:133:
402,192,137325,1,2,0:0:0:0:
182,192,137327,1,0,0:0:0:133:
329,192,137693,1,2,0:0:0:0:
109,192,137696,1,0,0:0:0:133:
256,192,137877,1,0,0:0:0:0:
402,192,138061,1,2,0:0:0:0:
182,192,138064,1,0,0:0:0:133:
109,192,138429,1,2,0:0:0:0:
475,192,138432,1,0,0:0:0:133:
109,192,138613,1,2,0:0:0:0:
109,192,138797,1,2,0:0:0:0:
329,192,138800,1,0,0:0:0:133:
402,192,139165,1,2,0:0:0:0:
36,192,139168,1,0,0:0:0:133:
402,192,139349,1,2,0:0:0:0:
402,192,139533,1,2,0:0:0:0:
182,192,139536,1,0,0:0:0:133:
109,192,139901,1,2,0:0:0:0:
475,192,139904,1,0,0:0:0:133:
109,192,140085,1,2,0:0:0:0:
109,192,140269,1,2,0:0:0:0:
329,192,140272,1,0,0:0:0:133:
402,192,140637,1,2,0:0:0:0:
36,192,140640,1,0,0:0:0:133:
402,192,140821,1,2,0:0:0:0:
402,192,141006,1,2,0:0:0:0:
182,192,141008,1,0,0:0:0:133:
329,192,141377,1,2,0:0:0:0:
109,192,141377,1,0,0:0:0:0:
402,192,141558,1,2,0:0:0:0:
182,192,141561,1,0,0:0:0:0:
329,192,141742,1,2,0:0:0:0:
109,192,141745,1,0,0:0:0:0:
402,192,141926,1,2,0:0:0:0:
182,192,141929,1,0,0:0:0:0:
109,192,142110,1,0,0:0:0:0:
329,192,142110,1,2,0:0:0:0:
182,192,142294,1,0,0:0:0:0:
402,192,142294,1,2,0:0:0:0:
109,192,142478,1,0,0:0:0:0:
329,192,142478,1,2,0:0:0:0:
402,192,142662,1,2,0:0:0:0:
182,192,142662,1,0,0:0:0:0:
36,192,142846,1,0,0:0:0:0:
109,192,142941,1,0,0:0:0:0:
182,192,143030,1,0,0:0:0:0:
475,192,143217,1,0,0:0:0:0:
402,192,143309,1,0,0:0:0:0:
329,192,143398,1,0,0:0:0:0:
109,192,143582,1,0,0:0:0:0:
182,192,143674,1,0,0:0:0:0:
256,192,143766,1,0,0:0:0:0:
329,192,143858,1,0,0:0:0:0:
182,192,143950,1,0,0:0:0:0:
256,192,144042,1,0,0:0:0:0:
329,192,144134,1,0,0:0:0:0:
402,192,144226,1,0,0:0:0:0:
182,192,144318,128,8,145055:0:0:0:0:
475,192,144318,128,0,145055:0:0:0:0:
256,192,145423,1,0,0:0:0:0:
109,192,145607,1,0,0:0:0:0:
329,192,145607,1,8,0:0:0:0:
182,192,145791,1,0,0:0:0:0:
402,192,145791,1,8,0:0:0:0:
402,192,146343,1,0,0:0:0:0:
109,192,146527,1,0,0:0:0:0:
256,192,146895,1,0,0:0:0:0:
182,192,147079,1,0,0:0:0:0:
402,192,147079,1,8,0:0:0:0:
109,192,147263,1,0,0:0:0:0:
329,192,147263,1,8,0:0:0:0:
109,192,147815,1,0,0:0:0:0:
402,192,147999,1,0,0:0:0:0:
109,192,148367,1,0,0:0:0:0:
329,192,148367,1,8,0:0:0:0:
402,192,148551,1,8,0:0:0:0:
182,192,148551,1,0,0:0:0:0:
256,192,148735,128,0,148919:0:0:0:0:
475,192,148735,128,8,148919:0:0:0:0:
329,192,149104,128,8,149288:0:0:0:0:
109,192,149104,128,0,149288:0:0:0:0:
182,192,149472,128,0,149656:0:0:0:0:
402,192,149472,128,8,149656:0:0:0:0:
329,192,149840,128,8,150024:0:0:0:0:
109,192,149840,128,0,150024:0:0:0:0:
256,192,150208,1,0,0:0:0:0:
402,192,150208,1,8,0:0:0:0:
256,192,150760,1,0,0:0:0:0:
402,192,150760,128,0,151496:0:0:0:0:
109,192,150944,1,0,0:0:0:0:
109,192,151312,1,0,0:0:0:0:
182,192,151496,1,8,0:0:0:0:
109,192,151680,1,0,0:0:0:0:
256,192,151680,1,8,0:0:0:0:
109,192,152232,128,0,152784:0:0:0:0:
256,192,152232,1,0,0:0:0:0:
402,192,152416,1,0,0:0:0:0:
402,192,152784,1,0,0:0:0:0:
329,192,152968,1,8,0:0:0:0:
256,192,153153,1,8,0:0:0:0:
402,192,153153,128,0,153705:0:0:0:0:
109,192,153521,1,0,0:0:0:0:
256,192,153705,1,8,0:0:0:0:
109,192,153705,128,0,154257:0:0:0:0:
402,192,154073,1,0,0:0:0:0:
256,192,154257,1,8,0:0:0:0:
402,192,154257,1,0,0:0:0:0:
109,192,154625,1,0,0:0:0:0:
475,192,154625,1,8,0:0:0:0:
329,192,154993,1,8,0:0:0:0:
36,192,154993,1,0,0:0:0:0:
182,192,155361,1,0,0:0:0:0:
402,192,155361,1,8,0:0:0:0:
329,192,155729,1,8,0:0:0:0:
109,192,155729,1,0,0:0:0:0:
256,192,156097,1,0,0:0:0:0:
256,192,157573,128,0,158953:0:0:0:0:
109,192,159045,1,0,0:0:0:0:
402,192,159045,1,0,0:0:0:0:
