osu file format v14

[General]
AudioFilename: audio.mp3
AudioLeadIn: 0
PreviewTime: 119649
Countdown: 0
SampleSet: None
StackLeniency: 0.4
Mode: 0
LetterboxInBreaks: 0
WidescreenStoryboard: 1

[Editor]
Bookmarks: 386,1858,7747,13637,23944,25416,35723,37195,40876,47502,48974,59281,60754,72533,84312,96091,107870,113760,118177,119649,129956,131428,143208,154987,157932
DistanceSpacing: 0.5
BeatDivisor: 4
GridSize: 16
TimelineZoom: 2

[Metadata]
Title:You Are the Miserable
TitleUnicode:You Are the Miserable
Artist:t+pazolite
ArtistUnicode:t+pazolite
Creator:mindmaster107
Version:Extra
Source:
Tags:
BeatmapID:1951645
BeatmapSetID:934837

[Difficulty]
HPDrainRate:5.5
CircleSize:3
OverallDifficulty:8.7
ApproachRate:9.3
SliderMultiplier:2.4
SliderTickRate:1

[Events]
//Background and Video events
0,0,"iam.png",0,0
//Break Periods
//Storyboard Layer 0 (Background)
//Storyboard Layer 1 (Fail)
//Storyboard Layer 2 (Pass)
//Storyboard Layer 3 (Foreground)
//Storyboard Sound Samples

[TimingPoints]
386,368.098159509202,4,3,1,20,1,0
1858,-333.333333333333,4,2,1,25,0,0
4803,-200,4,2,1,30,0,0
7747,-166.666666666667,4,2,1,35,0,0
10692,-142.857142857143,4,2,1,40,0,0
12165,-117.647058823529,4,2,1,45,0,0
12901,-100,4,2,1,50,0,0
13637,-133.333333333333,4,3,2,70,0,0
13821,-133.333333333333,4,3,2,50,0,0
14925,-66.6666666666667,4,3,2,70,0,0
15109,-50,4,3,2,70,0,0
15293,-133.333333333333,4,3,2,50,0,0
16398,-66.6666666666667,4,3,2,70,0,0
16582,-40,4,3,2,70,0,0
16766,-133.333333333333,4,3,2,50,0,0
17870,-66.6666666666667,4,3,2,70,0,0
18054,-100,4,3,2,70,0,0
19711,-133.333333333333,4,3,2,50,0,0
20815,-66.6666666666667,4,3,2,70,0,0
20999,-50,4,3,2,70,0,0
21183,-133.333333333333,4,3,2,50,0,0
22287,-66.6666666666667,4,3,2,70,0,0
22471,-50,4,3,2,70,0,0
22655,-133.333333333333,4,3,2,50,0,0
23024,-50,4,3,2,70,0,0
23208,-133.333333333333,4,3,2,50,0,0
23576,-50,4,3,2,70,0,0
23760,-133.333333333333,4,3,2,50,0,0
23944,-200,4,3,2,30,0,0
25416,-66.6666666666667,4,3,2,70,0,0
27993,-133.333333333333,4,3,2,50,0,0
28361,-66.6666666666667,4,3,2,70,0,0
30938,-133.333333333333,4,3,2,50,0,0
31306,-66.6666666666667,4,3,2,70,0,0
32778,-100,4,3,2,50,0,0
33514,-76.9230769230769,4,3,2,55,0,0
34251,-62.5,4,3,2,60,0,0
34987,-100,4,3,2,65,0,0
35355,-133.333333333333,4,3,2,70,0,0
35723,-66.6666666666667,4,3,2,40,0,0
36551,-66.6666666666667,4,3,2,5,0,0
36643,-50,4,3,2,60,0,0
37195,-66.6666666666667,4,3,1,70,0,1
47502,-133.333333333333,4,3,2,50,0,0
48974,-66.6666666666667,4,3,1,70,0,1
51367,-100,4,3,1,70,0,1
51551,-133.333333333333,4,3,1,50,0,1
51919,-66.6666666666667,4,3,1,70,0,1
54128,-133.333333333333,4,3,2,50,0,1
54864,-66.6666666666667,4,3,1,70,0,1
57441,-66.6666666666667,4,3,1,50,0,1
57809,-66.6666666666667,4,3,1,70,0,1
59281,-133.333333333333,4,3,1,70,0,0
59465,-133.333333333333,4,3,2,50,0,0
60754,-333.333333333333,4,3,2,50,0,0
60800,-333.333333333333,4,3,2,30,0,0
63146,-200,4,3,2,30,0,0
63698,-200,4,3,2,40,0,0
66091,-133.333333333333,4,3,2,40,0,0
66643,-142.857142857143,4,3,2,50,0,0
69588,-117.647058823529,4,3,2,60,0,0
72533,-200,4,3,2,80,0,0
72809,-200,4,3,2,55,0,0
78054,-66.6666666666667,4,3,2,55,0,0
78422,-200,4,3,2,55,0,0
83576,-100,4,3,2,60,0,0
83944,-100,4,3,2,65,0,0
84312,-133.333333333333,4,3,2,70,0,0
84404,-133.333333333333,4,3,2,50,0,0
87257,-100,4,3,2,60,0,0
90201,-83.3333333333333,4,3,2,70,0,0
91674,-66.6666666666667,4,3,2,80,0,0
93146,-66.6666666666667,4,3,2,90,0,0
94711,-66.6666666666667,4,3,2,50,0,0
96091,-200,4,3,3,40,0,0
101735,-200,4,3,3,60,0,0
101981,-200,4,3,3,50,0,0
106398,-200,4,3,2,40,0,0
107870,-80,4,3,2,50,0,0
110447,-133.333333333333,4,3,2,50,0,0
110815,-80,4,3,2,50,0,0
113024,-133.333333333333,4,3,2,40,0,0
113392,-333.333333333333,4,3,2,30,0,0
113760,-66.6666666666667,4,3,2,65,0,0
115232,-66.6666666666667,4,3,2,60,0,0
115968,-100,4,3,2,55,0,0
116705,-90.9090909090909,4,3,2,70,0,0
117441,-83.3333333333333,4,3,2,80,0,0
117487,-83.3333333333333,4,3,2,40,0,0
117625,-83.3333333333333,4,3,2,80,0,0
117671,-83.3333333333333,4,3,2,40,0,0
117809,-83.3333333333333,4,3,2,80,0,0
117855,-83.3333333333333,4,3,2,40,0,0
117993,-83.3333333333333,4,3,2,80,0,0
118039,-83.3333333333333,4,3,2,40,0,0
118177,-200,4,3,6,50,0,0
118315,-200,4,3,6,5,0,0
118361,-142.857142857143,4,3,6,55,0,0
118499,-142.857142857143,4,3,6,5,0,0
118545,-111.111111111111,4,3,6,60,0,0
118683,-111.111111111111,4,3,6,5,0,0
118729,-90.9090909090909,4,3,6,65,0,0
118867,-90.9090909090909,4,3,6,5,0,0
118913,-76.9230769230769,4,3,6,70,0,0
119051,-76.9230769230769,4,3,6,5,0,0
119097,-66.6666666666667,4,3,6,75,0,0
119235,-66.6666666666667,4,3,6,5,0,0
119281,-33.3333333333333,4,3,6,90,0,0
119327,-33.3333333333333,4,3,2,5,0,0
119649,-58.8235294117647,4,3,1,80,0,1
125171,-100,4,3,2,60,0,1
125539,-58.8235294117647,4,3,1,80,0,1
129956,-200,4,3,6,50,0,0
130094,-200,4,3,6,5,0,0
130140,-142.857142857143,4,3,6,55,0,0
130278,-142.857142857143,4,3,6,5,0,0
130324,-111.111111111111,4,3,6,60,0,0
130462,-111.111111111111,4,3,6,5,0,0
130508,-90.9090909090909,4,3,6,65,0,0
130646,-90.9090909090909,4,3,6,5,0,0
130692,-76.9230769230769,4,3,6,70,0,0
130830,-76.9230769230769,4,3,6,5,0,0
130876,-66.6666666666667,4,3,6,75,0,0
131014,-66.6666666666667,4,3,6,5,0,0
131060,-33.3333333333333,4,3,6,90,0,0
131106,-33.3333333333333,4,3,2,5,0,0
131428,-58.8235294117647,4,3,2,80,0,1
140263,-66.6666666666667,4,3,2,80,0,1
141735,-50,4,3,2,80,0,1
143208,-133.333333333333,4,3,2,70,0,0
143392,-133.333333333333,4,3,2,50,0,0
144496,-66.6666666666667,4,3,2,70,0,0
144680,-50,4,3,2,70,0,0
144864,-133.333333333333,4,3,2,50,0,0
145968,-66.6666666666667,4,3,2,70,0,0
146152,-50,4,3,2,70,0,0
146336,-133.333333333333,4,3,2,50,0,0
147441,-66.6666666666667,4,3,2,70,0,0
147625,-100,4,3,2,70,0,0
149097,-50,4,3,2,70,0,0
149281,-133.333333333333,4,3,2,50,0,0
150385,-66.6666666666667,4,3,2,70,0,0
150570,-50,4,3,2,70,0,0
150754,-133.333333333333,4,3,2,50,0,0
151858,-66.6666666666667,4,3,2,70,0,0
152042,-50,4,3,2,70,0,0
152226,-133.333333333333,4,3,2,50,0,0
152594,-50,4,3,2,70,0,0
152778,-133.333333333333,4,3,2,50,0,0
153146,-50,4,3,2,70,0,0
153330,-100,4,3,2,50,0,0
153514,-50,4,3,2,70,0,0
153698,-100,4,3,2,50,0,0
153882,-50,4,3,2,70,0,0
154066,-100,4,3,2,50,0,0
154251,-50,4,3,2,70,0,0
154435,-100,4,3,2,50,0,0
154619,-50,4,3,2,70,0,0
154803,-100,4,3,2,50,0,0
154987,-333.333333333333,4,3,2,40,0,0
155010,-333.333333333333,4,3,0,15,0,0
155723,-333.333333333333,4,3,2,5,0,0
156459,-333.333333333333,4,3,2,40,0,0
156735,-200,4,3,2,50,0,0
157103,-142.857142857143,4,3,2,60,0,0
157471,-111.111111111111,4,3,2,70,0,0
157932,-333.333333333333,4,3,8,90,0,0

[Colours]
Combo1 : 225,164,0
Combo2 : 255,171,87
Combo3 : 188,56,56
Combo4 : 255,255,94

[HitObjects]
256,192,386,12,0,1490,0:0:0:0:
509,295,1858,6,0,L|512:265,3,17.9999994506836,2|0|0|0,0:0|0:0|0:0|0:0,0:0:0:0:
446,355,2226,2,0,L|442:384,3,17.9999994506836,2|0|0|0,0:0|0:0|0:0|0:0,0:0:0:0:
425,270,2594,2,0,L|428:240,3,17.9999994506836,2|0|0|0,0:0|0:0|0:0|0:0,0:0:0:0:
362,330,2962,2,0,L|358:359,3,17.9999994506836,2|0|0|0,0:0|0:0|0:0|0:0,0:0:0:0:
341,245,3330,2,0,L|344:215,3,17.9999994506836,2|0|0|0,0:0|0:0|0:0|0:0,0:0:0:0:
278,305,3698,2,0,L|274:334,3,17.9999994506836,2|0|0|0,0:0|0:0|0:0|0:0,0:0:0:0:
257,220,4066,2,0,L|260:190,3,17.9999994506836,2|0|0|0,0:0|0:0|0:0|0:0,0:0:0:0:
194,280,4435,2,0,L|190:309,3,17.9999994506836,2|0|0|0,0:0|0:0|0:0|0:0,0:0:0:0:
94,224,4803,6,0,L|49:228,3,30,2|0|0|0,0:0|0:0|0:0|0:0,0:0:0:0:
188,162,5171,2,0,L|233:166,3,30,2|0|0|0,0:0|0:0|0:0|0:0,0:0:0:0:
90,235,5539,2,0,L|40:239,3,30,2|0|0|0,0:0|0:0|0:0|0:0,0:0:0:0:
193,166,5907,2,0,L|242:170,3,30,2|0|0|0,0:0|0:0|0:0|0:0,0:0:0:0:
85,246,6275,6,0,L|30:250,3,30,2|0|0|0,0:0|0:0|0:0|0:0,0:0:0:0:
198,171,6643,2,0,L|252:175,3,30,2|0|0|0,0:0|0:0|0:0|0:0,0:0:0:0:
80,257,7011,2,0,L|21:262,3,30,2|0|0|0,0:0|0:0|0:0|0:0,0:0:0:0:
203,176,7379,2,0,L|261:181,3,30,2|0|0|0,0:0|0:0|0:0|0:0,0:0:0:0:
78,100,7747,6,0,L|82:65,3,35.9999989013672,2|0|0|0,0:0|0:0|0:0|0:0,0:0:0:0:
273,28,8116,2,0,L|279:88,3,35.9999989013672,2|0|0|0,0:0|0:0|0:0|0:0,0:0:0:0:
67,102,8484,6,0,L|68:67,3,35.9999989013672,2|0|0|0,0:0|0:0|0:0|0:0,0:0:0:0:
287,30,8853,2,0,L|287:90,3,35.9999989013672,2|0|0|0,0:0|0:0|0:0|0:0,0:0:0:0:
56,105,9220,6,0,L|54:70,3,35.9999989013672,2|0|0|0,0:0|0:0|0:0|0:0,0:0:0:0:
301,33,9589,2,0,L|296:93,3,35.9999989013672,2|0|0|0,0:0|0:0|0:0|0:0,0:0:0:0:
46,109,9956,6,0,L|41:74,3,35.9999989013672,2|0|0|0,0:0|0:0|0:0|0:0,0:0:0:0:
314,37,10325,2,0,L|305:97,3,35.9999989013672,2|0|0|0,0:0|0:0|0:0|0:0,0:0:0:0:
264,270,10692,6,0,P|249:254|237:234,3,41.9999987182618,2|0|0|0,0:0|0:0|0:0|0:0,0:0:0:0:
392,142,11060,2,0,P|407:158|419:178,3,41.9999987182618,2|0|0|0,0:0|0:0|0:0|0:0,0:0:0:0:
243,263,11428,6,0,P|230:243|220:218,3,41.9999987182618,2|0|0|0,0:0|0:0|0:0|0:0,0:0:0:0:
413,149,11796,2,0,P|425:168|435:193,3,41.9999987182618,2|0|0|0,0:0|0:0|0:0|0:0,0:0:0:0:
202,222,12165,6,0,P|196:195|195:163,3,51.0000009727478,2|0|0|0,0:0|0:0|0:0|0:0,0:0:0:0:
437,165,12533,2,0,P|442:191|443:223,3,51.0000009727478,2|0|0|0,0:0|0:0|0:0|0:0,0:0:0:0:
167,152,12901,6,0,P|177:120|195:85,3,60,2|0|0|0,0:0|0:0|0:0|0:0,0:0:0:0:
453,236,13269,2,0,P|442:267|424:302,2,60,2|0|0,0:0|0:0|0:0,0:0:0:0:
69,57,13637,5,12,0:0:0:0:
71,93,13821,5,2,0:0:0:0:
71,110,13913,1,2,0:0:0:0:
72,128,14005,1,2,0:0:0:0:
74,164,14189,5,2,0:0:0:0:
75,182,14281,1,2,0:0:0:0:
76,200,14373,1,2,0:0:0:0:
77,218,14465,1,2,0:0:0:0:
78,236,14557,1,2,0:0:0:0:
79,254,14649,1,2,0:0:0:0:
80,272,14741,1,2,0:0:0:0:
0,368,14925,6,0,B|46:355|46:355|86:367,1,90.0000034332277,8|0,0:0|0:0,0:0:0:0:
244,354,15109,6,0,B|198:367|198:367|94:335,1,120,12|0,0:0|2:0,0:0:0:0:
218,249,15293,5,2,0:0:0:0:
235,247,15385,1,2,0:0:0:0:
253,248,15477,1,2,0:0:0:0:
288,257,15661,5,2,0:0:0:0:
304,266,15753,1,2,0:0:0:0:
318,277,15845,1,2,0:0:0:0:
331,290,15937,1,2,0:0:0:0:
341,304,16029,1,2,0:0:0:0:
349,320,16121,1,2,0:0:0:0:
355,337,16213,1,2,0:0:0:0:
408,223,16398,6,0,L|515:231,1,90.0000034332277,8|0,0:0|0:0,0:0:0:0:
409,171,16582,6,0,L|259:160,1,150,12|0,0:0|2:0,0:0:0:0:
327,44,16766,5,2,0:0:0:0:
344,50,16858,1,2,0:0:0:0:
361,57,16950,1,2,0:0:0:0:
394,70,17134,5,2,0:0:0:0:
411,76,17226,1,2,0:0:0:0:
429,73,17318,1,2,0:0:0:0:
447,70,17410,1,2,0:0:0:0:
464,66,17502,1,2,0:0:0:0:
482,63,17594,1,2,0:0:0:0:
500,59,17686,1,2,0:0:0:0:
245,104,17870,6,0,P|229:62|230:15,1,90.0000034332277,8|0,0:0|0:0,0:0:0:0:
214,50,18054,2,0,P|164:82|105:85,1,120,14|2,0:0|0:0,0:0:0:0:
76,78,18330,1,2,0:0:0:0:
76,78,18422,2,0,L|85:177,1,60,10|2,0:0|0:0,0:0:0:0:
0,290,18606,2,0,L|9:191,1,60,2|2,0:0|0:0,0:0:0:0:
191,223,18790,5,10,0:0:0:0:
165,238,18882,1,2,0:0:0:0:
144,259,18974,1,2,0:0:0:0:
129,285,19066,1,2,0:0:0:0:
121,314,19159,2,0,L|128:393,1,60,10|2,0:0|0:0,0:0:0:0:
245,338,19343,1,2,0:0:0:0:
433,384,19527,5,12,0:0:0:0:
361,283,19711,5,2,0:0:0:0:
361,266,19803,1,2,0:0:0:0:
360,248,19895,1,2,0:0:0:0:
478,267,20079,5,2,0:0:0:0:
479,249,20171,1,2,0:0:0:0:
480,231,20263,1,2,0:0:0:0:
481,213,20355,1,2,0:0:0:0:
482,195,20447,1,2,0:0:0:0:
483,177,20539,1,2,0:0:0:0:
484,159,20631,1,2,0:0:0:0:
300,61,20815,6,0,B|254:74|254:74|214:62,1,90.0000034332277,8|0,0:0|0:0,0:0:0:0:
382,31,20999,6,0,B|428:18|428:18|532:50,1,120,12|0,0:0|2:0,0:0:0:0:
183,160,21183,5,2,0:0:0:0:
200,164,21275,1,2,0:0:0:0:
218,166,21367,1,2,0:0:0:0:
106,49,21551,5,2,0:0:0:0:
107,67,21643,1,2,0:0:0:0:
111,84,21735,1,2,0:0:0:0:
117,101,21827,1,2,0:0:0:0:
126,117,21919,1,2,0:0:0:0:
137,131,22011,1,2,0:0:0:0:
151,143,22103,1,2,0:0:0:0:
166,152,22195,1,2,0:0:0:0:
140,192,22288,6,0,L|132:299,1,90.0000034332277,8|0,0:0|0:0,0:0:0:0:
12,146,22471,6,0,L|23:-4,1,120,12|0,0:0|2:0,0:0:0:0:
0,265,22656,5,2,0:0:0:0:
17,271,22748,1,2,0:0:0:0:
34,278,22840,1,2,0:0:0:0:
223,348,23024,6,0,P|163:354|113:384,1,120,12|0,0:0|2:0,0:0:0:0:
275,238,23208,5,2,0:0:0:0:
272,220,23300,1,2,0:0:0:0:
270,202,23392,1,2,0:0:0:0:
376,379,23576,6,0,B|400:345|400:345|409:257,1,120,12|0,0:0|0:0,0:0:0:0:
411,245,23760,2,0,B|418:167,2,45.0000017166138,2|2|2,0:0|0:0|0:0,0:0:0:0:
485,103,24680,6,0,B|488:144,7,30,2|2|2|2|2|2|2|2,0:0|0:0|0:0|0:0|0:0|0:0|0:0|0:0,0:0:0:0:
465,93,25416,6,0,B|397:37|397:37|215:52,1,270.000010299683,8|8,0:0|0:0,0:0:0:0:
174,93,25784,2,0,L|356:78,1,180,8|0,0:0|0:0,0:0:0:0:
190,234,26152,6,0,P|67:191|36:65,1,270.000010299683,8|8,0:0|0:0,0:0:0:0:
80,64,26520,2,0,P|91:149|167:190,1,180.000006866455,8|0,0:0|0:0,0:0:0:0:
0,351,26889,6,0,L|281:323,1,270.000010299683,8|8,0:0|0:0,0:0:0:0:
312,365,27257,2,0,L|111:384,1,180.000006866455,8|0,0:0|0:0,0:0:0:0:
441,344,27625,6,0,B|397:307|397:307|387:184,1,180.000006866455,8|0,0:0|0:0,0:0:0:0:
385,139,27901,1,8,0:0:0:0:
385,139,27993,6,2,P|351:102|405:113,1,135.000005149841,2|0,0:0|0:0,0:0:0:0:
241,85,28361,6,0,B|131:8|131:8|-17:56,1,270.000010299683,8|8,0:0|0:0,0:0:0:0:
39,83,28729,2,0,B|125:55|125:55|198:106,1,180.000006866455,8|0,0:0|0:0,0:0:0:0:
141,350,29097,6,0,P|108:219|21:280,1,270.000010299683,8|8,0:0|0:0,0:0:0:0:
17,207,29465,2,0,P|100:177|180:213,1,180.000006866455,8|0,0:0|0:0,0:0:0:0:
350,380,29833,6,0,B|323:199|323:199|371:108,1,270.000010299683,8|8,0:0|0:0,0:0:0:0:
275,116,30201,2,0,B|301:294,1,180.000006866455,8|0,0:0|0:0,0:0:0:0:
445,211,30570,6,0,P|478:86|450:41,1,180.000006866455,8|0,0:0|0:0,0:0:0:0:
421,21,30846,1,8,0:0:0:0:
421,21,30938,6,2,P|387:58|441:47,1,135.000005149841,2|0,0:0|0:0,0:0:0:0:
262,31,31306,6,0,L|62:47,1,180.000006866455,8|0,0:0|0:0,0:0:0:0:
179,133,31582,1,0,0:0:0:0:
179,133,31674,2,0,L|-21:149,1,180.000006866455,8|0,0:0|0:0,0:0:0:0:
32,383,32042,6,0,P|24:267|91:218,1,180.000006866455,8|0,0:0|0:0,0:0:0:0:
261,265,32318,1,0,0:0:0:0:
261,265,32410,2,0,P|197:324|110:314,1,180.000006866455,8|0,0:0|0:0,0:0:0:0:
491,152,32778,5,10,0:0:0:0:
491,152,32870,1,2,0:0:0:0:
491,152,32962,2,0,L|485:253,2,60,2|2|10,0:0|0:0|0:0,0:0:0:0:
395,366,33330,2,0,L|389:265,1,60,2|2,0:0|0:0,0:0:0:0:
253,82,33514,5,10,0:0:0:0:
275,114,33606,1,2,0:0:0:0:
305,139,33698,1,2,0:0:0:0:
341,153,33790,1,2,0:0:0:0:
380,156,33882,2,0,L|383:215,3,51.999997619629,10|2|2|2,0:0|0:0|0:0|0:0,0:0:0:0:
372,38,34159,1,2,0:0:0:0:
372,38,34251,6,0,L|226:47,1,128,10|0,0:0|2:0,0:0:0:0:
131,96,34435,2,0,L|67:86,2,64,2|2|2,0:0|0:0|0:0,0:0:0:0:
128,121,34619,6,0,P|140:211|186:262,1,128,10|0,0:0|2:0,0:0:0:0:
233,373,34803,2,0,L|213:312,2,64,2|2|2,0:0|0:0|0:0,0:0:0:0:
112,364,34987,6,0,L|109:299,1,60,10|2,0:0|0:0,0:0:0:0:
0,332,35171,2,0,L|13:268,3,40,2|2|2|10,0:0|0:0|0:0|0:0,0:0:0:0:
368,285,35539,6,0,L|363:332,2,30.0000011444092,2|2|2,0:0|0:0|0:0,0:0:0:0:
370,255,35723,6,0,B|329:168|437:75|574:141|521:323|521:323|484:288|443:226|443:226|467:292|416:354|353:341|325:320|325:320|311:362|261:380,1,810.000030899049
236,351,36643,6,0,P|236:247|197:327,1,240,0|4,0:0|0:0,0:0:0:0:
31,93,37195,5,8,0:0:0:0:
65,351,37379,1,0,0:0:0:0:
31,93,37563,1,8,0:0:0:0:
174,384,37747,1,0,0:0:0:0:
140,126,37932,6,0,P|110:178|-8:211,1,180.000006866455,4|0,0:0|0:0,0:0:0:0:
0,212,38208,1,0,0:0:0:0:
0,212,38300,1,4,0:0:0:0:
109,8,38484,1,0,0:0:0:0:
247,289,38668,5,4,0:0:0:0:
281,31,38852,1,0,0:0:0:0:
487,189,39036,1,4,0:0:0:0:
189,150,39220,1,0,0:0:0:0:
487,189,39404,5,4,0:0:0:0:
339,170,39588,2,0,L|346:237,2,60.0000022888184
417,317,39772,2,0,P|335:283|246:288,1,180.000006866455,4|0,0:0|0:0,0:0:0:0:
189,150,40140,5,4,0:0:0:0:
447,116,40324,1,0,0:0:0:0:
189,150,40508,1,4,0:0:0:0:
480,7,40692,1,0,0:0:0:0:
222,41,40876,6,0,P|116:63|68:157,1,180.000006866455,4|0,0:0|0:0,0:0:0:0:
1,192,41152,1,0,0:0:0:0:
1,192,41244,2,0,L|13:387,1,180.000006866455,4|0,0:0|0:0,0:0:0:0:
364,349,41612,5,4,0:0:0:0:
123,249,41796,1,0,0:0:0:0:
374,188,41981,1,4,0:0:0:0:
207,384,42165,1,0,0:0:0:0:
479,245,42349,5,4,0:0:0:0:
487,178,42441,1,0,0:0:0:0:
460,117,42533,1,0,0:0:0:0:
406,78,42625,1,0,0:0:0:0:
340,73,42717,2,0,L|223:86,1,90.0000034332277,4|0,0:0|0:0,0:0:0:0:
159,10,42901,2,0,L|64:80,1,90.0000034332277,0|0,0:0|0:0,0:0:0:0:
13,138,43085,5,4,0:0:0:0:
271,171,43269,1,0,0:0:0:0:
13,138,43453,1,4,0:0:0:0:
113,377,43637,1,0,0:0:0:0:
151,80,43822,6,0,L|128:271,1,180.000006866455,4|0,0:0|0:0,0:0:0:0:
129,258,44098,1,0,0:0:0:0:
129,258,44190,1,4,0:0:0:0:
13,138,44374,1,0,0:0:0:0:
307,375,44557,5,4,0:0:0:0:
279,169,44741,1,0,0:0:0:0:
509,346,44925,1,4,0:0:0:0:
483,144,45109,1,0,0:0:0:0:
307,375,45293,5,4,0:0:0:0:
394,259,45478,2,0,L|408:340,2,60.0000022888184,0|0|0,0:0|0:0|0:0,0:0:0:0:
278,168,45661,2,0,P|351:216|448:223,1,180.000006866455,4|0,0:0|0:0,0:0:0:0:
221,107,46030,5,4,0:0:0:0:
366,32,46214,1,0,0:0:0:0:
249,267,46399,1,4,0:0:0:0:
483,144,46583,1,0,0:0:0:0:
262,4,46766,6,0,L|67:24,1,180.000006866455,4|0,0:0|0:0,0:0:0:0:
108,117,47042,1,0,0:0:0:0:
108,117,47134,2,0,P|55:205|-17:236,1,180.000006866455,4|0,0:0|0:0,0:0:0:0:
512,225,47502,5,4,0:0:0:0:
223,169,47686,6,0,L|182:148,3,30.0000011444092,2|2|2|2,0:0|0:0|0:0|0:0,0:0:0:0:
387,92,48054,6,0,L|392:50,3,30.0000011444092,2|2|2|2,0:0|0:0|0:0|0:0,0:0:0:0:
424,382,48422,6,0,L|408:343,3,30.0000011444092,2|2|2|2,0:0|0:0|0:0|0:0,0:0:0:0:
287,305,48698,2,0,L|256:337,2,45.0000017166138,2|2|2,0:0|0:0|0:0,0:0:0:0:
367,227,48974,5,4,0:0:0:0:
226,74,49159,1,2,0:0:0:0:
367,227,49343,5,4,0:0:0:0:
120,150,49528,1,2,0:0:0:0:
367,227,49712,5,4,0:0:0:0:
41,255,49896,1,2,0:0:0:0:
367,227,50080,5,4,0:0:0:0:
120,150,50263,1,2,0:0:0:0:
278,308,50447,5,4,0:0:0:0:
339,109,50631,1,2,0:0:0:0:
196,306,50815,5,4,0:0:0:0:
420,109,50999,1,2,0:0:0:0:
141,247,51183,5,4,0:0:0:0:
476,169,51367,2,0,L|503:126,2,40,2|0|0,0:0|0:0|0:0,0:0:0:0:
452,202,51551,6,0,L|459:311,1,90.0000034332277,4|0,0:0|0:0,0:0:0:0:
199,246,51919,5,4,0:0:0:0:
457,291,52103,1,2,0:0:0:0:
242,369,52287,5,4,0:0:0:0:
457,291,52471,1,2,0:0:0:0:
68,224,52655,5,4,0:0:0:0:
328,269,52839,1,2,0:0:0:0:
113,345,53024,5,4,0:0:0:0:
328,269,53208,1,2,0:0:0:0:
166,124,53392,5,4,0:0:0:0:
113,345,53576,1,2,0:0:0:0:
50,80,53760,5,4,0:0:0:0:
113,345,53944,1,0,0:0:0:0:
303,225,54128,5,6,0:0:0:0:
319,223,54220,1,2,0:0:0:0:
336,222,54312,1,2,0:0:0:0:
353,221,54404,1,2,0:0:0:0:
370,219,54496,1,2,0:0:0:0:
387,218,54588,1,2,0:0:0:0:
403,217,54680,2,0,L|472:213,1,45.0000017166138,2|2,0:0|0:0,0:0:0:0:
291,121,54864,5,4,0:0:0:0:
312,333,55048,1,2,0:0:0:0:
387,96,55232,5,4,0:0:0:0:
412,350,55416,1,2,0:0:0:0:
483,71,55600,5,4,0:0:0:0:
512,367,55784,1,2,0:0:0:0:
387,96,55968,5,4,0:0:0:0:
412,350,56152,1,2,0:0:0:0:
6,332,56336,5,4,0:0:0:0:
247,251,56520,1,2,0:0:0:0:
6,174,56704,5,4,0:0:0:0:
159,384,56889,1,2,0:0:0:0:
159,127,57073,5,4,0:0:0:0:
247,251,57257,2,0,L|153:240,2,60.0000022888184
344,261,57441,6,0,B|385:293|385:293|258:281,1,180,2|0,0:0|0:0,0:0:0:0:
471,371,57809,5,4,0:0:0:0:
420,185,57994,1,0,0:0:0:0:
471,371,58178,5,4,0:0:0:0:
512,121,58361,1,0,0:0:0:0:
471,371,58545,5,4,0:0:0:0:
410,63,58729,1,0,0:0:0:0:
471,371,58913,5,4,0:0:0:0:
512,121,59098,1,0,0:0:0:0:
256,192,59281,5,12,0:0:0:0:
108,162,59465,5,2,0:0:0:0:
106,188,59557,1,2,0:0:0:0:
105,215,59649,1,2,0:0:0:0:
103,242,59741,1,2,0:0:0:0:
102,269,59833,1,2,0:0:0:0:
101,296,59925,1,2,0:0:0:0:
84,344,60017,5,2,0:0:0:0:
124,324,60109,1,2,0:0:0:0:
168,314,60201,1,2,0:0:0:0:
213,316,60293,1,2,0:0:0:0:
256,328,60385,1,2,0:0:0:0:
299,341,60477,1,2,0:0:0:0:
344,342,60569,1,2,0:0:0:0:
388,333,60661,1,2,0:0:0:0:
428,313,60754,6,0,P|449:291|466:257,2,53.9999983520508,10|2|2,0:0|0:0|0:0,0:0:0:0:
305,296,61490,2,0,P|291:272|284:246,2,53.9999983520508,2|2|2,0:0|0:0|0:0,0:0:0:0:
413,154,62226,2,0,P|386:147|360:147,2,53.9999983520508,2|2|2,0:0|0:0|0:0,0:0:0:0:
380,249,62962,1,2,0:0:0:0:
380,249,63146,2,0,L|384:268,3,20,2|2|2|2,0:0|0:0|0:0|0:0,0:0:0:0:
38,105,63698,5,2,0:0:0:0:
38,105,63974,2,0,L|128:113,1,90,2|2,0:0|0:0,0:0:0:0:
108,209,64435,1,2,0:0:0:0:
108,209,64711,2,0,L|198:202,1,90,2|2,0:0|0:0,0:0:0:0:
89,305,65171,1,2,0:0:0:0:
89,305,65447,2,0,L|0:298,1,90,2|2,0:0|0:0,0:0:0:0:
207,317,65907,5,2,0:0:0:0:
207,317,66091,2,0,L|242:319,2,30.0000011444092,2|2|2,0:0|0:0|0:0,0:0:0:0:
282,294,66275,2,0,P|321:293|349:298,1,45.0000017166138,2|2,0:0|0:0,0:0:0:0:
408,362,66459,2,0,P|431:363|453:361,1,45.0000017166138,2|2,0:0|0:0,0:0:0:0:
422,270,66643,6,0,L|414:164,1,83.9999974365235,2|0,0:0|2:0,0:0:0:0:
463,190,66919,2,0,L|473:52,1,125.999996154785,2|2,0:0|0:0,0:0:0:0:
354,70,67379,6,0,P|296:62|243:31,1,83.9999974365235,2|0,0:0|2:0,0:0:0:0:
240,87,67655,2,0,P|301:110|366:115,1,125.999996154785,2|2,0:0|0:0,0:0:0:0:
112,199,68116,6,0,B|98:108,1,83.9999974365235,2|0,0:0|2:0,0:0:0:0:
154,28,68392,2,0,B|133:66|133:66|147:156,1,125.999996154785,2|2,0:0|0:0,0:0:0:0:
135,316,68852,5,2,0:0:0:0:
135,316,69036,2,0,B|128:357,3,27.9999991455078,2|2|2|2,0:0|0:0|0:0|0:0,0:0:0:0:
455,194,69588,6,0,P|489:242|488:298,1,102.000001945496,2|0,0:0|2:0,0:0:0:0:
472,329,69864,2,0,P|432:360|381:364,1,102.000001945496,2|0,0:0|2:0,0:0:0:0:
336,346,70140,1,2,0:0:0:0:
315,121,70324,6,0,L|325:223,1,102.000001945496,2|0,0:0|2:0,0:0:0:0:
362,125,70600,2,0,L|375:-9,1,102.000001945496,2|0,0:0|2:0,0:0:0:0:
309,2,70876,1,2,0:0:0:0:
137,21,71060,6,0,L|149:85,1,51.0000009727478,2|0,0:0|2:0,0:0:0:0:
58,109,71244,1,2,0:0:0:0:
58,109,71336,2,0,L|86:167,1,51.0000009727478,2|0,0:0|2:0,0:0:0:0:
4,214,71520,1,2,0:0:0:0:
4,214,71612,2,0,L|46:263,1,51.0000009727478,2|0,0:0|2:0,0:0:0:0:
18,357,71797,5,2,0:0:0:0:
56,358,71889,1,2,0:0:0:0:
91,345,71981,1,2,0:0:0:0:
120,320,72073,1,2,0:0:0:0:
137,286,72165,5,2,0:0:0:0:
175,284,72257,1,2,0:0:0:0:
211,296,72349,2,0,P|241:310|272:337,1,51.0000009727478,2|2,0:0|0:0,0:0:0:0:
358,101,72533,5,12,0:0:0:0:
422,235,72809,1,4,0:0:0:0:
273,224,73085,1,4,0:0:0:0:
510,339,73269,5,4,0:0:0:0:
376,353,73545,1,4,0:0:0:0:
242,367,73821,1,4,0:0:0:0:
146,152,74005,5,4,0:0:0:0:
97,382,74281,1,4,0:0:0:0:
273,224,74557,1,4,0:0:0:0:
38,249,74741,5,4,0:0:0:0:
29,153,74925,1,6,0:0:0:0:
28,148,74987,1,6,0:0:0:0:
28,144,75048,1,6,0:0:0:0:
27,139,75109,1,6,0:0:0:0:
447,80,75478,5,4,0:0:0:0:
229,136,75754,1,4,0:0:0:0:
415,188,76030,1,4,0:0:0:0:
259,27,76214,5,4,0:0:0:0:
307,216,76490,1,4,0:0:0:0:
368,0,76766,1,4,0:0:0:0:
151,56,76950,5,4,0:0:0:0:
447,80,77226,1,4,0:0:0:0:
229,136,77502,1,4,0:0:0:0:
415,188,77686,5,4,0:0:0:0:
406,284,77870,1,6,0:0:0:0:
405,289,77932,1,6,0:0:0:0:
405,293,77993,1,6,0:0:0:0:
404,298,78054,2,4,P|364:277|318:268,1,90.0000034332277,6|4,0:0|0:0,0:0:0:0:
181,384,78238,2,4,P|224:374|264:354,1,90.0000034332277,6|4,0:0|0:0,0:0:0:0:
34,292,78422,5,4,0:0:0:0:
192,279,78698,1,4,0:0:0:0:
34,292,78974,1,4,0:0:0:0:
85,13,79159,5,4,0:0:0:0:
96,201,79435,1,4,0:0:0:0:
116,31,79711,1,4,0:0:0:0:
326,204,79895,5,4,0:0:0:0:
46,110,80171,1,4,0:0:0:0:
213,76,80447,1,4,0:0:0:0:
209,293,80631,5,4,0:0:0:0:
222,198,80815,1,6,0:0:0:0:
223,193,80877,1,6,0:0:0:0:
223,189,80938,1,6,0:0:0:0:
224,184,80999,1,6,0:0:0:0:
385,100,81367,5,4,0:0:0:0:
382,239,81643,1,4,0:0:0:0:
380,382,81919,1,4,0:0:0:0:
261,166,82103,5,4,0:0:0:0:
505,313,82379,1,4,0:0:0:0:
257,308,82655,1,4,0:0:0:0:
385,100,82839,5,4,0:0:0:0:
382,239,83024,2,4,L|383:200,1,30,6|4,0:0|0:0,0:0:0:0:
380,382,83300,2,4,L|381:343,1,30,6|4,0:0|0:0,0:0:0:0:
144,333,83576,5,6,0:0:0:0:
169,317,83668,1,6,0:0:0:0:
197,309,83760,2,4,P|229:305|269:310,1,60,6|4,0:0|0:0,0:0:0:0:
59,374,83944,5,4,0:0:0:0:
55,320,84036,1,6,0:0:0:0:
51,265,84128,1,6,0:0:0:0:
49,211,84220,1,6,0:0:0:0:
45,157,84312,6,0,L|40:84,3,45.0000017166138,14|0|0|0,0:0|0:0|0:0|0:0,0:0:0:0:
180,104,84680,2,0,L|175:31,3,45.0000017166138,8|0|0|0,0:0|0:0|0:0|0:0,0:0:0:0:
467,157,85048,6,0,L|471:84,3,45.0000017166138,8|0|0|0,0:0|0:0|0:0|0:0,0:0:0:0:
332,104,85416,2,0,L|336:31,3,45.0000017166138,8|0|0|0,0:0|0:0|0:0|0:0,0:0:0:0:
153,211,85784,6,0,L|148:283,3,45.0000017166138,8|0|0|0,0:0|0:0|0:0|0:0,0:0:0:0:
359,211,86152,2,0,L|363:283,3,45.0000017166138,8|0|0|0,0:0|0:0|0:0|0:0,0:0:0:0:
69,307,86520,6,0,L|64:379,3,45.0000017166138,8|0|0|0,0:0|0:0|0:0|0:0,0:0:0:0:
443,307,86888,2,0,L|447:379,3,45.0000017166138,8|0|0|0,0:0|0:0|0:0|0:0,0:0:0:0:
166,102,87257,6,0,P|141:102|80:124,3,60,12|0|0|0,0:0|0:0|0:0|0:0,0:0:0:0:
345,281,87625,2,0,P|370:281|431:259,3,60,8|0|0|0,0:0|0:0|0:0|0:0,0:0:0:0:
128,192,87993,6,0,P|111:209|83:268,3,60,8|0|0|0,0:0|0:0|0:0|0:0,0:0:0:0:
381,192,88361,2,0,P|399:174|427:115,3,60,8|0|0|0,0:0|0:0|0:0|0:0,0:0:0:0:
166,281,88729,6,0,P|166:306|187:368,3,60,8|0|0|0,0:0|0:0|0:0|0:0,0:0:0:0:
345,102,89097,2,0,P|345:77|323:16,3,60,8|0|0|0,0:0|0:0|0:0|0:0,0:0:0:0:
255,318,89465,6,0,P|272:336|331:363,1,60,8|0,0:0|0:0,0:0:0:0:
255,65,89649,2,0,P|237:47|178:20,1,60,8|0,0:0|0:0,0:0:0:0:
345,281,89833,2,0,P|370:281|431:259,1,60,8|0,0:0|0:0,0:0:0:0:
166,102,90017,2,0,P|141:102|80:124,1,60,8|0,0:0|0:0,0:0:0:0:
381,192,90201,5,12,0:0:0:0:
381,192,90293,1,8,0:0:0:0:
381,192,90385,2,0,L|387:107,1,71.9999978027344,8|0,0:0|0:0,0:0:0:0:
274,355,90570,5,12,0:0:0:0:
274,355,90662,1,8,0:0:0:0:
274,355,90754,2,0,L|267:267,1,71.9999978027344,8|0,0:0|0:0,0:0:0:0:
486,300,90938,5,12,0:0:0:0:
486,300,91030,1,8,0:0:0:0:
486,300,91122,2,0,L|492:207,1,71.9999978027344,8|0,0:0|0:0,0:0:0:0:
262,160,91306,5,12,0:0:0:0:
262,160,91399,1,8,0:0:0:0:
262,160,91491,2,0,L|255:67,1,71.9999978027344,8|0,0:0|0:0,0:0:0:0:
0,132,91674,5,12,0:0:0:0:
0,132,91766,1,8,0:0:0:0:
0,132,91858,2,0,P|39:182|71:200,1,90.0000034332277,8|0,0:0|0:0,0:0:0:0:
270,168,92042,5,12,0:0:0:0:
270,168,92134,1,8,0:0:0:0:
270,168,92226,2,0,P|207:177|175:196,1,90.0000034332277,8|0,0:0|0:0,0:0:0:0:
103,383,92410,5,12,0:0:0:0:
103,383,92502,1,8,0:0:0:0:
103,383,92594,2,0,P|126:323|126:286,1,90.0000034332277,8|0,0:0|0:0,0:0:0:0:
107,97,92778,5,12,0:0:0:0:
107,97,92870,1,8,0:0:0:0:
107,97,92962,2,0,L|96:38,2,45.0000017166138,8|0|0,0:0|0:0|0:0,0:0:0:0:
255,30,93146,5,8,0:0:0:0:
317,42,93238,1,8,0:0:0:0:
370,77,93330,1,8,0:0:0:0:
405,130,93422,1,8,0:0:0:0:
417,191,93514,1,8,0:0:0:0:
405,253,93607,1,8,0:0:0:0:
370,306,93699,1,8,0:0:0:0:
317,341,93791,1,8,0:0:0:0:
256,353,93883,5,8,0:0:0:0:
194,341,93975,1,8,0:0:0:0:
141,306,94067,1,8,0:0:0:0:
106,253,94159,1,8,0:0:0:0:
94,192,94251,1,8,0:0:0:0:
106,130,94343,1,8,0:0:0:0:
141,77,94435,1,8,0:0:0:0:
194,42,94527,1,8,0:0:0:0:
255,30,94619,5,14,0:0:0:0:
256,192,94711,12,8,95723,0:0:0:0:
312,84,96091,6,0,L|321:179,1,80
475,138,96582,6,0,L|470:185,1,40
459,298,96827,2,0,L|467:219,1,80
250,354,97318,6,0,P|259:336|272:321,1,40
373,261,97563,2,0,P|335:272|302:295,1,80
203,266,98054,6,0,L|163:270,1,40
42,281,98300,2,0,L|122:274,2,80
65,107,99036,5,0,0:0:0:0:
65,107,99281,2,0,L|71:160,1,40
207,129,99527,6,0,L|168:133,1,40
294,47,99772,1,0,0:0:0:0:
290,43,100017,2,0,L|248:39,1,40
408,91,100263,6,0,L|403:29,1,40
500,145,100508,1,0,0:0:0:0:
496,141,100754,2,0,L|491:203,1,40
465,348,100999,6,0,L|470:286,1,40
380,190,101244,1,0,0:0:0:0:
376,186,101490,2,0,L|381:248,1,40
158,300,101735,5,4,0:0:0:0:
465,348,101858,1,4,0:0:0:0:
278,235,101981,1,4,0:0:0:0:
274,231,102226,2,0,L|271:286,1,40
18,361,102471,5,0,0:0:0:0:
158,300,102594,1,0,0:0:0:0:
70,216,102717,1,0,0:0:0:0:
66,212,102962,2,0,L|72:266,1,40
55,94,103208,5,0,0:0:0:0:
172,154,103330,1,0,0:0:0:0:
292,43,103453,1,0,0:0:0:0:
288,39,103698,2,0,L|285:94,1,40
485,136,103944,5,0,0:0:0:0:
427,31,104066,1,0,0:0:0:0:
383,195,104189,1,0,0:0:0:0:
379,191,104434,2,0,L|382:246,2,40
479,344,104925,5,0,0:0:0:0:
475,340,105171,2,0,L|481:262,1,40
333,84,105416,5,0,0:0:0:0:
483,138,105539,1,0,0:0:0:0:
347,251,105662,1,0,0:0:0:0:
343,247,105908,2,0,L|337:169,1,40
201,35,106152,5,0,0:0:0:0:
237,182,106275,1,0,0:0:0:0:
51,47,106398,6,0,L|54:103,2,40,8|0|0,0:0|0:0|0:0,0:0:0:0:
142,150,106766,2,0,L|139:206,2,40,8|0|0,0:0|0:0|0:0,0:0:0:0:
0,215,107134,6,0,L|3:271,3,30,2|0|0|0,0:0|0:0|0:0|0:0,0:0:0:0:
182,273,107502,2,0,L|179:329,3,30,2|0|0|0,0:0|0:0|0:0|0:0,0:0:0:0:
179,332,107870,6,0,L|380:317,1,150,6|0,0:0|0:0,0:0:0:0:
149,383,108146,2,0,L|-52:368,1,150,6|0,0:0|0:0,0:0:0:0:
148,199,108422,1,2,0:0:0:0:
148,199,108514,1,2,0:0:0:0:
148,198,108606,2,0,P|221:201|286:246,1,150,6|0,0:0|0:0,0:0:0:0:
360,163,108882,1,2,0:0:0:0:
360,163,108974,2,0,P|381:193|393:228,1,75,6|0,0:0|0:0,0:0:0:0:
504,361,109159,5,2,0:0:0:0:
504,361,109251,1,2,0:0:0:0:
504,361,109343,2,0,L|513:211,1,150,6|0,0:0|0:0,0:0:0:0:
472,55,109619,2,0,L|481:204,1,150,6|0,0:0|0:0,0:0:0:0:
242,78,109895,1,2,0:0:0:0:
242,78,109987,1,2,0:0:0:0:
242,78,110079,2,0,P|302:53|395:82,1,150,6|0,0:0|0:0,0:0:0:0:
316,163,110355,5,2,0:0:0:0:
316,163,110447,2,0,P|328:195|330:259,1,90.0000034332277,2|0,0:0|0:0,0:0:0:0:
112,310,110815,6,0,P|162:254|230:224,1,150,6|0,0:0|0:0,0:0:0:0:
57,225,111091,2,0,P|1:331|5:405,1,150,6|0,0:0|0:0,0:0:0:0:
149,137,111367,1,2,0:0:0:0:
149,137,111459,1,2,0:0:0:0:
149,138,111551,2,0,L|-32:117,1,150,6|0,0:0|0:0,0:0:0:0:
195,105,111827,1,2,0:0:0:0:
195,105,111919,2,0,L|308:91,1,75,6|0,0:0|0:0,0:0:0:0:
440,30,112104,5,2,0:0:0:0:
440,30,112196,1,2,0:0:0:0:
440,29,112288,2,0,P|380:70|359:150,1,150,6|0,0:0|0:0,0:0:0:0:
512,256,112563,2,0,P|506:183|447:125,1,150,6|0,0:0|0:0,0:0:0:0:
320,230,112839,5,2,0:0:0:0:
320,230,112932,1,2,0:0:0:0:
320,230,113024,2,0,L|422:223,1,90.0000034332277,2|0,0:0|0:0,0:0:0:0:
428,323,113392,6,2,L|377:319,1,35.9999989013672,2|0,0:0|0:0,0:0:0:0:
141,335,113760,6,0,B|195:304|195:304|210:155,1,180.000006866455,8|0,0:0|2:0,0:0:0:0:
66,218,114036,2,0,B|11:187|11:187|-3:38,1,180.000006866455,8|0,0:0|2:0,0:0:0:0:
274,10,114312,5,0,0:0:0:0:
274,10,114404,1,0,0:0:0:0:
274,10,114496,2,0,B|210:83|210:83|114:74,1,180.000006866455,8|0,0:0|2:0,0:0:0:0:
317,111,114772,2,0,B|380:37|380:37|475:45,1,180.000006866455,8|0,0:0|2:0,0:0:0:0:
446,271,115048,5,0,0:0:0:0:
446,271,115140,1,0,0:0:0:0:
446,271,115232,2,0,B|431:143|431:143|482:169,1,180.000006866455,8|0,0:0|2:0,0:0:0:0:
317,111,115508,2,0,B|331:239|331:239|286:216,1,180.000006866455,8|0,0:0|2:0,0:0:0:0:
428,371,115784,5,2,0:0:0:0:
428,371,115876,1,2,0:0:0:0:
428,371,115968,2,0,L|494:363,3,60,10|2|2|2,0:0|0:0|0:0|0:0,0:0:0:0:
410,189,116336,2,0,L|350:181,3,60,10|2|2|2,0:0|0:0|0:0|0:0,0:0:0:0:
300,383,116705,5,6,0:0:0:0:
300,351,116797,1,2,0:0:0:0:
296,319,116889,1,2,0:0:0:0:
286,291,116981,1,2,0:0:0:0:
266,264,117073,5,6,0:0:0:0:
249,240,117165,1,2,0:0:0:0:
236,212,117257,1,2,0:0:0:0:
231,179,117349,1,2,0:0:0:0:
237,143,117441,6,0,L|229:81,2,35.9999989013672,2|2|2,0:0|0:0|0:0,0:0:0:0:
170,289,117625,2,0,L|165:324,2,35.9999989013672,2|2|2,0:0|0:0|0:0,0:0:0:0:
72,101,117809,6,0,L|64:39,2,35.9999989013672,2|2|2,0:0|0:0|0:0,0:0:0:0:
10,296,117993,2,0,L|5:331,2,35.9999989013672,2|2|2,0:0|0:0|0:0,0:0:0:0:
25,207,118177,6,0,L|77:202,1,45,4|0,0:0|2:0,0:0:0:0:
125,181,118361,2,0,P|94:232|89:249,1,62.9999980773926,4|0,0:0|2:0,0:0:0:0:
189,341,118545,6,0,L|193:258,1,80.9999975280763,4|0,0:0|2:0,0:0:0:0:
125,181,118729,2,0,P|168:228|230:238,1,99.0000030212403,4|0,0:0|2:0,0:0:0:0:
335,126,118913,6,0,L|192:138,1,116.999994644165,4|0,0:0|2:0,0:0:0:0:
294,48,119097,2,0,P|361:116|433:126,1,135.000005149841,4|0,0:0|2:0,0:0:0:0:
502,15,119281,6,0,L|495:141,1,90.0000034332277,10|0,0:0|2:0,0:0:0:0:
356,384,119649,6,0,B|391:353|391:353|387:310|387:310|401:304|401:304|386:304|386:304|377:213,1,204.000003890991,6|0,0:0|0:0,0:0:0:0:
207,206,119925,1,2,0:0:0:0:
207,206,120017,2,0,P|234:244|289:269,1,102.000001945496,6|0,0:0|0:0,0:0:0:0:
396,126,120201,2,0,P|348:130|298:165,1,102.000001945496,2|0,0:0|0:0,0:0:0:0:
129,383,120385,6,0,B|89:323|89:323|104:260|104:260|99:247|99:247|112:191,1,204.000003890991,6|0,0:0|0:0,0:0:0:0:
199,104,120662,1,2,0:0:0:0:
199,104,120754,2,0,L|206:206,1,102.000001945496,6|0,0:0|0:0,0:0:0:0:
31,142,120938,2,0,L|38:37,1,102.000001945496,2|0,0:0|0:0,0:0:0:0:
299,14,121122,6,0,B|343:-3|343:-3|331:68|331:68|343:104|343:104|331:183,1,204.000003890991,6|0,0:0|0:0,0:0:0:0:
309,270,121398,1,2,0:0:0:0:
309,270,121490,2,0,P|348:242|414:246,1,102.000001945496,6|0,0:0|0:0,0:0:0:0:
475,361,121674,2,0,P|424:360|382:332,1,102.000001945496,2|0,0:0|0:0,0:0:0:0:
282,117,121858,6,0,L|425:126,1,102.000001945496,6|0,0:0|0:0,0:0:0:0:
492,131,122042,1,2,0:0:0:0:
496,131,122104,1,2,0:0:0:0:
501,131,122165,1,2,0:0:0:0:
506,132,122226,1,6,0:0:0:0:
112,384,122594,6,0,B|165:347|165:347|175:275|175:275|190:272|190:272|176:267|176:267|184:203,1,204.000003890991,6|0,0:0|0:0,0:0:0:0:
0,166,122870,1,2,0:0:0:0:
0,166,122962,2,0,L|6:268,1,102.000001945496,6|0,0:0|0:0,0:0:0:0:
138,199,123146,2,0,L|145:97,1,102.000001945496,2|0,0:0|0:0,0:0:0:0:
373,1,123330,6,0,B|418:30|418:30|411:74|411:74|400:76|400:76|394:114|394:114|398:125|398:125|390:172,1,204.000003890991,6|0,0:0|0:0,0:0:0:0:
172,54,123606,1,2,0:0:0:0:
172,54,123698,2,0,P|213:21|261:10,1,102.000001945496,6|0,0:0|0:0,0:0:0:0:
269,224,123882,2,0,L|264:122,1,102.000001945496,2|0,0:0|0:0,0:0:0:0:
277,334,124066,6,0,B|318:379|318:379|396:373|396:373|402:364|402:364|476:360,1,204.000003890991,6|0,0:0|0:0,0:0:0:0:
273,228,124343,1,2,0:0:0:0:
273,228,124435,2,0,B|172:235,1,102.000001945496,6|0,0:0|0:0,0:0:0:0:
376,267,124619,2,0,B|478:274,1,102.000001945496,2|0,0:0|0:0,0:0:0:0:
64,155,124803,6,0,P|40:211|47:274,1,102.000001945496,6|0,0:0|0:0,0:0:0:0:
122,71,124987,1,2,0:0:0:0:
122,67,125049,1,2,0:0:0:0:
121,63,125110,1,2,0:0:0:0:
120,59,125171,2,0,L|114:-7,3,60,10|2|2|2,0:1|0:0|0:0|0:0,0:0:0:0:
361,1,125539,6,0,B|395:31|395:31|316:37|316:37|310:46|310:46|236:50,1,204.000003890991,6|0,0:0|0:0,0:0:0:0:
412,146,125815,1,2,0:0:0:0:
412,146,125907,2,0,L|531:163,1,102.000001945496,6|0,0:0|0:0,0:0:0:0:
351,250,126091,2,0,P|309:216|289:167,1,102.000001945496,2|0,0:0|0:0,0:0:0:0:
510,381,126275,6,0,B|457:375|457:375|448:365|448:365|441:370|441:370|408:368|408:368|392:357|392:357|333:352|333:352|358:394,1,204.000003890991,6|0,0:0|0:0,0:0:0:0:
182,307,126552,1,2,0:0:0:0:
182,307,126643,2,0,P|222:340|243:389,1,102.000001945496,6|0,0:0|0:0,0:0:0:0:
61,320,126827,2,0,P|68:267|101:225,1,102.000001945496,2|0,0:0|0:0,0:0:0:0:
43,21,127011,6,0,B|-3:10|-3:10|-3:47|-3:47|3:52|3:52|5:96|5:96|14:103|14:103|16:168,1,204.000003890991,6|0,0:0|0:0,0:0:0:0:
254,40,127288,1,2,0:0:0:0:
254,40,127379,2,0,L|128:26,1,102.000001945496,6|0,0:0|0:0,0:0:0:0:
371,101,127563,2,0,L|496:87,1,102.000001945496,2|0,0:0|0:0,0:0:0:0:
278,240,127747,6,0,P|264:177|283:119,1,102.000001945496,6|0,0:0|0:0,0:0:0:0:
387,242,127932,1,2,0:0:0:0:
386,246,127994,1,2,0:0:0:0:
386,250,128055,1,2,0:0:0:0:
385,254,128116,1,6,0:0:0:0:
23,0,128484,6,0,B|-8:21|-8:21|-4:101|-4:101|2:97|2:97|6:132|6:132|2:138|2:138|5:182,1,204.000003890991,6|0,0:0|0:0,0:0:0:0:
207,68,128760,1,2,0:0:0:0:
207,68,128852,2,0,P|163:43|108:42,1,102.000001945496,6|0,0:0|0:0,0:0:0:0:
239,165,129036,2,0,P|282:139|310:92,1,102.000001945496,2|0,0:0|0:0,0:0:0:0:
160,291,129220,6,0,B|90:297|90:297|80:311|80:311|46:313|46:313|41:310|41:310|-16:315|-16:315|24:346,1,204.000003890991,6|0,0:0|0:0,0:0:0:0:
287,384,129496,1,2,0:0:0:0:
287,384,129588,2,0,L|298:265,1,102.000001945496,6|0,0:0|0:0,0:0:0:0:
138,151,129772,2,0,L|147:252,1,102.000001945496,2|0,0:0|0:0,0:0:0:0:
402,363,129956,6,0,L|406:318,1,45,4|0,0:0|0:0,0:0:0:0:
434,303,130140,2,0,P|462:316|488:335,1,62.9999980773926,4|0,0:0|0:0,0:0:0:0:
344,283,130324,6,0,L|264:280,1,80.9999975280763,4|0,0:0|0:0,0:0:0:0:
340,250,130508,2,0,P|385:231|416:193,1,99.0000030212403,4|0,0:0|0:0,0:0:0:0:
340,43,130692,6,0,L|328:186,1,116.999994644165,4|0,0:0|0:0,0:0:0:0:
512,138,130876,2,0,P|459:97|392:88,1,135.000005149841,4|0,0:0|0:0,0:0:0:0:
222,96,131060,6,0,L|227:186,1,90.0000034332277,8|0,0:0|0:0,0:0:0:0:
22,364,131428,6,0,P|-2:311|7:253,1,102.000001945496,2|0,0:0|0:0,0:0:0:0:
224,315,131612,1,2,0:0:0:0:
224,315,131705,1,2,0:0:0:0:
224,315,131797,2,0,L|88:333,1,102.000001945496,6|0,0:0|0:0,0:0:0:0:
9,89,131981,5,2,0:0:0:0:
9,89,132073,1,2,0:0:0:0:
9,89,132165,2,0,P|39:140|53:198,1,102.000001945496,6|0,0:0|0:0,0:0:0:0:
194,22,132349,2,0,P|194:81|178:139,1,102.000001945496,2|0,0:0|0:0,0:0:0:0:
343,114,132533,1,6,0:0:0:0:
343,114,132625,1,2,0:0:0:0:
342,113,132717,2,0,P|447:118|409:24,1,204.000003890991,2|6,0:0|0:0,0:0:0:0:
383,355,133085,5,2,0:0:0:0:
383,355,133177,1,2,0:0:0:0:
383,355,133269,2,0,L|519:342,1,102.000001945496,6|0,0:0|0:0,0:0:0:0:
267,263,133453,2,0,L|403:250,1,102.000001945496,2|0,0:0|0:0,0:0:0:0:
173,191,133637,1,6,0:0:0:0:
126,227,133729,1,2,0:0:0:0:
105,282,133821,1,2,0:0:0:0:
116,340,133913,1,2,0:0:0:0:
157,384,134005,1,6,0:0:0:0:
0,0,134373,5,6,0:0:0:0:
3,59,134465,1,2,0:0:0:0:
6,119,134557,1,2,0:0:0:0:
9,179,134649,1,2,0:0:0:0:
12,239,134741,1,6,0:0:0:0:
337,18,134925,5,2,0:0:0:0:
337,18,135017,1,2,0:0:0:0:
337,18,135109,2,0,P|328:85|276:137,1,102.000001945496,6|0,0:0|0:0,0:0:0:0:
121,54,135293,2,0,P|165:30|216:29,1,102.000001945496,2|0,0:0|0:0,0:0:0:0:
450,101,135478,1,6,0:0:0:0:
450,101,135570,1,2,0:0:0:0:
512,381,135846,5,6,0:0:0:0:
468,340,135938,1,2,0:0:0:0:
412,318,136030,1,2,0:0:0:0:
352,319,136122,1,2,0:0:0:0:
297,340,136214,1,6,0:0:0:0:
484,213,136398,5,2,0:0:0:0:
484,213,136490,1,2,0:0:0:0:
484,213,136582,2,0,L|500:94,1,102.000001945496,6|0,0:0|0:0,0:0:0:0:
338,215,136766,2,0,L|333:95,1,102.000001945496,2|0,0:0|0:0,0:0:0:0:
210,283,136950,1,6,0:0:0:0:
210,283,137042,2,0,L|185:165,2,102.000001945496,2|2|2,0:0|0:0|0:0,0:0:0:0:
68,349,137318,6,0,P|29:296|18:226,1,102.000001945496,6|0,0:0|0:0,0:0:0:0:
117,46,137502,1,2,0:0:0:0:
117,46,137594,1,2,0:0:0:0:
117,46,137686,2,0,P|3:70|7:12,1,204.000003890991,6|2,0:0|0:0,0:0:0:0:
324,139,138054,5,6,0:0:0:0:
324,139,138146,1,2,0:0:0:0:
324,139,138238,2,0,P|227:168|186:167,1,102.000001945496,2|0,0:0|0:0,0:0:0:0:
414,30,138422,2,0,P|473:36|528:59,1,102.000001945496,6|0,0:0|0:0,0:0:0:0:
275,9,138606,1,2,0:0:0:0:
509,144,138790,5,6,0:0:0:0:
505,204,138882,1,2,0:0:0:0:
501,264,138974,1,2,0:0:0:0:
497,324,139066,1,2,0:0:0:0:
493,384,139158,1,6,0:0:0:0:
242,270,139343,6,0,L|112:263,1,102.000001945496,2|0,0:0|0:0,0:0:0:0:
393,208,139527,1,6,0:0:0:0:
396,267,139619,1,2,0:0:0:0:
372,321,139711,1,2,0:0:0:0:
326,358,139803,1,2,0:0:0:0:
268,370,139895,1,6,0:0:0:0:
144,83,140263,5,6,0:0:0:0:
144,83,140355,1,2,0:0:0:0:
144,83,140447,2,0,L|137:173,1,90.0000034332277,2|2,0:0|0:0,0:0:0:0:
54,357,140631,5,6,0:0:0:0:
54,357,140723,1,2,0:0:0:0:
54,357,140814,2,0,L|46:264,1,90.0000034332277,2|2,0:0|0:0,0:0:0:0:
249,181,141000,5,6,0:0:0:0:
249,181,141092,1,2,0:0:0:0:
249,181,141184,2,0,L|242:271,1,90.0000034332277,2|2,0:0|0:0,0:0:0:0:
40,128,141367,5,6,0:0:0:0:
40,128,141459,1,2,0:0:0:0:
40,128,141551,2,0,L|33:30,1,90.0000034332277,2|2,0:0|0:0,0:0:0:0:
286,66,141735,5,14,0:0:0:0:
321,18,141827,1,2,0:0:0:0:
377,1,141919,1,2,0:0:0:0:
433,20,142011,1,2,0:0:0:0:
468,68,142103,5,14,0:0:0:0:
468,127,142195,1,2,0:0:0:0:
434,175,142287,1,2,0:0:0:0:
378,197,142379,1,2,0:0:0:0:
343,244,142471,5,14,0:0:0:0:
343,303,142563,1,2,0:0:0:0:
378,351,142655,1,2,0:0:0:0:
434,370,142747,1,2,0:0:0:0:
490,353,142839,6,0,L|502:263,6,60,6|2|2|2|2|2|2,0:0|0:0|0:0|0:0|0:0|0:0|0:0,0:0:0:0:
260,381,143208,5,12,0:0:0:0:
224,379,143392,5,2,0:0:0:0:
207,379,143484,1,2,0:0:0:0:
189,378,143576,1,2,0:0:0:0:
153,376,143760,5,2,0:0:0:0:
135,375,143852,1,2,0:0:0:0:
117,374,143944,1,2,0:0:0:0:
99,373,144036,1,2,0:0:0:0:
81,372,144128,1,2,0:0:0:0:
63,371,144220,1,2,0:0:0:0:
45,370,144312,1,2,0:0:0:0:
155,266,144496,6,0,B|201:279|201:279|241:267,1,90.0000034332277,8|0,0:0|0:0,0:0:0:0:
115,252,144680,6,0,B|69:239|69:239|-35:271,1,120,12|0,0:0|0:0,0:0:0:0:
156,138,144864,5,2,0:0:0:0:
140,144,144956,1,2,0:0:0:0:
122,148,145048,1,2,0:0:0:0:
86,148,145232,5,2,0:0:0:0:
68,143,145324,1,2,0:0:0:0:
52,136,145416,1,2,0:0:0:0:
36,127,145508,1,2,0:0:0:0:
22,116,145600,1,2,0:0:0:0:
11,103,145692,1,2,0:0:0:0:
0,88,145784,1,2,0:0:0:0:
199,29,145968,6,0,L|110:36,1,90.0000034332277,8|0,0:0|0:0,0:0:0:0:
236,75,146152,6,0,L|386:64,1,120,12|0,0:0|0:0,0:0:0:0:
498,173,146336,5,2,0:0:0:0:
492,156,146428,1,2,0:0:0:0:
485,139,146520,1,2,0:0:0:0:
472,106,146704,5,2,0:0:0:0:
466,89,146796,1,2,0:0:0:0:
469,71,146888,1,2,0:0:0:0:
472,53,146980,1,2,0:0:0:0:
476,36,147072,1,2,0:0:0:0:
479,18,147164,1,2,0:0:0:0:
483,0,147256,1,2,0:0:0:0:
361,175,147441,6,0,P|319:191|272:190,1,90.0000034332277,8|0,0:0|0:0,0:0:0:0:
307,206,147625,2,0,P|339:256|342:315,1,120,14|2,0:0|0:0,0:0:0:0:
335,344,147901,1,2,0:0:0:0:
335,344,147993,2,0,L|434:335,1,60,10|2,0:0|0:0,0:0:0:0:
241,287,148177,2,0,L|181:281,1,60,2|2,0:0|0:0,0:0:0:0:
0,361,148361,5,10,0:0:0:0:
26,346,148453,1,2,0:0:0:0:
47,325,148545,1,2,0:0:0:0:
62,299,148637,1,2,0:0:0:0:
70,270,148730,2,0,L|63:191,1,60,10|2,0:0|0:0,0:0:0:0:
49,99,148914,1,2,0:0:0:0:
390,21,149098,5,12,0:0:0:0:
278,45,149281,5,2,0:0:0:0:
279,62,149373,1,2,0:0:0:0:
281,80,149465,1,2,0:0:0:0:
171,172,149649,5,2,0:0:0:0:
172,154,149741,1,2,0:0:0:0:
173,136,149833,1,2,0:0:0:0:
174,118,149925,1,2,0:0:0:0:
175,100,150017,1,2,0:0:0:0:
176,82,150109,1,2,0:0:0:0:
177,64,150201,1,2,0:0:0:0:
380,135,150385,6,0,B|393:181|393:181|381:221,1,90.0000034332277,8|0,0:0|0:0,0:0:0:0:
464,343,150570,6,0,B|451:297|451:297|483:193,1,120,12|0,0:0|0:0,0:0:0:0:
255,336,150753,5,2,0:0:0:0:
251,353,150845,1,2,0:0:0:0:
249,371,150937,1,2,0:0:0:0:
366,259,151121,5,2,0:0:0:0:
348,260,151213,1,2,0:0:0:0:
331,264,151305,1,2,0:0:0:0:
314,270,151397,1,2,0:0:0:0:
298,279,151489,1,2,0:0:0:0:
284,290,151581,1,2,0:0:0:0:
272,304,151673,1,2,0:0:0:0:
263,319,151765,1,2,0:0:0:0:
223,293,151858,6,0,L|116:285,1,90.0000034332277,8|0,0:0|0:0,0:0:0:0:
0,373,152042,6,0,L|150:384,1,120,12|0,0:0|0:0,0:0:0:0:
25,259,152226,5,2,0:0:0:0:
22,241,152318,1,2,0:0:0:0:
18,223,152410,1,2,0:0:0:0:
116,100,152594,6,0,P|29:110|-19:90,1,120,12|0,0:0|0:0,0:0:0:0:
209,33,152778,5,2,0:0:0:0:
227,36,152870,1,2,0:0:0:0:
245,40,152962,1,2,0:0:0:0:
413,19,153146,6,0,B|392:62|392:62|405:170,1,120,12|0,0:0|0:0,0:0:0:0:
493,226,153330,2,0,B|484:154,1,60,2|2,0:0|0:0,0:0:0:0:
258,284,153514,6,0,P|324:284|373:249,1,120,12|0,0:0|0:0,0:0:0:0:
277,127,153698,2,0,L|291:189,1,60,2|2,0:0|0:0,0:0:0:0:
202,372,153882,6,0,L|45:361,1,120,12|0,0:0|0:0,0:0:0:0:
0,270,154066,2,0,L|59:273,1,60,2|2,0:0|0:0,0:0:0:0:
170,97,154251,6,0,B|178:168|178:168|158:211,1,120,12|0,0:0|0:0,0:0:0:0:
0,86,154435,2,0,B|71:77,1,60,2|2,0:0|0:0,0:0:0:0:
319,25,154619,6,0,P|299:81|271:55,1,120,12|0,0:0|0:0,0:0:0:0:
445,64,154803,1,2,0:0:0:0:
445,64,154895,1,2,0:0:0:0:
445,64,154987,6,2,L|459:219,1,143.999995605469,2|0,0:0|0:0,0:0:0:0:
213,382,156459,5,6,0:0:0:0:
211,364,156551,2,0,L|209:340,1,17.9999994506836,2|2,0:0|0:0,0:0:0:0:
322,360,156735,5,6,0:0:0:0:
323,333,156827,1,2,0:0:0:0:
326,306,156919,2,0,L|328:273,1,30,2|2,0:0|0:0,0:0:0:0:
94,349,157103,5,6,0:0:0:0:
92,308,157195,1,2,0:0:0:0:
88,268,157287,2,0,L|83:219,1,41.9999987182618,2|2,0:0|0:0,0:0:0:0:
437,343,157471,5,6,0:0:0:0:
439,287,157563,1,2,0:0:0:0:
442,231,157655,1,2,0:0:0:0:
447,177,157747,2,0,L|451:111,1,53.9999983520508,2|2,0:0|0:0,0:0:0:0:
256,0,157932,5,14,0:0:0:0:
