osu file format v14

[General]
AudioFilename: audio.mp3
AudioLeadIn: 0
PreviewTime: 13269
Countdown: 0
SampleSet: None
StackLeniency: 0.2
Mode: 0
LetterboxInBreaks: 0
WidescreenStoryboard: 1

[Editor]
Bookmarks: 13637,25416,37195,48974,60754,72533,84312,96091,107870,119649,131428,143208,154987
DistanceSpacing: 1.1
BeatDivisor: 4
GridSize: 4
TimelineZoom: 2.1

[Metadata]
Title:You Are the Miserable
TitleUnicode:You Are the Miserable
Artist:t+pazolite
ArtistUnicode:t+pazolite
Creator:Shanipika
Version:Expert
Source:
Tags:
BeatmapID:1952128
BeatmapSetID:935082

[Difficulty]
HPDrainRate:5.5
CircleSize:4
OverallDifficulty:8.6
ApproachRate:9.4
SliderMultiplier:2.74
SliderTickRate:1

[Events]
//Background and Video events
0,0,"iam.png",0,0
//Break Periods
//Storyboard Layer 0 (Background)
//Storyboard Layer 1 (Fail)
//Storyboard Layer 2 (Pass)
//Storyboard Layer 3 (Foreground)
//Storyboard Sound Samples

[TimingPoints]
386,368.098159509202,4,2,1,25,1,0
5263,-100,4,2,1,30,0,0
7747,-100,4,2,1,35,0,0
13637,-50,4,2,1,55,0,0
23944,-100,4,2,1,30,0,0
24680,-100,4,2,1,35,0,0
25416,-100,4,2,1,50,0,0
27993,-166.666666666667,4,2,1,50,0,0
28361,-100,4,2,1,50,0,0
30938,-200,4,2,1,50,0,0
31306,-100,4,2,1,50,0,0
33422,-133.333333333333,4,2,1,50,0,0
35723,-222.222222222221,4,2,1,40,0,0
37195,-222.222222222221,4,2,1,50,0,0
47502,-100,4,2,1,50,0,0
48974,-100,4,2,1,55,0,0
51551,-66.6666666666667,4,2,1,55,0,0
51919,-100,4,2,1,55,0,0
57441,-66.6666666666667,4,2,1,55,0,0
57809,-100,4,2,1,55,0,0
60754,-250,4,2,1,30,0,0
72533,-100,4,2,1,40,0,0
84312,-100,4,2,1,45,0,0
90201,-83.3333333333333,4,2,1,50,0,1
93146,-100,4,2,1,55,0,1
93514,-76.9230769230769,4,2,1,55,0,1
93882,-62.5,4,2,1,55,0,1
94251,-52.6315789473684,4,2,1,55,0,1
94619,-52.6315789473684,4,2,1,50,0,0
96091,-133.333333333333,4,2,1,50,0,0
96336,-285.714285714284,4,2,1,50,0,0
96827,-133.333333333333,4,2,1,50,0,0
97073,-285.714285714284,4,2,1,50,0,0
97563,-133.333333333333,4,2,1,50,0,0
97809,-285.714285714284,4,2,1,50,0,0
98300,-133.333333333333,4,2,1,50,0,0
98545,-285.714285714284,4,2,1,50,0,0
98790,-666.666666666658,4,2,1,50,0,0
99036,-133.333333333333,4,2,1,50,0,0
99281,-285.714285714284,4,2,1,50,0,0
99772,-133.333333333333,4,2,1,50,0,0
100017,-285.714285714284,4,2,1,50,0,0
100508,-133.333333333333,4,2,1,50,0,0
100754,-285.714285714284,4,2,1,50,0,0
101244,-100,4,2,1,50,0,0
101981,-133.333333333333,4,2,1,50,0,0
102226,-285.714285714284,4,2,1,50,0,0
102717,-133.333333333333,4,2,1,50,0,0
102962,-285.714285714284,4,2,1,50,0,0
103453,-133.333333333333,4,2,1,50,0,0
103698,-285.714285714284,4,2,1,50,0,0
104189,-133.333333333333,4,2,1,50,0,0
104435,-285.714285714284,4,2,1,50,0,0
104680,-666.666666666658,4,2,1,50,0,0
104925,-133.333333333333,4,2,1,50,0,0
105171,-285.714285714284,4,2,1,50,0,0
105662,-133.333333333333,4,2,1,50,0,0
105907,-285.714285714284,4,2,1,50,0,0
107870,-83.3333333333333,4,2,1,55,0,0
110447,-133.333333333333,4,2,1,55,0,0
110815,-83.3333333333333,4,2,1,55,0,0
119281,-50,4,2,1,65,0,0
119373,-50,4,2,1,5,0,0
119649,-66.6666666666667,4,2,1,65,0,1
120201,-100,4,2,1,65,0,1
120385,-66.6666666666667,4,2,1,65,0,1
120938,-100,4,2,1,65,0,1
121122,-66.6666666666667,4,2,1,65,0,1
121674,-100,4,2,1,65,0,1
122594,-66.6666666666667,4,2,1,65,0,1
123146,-100,4,2,1,65,0,1
123330,-66.6666666666667,4,2,1,65,0,1
123882,-100,4,2,1,65,0,1
124066,-66.6666666666667,4,2,1,65,0,1
124619,-100,4,2,1,65,0,1
125539,-66.6666666666667,4,2,1,65,0,1
126091,-100,4,2,1,65,0,1
126275,-66.6666666666667,4,2,1,65,0,1
126827,-100,4,2,1,65,0,1
127011,-66.6666666666667,4,2,1,65,0,1
127563,-100,4,2,1,65,0,1
128484,-66.6666666666667,4,2,1,65,0,1
129036,-100,4,2,1,65,0,1
129220,-66.6666666666667,4,2,1,65,0,1
129772,-100,4,2,1,65,0,1
129956,-66.6666666666667,4,2,1,65,0,1
130508,-133.333333333333,4,2,1,65,0,1
131428,-58.8235294117647,4,2,1,70,0,1
137686,-178.571428571429,4,2,1,70,0,1
138054,-58.8235294117647,4,2,1,70,0,1
138422,-178.571428571429,4,2,1,70,0,1
138790,-58.8235294117647,4,2,1,70,0,1
142103,-100,4,2,1,70,0,1
143208,-100,4,2,1,60,0,0
154987,-1000,4,2,1,50,0,0
156459,-100,4,2,1,65,0,0

[Colours]
Combo1 : 255,53,53
Combo2 : 253,201,94
Combo3 : 253,138,132
Combo4 : 248,234,192
Combo5 : 192,192,192
Combo6 : 157,157,157

[HitObjects]
256,192,386,12,0,1766,0:0:0:0:
30,60,1858,54,0,P|58:152|53:196,1,137,2|2,0:1|0:0,0:0:0:0:
54,191,2134,1,2,0:0:0:0:
52,351,2318,5,0,0:0:0:0:
66,311,2410,1,2,0:0:0:0:
104,291,2502,2,0,P|135:311|153:350,1,68.5000000000001,2|0,0:0|0:0,0:0:0:0:
162,363,2686,69,0,0:0:0:0:
176,323,2778,1,2,0:0:0:0:
214,303,2870,2,0,P|245:323|263:362,1,68.5000000000001,2|0,0:0|0:0,0:0:0:0:
272,371,3054,5,0,0:0:0:0:
286,331,3146,1,2,0:0:0:0:
324,311,3238,1,2,0:0:0:0:
361,347,3330,69,2,0:0:0:0:
405,342,3422,1,0,0:0:0:0:
442,318,3514,1,2,0:0:0:0:
456,277,3606,2,0,P|411:238|309:227,1,137,2|0,0:0|0:0,0:0:0:0:
243,230,3882,5,2,0:0:0:0:
229,189,3974,2,0,P|274:150|331:149,1,68.5000000000001,2|0,0:0|0:0,0:0:0:0:
362,145,4159,69,0,0:0:0:0:
400,121,4251,1,2,0:0:0:0:
414,80,4343,2,0,P|369:41|247:30,1,137,2|0,0:0|0:0,0:0:0:0:
193,55,4619,5,2,0:0:0:0:
155,39,4711,1,2,0:0:0:0:
114,45,4803,1,2,0:0:0:0:
62,24,4895,69,0,0:0:0:0:
22,62,4987,1,2,0:0:0:0:
10,115,5079,2,0,P|6:148|23:195,1,68.5,2|0,0:0|0:0,0:0:0:0:
84,248,5263,5,0,0:0:0:0:
77,302,5355,1,2,0:0:0:0:
52,351,5447,2,0,P|3:376|-32:371,1,68.5,2|0,0:0|0:0,0:0:0:0:
130,277,5631,69,0,0:0:0:0:
176,306,5723,1,2,0:0:0:0:
200,354,5815,1,2,0:0:0:0:
200,354,5907,1,2,0:0:0:0:
250,331,5999,1,0,0:0:0:0:
304,335,6091,1,2,0:0:0:0:
350,364,6183,2,0,P|394:371|441:341,1,68.5,2|0,0:0|0:0,0:0:0:0:
484,266,6367,5,0,0:0:0:0:
429,267,6459,1,2,0:0:0:0:
381,293,6551,1,2,0:0:0:0:
381,293,6643,1,2,0:0:0:0:
339,257,6735,1,0,0:0:0:0:
285,243,6827,1,2,0:0:0:0:
232,259,6919,2,0,P|170:245|147:222,1,68.5,2|0,0:0|0:0,0:0:0:0:
116,153,7103,69,0,0:0:0:0:
171,154,7195,1,2,0:0:0:0:
219,180,7287,1,2,0:0:0:0:
219,180,7379,1,2,0:0:0:0:
267,154,7471,1,0,0:0:0:0:
321,158,7563,1,2,0:0:0:0:
371,179,7655,1,2,0:0:0:0:
431,225,7747,5,0,0:0:0:0:
448,165,7839,1,0,0:0:0:0:
463,104,7932,1,2,0:0:0:0:
480,44,8024,1,2,0:0:0:0:
334,62,8208,69,0,0:0:0:0:
351,121,8300,1,2,0:0:0:0:
371,179,8392,1,2,0:0:0:0:
371,179,8484,1,2,0:0:0:0:
341,233,8576,1,0,0:0:0:0:
352,293,8668,1,2,0:0:0:0:
402,328,8760,1,2,0:0:0:0:
278,330,8944,5,0,0:0:0:0:
216,332,9036,1,2,0:0:0:0:
154,338,9128,1,2,0:0:0:0:
154,338,9220,1,2,0:0:0:0:
163,277,9312,1,0,0:0:0:0:
149,216,9404,1,2,0:0:0:0:
100,178,9496,1,2,0:0:0:0:
43,302,9680,21,0,0:0:0:0:
36,233,9772,1,2,0:0:0:0:
28,164,9864,1,2,0:0:0:0:
163,144,10048,5,0,0:0:0:0:
178,77,10140,1,2,0:0:0:0:
193,10,10232,1,2,0:0:0:0:
319,10,10416,5,0,0:0:0:0:
334,77,10508,1,2,0:0:0:0:
349,144,10600,1,2,0:0:0:0:
484,164,10784,53,0,0:0:0:0:
476,233,10876,1,2,0:0:0:0:
469,302,10968,1,2,0:0:0:0:
469,302,11060,1,2,0:0:0:0:
402,283,11152,1,0,0:0:0:0:
335,301,11244,1,2,0:0:0:0:
293,355,11336,1,2,0:0:0:0:
256,208,11520,5,0,0:0:0:0:
256,132,11612,1,2,0:0:0:0:
256,56,11705,1,2,0:0:0:0:
28,164,11889,5,0,0:0:0:0:
36,233,11981,1,2,0:0:0:0:
43,302,12073,1,2,0:0:0:0:
43,302,12165,1,2,0:0:0:0:
110,283,12257,1,0,0:0:0:0:
177,301,12349,1,2,0:0:0:0:
219,355,12441,1,2,0:0:0:0:
324,166,12625,5,0,0:0:0:0:
256,132,12717,1,2,0:0:0:0:
188,166,12809,1,2,0:0:0:0:
180,64,12993,5,0,0:0:0:0:
256,25,13085,1,2,0:0:0:0:
332,64,13177,1,2,0:0:0:0:
188,166,13361,21,0,0:0:0:0:
256,208,13453,1,2,0:0:0:0:
324,166,13545,1,2,0:0:0:0:
256,248,13637,69,8,1:3:0:0:
137,241,13821,5,2,0:0:0:0:
75,282,13913,1,0,0:0:0:0:
193,292,14005,1,2,0:0:0:0:
357,290,14189,5,2,0:0:0:0:
434,283,14281,1,2,0:0:0:0:
484,338,14373,1,0,0:0:0:0:
410,352,14465,1,2,0:0:0:0:
361,294,14557,1,2,0:0:0:0:
382,223,14649,1,0,0:0:0:0:
330,170,14741,1,2,0:0:0:0:
256,331,14925,53,8,1:3:0:0:
256,45,15109,1,8,1:3:0:0:
387,79,15293,5,2,0:0:0:0:
461,65,15385,1,0,0:0:0:0:
328,30,15478,1,2,0:0:0:0:
131,129,15662,5,2,0:0:0:0:
56,124,15754,1,2,0:0:0:0:
26,57,15846,1,0,0:0:0:0:
100,59,15938,1,2,0:0:0:0:
87,194,16030,1,2,0:0:0:0:
46,256,16122,1,0,0:0:0:0:
81,321,16214,1,2,0:0:0:0:
256,45,16398,53,8,1:3:0:0:
256,331,16582,1,8,1:3:0:0:
126,262,16766,5,2,0:0:0:0:
81,321,16858,1,0,0:0:0:0:
205,273,16950,1,2,0:0:0:0:
378,220,17134,5,2,0:0:0:0:
413,285,17226,1,2,0:0:0:0:
375,349,17318,1,0,0:0:0:0:
340,284,17410,1,2,0:0:0:0:
417,288,17502,1,2,0:0:0:0:
454,224,17594,1,0,0:0:0:0:
418,159,17686,1,2,0:0:0:0:
256,331,17870,53,8,1:3:0:0:
256,45,18054,1,8,1:3:0:0:
164,160,18238,5,2,0:0:0:0:
124,97,18330,1,0,0:0:0:0:
198,92,18422,1,2,0:0:0:0:
266,121,18514,1,0,0:0:0:0:
289,192,18606,1,0,0:0:0:0:
253,257,18698,1,2,0:0:0:0:
177,254,18790,5,2,0:0:0:0:
113,297,18882,1,2,0:0:0:0:
153,360,18974,1,0,0:0:0:0:
217,323,19066,1,2,0:0:0:0:
253,257,19159,5,2,0:0:0:0:
327,261,19251,1,0,0:0:0:0:
389,302,19343,1,2,0:0:0:0:
256,45,19527,37,8,1:3:0:0:
378,84,19711,5,2,0:0:0:0:
450,69,19803,1,0,0:0:0:0:
327,30,19895,1,2,0:0:0:0:
156,235,20079,5,2,0:0:0:0:
83,222,20171,1,2,0:0:0:0:
51,156,20263,1,0,0:0:0:0:
125,161,20355,1,2,0:0:0:0:
160,239,20447,1,2,0:0:0:0:
109,292,20539,1,0,0:0:0:0:
136,361,20631,1,2,0:0:0:0:
256,45,20815,53,8,1:3:0:0:
256,331,20999,1,8,1:3:0:0:
134,359,21183,5,2,0:0:0:0:
60,353,21275,1,0,0:0:0:0:
182,308,21367,1,2,0:0:0:0:
392,297,21551,5,2,0:0:0:0:
465,310,21643,1,2,0:0:0:0:
442,239,21735,1,0,0:0:0:0:
433,212,21797,1,2,0:0:0:0:
444,187,21858,1,0,0:0:0:0:
434,161,21919,1,2,0:0:0:0:
467,95,22011,1,2,0:0:0:0:
419,38,22103,1,0,0:0:0:0:
350,69,22195,1,2,0:0:0:0:
362,142,22287,1,2,1:2:0:0:
256,331,22471,53,8,1:3:0:0:
164,260,22655,5,2,0:0:0:0:
94,237,22747,1,0,0:0:0:0:
228,221,22839,1,2,0:0:0:0:
256,45,23024,69,8,1:3:0:0:
348,124,23208,5,2,0:0:0:0:
418,147,23300,1,0,0:0:0:0:
284,163,23392,1,2,0:0:0:0:
116,170,23576,5,2,1:2:0:0:
48,140,23668,1,0,0:0:0:0:
40,66,23760,1,0,0:0:0:0:
101,26,23852,1,0,0:0:0:0:
123,28,23944,37,2,0:0:0:0:
135,32,24036,1,0,0:0:0:0:
147,36,24128,1,0,0:0:0:0:
157,44,24220,1,0,0:0:0:0:
165,54,24312,1,0,0:0:0:0:
169,66,24404,1,0,0:0:0:0:
174,78,24496,1,0,0:0:0:0:
176,91,24588,1,0,0:0:0:0:
109,125,24680,5,2,0:0:0:0:
122,148,24772,1,0,0:0:0:0:
202,166,24864,5,2,0:0:0:0:
190,193,24956,1,0,0:0:0:0:
115,224,25048,5,2,0:0:0:0:
128,247,25140,1,0,0:0:0:0:
200,280,25232,5,2,0:0:0:0:
188,307,25324,1,0,0:0:0:0:
137,363,25416,54,0,B|184:385|184:385|293:343,1,137,4|0,1:3|0:0,0:0:0:0:
433,299,25692,1,2,0:1:0:0:
470,313,25784,1,8,0:1:0:0:
263,354,25968,1,0,3:0:0:0:
473,229,26152,6,0,B|474:172|474:172|431:67,1,137,4|0,1:3|0:0,0:0:0:0:
296,28,26428,1,2,0:1:0:0:
261,36,26520,1,8,0:1:0:0:
443,97,26705,1,0,3:0:0:0:
186,0,26889,70,0,B|179:36|179:36|201:151,1,137,4|0,1:3|0:0,0:0:0:0:
200,280,27165,1,2,0:1:0:0:
188,307,27257,1,8,0:1:0:0:
197,134,27441,1,0,3:0:0:0:
274,314,27625,6,0,B|281:278|281:278|259:163,1,137,4|0,1:3|0:0,0:0:0:0:
186,0,27901,1,2,0:1:0:0:
230,17,27993,2,0,B|212:26|212:26|120:21|120:21|85:33,1,123.299996237183,4|0,1:2|0:0,0:0:0:0:
109,24,28361,6,0,B|93:73|93:73|117:211,1,137,4|0,1:3|0:0,0:0:0:0:
128,296,28637,1,2,0:1:0:0:
116,330,28729,1,8,0:1:0:0:
107,157,28913,1,0,3:0:0:0:
230,17,29097,54,0,B|246:66|246:66|222:204,1,137,4|0,1:3|0:0,0:0:0:0:
211,289,29373,1,2,0:1:0:0:
223,323,29465,1,8,0:1:0:0:
232,150,29649,1,0,3:0:0:0:
350,9,29833,6,0,B|334:58|334:58|358:196,1,137,4|0,1:3|0:0,0:0:0:0:
369,281,30109,1,2,0:1:0:0:
357,315,30201,1,8,0:1:0:0:
348,142,30385,1,0,3:0:0:0:
446,329,30570,6,0,B|462:280|462:280|438:142,1,137,4|0,1:3|0:0,0:0:0:0:
479,35,30846,1,2,0:1:0:0:
512,51,30938,2,0,B|498:57|498:57|426:54|426:54|399:63,1,102.75,4|0,1:2|0:0,0:0:0:0:
350,9,31306,54,0,B|334:58|334:58|358:196,1,137,4|0,1:3|0:0,0:0:0:0:
369,281,31582,1,2,0:1:0:0:
357,315,31674,1,8,0:1:0:0:
348,142,31858,1,0,3:0:0:0:
286,364,32042,6,0,B|275:324|275:324|310:189,1,137,4|0,1:3|0:0,0:0:0:0:
342,108,32318,1,2,0:1:0:0:
336,69,32410,1,8,0:1:0:0:
298,231,32594,1,0,3:0:0:0:
240,50,32778,21,4,1:3:0:0:
248,84,32870,1,0,3:0:0:0:
254,107,32962,1,0,3:0:0:0:
246,137,33054,1,2,0:1:0:0:
235,165,33146,1,8,0:1:0:0:
90,238,33330,5,2,0:3:0:0:
126,235,33422,2,0,L|186:231,1,51.3750019598008,2|4,0:3|1:3,0:0:0:0:
200,332,33606,69,0,3:0:0:0:
227,317,33698,1,0,3:0:0:0:
256,299,33790,1,2,0:1:0:0:
282,283,33882,37,8,0:1:0:0:
292,283,33944,1,0,3:0:0:0:
302,283,34005,1,0,3:0:0:0:
312,284,34066,2,0,L|366:288,1,51.3750019598008,2|0,3:0|0:0,0:0:0:0:
427,243,34251,1,4,1:3:0:0:
270,203,34435,5,0,3:0:0:0:
280,203,34497,1,0,3:0:0:0:
290,203,34558,1,0,3:0:0:0:
300,204,34619,2,0,L|354:208,1,51.3750019598008,8|0,0:1|0:0,0:0:0:0:
234,125,34803,5,2,0:3:0:0:
248,125,34865,1,2,0:3:0:0:
262,125,34926,1,2,0:3:0:0:
276,126,34987,2,0,L|351:131,1,51.3750019598008,6|0,1:3|0:0,0:0:0:0:
452,91,35171,37,0,3:3:0:0:
436,91,35233,1,0,3:3:0:0:
420,91,35294,1,0,3:3:0:0:
404,92,35355,2,0,L|316:98,1,51.3750019598008,8|0,0:1|0:0,0:0:0:0:
185,49,35539,5,4,3:2:0:0:
204,49,35601,1,4,3:2:0:0:
223,49,35662,1,4,3:2:0:0:
242,50,35723,2,0,B|336:56|336:56|373:23,1,123.299996237183,4|0,1:2|0:0,0:0:0:0:
357,36,36459,54,0,B|336:56|336:56|242:50,1,123.299996237183,2|0,0:0|0:0,0:0:0:0:
1,94,37195,21,0,1:0:0:0:
241,49,37379,1,2,0:0:0:0:
32,221,37563,5,8,0:1:0:0:
172,18,37747,1,2,0:0:0:0:
144,295,37932,5,0,1:0:0:0:
99,55,38116,1,2,0:0:0:0:
275,257,38300,5,8,0:1:0:0:
323,84,38484,1,2,0:0:0:0:
144,295,38668,5,0,1:0:0:0:
122,132,38852,1,2,0:0:0:0:
275,257,39036,5,8,0:1:0:0:
342,14,39220,1,2,0:0:0:0:
144,295,39404,5,0,1:0:0:0:
300,163,39588,1,2,0:0:0:0:
305,144,39649,1,2,0:0:0:0:
310,127,39711,1,0,0:0:0:0:
315,109,39772,1,8,0:1:0:0:
252,333,39956,1,2,0:0:0:0:
320,82,40140,5,0,1:0:0:0:
144,295,40324,1,2,0:0:0:0:
388,204,40508,5,8,0:1:0:0:
110,227,40692,1,2,0:0:0:0:
343,338,40876,53,0,1:0:0:0:
132,158,41060,1,2,0:0:0:0:
102,356,41244,37,8,0:1:0:0:
284,200,41428,1,2,0:0:0:0:
343,338,41612,5,0,1:0:0:0:
188,214,41796,1,2,0:0:0:0:
102,356,41981,5,8,0:1:0:0:
340,150,42165,1,2,0:0:0:0:
144,295,42349,5,0,1:0:0:0:
110,227,42441,1,2,0:0:0:0:
132,158,42533,1,2,0:0:0:0:
150,82,42625,69,0,0:0:0:0:
112,19,42717,1,8,0:1:0:0:
167,49,42809,1,2,0:0:0:0:
94,49,42901,1,0,0:0:0:0:
148,19,42993,1,2,0:0:0:0:
112,82,43085,1,0,1:0:0:0:
370,46,43269,1,2,0:0:0:0:
145,229,43453,5,8,0:1:0:0:
301,21,43637,1,2,0:0:0:0:
267,295,43821,5,0,1:0:0:0:
230,37,44005,1,2,0:0:0:0:
155,305,44189,21,8,0:1:0:0:
184,98,44373,1,2,0:0:0:0:
267,295,44557,5,0,1:0:0:0:
246,142,44741,1,2,0:0:0:0:
155,305,44925,5,8,0:1:0:0:
197,26,45109,1,2,0:0:0:0:
267,295,45293,5,0,1:0:0:0:
114,191,45478,1,2,0:0:0:0:
108,175,45539,1,2,0:0:0:0:
103,159,45600,1,0,0:0:0:0:
98,143,45662,1,8,0:1:0:0:
155,305,45846,1,2,0:0:0:0:
66,65,46030,5,0,1:0:0:0:
85,330,46214,1,2,0:0:0:0:
203,75,46398,5,8,0:1:0:0:
29,275,46582,1,2,0:0:0:0:
280,176,46766,53,0,1:0:0:0:
15,194,46950,1,2,0:0:0:0:
282,345,47134,5,8,0:1:0:0:
51,123,47318,1,2,0:0:0:0:
371,327,47502,6,0,P|400:286|408:229,1,91.3333333333333,2|0,1:2|0:0,0:0:0:0:
300,245,47686,53,2,0:0:0:0:
331,255,47747,1,2,0:0:0:0:
364,251,47809,1,0,0:0:0:0:
389,230,47870,2,0,P|380:180|345:134,1,91.3333333333333,2|0,0:0|0:0,0:0:0:0:
278,226,48054,5,2,0:0:0:0:
306,211,48115,1,2,0:0:0:0:
327,184,48177,1,0,0:0:0:0:
330,152,48238,2,0,P|289:123|232:115,1,91.3333333333333,2|0,0:0|0:0,0:0:0:0:
242,229,48422,53,2,0:0:0:0:
251,198,48483,1,2,0:0:0:0:
246,164,48545,1,0,0:0:0:0:
226,139,48606,1,2,0:0:0:0:
188,76,48698,1,2,0:0:0:0:
221,8,48790,1,0,0:0:0:0:
294,5,48882,1,2,0:0:0:0:
359,47,48974,6,0,P|400:43|447:16,1,68.5,0|0,1:0|0:0,0:0:0:0:
141,17,49159,2,0,P|100:21|53:48,1,68.5,2|0,0:0|0:0,0:0:0:0:
322,103,49343,6,0,P|348:71|362:18,1,68.5,8|0,0:1|0:0,0:0:0:0:
146,235,49528,2,0,P|119:266|105:319,1,68.5,2|0,0:0|0:0,0:0:0:0:
336,168,49711,6,0,P|332:127|305:80,1,68.5,0|0,1:0|0:0,0:0:0:0:
315,308,49896,2,0,P|319:349|346:395,1,68.5,2|0,0:0|0:0,0:0:0:0:
392,204,50079,6,0,P|360:177|307:163,1,68.5,8|0,0:1|0:0,0:0:0:0:
453,303,50264,2,0,P|484:329|537:343,1,68.5,2|0,0:0|0:0,0:0:0:0:
457,189,50447,6,0,P|416:193|369:220,1,68.5,0|0,1:0|0:0,0:0:0:0:
457,189,50632,2,0,P|492:200|552:172,1,68.5,2|0,0:0|0:0,0:0:0:0:
494,132,50815,6,0,P|467:163|453:216,1,68.5,8|0,0:1|0:0,0:0:0:0:
213,376,51000,2,0,P|196:349|184:281,1,68.5,2|0,0:0|0:0,0:0:0:0:
480,66,51183,5,0,1:0:0:0:
246,182,51367,1,2,0:0:0:0:
246,218,51428,1,2,0:0:0:0:
259,252,51490,1,0,0:0:0:0:
286,275,51551,2,0,B|318:286|318:286|348:277|348:277|389:293,1,102.750003919602,8|0,0:1|0:0,0:0:0:0:
480,306,51735,2,0,B|444:292|444:292|414:301|414:301|382:290,1,102.750003919602,2|0,0:0|0:0,0:0:0:0:
153,337,51919,6,0,P|112:341|65:368,1,68.5,0|0,1:0|0:0,0:0:0:0:
371,367,52104,2,0,P|412:363|459:336,1,68.5,2|0,0:0|0:0,0:0:0:0:
190,281,52288,6,0,P|164:313|150:366,1,68.5,8|0,0:1|0:0,0:0:0:0:
366,149,52471,2,0,P|393:118|407:65,1,68.5,2|0,0:0|0:0,0:0:0:0:
176,216,52656,54,0,P|180:257|207:304,1,68.5,0|0,1:0|0:0,0:0:0:0:
197,76,52839,2,0,P|193:35|166:-11,1,68.5,2|0,0:0|0:0,0:0:0:0:
120,180,53024,38,0,P|152:207|205:221,1,68.5,8|0,0:1|0:0,0:0:0:0:
59,81,53208,2,0,P|28:55|-25:41,1,68.5,2|0,0:0|0:0,0:0:0:0:
55,195,53392,6,0,P|96:191|143:164,1,68.5,0|0,1:0|0:0,0:0:0:0:
55,195,53576,2,0,P|20:184|-40:212,1,68.5,2|0,0:0|0:0,0:0:0:0:
18,252,53760,6,0,P|45:221|59:168,1,68.5,8|0,0:1|0:0,0:0:0:0:
299,8,53944,2,0,P|316:35|328:103,1,68.5,2|0,0:0|0:0,0:0:0:0:
103,265,54128,5,0,1:0:0:0:
155,205,54220,1,2,0:0:0:0:
231,197,54312,1,2,0:0:0:0:
301,232,54404,1,0,0:0:0:0:
388,187,54496,5,2,3:2:0:0:
448,238,54588,1,2,3:2:0:0:
455,314,54680,1,2,3:1:0:0:
421,384,54772,1,2,0:0:0:0:
359,337,54864,6,0,P|400:341|447:368,1,68.5,0|0,1:0|0:0,0:0:0:0:
141,367,55048,2,0,P|100:363|53:336,1,68.5,2|0,0:0|0:0,0:0:0:0:
322,281,55233,54,0,P|348:313|362:366,1,68.5,8|0,0:1|0:0,0:0:0:0:
146,149,55416,2,0,P|119:118|105:65,1,68.5,2|0,0:0|0:0,0:0:0:0:
336,216,55601,6,0,P|332:257|305:304,1,68.5,0|0,1:0|0:0,0:0:0:0:
315,76,55784,2,0,P|319:35|346:-11,1,68.5,2|0,0:0|0:0,0:0:0:0:
392,180,55967,22,0,P|360:207|307:221,1,68.5,8|0,0:1|0:0,0:0:0:0:
453,81,56152,2,0,P|484:55|537:41,1,68.5,2|0,0:0|0:0,0:0:0:0:
457,195,56335,6,0,P|416:191|369:164,1,68.5,0|0,1:0|0:0,0:0:0:0:
457,195,56520,2,0,P|492:184|552:212,1,68.5,2|0,0:0|0:0,0:0:0:0:
494,252,56705,6,0,P|467:221|453:168,1,68.5,8|0,0:1|0:0,0:0:0:0:
213,8,56889,2,0,P|196:35|184:103,1,68.5,2|0,0:0|0:0,0:0:0:0:
480,318,57073,5,0,1:0:0:0:
246,202,57257,1,2,0:0:0:0:
246,166,57318,1,2,0:0:0:0:
259,132,57380,1,0,0:0:0:0:
286,109,57441,2,0,B|318:98|318:98|348:107|348:107|389:91,1,102.750003919602,8|0,0:1|0:0,0:0:0:0:
480,78,57625,2,0,B|444:92|444:92|414:83|414:83|382:94,1,102.750003919602,2|0,0:0|0:0,0:0:0:0:
153,47,57809,6,0,P|112:43|65:16,1,68.5,0|0,1:0|0:0,0:0:0:0:
371,17,57993,2,0,P|412:21|459:48,1,68.5,2|0,0:0|0:0,0:0:0:0:
190,103,58178,6,0,P|164:71|150:18,1,68.5,8|0,0:1|0:0,0:0:0:0:
366,235,58361,2,0,P|393:266|407:319,1,68.5,2|0,0:0|0:0,0:0:0:0:
176,168,58546,54,0,P|180:127|207:80,1,68.5,0|0,1:0|0:0,0:0:0:0:
197,308,58729,2,0,P|193:349|166:395,1,68.5,2|0,0:0|0:0,0:0:0:0:
120,204,58914,38,0,P|152:177|205:163,1,68.5,8|0,0:1|0:0,0:0:0:0:
59,303,59097,2,0,P|28:329|-25:343,1,68.5,2|0,0:0|0:0,0:0:0:0:
55,189,59281,37,2,1:2:0:0:
119,203,59373,1,0,0:0:0:0:
73,246,59465,1,2,0:0:0:0:
123,207,59557,5,2,0:0:0:0:
193,209,59649,1,0,0:0:0:0:
159,274,59741,1,2,0:0:0:0:
197,213,59833,5,2,0:0:0:0:
269,182,59925,1,0,0:0:0:0:
260,260,60017,1,2,0:0:0:0:
273,186,60109,37,2,0:0:0:0:
312,113,60201,1,0,0:0:0:0:
360,192,60293,1,0,0:0:0:0:
344,275,60385,1,2,0:0:0:0:
407,330,60478,1,2,0:0:0:0:
486,302,60570,1,0,0:0:0:0:
501,219,60662,1,2,0:0:0:0:
436,164,60754,2,0,B|421:96|480:53|480:53|408:71|301:-10|213:49,1,383.6,4|0,0:3|0:0,0:0:0:0:
171,87,62226,53,2,0:0:0:0:
119,27,62502,1,0,0:0:0:0:
171,87,62778,1,0,0:0:0:0:
59,79,62962,1,0,0:0:0:0:
111,139,63146,6,0,L|117:163,3,18.2666666666667,2|2|0|2,0:0|0:0|0:0|0:0,0:0:0:0:
318,250,63698,69,2,0:0:0:0:
403,229,63974,1,0,0:0:0:0:
318,250,64251,1,0,0:0:0:0:
423,314,64435,1,2,0:0:0:0:
338,334,64711,1,0,0:0:0:0:
423,314,64987,1,0,0:0:0:0:
318,250,65171,1,2,0:0:0:0:
423,314,65447,1,0,0:0:0:0:
403,229,65723,1,0,0:0:0:0:
338,334,65907,1,0,0:0:0:0:
403,229,66091,21,2,0:0:0:0:
411,214,66152,1,2,0:0:0:0:
415,198,66214,1,0,0:0:0:0:
412,181,66275,1,2,0:0:0:0:
392,138,66367,1,2,0:0:0:0:
393,91,66459,1,0,0:0:0:0:
425,58,66551,1,2,0:0:0:0:
466,125,66643,69,2,0:0:0:0:
351,21,66919,1,0,0:0:0:0:
466,125,67195,1,0,0:0:0:0:
247,136,67379,1,2,0:0:0:0:
362,240,67655,1,0,0:0:0:0:
247,136,67932,1,0,0:0:0:0:
466,125,68116,1,2,0:0:0:0:
247,136,68392,1,0,0:0:0:0:
351,21,68668,1,0,0:0:0:0:
362,240,68852,1,2,0:0:0:0:
247,136,69036,5,2,0:0:0:0:
218,125,69097,1,2,0:0:0:0:
187,130,69159,1,0,0:0:0:0:
164,151,69220,1,2,0:0:0:0:
126,371,69588,53,2,0:0:0:0:
0,248,69864,1,0,0:0:0:0:
126,371,70140,1,0,0:0:0:0:
123,122,70324,1,2,0:0:0:0:
249,245,70600,1,0,0:0:0:0:
123,122,70876,1,0,0:0:0:0:
126,371,71060,1,2,0:0:0:0:
123,122,71244,1,0,0:0:0:0:
186,183,71336,1,2,0:0:0:0:
63,309,71520,1,2,0:0:0:0:
126,371,71612,1,2,0:0:0:0:
249,245,71797,21,2,0:0:0:0:
326,262,71889,1,0,0:0:0:0:
366,330,71981,1,2,0:0:0:0:
286,326,72073,1,0,0:0:0:0:
286,326,72165,1,2,0:0:0:0:
326,262,72257,1,2,0:0:0:0:
342,185,72349,1,0,0:0:0:0:
309,112,72441,1,2,0:0:0:0:
359,52,72533,6,0,P|317:34|238:82,1,137,0|0,1:0|3:0,0:0:0:0:
124,97,72809,2,0,P|177:57|241:74,1,137
201,203,73085,2,0,L|191:127,1,68.5
40,83,73269,6,0,P|65:156|139:180,1,137,2|0,0:0|3:0,0:0:0:0:
162,294,73545,2,0,P|111:235|127:159,1,137
255,162,73821,2,0,L|200:203,1,68.5
201,384,74005,6,0,P|258:331|242:255,1,137,2|0,0:0|3:0,0:0:0:0:
375,263,74281,2,0,P|328:296|244:265,1,137,2|0,0:0|0:0,0:0:0:0:
255,162,74557,2,0,L|302:213,1,68.5
458,290,74741,2,0,L|505:341,1,68.5,2|0,0:0|0:0,0:0:0:0:
372,190,74925,37,2,0:0:0:0:
396,190,74986,1,2,0:0:0:0:
419,201,75047,1,0,0:0:0:0:
436,219,75109,1,2,0:0:0:0:
375,263,75293,53,0,3:0:0:0:
421,332,75478,38,0,P|379:349|300:302,1,137,2|0,0:0|3:0,0:0:0:0:
186,286,75754,2,0,P|238:326|303:309,1,137
262,181,76030,2,0,L|252:257,1,68.5
101,301,76214,6,0,P|125:227|200:203,1,137,2|0,0:0|3:0,0:0:0:0:
223,89,76490,2,0,P|172:148|188:224,1,137
316,221,76766,2,0,L|261:180,1,68.5
262,0,76950,6,0,P|319:52|303:129,1,137,2|0,0:0|3:0,0:0:0:0:
436,121,77226,2,0,P|389:87|305:118,1,137
316,221,77502,2,0,L|363:170,1,68.5
369,324,77686,2,0,L|301:308,1,68.5,2|0,0:0|0:0,0:0:0:0:
101,301,77870,37,2,0:0:0:0:
127,319,77932,1,2,0:0:0:0:
158,322,77993,1,0,0:0:0:0:
188,314,78054,1,2,0:0:0:0:
151,247,78146,1,2,0:0:0:0:
189,182,78238,1,0,3:0:0:0:
192,105,78330,1,2,0:0:0:0:
144,42,78422,6,0,P|186:24|265:72,1,137,2|0,0:0|3:0,0:0:0:0:
379,87,78698,2,0,P|326:47|262:64,1,137
302,193,78974,2,0,L|312:117,1,68.5
463,73,79158,6,0,P|438:146|364:170,1,137,2|0,0:0|3:0,0:0:0:0:
341,284,79434,2,0,P|392:225|376:149,1,137
248,152,79710,2,0,L|303:193,1,68.5
302,374,79894,6,0,P|245:321|261:245,1,137,2|0,0:0|3:0,0:0:0:0:
128,253,80170,2,0,P|175:286|259:255,1,137
248,152,80446,2,0,L|201:203,1,68.5
45,280,80630,2,0,L|-2:331,1,68.5,2|0,0:0|0:0,0:0:0:0:
131,180,80814,37,2,0:0:0:0:
107,180,80875,1,2,0:0:0:0:
84,191,80938,1,0,0:0:0:0:
67,209,80998,1,2,0:0:0:0:
128,253,81183,53,0,3:0:0:0:
82,322,81368,38,0,P|124:339|203:292,1,137,2|0,0:0|3:0,0:0:0:0:
317,276,81644,2,0,P|265:316|200:299,1,137
241,171,81920,2,0,L|251:247,1,68.5
402,291,82104,6,0,P|378:217|303:193,1,137,2|0,0:0|3:0,0:0:0:0:
280,79,82380,2,0,P|331:138|315:214,1,137
187,211,82656,2,0,L|242:170,1,68.5
410,143,82839,2,0,L|465:102,1,68.5,2|0,0:0|0:0,0:0:0:0:
195,104,83024,1,0,0:0:0:0:
119,102,83116,2,0,L|64:61,1,68.5,2|0,0:0|0:0,0:0:0:0:
386,65,83300,1,2,0:0:0:0:
464,102,83392,2,0,L|523:57,1,68.5
313,5,83576,53,2,0:0:0:0:
280,79,83668,1,2,0:0:0:0:
329,146,83760,1,0,0:0:0:0:
410,143,83852,1,2,0:0:0:0:
474,182,83944,1,2,0:0:0:0:
482,260,84036,1,0,0:0:0:0:
445,330,84128,1,2,0:0:0:0:
360,358,84220,1,0,0:0:0:0:
379,278,84312,54,0,P|380:231|367:186,2,68.5,10|0|0,0:2|3:0|3:0,0:0:0:0:
275,282,84588,1,2,0:1:0:0:
275,282,84680,2,0,P|268:318|270:351,3,68.5,8|0|0|0,0:0|3:0|3:0|3:0,0:0:0:0:
209,204,85048,2,0,P|174:197|141:199,2,68.5,8|0|0,0:0|3:0|3:0,0:0:0:0:
136,323,85324,1,2,0:1:0:0:
136,323,85416,2,0,P|102:324|67:318,3,68.5,8|0|0|0,0:0|3:0|3:0|3:0,0:0:0:0:
141,198,85784,6,0,P|135:152|114:110,2,68.5,8|0|0,0:0|3:0|3:0,0:0:0:0:
33,162,86060,1,2,0:1:0:0:
16,131,86152,2,0,P|21:85|43:43,3,68.5,8|0|0|0,0:0|3:0|3:0|3:0,0:0:0:0:
127,131,86520,2,0,L|111:72,3,45.6666666666667,8|0|0|0,0:0|3:0|3:0|3:0,0:0:0:0:
230,102,86797,1,2,0:1:0:0:
223,67,86889,2,0,P|189:35|145:16,2,68.5,8|0|0,0:0|3:0|3:0,0:0:0:0:
307,65,87134,1,2,0:1:0:0:
314,60,87195,1,2,0:1:0:0:
322,56,87257,70,0,P|316:96|327:142,2,68.5,8|0|0,0:0|3:0|3:0,0:0:0:0:
424,80,87533,1,2,0:1:0:0:
439,97,87625,2,0,P|444:137|434:183,3,68.5,8|0|0|0,0:0|3:0|3:0|3:0,0:0:0:0:
324,227,87993,2,0,P|318:267|329:313,2,68.5,8|0|0,0:0|3:0|3:0,0:0:0:0:
430,246,88269,1,2,0:1:0:0:
441,268,88361,2,0,P|446:308|436:354,3,68.5,8|0|0|0,0:0|3:0|3:0|3:0,0:0:0:0:
322,294,88729,6,0,L|331:339,3,45.6666666666667,8|0|0|0,0:0|3:0|3:0|3:0,0:0:0:0:
198,288,89005,1,2,0:1:0:0:
198,324,89097,2,0,P|211:351|235:381,3,68.5,8|0|0|0,0:0|3:0|3:0|3:0,0:0:0:0:
259,231,89465,6,0,L|254:180,2,45.6666666666667,8|0|0,0:0|3:0|3:0,0:0:0:0:
137,203,89649,2,0,P|139:169|157:127,1,68.5,2|0,0:1|3:0,0:0:0:0:
374,182,89833,2,0,P|366:150|341:111,1,68.5,8|0,0:0|3:0,0:0:0:0:
246,54,90017,6,0,L|248:88,5,22.8333333333333,2|0|0|0|0|0,3:1|3:0|3:0|3:0|3:0|3:0,0:0:0:0:
210,26,90201,6,0,P|161:31|116:53,1,82.1999974914552,8|0,0:0|0:0,0:0:0:0:
58,221,90385,2,0,P|106:215|152:194,1,82.1999974914552,8|0,0:0|0:0,0:0:0:0:
220,0,90570,6,0,P|213:26|208:54,2,54.7999983276368,8|0|0,0:0|3:0|3:0,0:0:0:0:
289,33,90754,2,0,P|295:59|298:86,2,54.7999983276368,8|0|0,0:0|3:0|3:0,0:0:0:0:
193,61,90938,54,0,P|188:88|188:115,2,54.7999983276368,8|0|0,0:0|3:0|3:0,0:0:0:0:
307,74,91122,2,0,P|313:100|316:127,2,54.7999983276368,8|0|0,0:0|3:0|3:0,0:0:0:0:
174,113,91306,6,0,P|171:140|173:167,2,54.7999983276368,8|0|0,0:0|3:0|3:0,0:0:0:0:
333,125,91490,2,0,P|337:152|337:179,2,54.7999983276368,8|0|0,0:0|3:0|3:0,0:0:0:0:
160,172,91674,6,0,P|160:199|164:226,2,54.7999983276368,8|0|0,0:0|3:0|3:0,0:0:0:0:
355,184,91858,2,0,P|354:211|350:238,2,54.7999983276368,8|0|0,0:0|3:0|3:0,0:0:0:0:
155,239,92042,54,0,P|160:265|168:291,2,54.7999983276368,8|0|0,0:0|3:0|3:0,0:0:0:0:
358,252,92226,2,0,P|352:278|344:304,2,54.7999983276368,8|0|0,0:0|3:0|3:0,0:0:0:0:
160,308,92410,6,0,P|169:333|182:357,2,54.7999983276368,8|0|0,0:0|3:0|3:0,0:0:0:0:
364,329,92594,2,0,P|354:354|341:378,2,54.7999983276368,8|0|0,0:0|3:0|3:0,0:0:0:0:
153,340,92778,6,0,P|167:363|184:384,2,54.7999983276368,8|0|0,0:0|3:0|3:0,0:0:0:0:
278,345,92962,2,0,L|238:336,5,27.3999991638184,8|0|0|0|0|0,3:0|3:0|3:0|3:0|3:0|3:0,0:0:0:0:
229,316,93146,38,0,L|284:304,1,34.25,0|0,1:0|0:0,0:0:0:0:
232,293,93238,2,0,L|285:305,1,34.25,0|0,1:0|0:0,0:0:0:0:
246,273,93330,2,0,L|290:307,1,34.25,0|0,1:0|0:0,0:0:0:0:
267,258,93422,2,0,L|292:308,1,34.25,0|0,1:0|0:0,0:0:0:0:
292,223,93514,6,0,L|236:211,1,44.5249979618073,0|0,1:0|0:0,0:0:0:0:
291,201,93606,2,0,L|235:213,1,44.5249979618073,0|0,1:0|0:0,0:0:0:0:
276,178,93698,2,0,L|231:212,1,44.5249979618073,0|0,1:0|0:0,0:0:0:0:
254,167,93790,2,0,L|227:217,1,44.5249979618073,0|0,1:0|0:0,0:0:0:0:
227,132,93882,6,0,L|284:119,1,54.8,0|0,1:0|0:0,0:0:0:0:
229,108,93974,2,0,L|286:122,1,54.8,0|0,1:0|0:0,0:0:0:0:
243,86,94066,2,0,L|289:122,1,54.8,0|0,1:0|0:0,0:0:0:0:
265,71,94158,2,0,L|291:124,1,54.8,0|0,1:0|0:0,0:0:0:0:
306,71,94251,54,0,L|238:56,1,65.0749982623101,0|0,1:0|0:0,0:0:0:0:
301,41,94343,2,0,L|233:56,1,65.0749982623101,0|0,1:0|0:0,0:0:0:0:
285,14,94435,2,0,L|229:56,1,65.0749982623101,0|0,1:0|0:0,0:0:0:0:
260,0,94527,2,0,L|228:61,1,65.0749982623101,0|0,1:0|0:0,0:0:0:0:
164,13,94619,1,0,1:0:0:0:
256,192,94711,12,12,95723,0:3:0:0:
48,85,96091,6,0,L|59:181,1,68.5000026130677,2|0,0:1|0:0,0:0:0:0:
74,258,96336,2,0,L|69:216,1,31.9666656911214,2|0,0:0|1:1,0:0:0:0:
0,348,96582,5,0,3:0:0:0:
97,365,96705,1,0,3:0:0:0:
178,275,96827,70,0,L|170:206,1,68.5000026130677,2|0,0:1|0:0,0:0:0:0:
152,95,97073,2,0,L|155:126,1,31.9666656911214,2|0,0:0|1:0,0:0:0:0:
233,26,97318,5,0,3:0:0:0:
336,65,97441,1,0,3:0:0:0:
240,116,97563,70,0,L|251:212,1,68.5000026130677,2|0,0:1|0:0,0:0:0:0:
266,289,97809,2,0,L|261:247,1,31.9666656911214,2|0,0:0|1:0,0:0:0:0:
189,360,98054,5,0,3:0:0:0:
283,383,98177,1,0,3:0:0:0:
367,315,98300,70,0,L|359:246,1,68.5000026130677,2|0,0:1|0:0,0:0:0:0:
345,136,98545,2,0,L|348:167,1,31.9666656911214,2|0,0:0|1:0,0:0:0:0:
336,65,98790,2,0,L|333:47,1,13.6999995819092
464,85,99036,6,0,L|453:181,1,68.5000026130677,2|0,0:1|0:0,0:0:0:0:
438,258,99281,2,0,L|443:216,1,31.9666656911214,2|0,0:0|1:0,0:0:0:0:
512,348,99527,69,0,3:0:0:0:
415,365,99650,1,0,3:0:0:0:
334,275,99772,6,0,L|342:206,1,68.5000026130677,2|0,0:1|0:0,0:0:0:0:
360,95,100018,2,0,L|357:126,1,31.9666656911214,2|0,0:0|1:0,0:0:0:0:
279,26,100263,69,0,3:0:0:0:
176,65,100386,1,0,3:0:0:0:
272,116,100508,6,0,L|261:212,1,68.5000026130677,2|0,0:1|0:0,0:0:0:0:
246,289,100754,2,0,L|251:247,1,31.9666656911214,2|0,0:0|1:0,0:0:0:0:
323,360,100999,69,0,3:0:0:0:
229,383,101122,1,0,3:0:0:0:
145,315,101245,6,0,L|159:199,1,91.3333333333333,2|0,0:1|0:0,0:0:0:0:
182,39,101490,53,4,1:3:0:0:
170,134,101612,1,4,1:3:0:0:
48,85,101735,1,4,1:3:0:0:
155,224,101858,1,4,1:3:0:0:
48,85,101981,22,0,L|59:181,1,68.5000026130677,4|0,1:3|0:0,0:0:0:0:
74,258,102226,2,0,L|69:216,1,31.9666656911214,2|0,0:0|1:0,0:0:0:0:
0,348,102472,69,0,3:0:0:0:
97,365,102595,1,0,3:0:0:0:
178,275,102717,6,0,L|170:206,1,68.5000026130677,2|0,0:1|0:0,0:0:0:0:
152,95,102963,2,0,L|155:126,1,31.9666656911214,2|0,0:0|1:0,0:0:0:0:
233,26,103208,69,0,3:0:0:0:
336,65,103331,1,0,3:0:0:0:
240,116,103453,6,0,L|251:212,1,68.5000026130677,2|0,0:1|0:0,0:0:0:0:
266,289,103699,2,0,L|261:247,1,31.9666656911214,2|0,0:0|1:0,0:0:0:0:
189,360,103944,69,0,3:0:0:0:
283,383,104067,1,0,3:0:0:0:
367,315,104190,54,0,L|359:246,1,68.5000026130677,2|0,0:1|0:0,0:0:0:0:
345,136,104435,2,0,L|348:167,1,31.9666656911214,2|0,0:0|1:0,0:0:0:0:
336,65,104680,2,0,L|333:47,1,13.6999995819092
464,85,104925,38,0,L|453:181,1,68.5000026130677,2|0,0:1|0:0,0:0:0:0:
438,258,105171,2,0,L|443:216,1,31.9666656911214,2|0,0:0|1:0,0:0:0:0:
512,348,105416,69,0,3:0:0:0:
415,365,105539,1,0,3:0:0:0:
334,275,105662,6,0,L|342:206,1,68.5000026130677,2|0,0:1|0:0,0:0:0:0:
360,95,105907,2,0,L|357:126,1,31.9666656911214,2|0,0:0|1:0,0:0:0:0:
279,26,106152,69,0,3:0:0:0:
176,65,106275,1,0,3:0:0:0:
256,192,106398,5,0,1:0:0:0:
73,168,106520,1,2,0:0:0:0:
191,273,106643,1,0,0:0:0:0:
71,355,106766,53,0,1:0:0:0:
256,320,106889,1,2,0:0:0:0:
441,355,107011,1,2,0:0:0:0:
321,273,107134,5,2,0:0:0:0:
341,198,107226,1,2,0:0:0:0:
334,124,107318,1,0,0:0:0:0:
400,99,107410,1,2,0:2:0:0:
439,168,107502,5,2,0:0:0:0:
404,103,107594,1,0,0:0:0:0:
345,50,107686,1,0,0:0:0:0:
269,68,107778,1,2,0:2:0:0:
203,23,107870,6,0,L|174:193,1,164.39999498291,4|0,0:3|0:0,0:0:0:0:
143,359,108146,1,2,0:0:0:0:
77,290,108238,2,0,L|96:184,1,82.1999974914552,0|0,1:1|0:0,0:0:0:0:
225,313,108422,53,0,3:0:0:0:
306,267,108514,1,0,3:0:0:0:
252,150,108606,6,0,L|223:320,1,164.39999498291,4|0,0:3|0:0,0:0:0:0:
91,209,108882,1,2,0:0:0:0:
25,140,108974,2,0,L|44:34,1,82.1999974914552,0|0,1:1|0:0,0:0:0:0:
306,267,109159,5,0,3:0:0:0:
387,221,109251,1,0,3:0:0:0:
333,104,109343,54,0,L|304:274,1,164.39999498291,4|0,0:3|0:0,0:0:0:0:
175,185,109619,1,2,0:0:0:0:
109,116,109711,2,0,L|128:10,1,82.1999974914552,0|0,1:1|0:0,0:0:0:0:
387,221,109895,5,0,3:0:0:0:
468,175,109987,1,0,3:0:0:0:
414,58,110079,6,0,L|385:228,1,164.39999498291,4|0,0:3|0:0,0:0:0:0:
252,150,110355,1,2,0:0:0:0:
175,185,110447,2,0,L|165:249,1,51.3750019598008,4|0,1:2|0:0,0:0:0:0:
83,259,110631,6,0,L|90:208,1,51.3750019598008,4|0,0:1|0:0,0:0:0:0:
309,23,110815,38,0,L|338:193,1,164.39999498291,4|0,0:3|0:0,0:0:0:0:
369,359,111091,1,2,0:0:0:0:
435,290,111183,2,0,L|416:184,1,82.1999974914552,0|0,1:1|0:0,0:0:0:0:
287,313,111367,5,0,3:0:0:0:
206,267,111459,1,0,3:0:0:0:
260,150,111551,6,0,L|289:320,1,164.39999498291,4|0,0:3|0:0,0:0:0:0:
421,209,111827,1,2,0:0:0:0:
487,140,111919,2,0,L|468:34,1,82.1999974914552,0|0,1:0|0:0,0:0:0:0:
206,267,112104,53,0,3:0:0:0:
125,221,112196,1,0,3:0:0:0:
179,104,112288,6,0,L|208:274,1,164.39999498291,4|0,0:3|0:0,0:0:0:0:
337,185,112564,1,2,0:0:0:0:
403,116,112656,2,0,L|384:10,1,82.1999974914552,0|0,1:0|0:0,0:0:0:0:
125,221,112840,5,0,3:0:0:0:
44,175,112932,1,0,3:0:0:0:
82,1,113024,38,0,L|103:127,1,82.1999974914552,4|0,0:3|0:0,0:0:0:0:
206,266,113208,6,0,L|192:184,1,82.1999974914552,2|0,0:0|0:0,0:0:0:0:
246,68,113392,6,0,L|259:149,1,82.1999974914552,0|0,1:0|0:0,0:0:0:0:
337,185,113576,6,0,L|323:103,1,82.1999974914552,4|0,3:1|0:0,0:0:0:0:
464,22,113760,54,0,P|456:104|413:179,1,164.39999498291,4|0,0:3|0:0,0:0:0:0:
247,354,114036,1,2,0:0:0:0:
215,268,114128,1,0,1:0:0:0:
268,277,114220,1,4,0:1:0:0:
319,287,114312,1,0,3:0:0:0:
365,292,114404,1,0,3:0:0:0:
445,302,114496,6,0,P|377:254|334:179,1,164.39999498291,4|0,0:3|0:0,0:0:0:0:
215,268,114772,1,2,0:0:0:0:
247,182,114864,1,0,1:0:0:0:
194,191,114956,1,4,0:1:0:0:
143,201,115048,1,0,3:0:0:0:
97,206,115140,1,0,3:0:0:0:
17,216,115232,6,0,P|84:168|127:93,1,164.39999498291,4|0,0:3|0:0,0:0:0:0:
247,182,115508,1,2,0:0:0:0:
215,96,115600,1,0,1:0:0:0:
268,105,115692,1,4,0:1:0:0:
319,115,115784,1,0,3:0:0:0:
365,120,115876,1,0,3:0:0:0:
445,130,115968,53,4,0:3:0:0:
410,171,116060,1,0,3:0:0:0:
376,210,116152,1,0,0:3:0:0:
349,247,116244,1,2,0:0:0:0:
281,295,116336,69,0,1:0:0:0:
270,267,116398,1,2,0:0:0:0:
261,240,116459,1,0,0:0:0:0:
251,218,116520,1,2,0:0:0:0:
234,168,116612,1,0,3:0:0:0:
215,96,116705,5,4,0:3:0:0:
130,101,116797,1,0,3:0:0:0:
74,156,116889,1,2,0:0:0:0:
88,172,116950,1,2,0:0:0:0:
108,178,117011,1,0,0:0:0:0:
128,170,117073,70,0,L|104:127,1,41.0999987457276,0|0,1:0|0:0,0:0:0:0:
144,156,117165,2,0,L|101:131,1,41.0999987457276,0|0,3:1|0:0,0:0:0:0:
149,136,117257,2,0,L|100:135,1,41.0999987457276,0|0,3:1|0:0,0:0:0:0:
145,116,117349,2,0,L|102:139,1,41.0999987457276,0|0,3:1|0:0,0:0:0:0:
130,101,117441,2,0,L|104:143,1,41.0999987457276,4|0,0:3|0:0,0:0:0:0:
110,95,117533,2,0,L|109:143,1,41.0999987457276,0|0,3:1|0:0,0:0:0:0:
89,100,117625,2,0,L|112:142,1,41.0999987457276,0|0,3:1|0:0,0:0:0:0:
74,114,117717,2,0,L|115:139,1,41.0999987457276,0|0,3:1|0:0,0:0:0:0:
69,136,117809,2,0,L|117:136,1,41.0999987457276,0|0,1:0|0:0,0:0:0:0:
74,156,117901,2,0,L|116:132,1,41.0999987457276,0|0,3:1|0:0,0:0:0:0:
88,172,117993,2,0,L|113:130,1,41.0999987457276,0|0,3:1|0:0,0:0:0:0:
108,178,118085,2,0,L|108:129,1,41.0999987457276,0|0,3:1|0:0,0:0:0:0:
109,140,118177,5,8,1:2:0:0:
256,352,119281,6,0,L|254:164,1,137,14|0,1:0|0:0,0:0:0:0:
96,246,119649,69,0,1:0:0:0:
174,268,119741,2,0,P|248:228|244:138,1,102.750003919602,2|0,3:1|0:0,0:0:0:0:
338,264,119925,1,2,3:2:0:0:
334,268,120017,2,0,P|260:228|264:138,1,102.750003919602,8|0,0:1|0:0,0:0:0:0:
306,117,120201,6,0,L|340:216,1,68.5,0|0,3:0|0:0,0:0:0:0:
367,44,120385,2,0,P|265:32|211:118,1,205.500007839203,0|0,1:0|3:0,0:0:0:0:
110,114,120662,1,2,0:0:0:0:
114,110,120754,2,0,P|203:103|234:129,1,102.750003919602,8|0,0:1|0:0,0:0:0:0:
328,181,120938,6,0,L|396:102,1,68.5,2|0,3:2|0:0,0:0:0:0:
22,82,121122,2,0,P|119:208|206:142,1,205.500007839203,0|0,1:0|3:0,0:0:0:0:
152,304,121398,1,2,0:0:0:0:
148,300,121490,2,0,P|138:202|182:170,1,102.750003919602,8|0,0:1|0:0,0:0:0:0:
0,318,121674,2,0,L|71:262,1,68.5,0|0,3:2|0:0,0:0:0:0:
216,243,121858,2,0,L|269:285,1,68.5,0|0,1:0|0:0,0:0:0:0:
83,352,122042,37,2,3:2:0:0:
124,376,122103,1,2,0:0:0:0:
173,376,122165,1,0,0:0:0:0:
215,353,122226,2,0,P|249:308|306:278,1,68.5,8|0,0:1|0:0,0:0:0:0:
472,361,122410,2,0,P|416:354|361:319,1,68.5,0|0,3:1|0:0,0:0:0:0:
392,104,122594,5,0,1:0:0:0:
414,182,122686,2,0,P|374:256|284:252,1,102.750003919602,2|0,3:1|0:0,0:0:0:0:
410,346,122870,1,2,3:2:0:0:
414,342,122962,2,0,P|374:268|284:272,1,102.750003919602,8|0,0:1|0:0,0:0:0:0:
263,314,123146,6,0,L|362:348,1,68.5,0|0,3:0|0:0,0:0:0:0:
190,375,123330,2,0,P|178:273|264:219,1,205.500007839203,0|0,1:0|0:0,0:0:0:0:
260,118,123607,1,2,0:0:0:0:
256,122,123699,2,0,P|249:211|275:242,1,102.750003919602,8|0,0:1|0:0,0:0:0:0:
327,336,123883,6,0,L|248:404,1,68.5,2|0,3:2|0:0,0:0:0:0:
228,30,124067,2,0,P|354:127|288:214,1,205.500007839203,0|0,1:0|0:0,0:0:0:0:
450,160,124343,1,2,0:0:0:0:
446,156,124435,2,0,P|348:146|316:190,1,102.750003919602,8|0,0:1|0:0,0:0:0:0:
464,8,124619,2,0,L|408:79,1,68.5,0|0,3:0|0:0,0:0:0:0:
389,224,124803,2,0,L|431:277,1,68.5,0|0,1:0|0:0,0:0:0:0:
218,313,124987,37,2,3:2:0:0:
199,271,125048,1,2,0:0:0:0:
208,226,125109,1,0,0:0:0:0:
241,194,125171,1,8,0:1:0:0:
278,265,125263,1,2,0:0:0:0:
291,119,125355,1,0,3:0:0:0:
171,158,125447,1,2,0:0:0:0:
134,87,125539,5,0,1:0:0:0:
211,66,125631,2,0,P|285:106|281:196,1,102.750003919602,2|0,3:1|0:0,0:0:0:0:
375,70,125815,1,2,0:0:0:0:
371,66,125907,2,0,P|297:106|301:195,1,102.750003919602,8|0,0:1|0:0,0:0:0:0:
344,216,126091,6,0,L|378:117,1,68.5,0|0,3:0|0:0,0:0:0:0:
404,290,126275,2,0,P|302:301|248:216,1,205.500007839203,0|0,1:0|0:0,0:0:0:0:
148,220,126552,1,2,0:0:0:0:
151,223,126644,2,0,P|240:230|271:203,1,102.750003919602,8|0,0:1|0:0,0:0:0:0:
366,153,126828,6,0,L|434:232,1,68.5,2|0,3:2|0:0,0:0:0:0:
59,252,127012,2,0,P|156:126|243:191,1,205.500007839203,0|0,1:0|0:0,0:0:0:0:
190,30,127288,1,2,0:0:0:0:
185,34,127380,2,0,P|174:132|218:164,1,102.750003919602,8|0,0:1|0:0,0:0:0:0:
39,16,127564,2,0,L|110:71,1,68.5,0|0,3:0|0:0,0:0:0:0:
253,90,127748,2,0,L|306:47,1,68.5,0|0,1:0|0:0,0:0:0:0:
512,203,127932,37,2,3:2:0:0:
471,227,127993,1,2,0:0:0:0:
422,227,128055,1,0,0:0:0:0:
380,204,128116,2,0,P|346:158|289:129,1,68.5,8|0,0:1|0:0,0:0:0:0:
148,220,128300,2,0,P|203:213|258:178,1,68.5,0|0,3:0|0:0,0:0:0:0:
397,312,128484,5,0,1:0:0:0:
319,334,128576,2,0,P|245:294|249:204,1,102.750003919602,2|0,3:1|0:0,0:0:0:0:
155,330,128760,1,2,0:0:0:0:
159,334,128852,2,0,P|233:294|229:204,1,102.750003919602,8|0,0:1|0:0,0:0:0:0:
187,183,129036,6,0,L|153:282,1,68.5,0|0,3:0|0:0,0:0:0:0:
126,110,129220,2,0,P|228:98|282:184,1,205.500007839203,0|0,1:0|0:0,0:0:0:0:
383,180,129497,1,2,0:0:0:0:
379,176,129589,2,0,P|290:169|259:195,1,102.750003919602,8|0,0:1|0:0,0:0:0:0:
165,247,129773,6,0,L|97:168,1,68.5,2|0,3:2|0:0,0:0:0:0:
490,229,129956,6,0,L|319:293,1,102.750003919602,0|0,1:0|0:0,0:0:0:0:
62,297,130140,2,0,L|233:361,1,102.750003919602,2|0,0:0|0:0,0:0:0:0:
459,335,130324,1,2,0:1:0:0:
459,335,130508,5,2,0:0:0:0:
68,173,130692,21,2,0:1:0:0:
132,114,130784,1,0,0:0:0:0:
219,103,130876,1,2,0:0:0:0:
304,127,130968,1,2,0:0:0:0:
251,23,131060,69,12,1:0:0:0:
215,99,131152,1,2,0:0:0:0:
241,182,131244,1,0,0:0:0:0:
202,257,131336,1,2,0:0:0:0:
232,335,131428,5,0,1:0:0:0:
314,288,131520,2,0,B|378:266|378:266|470:277,1,116.450002221108,2|0,3:1|0:0,0:0:0:0:
461,117,131705,1,2,0:0:0:0:
442,159,131797,2,0,B|420:222|420:222|431:314,1,116.450002221108,8|0,0:1|0:0,0:0:0:0:
470,358,131981,5,0,3:0:0:0:
391,354,132073,1,0,3:0:0:0:
314,288,132165,5,0,1:0:0:0:
231,281,132257,1,0,3:0:0:0:
150,351,132349,53,2,3:2:0:0:
65,344,132441,1,2,0:0:0:0:
118,262,132533,5,8,0:1:0:0:
173,192,132625,1,0,0:0:0:0:
80,183,132717,2,0,P|63:144|68:50,1,116.450002221108,2|0,0:0|0:0,0:0:0:0:
96,0,132901,1,0,1:0:0:0:
325,46,133085,5,0,3:0:0:0:
325,46,133177,1,2,0:0:0:0:
258,91,133269,2,0,B|190:93|190:93|108:53,1,116.450002221108,8|0,0:1|0:0,0:0:0:0:
403,47,133453,2,0,L|544:58,1,116.450002221108,0|0,3:0|0:0,0:0:0:0:
371,179,133637,2,0,L|230:168,1,116.450002221108,0|0,1:0|0:0,0:0:0:0:
262,303,133821,37,2,0:0:0:0:
298,293,133882,1,2,0:0:0:0:
340,281,133944,1,0,0:0:0:0:
386,266,134005,2,0,B|431:246|431:246|464:164,1,116.450002221108,8|0,0:1|0:0,0:0:0:0:
252,382,134189,2,0,B|206:362|206:362|173:280,1,116.450002221108,0|0,3:0|0:0,0:0:0:0:
23,163,134373,5,0,1:0:0:0:
83,114,134465,2,0,B|143:77|143:77|230:85,1,116.450002221108,2|0,3:1|3:0,0:0:0:0:
307,166,134649,1,2,0:0:0:0:
284,136,134741,2,0,B|233:86|233:86|147:74,1,116.450002221108,8|0,0:1|0:0,0:0:0:0:
64,28,134925,5,0,3:0:0:0:
64,28,135017,1,0,3:0:0:0:
165,1,135109,2,0,L|338:19,1,116.450002221108,0|0,1:0|0:0,0:0:0:0:
500,154,135293,5,0,3:0:0:0:
422,178,135385,2,0,L|248:159,1,116.450002221108,2|8,0:2|0:1,0:0:0:0:
164,243,135570,53,0,3:0:0:0:
164,243,135662,2,0,L|305:259,1,116.450002221108,2|0,3:2|0:0,0:0:0:0:
508,358,135846,5,0,1:0:0:0:
426,349,135938,1,0,3:0:0:0:
344,342,136030,1,0,3:0:0:0:
262,334,136122,1,2,0:0:0:0:
180,327,136214,2,0,B|120:318|120:318|61:256,1,116.450002221108,8|0,0:1|0:0,0:0:0:0:
169,126,136398,6,0,L|163:265,1,116.450002221108,0|0,3:0|0:0,0:0:0:0:
12,116,136582,2,0,L|17:0,1,116.450002221108,0|0,1:0|0:0,0:0:0:0:
262,334,136766,37,2,0:0:0:0:
267,280,136827,1,2,0:0:0:0:
272,225,136889,1,0,0:0:0:0:
277,171,136950,1,8,0:1:0:0:
152,204,137042,1,2,0:0:0:0:
288,89,137134,1,0,3:0:0:0:
350,205,137226,1,2,0:0:0:0:
397,129,137318,6,0,L|256:77,1,116.450002221108,0|0,1:0|3:0,0:0:0:0:
153,293,137502,2,0,L|294:345,1,116.450002221108,4|2,0:1|0:0,0:0:0:0:
397,129,137686,38,0,L|254:78,1,115.080001404785,0|0,1:0|3:0,0:0:0:0:
300,223,138054,54,0,L|262:333,1,116.450002221108,0|0,1:0|3:0,0:0:0:0:
33,209,138238,2,0,L|74:100,1,116.450002221108,4|2,0:1|0:0,0:0:0:0:
300,224,138422,38,0,L|262:333,1,115.080001404785,0|0,1:0|3:0,0:0:0:0:
288,90,138790,22,0,L|147:41,1,116.450002221108,0|0,1:0|3:0,0:0:0:0:
49,342,138974,2,0,L|190:394,1,116.450002221108,4|2,0:1|0:0,0:0:0:0:
178,51,139158,6,0,L|40:116,1,116.450002221108,0|0,1:0|0:0,0:0:0:0:
158,382,139343,2,0,L|294:317,1,116.450002221108,4|0,0:1|0:0,0:0:0:0:
74,100,139527,6,0,L|23:242,1,116.450002221108,0|0,1:0|3:0,0:0:0:0:
261,332,139712,2,0,L|311:189,1,116.450002221108,4|2,0:1|0:0,0:0:0:0:
35,208,139895,54,0,L|99:344,1,116.450002221108,0|0,1:0|0:0,0:0:0:0:
299,223,140080,2,0,L|234:86,1,115.080001404785,4|0,0:1|0:0,0:0:0:0:
84,311,140263,5,0,1:0:0:0:
21,277,140355,1,0,3:0:0:0:
35,208,140447,1,0,1:0:0:0:
94,168,140539,5,0,0:0:0:0:
74,100,140631,53,0,1:0:0:0:
108,37,140723,1,0,3:0:0:0:
178,51,140815,1,0,1:0:0:0:
219,109,140907,5,0,0:0:0:0:
288,90,140999,5,0,1:0:0:0:
351,124,141091,1,0,3:0:0:0:
337,193,141183,1,0,1:0:0:0:
279,233,141275,53,0,0:0:0:0:
298,301,141367,5,0,1:0:0:0:
264,364,141459,1,0,3:0:0:0:
194,350,141551,1,0,1:0:0:0:
154,292,141643,5,0,0:0:0:0:
170,222,141735,53,0,1:0:0:0:
125,159,141827,1,0,3:0:0:0:
204,152,141919,69,2,1:3:0:0:
224,129,141981,1,0,3:3:0:0:
243,106,142042,1,0,3:3:0:0:
256,80,142103,2,0,L|256:24,1,34.25,0|0,1:0|0:0,0:0:0:0:
231,69,142195,2,0,L|270:29,1,34.25,0|0,1:0|0:0,0:0:0:0:
220,44,142287,2,0,L|276:44,1,34.25,0|0,1:0|0:0,0:0:0:0:
230,19,142379,2,0,L|269:58,1,34.25,0|0,1:0|0:0,0:0:0:0:
254,8,142471,2,0,L|253:64,1,34.25,0|0,1:0|0:0,0:0:0:0:
279,18,142563,2,0,L|239:57,1,34.25,0|0,1:0|0:0,0:0:0:0:
288,44,142655,2,0,L|232:43,1,34.25,0|0,1:0|0:0,0:0:0:0:
278,69,142747,2,0,L|238:29,1,34.25,0|0,1:0|0:0,0:0:0:0:
256,116,142839,22,0,L|256:144,14,17.125,0|0|0|0|0|0|0|0|0|0|0|0|0|0|0,3:0|3:0|3:0|3:0|3:0|3:0|3:0|3:0|3:0|3:0|3:0|3:0|3:0|3:0|3:0,0:0:0:0:
256,44,143208,53,8,1:3:0:0:
375,143,143392,5,2,0:0:0:0:
437,102,143484,1,0,0:0:0:0:
319,92,143576,1,2,0:0:0:0:
155,94,143760,5,2,0:0:0:0:
78,101,143852,1,2,0:0:0:0:
28,46,143944,1,0,0:0:0:0:
102,32,144036,1,2,0:0:0:0:
151,90,144128,1,2,0:0:0:0:
130,161,144220,1,0,0:0:0:0:
182,214,144312,1,2,0:0:0:0:
256,53,144496,53,8,1:3:0:0:
256,339,144680,1,8,1:3:0:0:
125,305,144864,5,2,0:0:0:0:
51,319,144956,1,0,0:0:0:0:
184,354,145049,1,2,0:0:0:0:
381,255,145233,5,2,0:0:0:0:
456,260,145325,1,2,0:0:0:0:
486,327,145417,1,0,0:0:0:0:
412,325,145509,1,2,0:0:0:0:
425,190,145601,1,2,0:0:0:0:
466,128,145693,1,0,0:0:0:0:
431,63,145785,1,2,0:0:0:0:
256,339,145969,53,8,1:3:0:0:
256,53,146153,1,8,1:3:0:0:
386,122,146337,5,2,0:0:0:0:
431,63,146429,1,0,0:0:0:0:
307,111,146521,1,2,0:0:0:0:
134,164,146705,5,2,0:0:0:0:
99,99,146797,1,2,0:0:0:0:
137,35,146889,1,0,0:0:0:0:
172,100,146981,1,2,0:0:0:0:
95,96,147073,1,2,0:0:0:0:
58,160,147165,1,0,0:0:0:0:
94,225,147257,1,2,0:0:0:0:
256,53,147441,53,8,1:3:0:0:
256,339,147625,1,8,1:3:0:0:
348,224,147809,5,2,0:0:0:0:
388,287,147901,1,0,0:0:0:0:
314,292,147993,1,2,0:0:0:0:
246,263,148085,1,0,0:0:0:0:
223,192,148177,1,0,0:0:0:0:
259,127,148269,1,2,0:0:0:0:
335,130,148361,5,2,0:0:0:0:
399,87,148453,1,2,0:0:0:0:
359,24,148545,1,0,0:0:0:0:
295,61,148637,1,2,0:0:0:0:
259,127,148730,5,2,0:0:0:0:
185,123,148822,1,0,0:0:0:0:
123,82,148914,1,2,0:0:0:0:
256,339,149098,37,8,1:3:0:0:
134,300,149282,5,2,0:0:0:0:
62,315,149374,1,0,0:0:0:0:
185,354,149466,1,2,0:0:0:0:
356,149,149650,5,2,0:0:0:0:
429,162,149742,1,2,0:0:0:0:
461,228,149834,1,0,0:0:0:0:
387,223,149926,1,2,0:0:0:0:
352,145,150018,1,2,0:0:0:0:
403,92,150110,1,0,0:0:0:0:
376,23,150202,1,2,0:0:0:0:
256,339,150386,53,8,1:3:0:0:
256,53,150570,1,8,1:3:0:0:
378,25,150754,5,2,0:0:0:0:
452,31,150846,1,0,0:0:0:0:
330,76,150938,1,2,0:0:0:0:
120,87,151122,5,2,0:0:0:0:
47,74,151214,1,2,0:0:0:0:
70,145,151306,1,0,0:0:0:0:
79,172,151368,1,2,0:0:0:0:
68,197,151429,1,0,0:0:0:0:
78,223,151490,1,2,0:0:0:0:
45,289,151582,1,2,0:0:0:0:
93,346,151674,1,0,0:0:0:0:
162,315,151766,1,2,0:0:0:0:
150,242,151858,1,2,1:2:0:0:
256,53,152042,53,8,1:3:0:0:
348,124,152226,5,2,0:0:0:0:
418,147,152318,1,0,0:0:0:0:
284,163,152410,1,2,0:0:0:0:
256,339,152595,69,8,1:3:0:0:
164,260,152779,5,2,0:0:0:0:
94,237,152871,1,0,0:0:0:0:
228,221,152963,1,2,0:0:0:0:
374,330,153146,5,8,1:3:0:0:
446,309,153238,1,2,0:0:0:0:
448,234,153330,1,2,0:0:0:0:
377,209,153422,1,0,0:0:0:0:
288,285,153514,5,8,1:3:0:0:
215,264,153606,1,0,0:0:0:0:
212,189,153698,1,2,0:0:0:0:
284,163,153790,1,2,0:0:0:0:
435,149,153882,53,8,1:3:0:0:
403,79,153974,1,2,0:0:0:0:
327,84,154066,1,0,0:0:0:0:
312,158,154158,1,2,0:0:0:0:
223,105,154251,69,8,1:3:0:0:
166,52,154343,1,2,0:0:0:0:
236,101,154435,1,0,0:0:0:0:
172,35,154527,1,2,0:0:0:0:
329,179,154619,21,8,1:3:0:0:
421,172,154711,1,2,0:0:0:0:
337,191,154803,1,0,0:0:0:0:
414,189,154895,1,2,0:0:0:0:
380,252,154987,38,0,L|386:354,1,102.75,2|0,0:0|0:0,0:0:0:0:
386,354,156459,21,2,0:0:0:0:
340,304,156551,1,0,0:0:0:0:
409,285,156643,1,2,0:0:0:0:
336,301,156735,5,2,0:0:0:0:
255,280,156827,1,0,0:0:0:0:
275,199,156919,1,2,0:0:0:0:
356,220,157011,1,0,0:0:0:0:
270,196,157103,5,2,0:0:0:0:
210,137,157195,1,2,0:0:0:0:
266,76,157287,1,0,0:0:0:0:
328,134,157379,1,2,0:0:0:0:
261,74,157471,69,2,0:0:0:0:
297,0,157563,1,0,0:0:0:0:
397,1,157655,1,2,0:0:0:0:
408,94,157747,1,0,0:0:0:0:
328,134,157839,1,2,0:0:0:0:
342,58,157932,53,6,1:2:0:0:
