osu file format v14

[General]
AudioFilename: audio.mp3
AudioLeadIn: 0
PreviewTime: 27016
Countdown: 0
SampleSet: Soft
StackLeniency: 0.7
Mode: 3
LetterboxInBreaks: 0
SpecialStyle: 0
WidescreenStoryboard: 1

[Editor]
DistanceSpacing: 1
BeatDivisor: 4
GridSize: 32
TimelineZoom: 1.699999

[Metadata]
Title:YURUSHITE
TitleUnicode:YURUSHITE
Artist:t+pazolite
ArtistUnicode:t+pazolite
Creator:Shima Rin
Version:Rhezie's ADVANCED
Source:オンゲキ
Tags:逢坂 茜 Ousaka Akane 音擊 ONGEKI Sound Collection 01 Jump!! O.N.G.E.K.I. SEGA CHUNITHM AMAZON PLUS チュウニズム maimai でらっくす Splash DX スプラッシュ Tofu1222 Fresh Chicken Lirai DE-CADE Remuring Rhezie Agayers FAMoss Dubstek Video Game Electronic Instrumental Jazz
BeatmapID:2539903
BeatmapSetID:1185688

[Difficulty]
HPDrainRate:7.5
CircleSize:4
OverallDifficulty:7.5
ApproachRate:5
SliderMultiplier:1.4
SliderTickRate:1

[Events]
//Background and Video events
0,0,"BG.jpg",0,0
//Break Periods
//Storyboard Layer 0 (Background)
//Storyboard Layer 1 (Fail)
//Storyboard Layer 2 (Pass)
//Storyboard Layer 3 (Foreground)
//Storyboard Layer 4 (Overlay)
//Storyboard Sound Samples
Sample,8627,0,"LR5_Drum Barrel Snare.wav",20
Sample,9071,0,"LR5_Drum Barrel Snare_B.wav",20
Sample,9516,0,"LR5_Drum Barrel Snare_B.wav",20
Sample,10404,0,"LR5_Drum Barrel Snare.wav",20
Sample,10849,0,"LR5_Drum Barrel Snare_B.wav",20
Sample,11293,0,"LR5_Drum Barrel Snare_B.wav",20
Sample,126182,0,"Cymatics - Future Bass Clap 3.wav",70

[TimingPoints]
405,222.222222222222,4,2,1,70,1,0
28849,-100,4,2,1,70,0,1
41293,-100,4,2,1,70,0,0
43182,-100,4,2,1,60,0,0
57293,-100,4,2,1,50,0,0
64404,-100,4,2,1,60,0,0
71516,-100,4,2,1,70,0,1
85738,-100,4,2,1,70,0,0
99293,-100,4,2,1,50,0,0
102627,-100,4,2,1,70,0,0
108849,-100,4,2,1,70,0,1
123071,-100,4,2,1,70,0,0

[HitObjects]
192,192,405,5,0,0:0:0:20:LR5_Drum Barrel Snare.wav
320,192,627,1,0,0:0:0:20:LR5_Drum Barrel Snare_B.wav
448,192,627,1,0,0:0:0:0:
320,192,997,1,0,0:0:0:20:LR5_Drum Barrel Snare_B.wav
448,192,997,1,0,0:0:0:0:
64,192,1293,1,0,0:0:0:20:LR5_Drum Barrel Snare_B.wav
192,192,1293,1,0,0:0:0:0:
192,192,1664,1,0,0:0:0:20:LR5_Drum Barrel Snare_B.wav
320,192,1664,1,0,0:0:0:0:
64,192,1960,1,0,0:0:0:20:LR5_Drum Barrel Snare_B.wav
448,192,1960,1,0,0:0:0:0:
320,192,2182,1,0,0:0:0:20:LR5_Drum Barrel Snare.wav
64,192,2404,1,0,0:0:0:20:LR5_Drum Barrel Snare_B.wav
192,192,2404,1,0,0:0:0:0:
64,192,2775,1,0,0:0:0:20:LR5_Drum Barrel Snare_B.wav
192,192,2775,1,0,0:0:0:0:
320,192,3071,1,0,0:0:0:20:LR5_Drum Barrel Snare_B.wav
448,192,3071,1,0,0:0:0:0:
192,192,3442,1,0,0:0:0:20:LR5_Drum Barrel Snare_B.wav
448,192,3442,1,0,0:0:0:0:
64,192,3738,1,0,0:0:0:20:LR5_Drum Barrel Snare_B.wav
320,192,3738,1,0,0:0:0:0:
192,192,3960,1,0,0:0:0:20:LR5_Drum Barrel Snare.wav
64,192,4182,1,0,0:0:0:20:LR5_Drum Barrel Snare_B.wav
448,192,4182,1,0,0:0:0:0:
64,192,4553,1,0,0:0:0:20:LR5_Drum Barrel Snare_B.wav
448,192,4553,1,0,0:0:0:0:
192,192,4849,1,0,0:0:0:20:LR5_Drum Barrel Snare_B.wav
320,192,4849,1,0,0:0:0:0:
64,192,5219,1,0,0:0:0:20:LR5_Drum Barrel Snare_B.wav
320,192,5219,1,0,0:0:0:0:
192,192,5516,1,0,0:0:0:20:LR5_Drum Barrel Snare_B.wav
448,192,5516,1,0,0:0:0:0:
64,192,5738,128,0,6627:0:0:0:20:LR5_Drum Barrel Snare.wav
320,192,5960,1,0,0:0:0:20:LR5_Drum Barrel Snare_B.wav
448,192,5960,1,0,0:0:0:0:
320,192,6330,1,0,0:0:0:20:LR5_Drum Barrel Snare_B.wav
448,192,6330,1,0,0:0:0:0:
192,192,6627,1,0,0:0:0:20:LR5_Drum Barrel Snare_B.wav
448,192,6849,128,0,6923:0:0:0:20:LR5_Drum Barrel Snare.wav
64,192,7071,128,0,7182:0:0:0:0:
320,192,7182,128,0,7256:0:0:0:0:
448,192,7367,128,0,7442:0:0:0:0:
64,192,7516,128,4,7627:0:0:0:0:
192,192,7516,1,0,0:0:0:20:LR5_Drum Barrel Snare.wav
320,192,7738,1,0,0:0:0:20:LR5_Drum Barrel Snare_B.wav
192,192,7960,1,0,0:0:0:20:LR5_Drum Barrel Snare.wav
320,192,8182,1,0,0:0:0:70:Cymatics - Future Bass Clap 3.wav
448,192,8182,128,0,8293:0:0:0:0:
64,192,8293,128,0,8404:0:0:0:0:
192,192,8293,1,0,0:0:0:0:
320,192,8627,1,0,0:0:0:70:Cymatics - Future Bass Clap 3.wav
448,192,8849,1,0,0:0:0:0:
64,192,9071,1,0,0:0:0:70:Cymatics - Future Bass Clap 3.wav
320,192,9293,128,0,9404:0:0:0:20:LR5_Drum Barrel Snare.wav
448,192,9293,1,0,0:0:0:0:
64,192,9516,1,0,0:0:0:70:Cymatics - Future Bass Clap 3.wav
448,192,9738,1,0,0:0:0:20:LR5_Drum Barrel Snare.wav
64,192,9960,1,0,0:0:0:70:Cymatics - Future Bass Clap 3.wav
192,192,9960,128,0,10071:0:0:0:0:
320,192,10071,128,0,10182:0:0:0:0:
448,192,10071,1,0,0:0:0:0:
64,192,10404,1,0,0:0:0:70:Cymatics - Future Bass Clap 3.wav
448,192,10627,128,0,11071:0:0:0:0:
192,192,10849,1,0,0:0:0:70:Cymatics - Future Bass Clap 3.wav
64,192,11071,128,0,11182:0:0:0:20:LR5_Drum Barrel Snare.wav
320,192,11071,1,0,0:0:0:0:
192,192,11293,1,0,0:0:0:70:Cymatics - Future Bass Clap 3.wav
320,192,11516,1,0,0:0:0:20:LR5_Drum Barrel Snare.wav
192,192,11738,1,0,0:0:0:70:Cymatics - Future Bass Clap 3.wav
448,192,11738,128,0,11849:0:0:0:0:
64,192,11849,128,0,11960:0:0:0:0:
320,192,11849,1,0,0:0:0:0:
192,192,12182,128,0,12293:0:0:0:70:Cymatics - Future Bass Clap 3.wav
448,192,12182,1,0,0:0:0:20:LR5_Drum Barrel Snare.wav
64,192,12516,1,0,0:0:0:0:
320,192,12516,128,0,12627:0:0:0:0:
320,192,12849,1,2,0:0:0:0:
448,192,12849,1,4,0:0:0:0:
192,192,12997,1,0,0:0:0:0:
448,192,13071,1,0,0:0:0:0:
64,192,13182,1,0,0:0:0:0:
64,192,13442,1,0,0:0:0:0:
448,192,13664,1,0,0:0:0:0:
192,192,13738,128,0,13960:0:0:0:0:
64,192,13960,128,0,14182:0:0:0:0:
448,192,14182,128,0,14404:0:0:0:0:
320,192,14404,128,0,14627:0:0:0:70:clap01_D.wav
64,192,14627,1,2,0:0:0:0:
448,192,14627,128,4,14997:0:0:0:0:
320,192,14997,1,0,0:0:0:70:LR4_DrumKickHat.wav
64,192,15071,1,2,0:0:0:0:
192,192,15071,128,0,15293:0:0:0:70:Cymatics - Future Bass Clap 3.wav
320,192,15293,1,0,0:0:0:50:LR5_Drum Barrel Snare.wav
64,192,15516,1,2,0:0:0:0:
320,192,15516,128,0,15738:0:0:0:0:
448,192,15738,1,0,0:0:0:0:
192,192,15886,1,0,0:0:0:70:LR4_DrumKickHat.wav
64,192,15960,1,2,0:0:0:0:
448,192,15960,128,0,16182:0:0:0:70:Cymatics - Future Bass Clap 3.wav
192,192,16182,128,0,16404:0:0:0:50:LR4_DrumRevBassImpact.wav
64,192,16404,1,2,0:0:0:0:
320,192,16404,128,0,16627:0:0:0:0:
448,192,16627,1,0,0:0:0:0:
192,192,16775,1,0,0:0:0:70:LR4_DrumKickHat.wav
64,192,16849,1,2,0:0:0:0:
448,192,16849,1,0,0:0:0:70:Cymatics - Future Bass Clap 3.wav
320,192,16960,128,0,17071:0:0:0:0:
192,192,17071,1,0,0:0:0:50:LR5_Drum Barrel Snare.wav
448,192,17182,128,0,17516:0:0:0:0:
64,192,17293,1,2,0:0:0:0:
320,192,17293,1,0,0:0:0:0:
192,192,17516,128,0,17627:0:0:0:0:
64,192,17738,128,2,17849:0:0:0:0:
448,192,17738,1,0,0:0:0:70:Cymatics - Future Bass Clap 3.wav
320,192,17849,128,0,17960:0:0:0:0:
64,192,17960,128,0,18071:0:0:0:50:LR4_DrumRevBassImpact.wav
448,192,18071,128,0,18182:0:0:0:0:
192,192,18182,128,2,18553:0:0:0:0:
320,192,18182,1,0,0:0:0:0:
64,192,18553,1,0,0:0:0:70:LR4_DrumKickHat.wav
320,192,18627,1,2,0:0:0:0:
448,192,18627,128,0,18849:0:0:0:70:Cymatics - Future Bass Clap 3.wav
64,192,18849,1,0,0:0:0:50:LR5_Drum Barrel Snare.wav
64,192,19071,128,2,19293:0:0:0:0:
320,192,19071,1,0,0:0:0:0:
192,192,19293,1,0,0:0:0:0:
448,192,19442,1,0,0:0:0:70:LR4_DrumKickHat.wav
192,192,19516,128,2,19738:0:0:0:0:
320,192,19516,1,0,0:0:0:70:Cymatics - Future Bass Clap 3.wav
448,192,19738,128,0,19960:0:0:0:50:LR4_DrumRevBassImpact.wav
64,192,19960,128,2,20182:0:0:0:0:
320,192,19960,1,0,0:0:0:0:
192,192,20182,1,0,0:0:0:0:
448,192,20330,1,0,0:0:0:70:LR4_DrumKickHat.wav
192,192,20404,1,2,0:0:0:0:
320,192,20404,1,0,0:0:0:70:Cymatics - Future Bass Clap 3.wav
64,192,20516,128,0,20627:0:0:0:0:
448,192,20627,1,0,0:0:0:50:LR5_Drum Barrel Snare.wav
192,192,20738,128,0,21071:0:0:0:0:
320,192,20849,1,2,0:0:0:0:
448,192,20849,1,0,0:0:0:0:
64,192,21071,128,0,21293:0:0:0:0:
320,192,21293,128,0,21738:0:0:0:0:
64,192,21738,128,2,21960:0:0:0:0:
448,192,21738,1,4,0:0:0:0:
192,192,21960,1,0,0:0:0:70:LR4_DrumKickHat.wav
64,192,22071,128,2,22293:0:0:0:0:
448,192,22071,1,4,0:0:0:0:
320,192,22293,1,2,0:0:0:0:
64,192,22404,1,2,0:0:0:0:
448,192,22404,1,0,0:0:0:0:
192,192,22516,1,2,0:0:0:0:
320,192,22516,1,0,0:0:0:0:
64,192,22627,1,4,0:0:0:0:
448,192,22627,128,2,22849:0:0:0:0:
320,192,22849,1,0,0:0:0:70:LR4_DrumKickHat.wav
64,192,22960,1,4,0:0:0:0:
448,192,22960,128,2,23182:0:0:0:0:
192,192,23182,1,2,0:0:0:0:
64,192,23293,128,2,23404:0:0:0:0:
448,192,23404,128,2,23516:0:0:0:0:
192,192,23516,128,2,23738:0:0:0:0:
320,192,23516,1,4,0:0:0:0:
64,192,23738,1,0,0:0:0:70:LR4_DrumKickHat.wav
192,192,23849,128,2,24071:0:0:0:0:
320,192,23849,1,4,0:0:0:0:
448,192,24071,1,2,0:0:0:0:
192,192,24182,1,2,0:0:0:0:
320,192,24182,1,0,0:0:0:0:
64,192,24293,1,2,0:0:0:0:
448,192,24293,1,0,0:0:0:0:
192,192,24404,1,4,0:0:0:0:
320,192,24404,128,2,24627:0:0:0:0:
64,192,24627,1,0,0:0:0:70:LR4_DrumKickHat.wav
192,192,24738,1,4,0:0:0:0:
320,192,24738,128,2,24960:0:0:0:0:
448,192,24960,1,2,0:0:0:0:
64,192,25071,128,2,25182:0:0:0:0:
320,192,25182,128,2,25293:0:0:0:0:
192,192,25293,1,4,0:0:0:0:
448,192,25293,1,2,0:0:0:0:
320,192,25516,1,0,0:0:0:70:LR_Drum Rim Fast.wav
64,192,25627,1,0,0:0:0:70:LR_Drum Rim Fast.wav
192,192,25738,1,4,0:0:0:0:
320,192,25738,1,2,0:0:0:0:
448,192,25960,1,0,0:0:0:70:LR_Drum Rim Fast.wav
192,192,26071,1,0,0:0:0:70:LR_Drum Rim Fast.wav
320,192,26182,1,2,0:0:0:0:
448,192,26182,1,4,0:0:0:0:
64,192,26404,1,0,0:0:0:70:LR_Drum Rim Fast.wav
320,192,26516,1,0,0:0:0:70:LR_Drum Rim Fast.wav
64,192,26627,1,4,0:0:0:0:
448,192,26627,1,2,0:0:0:0:
192,192,26849,1,0,0:0:0:70:LR_Drum Rim Fast.wav
320,192,26960,1,0,0:0:0:70:LR_Drum Rim Fast.wav
64,192,27071,1,2,0:0:0:0:
192,192,27071,1,4,0:0:0:0:
448,192,27182,1,0,0:0:0:70:LR_Drum Rim Fast.wav
64,192,27293,1,4,0:0:0:0:
320,192,27293,1,2,0:0:0:0:
192,192,27404,1,0,0:0:0:70:LR_Drum Rim Fast.wav
320,192,27516,1,2,0:0:0:0:
448,192,27516,1,4,0:0:0:0:
64,192,27627,1,0,0:0:0:70:LR_Drum Rim Fast.wav
192,192,27738,1,4,0:0:0:0:
448,192,27738,1,2,0:0:0:0:
320,192,27849,128,0,28182:0:0:0:70:LR_Drum Rim Fast.wav
64,192,27960,1,2,0:0:0:0:
192,192,27960,1,0,0:0:0:0:
64,192,28182,128,0,28293:0:0:0:0:
448,192,28404,128,0,28516:0:0:0:0:
192,192,28516,128,0,28627:0:0:0:0:
320,192,28627,128,0,28738:0:0:0:0:
64,192,28738,128,0,28849:0:0:0:0:
192,192,28849,1,4,0:0:0:0:
320,192,28849,1,2,0:0:0:0:
448,192,28849,1,0,0:0:0:0:
192,192,29071,1,8,0:0:0:0:
448,192,29071,1,0,0:0:0:0:
64,192,29293,1,2,0:0:0:0:
320,192,29293,1,4,0:0:0:0:
64,192,29516,1,8,0:0:0:0:
320,192,29516,1,0,0:0:0:0:
192,192,29738,1,2,0:0:0:0:
320,192,29738,1,4,0:0:0:0:
192,192,29960,1,8,0:0:0:0:
320,192,29960,1,0,0:0:0:0:
192,192,30182,1,2,0:0:0:0:
448,192,30182,1,4,0:0:0:0:
192,192,30404,1,8,0:0:0:0:
448,192,30404,1,4,0:0:0:0:
320,192,30516,1,2,0:0:0:0:
64,192,30627,1,4,0:0:0:0:
448,192,30627,1,2,0:0:0:0:
64,192,30849,1,8,0:0:0:0:
448,192,30849,1,0,0:0:0:0:
64,192,31071,1,2,0:0:0:0:
320,192,31071,1,4,0:0:0:0:
64,192,31293,1,8,0:0:0:0:
320,192,31293,1,0,0:0:0:0:
192,192,31404,1,2,0:0:0:0:
320,192,31516,1,2,0:0:0:0:
448,192,31516,1,4,0:0:0:0:
64,192,31627,1,2,0:0:0:0:
192,192,31738,1,8,0:0:0:0:
448,192,31738,1,4,0:0:0:0:
320,192,31849,1,2,0:0:0:0:
64,192,31960,1,2,0:0:0:0:
192,192,31960,1,4,0:0:0:0:
64,192,32182,1,0,0:0:0:70:electronic13_mix.wav
320,192,32182,1,0,0:0:0:0:
448,192,32182,1,0,0:0:0:0:
64,192,32404,1,4,0:0:0:0:
192,192,32404,1,2,0:0:0:0:
320,192,32404,1,0,0:0:0:0:
192,192,32627,1,8,0:0:0:0:
320,192,32627,1,0,0:0:0:0:
64,192,32849,1,2,0:0:0:0:
448,192,32849,1,4,0:0:0:0:
64,192,33071,1,8,0:0:0:0:
448,192,33071,1,0,0:0:0:0:
192,192,33293,1,2,0:0:0:0:
448,192,33293,1,4,0:0:0:0:
64,192,33404,1,2,0:0:0:0:
192,192,33516,1,8,0:0:0:0:
448,192,33516,1,0,0:0:0:0:
192,192,33738,1,2,0:0:0:0:
320,192,33738,1,4,0:0:0:0:
192,192,33960,1,8,0:0:0:0:
320,192,33960,1,4,0:0:0:0:
448,192,34071,1,2,0:0:0:0:
64,192,34182,1,4,0:0:0:0:
320,192,34182,1,2,0:0:0:0:
192,192,34293,1,2,0:0:0:0:
64,192,34404,1,8,0:0:0:0:
320,192,34404,1,0,0:0:0:0:
64,192,34627,1,4,0:0:0:0:
448,192,34627,1,2,0:0:0:0:
320,192,34738,1,2,0:0:0:0:
64,192,34849,1,8,0:0:0:0:
448,192,34849,1,0,0:0:0:0:
320,192,35071,1,2,0:0:0:0:
448,192,35071,1,4,0:0:0:0:
64,192,35182,1,2,0:0:0:0:
192,192,35293,1,8,0:0:0:0:
448,192,35293,1,0,0:0:0:0:
320,192,35404,1,0,0:0:0:0:
64,192,35516,128,2,35849:0:0:0:0:
192,192,35516,1,4,0:0:0:0:
320,192,35738,1,0,0:0:0:0:
448,192,35849,1,0,0:0:0:0:
64,192,35960,1,2,0:0:0:0:
192,192,35960,1,4,0:0:0:0:
320,192,35960,1,0,0:0:0:0:
192,192,36182,1,8,0:0:0:0:
320,192,36182,1,0,0:0:0:0:
64,192,36404,1,4,0:0:0:0:
448,192,36404,1,2,0:0:0:0:
64,192,36627,1,8,0:0:0:0:
448,192,36627,1,0,0:0:0:0:
64,192,36849,1,4,0:0:0:0:
320,192,36849,1,2,0:0:0:0:
64,192,37071,1,8,0:0:0:0:
320,192,37071,1,0,0:0:0:0:
192,192,37293,1,4,0:0:0:0:
320,192,37293,1,2,0:0:0:0:
192,192,37516,1,8,0:0:0:0:
320,192,37516,1,4,0:0:0:0:
64,192,37627,1,2,0:0:0:0:
192,192,37738,1,2,0:0:0:0:
448,192,37738,1,4,0:0:0:0:
192,192,37960,1,8,0:0:0:0:
448,192,37960,1,0,0:0:0:0:
64,192,38182,1,4,0:0:0:0:
448,192,38182,1,2,0:0:0:0:
64,192,38404,1,8,0:0:0:0:
448,192,38404,1,0,0:0:0:0:
320,192,38516,1,2,0:0:0:0:
64,192,38627,1,4,0:0:0:0:
192,192,38627,1,2,0:0:0:0:
448,192,38738,1,2,0:0:0:0:
192,192,38849,1,8,0:0:0:0:
320,192,38849,1,4,0:0:0:0:
64,192,38960,1,2,0:0:0:0:
320,192,39071,1,4,0:0:0:0:
448,192,39071,1,2,0:0:0:0:
64,192,39293,1,0,0:0:0:70:electronic13_mix.wav
192,192,39293,1,0,0:0:0:0:
448,192,39293,1,0,0:0:0:0:
64,192,39516,1,2,0:0:0:0:
320,192,39516,1,4,0:0:0:0:
448,192,39516,1,0,0:0:0:0:
64,192,39738,1,8,0:0:0:0:
320,192,39738,1,0,0:0:0:0:
192,192,39960,1,4,0:0:0:0:
448,192,39960,1,2,0:0:0:0:
192,192,40182,1,8,0:0:0:0:
448,192,40182,1,0,0:0:0:0:
320,192,40293,1,2,0:0:0:0:
64,192,40404,1,4,0:0:0:0:
448,192,40404,1,2,0:0:0:0:
192,192,40516,1,2,0:0:0:0:
64,192,40627,1,8,0:0:0:0:
448,192,40627,1,0,0:0:0:0:
64,192,40849,1,4,0:0:0:0:
320,192,40849,1,2,0:0:0:0:
448,192,40960,1,2,0:0:0:0:
64,192,41071,1,4,0:0:0:0:
320,192,41071,1,0,0:0:0:0:
192,192,41182,1,0,0:0:0:0:
320,192,41293,1,4,0:0:0:0:
448,192,41293,1,0,0:0:0:70:LR4_BassKickReverbXD.wav
448,192,41516,1,0,0:0:0:0:
192,192,41738,1,0,0:0:0:0:
320,192,41960,1,0,0:0:0:0:
448,192,42182,1,0,0:0:0:0:
64,192,42404,1,0,0:0:0:0:
320,192,42516,1,0,0:0:0:0:
448,192,42627,1,0,0:0:0:0:
192,192,42738,1,0,0:0:0:0:
64,192,42849,1,0,0:0:0:0:
192,192,43071,1,2,0:0:0:0:
320,192,43071,1,4,0:0:0:0:
448,192,43071,1,0,0:0:0:0:
64,192,43293,1,0,0:0:0:0:
448,192,43404,1,0,0:0:0:0:
64,192,43516,1,0,0:0:0:70:clap01_D.wav
320,192,43738,1,0,0:0:0:0:
192,192,43960,1,0,0:0:0:70:LR4_DrumKickHat.wav
320,192,43960,1,0,0:0:0:0:
192,192,44293,1,0,0:0:0:70:LR4_DrumKickHat.wav
448,192,44293,1,0,0:0:0:0:
64,192,44627,1,0,0:0:0:70:LR4_DrumKickHat.wav
448,192,44627,1,0,0:0:0:0:
192,192,44849,1,0,0:0:0:70:LR4_DrumKickHat.wav
320,192,44849,1,0,0:0:0:0:
448,192,45071,1,0,0:0:0:0:
192,192,45182,1,0,0:0:0:0:
448,192,45293,1,0,0:0:0:70:clap01_D.wav
64,192,45516,1,0,0:0:0:0:
64,192,45738,1,0,0:0:0:70:LR4_DrumKickHat.wav
320,192,45738,1,0,0:0:0:0:
192,192,46071,1,0,0:0:0:70:LR4_DrumKickHat.wav
320,192,46071,1,0,0:0:0:0:
192,192,46404,1,0,0:0:0:70:LR4_DrumKickHat.wav
448,192,46404,1,0,0:0:0:0:
64,192,46627,1,0,0:0:0:70:LR4_DrumKickHat.wav
320,192,46627,1,0,0:0:0:0:
192,192,46849,1,0,0:0:0:0:
320,192,46960,1,0,0:0:0:0:
192,192,47071,1,0,0:0:0:70:clap01_D.wav
448,192,47293,1,0,0:0:0:0:
64,192,47516,1,0,0:0:0:70:LR4_DrumKickHat.wav
448,192,47516,1,0,0:0:0:0:
64,192,47849,1,0,0:0:0:70:LR4_DrumKickHat.wav
320,192,47849,1,0,0:0:0:0:
192,192,48182,1,0,0:0:0:70:LR4_DrumKickHat.wav
320,192,48182,1,0,0:0:0:0:
64,192,48404,1,0,0:0:0:70:LR4_DrumKickHat.wav
448,192,48404,1,0,0:0:0:0:
192,192,48627,1,0,0:0:0:0:
192,192,48849,1,0,0:0:0:70:clap01_D.wav
448,192,48849,1,0,0:0:0:70:LR4_DrumKickHat.wav
64,192,49071,1,0,0:0:0:70:LR4_DrumKickHat.wav
320,192,49071,1,0,0:0:0:0:
64,192,49293,1,0,0:0:0:70:LR4_DrumKickHat.wav
448,192,49293,1,0,0:0:0:0:
192,192,49516,1,0,0:0:0:0:
320,192,49627,1,0,0:0:0:70:LR4_DrumKickHat.wav
192,192,49738,1,0,0:0:0:70:clap01_D.wav
448,192,49738,1,0,0:0:0:0:
64,192,49960,1,0,0:0:0:70:LR4_DrumKickHat.wav
320,192,49960,1,0,0:0:0:0:
64,192,50182,1,2,0:0:0:0:
192,192,50182,1,4,0:0:0:0:
448,192,50182,1,0,0:0:0:0:
320,192,50404,1,0,0:0:0:0:
64,192,50516,1,0,0:0:0:0:
320,192,50627,1,0,0:0:0:70:clap01_D.wav
192,192,50849,1,0,0:0:0:0:
192,192,51071,1,0,0:0:0:70:LR4_DrumKickHat.wav
448,192,51071,1,0,0:0:0:0:
64,192,51404,1,0,0:0:0:70:LR4_DrumKickHat.wav
448,192,51404,1,0,0:0:0:0:
64,192,51738,1,0,0:0:0:70:LR4_DrumKickHat.wav
320,192,51738,1,0,0:0:0:0:
192,192,51960,1,0,0:0:0:70:LR4_DrumKickHat.wav
448,192,51960,1,0,0:0:0:0:
64,192,52182,1,0,0:0:0:0:
448,192,52293,1,0,0:0:0:0:
64,192,52404,1,0,0:0:0:70:clap01_D.wav
320,192,52627,1,0,0:0:0:0:
192,192,52849,1,0,0:0:0:70:LR4_DrumKickHat.wav
320,192,52849,1,0,0:0:0:0:
192,192,53182,1,0,0:0:0:70:LR4_DrumKickHat.wav
448,192,53182,1,0,0:0:0:0:
64,192,53516,1,0,0:0:0:70:LR4_DrumKickHat.wav
448,192,53516,1,0,0:0:0:0:
192,192,53738,1,0,0:0:0:70:LR4_DrumKickHat.wav
320,192,53738,1,0,0:0:0:0:
448,192,53960,1,0,0:0:0:0:
192,192,54071,1,0,0:0:0:0:
448,192,54182,1,0,0:0:0:70:clap01_D.wav
64,192,54404,1,0,0:0:0:0:
64,192,54627,1,0,0:0:0:70:LR4_DrumKickHat.wav
320,192,54627,1,0,0:0:0:0:
192,192,54960,1,0,0:0:0:70:LR4_DrumKickHat.wav
320,192,54960,1,0,0:0:0:0:
192,192,55293,1,0,0:0:0:70:LR4_DrumKickHat.wav
448,192,55293,1,0,0:0:0:0:
64,192,55516,1,0,0:0:0:70:LR4_DrumKickHat.wav
320,192,55516,1,0,0:0:0:0:
448,192,55738,1,0,0:0:0:0:
64,192,55960,1,0,0:0:0:70:clap01_D.wav
448,192,55960,1,0,0:0:0:70:LR4_DrumKickHat.wav
192,192,56182,1,0,0:0:0:70:LR4_DrumKickHat.wav
320,192,56182,1,0,0:0:0:0:
64,192,56404,1,0,0:0:0:70:LR4_DrumKickHat.wav
320,192,56404,1,0,0:0:0:0:
448,192,56627,1,0,0:0:0:0:
192,192,56738,1,0,0:0:0:70:LR4_DrumKickHat.wav
64,192,56849,1,0,0:0:0:70:clap01_D.wav
448,192,56849,1,0,0:0:0:0:
192,192,57071,1,0,0:0:0:70:LR4_DrumKickHat.wav
320,192,57071,1,0,0:0:0:0:
64,192,57293,1,0,0:0:0:70:LR4_BassKickReverbXD.wav
448,192,57293,1,0,0:0:0:0:
448,192,57682,128,0,58182:0:0:0:0:
64,192,57960,1,0,0:0:0:0:
192,192,58182,1,0,0:0:0:0:
320,192,58238,1,0,0:0:0:0:
192,192,58516,128,0,58627:0:0:0:0:
320,192,58849,1,0,0:0:0:0:
64,192,59071,1,0,0:0:0:0:
64,192,59460,128,0,59960:0:0:0:0:
320,192,59738,1,0,0:0:0:0:
448,192,59960,1,0,0:0:0:0:
448,192,60293,128,0,60516:0:0:0:0:
192,192,60627,1,0,0:0:0:0:
320,192,60849,1,0,0:0:0:0:
320,192,61238,128,0,61738:0:0:0:0:
192,192,61516,1,0,0:0:0:0:
64,192,61738,1,0,0:0:0:0:
448,192,61793,1,0,0:0:0:0:
64,192,62071,128,0,62182:0:0:0:0:
448,192,62404,1,0,0:0:0:0:
192,192,62627,1,0,0:0:0:0:
192,192,63016,128,0,63516:0:0:0:0:
320,192,63293,1,0,0:0:0:0:
448,192,63516,128,0,63960:0:0:0:0:
64,192,63664,1,0,0:0:0:0:
192,192,63812,1,0,0:0:0:0:
320,192,63960,1,0,0:0:0:0:
192,192,64182,1,0,0:0:0:70:VEC3 Snares 004.wav
448,192,64182,1,0,0:0:0:0:
64,192,64404,1,2,0:0:0:0:
192,192,64404,128,0,64849:0:0:0:0:
320,192,64404,1,0,0:0:0:0:
448,192,64849,128,0,65071:0:0:0:0:
64,192,65071,128,0,65293:0:0:0:0:
320,192,65293,128,0,65627:0:0:0:0:
448,192,65627,128,0,66182:0:0:0:0:
320,192,66182,128,0,66627:0:0:0:70:LR_Drum Rim Fast.wav
64,192,66627,128,0,66849:0:0:0:70:LR_Drum Rim Fast.wav
448,192,66849,128,0,67071:0:0:0:70:LR_Drum Rim Fast.wav
192,192,67071,128,0,67404:0:0:0:70:LR_Drum Rim Fast.wav
64,192,67404,128,0,67738:0:0:0:70:LR_Drum Rim Fast.wav
320,192,67738,128,0,67960:0:0:0:70:LR_Drum Rim Fast.wav
448,192,67960,128,0,68293:0:0:0:70:LR_Drum Rim Fast.wav
64,192,68293,128,0,68627:0:0:0:70:LR_Drum Rim Fast.wav
320,192,68627,128,0,68849:0:0:0:70:LR_Drum Rim Fast.wav
192,192,68849,128,0,69182:0:0:0:70:LR_Drum Rim Fast.wav
448,192,69182,128,0,69516:0:0:0:70:LR_Drum Rim Fast.wav
64,192,69516,128,0,69738:0:0:0:70:LR_Drum Rim Fast.wav
320,192,69738,128,0,70627:0:0:0:70:LR_Drum Rim Fast.wav
448,192,69738,128,0,70627:0:0:0:70:LR4_BassKickReverbXD.wav
64,192,70627,128,2,71293:0:0:0:0:
192,192,70627,128,0,71293:0:0:0:0:
320,192,71293,1,0,0:0:0:70:LR4_DrumKickHat.wav
448,192,71293,1,0,0:0:0:0:
64,192,71516,1,4,0:0:0:0:
192,192,71516,1,2,0:0:0:0:
448,192,71516,1,0,0:0:0:0:
64,192,71738,1,8,0:0:0:0:
320,192,71738,1,0,0:0:0:0:
192,192,71960,1,2,0:0:0:0:
448,192,71960,1,0,0:0:0:0:
64,192,72182,1,8,0:0:0:0:
320,192,72182,1,0,0:0:0:0:
192,192,72404,1,2,0:0:0:0:
448,192,72404,128,0,73071:0:0:0:0:
320,192,72627,1,8,0:0:0:0:
192,192,72849,1,2,0:0:0:0:
320,192,72849,1,0,0:0:0:0:
64,192,73071,1,8,0:0:0:0:
192,192,73293,1,2,0:0:0:0:
320,192,73293,1,4,0:0:0:0:
448,192,73293,1,0,0:0:0:0:
64,192,73516,1,8,0:0:0:0:
320,192,73516,1,0,0:0:0:0:
192,192,73738,1,2,0:0:0:0:
448,192,73738,1,0,0:0:0:0:
64,192,73960,1,8,0:0:0:0:
320,192,73960,1,0,0:0:0:0:
192,192,74182,1,2,0:0:0:0:
448,192,74182,128,0,74849:0:0:0:0:
64,192,74404,1,8,0:0:0:0:
64,192,74627,1,2,0:0:0:0:
192,192,74627,1,0,0:0:0:0:
320,192,74849,1,8,0:0:0:0:
64,192,75071,1,2,0:0:0:0:
192,192,75071,1,4,0:0:0:0:
448,192,75071,1,0,0:0:0:0:
192,192,75293,1,8,0:0:0:0:
320,192,75293,1,0,0:0:0:0:
64,192,75516,1,2,0:0:0:0:
448,192,75516,1,0,0:0:0:0:
192,192,75738,1,8,0:0:0:0:
320,192,75738,1,0,0:0:0:0:
64,192,75960,128,2,76627:0:0:0:0:
448,192,75960,1,0,0:0:0:0:
320,192,76182,1,8,0:0:0:0:
320,192,76404,1,2,0:0:0:0:
448,192,76404,1,0,0:0:0:0:
192,192,76627,1,8,0:0:0:0:
64,192,76849,1,4,0:0:0:0:
320,192,76849,1,2,0:0:0:0:
448,192,76849,1,0,0:0:0:0:
192,192,77071,1,8,0:0:0:0:
320,192,77071,1,0,0:0:0:0:
64,192,77293,1,2,0:0:0:0:
448,192,77293,1,0,0:0:0:0:
192,192,77516,1,8,0:0:0:0:
320,192,77516,1,0,0:0:0:0:
64,192,77738,128,2,78404:0:0:0:0:
448,192,77738,1,4,0:0:0:0:
320,192,77960,1,0,0:0:0:0:
320,192,78182,1,2,0:0:0:0:
448,192,78182,1,4,0:0:0:0:
192,192,78404,1,8,0:0:0:0:
448,192,78404,1,0,0:0:0:0:
64,192,78627,1,4,0:0:0:0:
192,192,78627,1,2,0:0:0:0:
320,192,78627,1,0,0:0:0:0:
320,192,78849,1,8,0:0:0:0:
448,192,78849,1,0,0:0:0:0:
64,192,79071,1,2,0:0:0:0:
192,192,79071,1,0,0:0:0:0:
320,192,79293,1,8,0:0:0:0:
448,192,79293,1,0,0:0:0:0:
64,192,79516,1,2,0:0:0:0:
192,192,79516,128,0,80182:0:0:0:0:
320,192,79738,1,8,0:0:0:0:
64,192,79960,1,2,0:0:0:0:
320,192,79960,1,0,0:0:0:0:
448,192,80182,1,8,0:0:0:0:
64,192,80404,1,2,0:0:0:0:
192,192,80404,1,4,0:0:0:0:
320,192,80404,1,0,0:0:0:0:
320,192,80627,1,8,0:0:0:0:
448,192,80627,1,0,0:0:0:0:
64,192,80849,1,2,0:0:0:0:
192,192,80849,1,0,0:0:0:0:
320,192,81071,1,8,0:0:0:0:
448,192,81071,1,0,0:0:0:0:
64,192,81293,1,2,0:0:0:0:
192,192,81293,128,0,81960:0:0:0:0:
448,192,81516,1,8,0:0:0:0:
320,192,81738,1,2,0:0:0:0:
448,192,81738,1,0,0:0:0:0:
64,192,81960,1,8,0:0:0:0:
192,192,82182,1,2,0:0:0:0:
320,192,82182,1,4,0:0:0:0:
448,192,82182,1,0,0:0:0:0:
64,192,82404,1,8,0:0:0:0:
320,192,82404,1,0,0:0:0:0:
192,192,82627,1,2,0:0:0:0:
448,192,82627,1,0,0:0:0:0:
64,192,82849,1,8,0:0:0:0:
320,192,82849,1,0,0:0:0:0:
192,192,83071,1,2,0:0:0:0:
448,192,83071,128,4,83738:0:0:0:0:
320,192,83293,1,8,0:0:0:0:
64,192,83516,1,2,0:0:0:0:
320,192,83516,1,0,0:0:0:0:
192,192,83738,1,8,0:0:0:0:
64,192,83960,1,4,0:0:0:0:
320,192,83960,1,2,0:0:0:0:
448,192,83960,1,0,0:0:0:0:
320,192,84182,1,8,0:0:0:0:
64,192,84404,1,2,0:0:0:0:
192,192,84404,1,4,0:0:0:0:
448,192,84404,1,0,0:0:0:0:
192,192,84627,1,8,0:0:0:0:
64,192,84849,128,2,85293:0:0:0:0:
320,192,84849,1,4,0:0:0:0:
448,192,84849,1,0,0:0:0:0:
448,192,85071,1,0,0:0:0:0:
192,192,85293,1,2,0:0:0:0:
320,192,85293,128,4,85738:0:0:0:0:
64,192,85516,1,8,0:0:0:0:
448,192,85516,1,0,0:0:0:0:
64,192,85738,1,2,0:0:0:0:
192,192,85738,1,4,0:0:0:0:
192,192,86071,1,2,0:0:0:0:
448,192,86071,1,4,0:0:0:0:
192,192,86404,128,0,86627:0:0:0:70:LR_Drum Rim Fast.wav
320,192,86627,1,2,0:0:0:0:
448,192,86627,1,4,0:0:0:0:
64,192,86960,1,2,0:0:0:0:
320,192,86960,1,4,0:0:0:0:
320,192,87293,1,0,0:0:0:70:LR_Drum Rim Fast.wav
448,192,87404,1,0,0:0:0:0:
64,192,87516,1,4,0:0:0:0:
192,192,87516,1,2,0:0:0:0:
192,192,87849,1,4,0:0:0:0:
448,192,87849,1,2,0:0:0:0:
192,192,88182,1,0,0:0:0:70:LR_Drum Rim Fast.wav
448,192,88330,1,0,0:0:0:0:
64,192,88404,1,0,0:0:0:70:LR4_DrumKickHat.wav
192,192,88404,1,0,0:0:0:0:
320,192,88627,1,0,0:0:0:0:
64,192,88849,1,0,0:0:0:70:clap01_D.wav
448,192,88849,1,0,0:0:0:0:
192,192,89071,1,0,0:0:0:70:LR4_DrumKickHat.wav
320,192,89293,1,2,0:0:0:0:
448,192,89293,1,4,0:0:0:0:
192,192,89627,1,2,0:0:0:0:
448,192,89627,1,4,0:0:0:0:
448,192,89960,128,0,90182:0:0:0:70:LR_Drum Rim Fast.wav
64,192,90182,1,2,0:0:0:0:
192,192,90182,1,4,0:0:0:0:
64,192,90516,1,2,0:0:0:0:
320,192,90516,1,4,0:0:0:0:
64,192,90849,1,0,0:0:0:70:LR_Drum Rim Fast.wav
192,192,90960,1,0,0:0:0:0:
320,192,91071,1,4,0:0:0:0:
448,192,91071,1,2,0:0:0:0:
192,192,91404,1,4,0:0:0:0:
448,192,91404,1,2,0:0:0:0:
448,192,91738,1,0,0:0:0:70:LR_Drum Rim Fast.wav
192,192,91886,1,0,0:0:0:0:
320,192,91960,1,0,0:0:0:70:LR4_DrumKickHat.wav
448,192,91960,1,0,0:0:0:0:
64,192,92182,1,0,0:0:0:0:
192,192,92404,1,0,0:0:0:70:clap01_D.wav
448,192,92404,1,0,0:0:0:0:
320,192,92627,1,0,0:0:0:70:LR4_DrumKickHat.wav
64,192,92849,1,4,0:0:0:0:
448,192,92849,1,2,0:0:0:0:
320,192,93071,1,0,0:0:0:70:LR_Drum Rim Fast.wav
64,192,93182,1,4,0:0:0:0:
192,192,93182,1,2,0:0:0:0:
320,192,93293,1,0,0:0:0:70:LR_Drum Rim Fast.wav
192,192,93516,128,0,93738:0:0:0:70:LR_Drum Rim Fast.wav
64,192,93738,1,4,0:0:0:0:
448,192,93738,1,2,0:0:0:0:
192,192,93960,1,0,0:0:0:70:LR_Drum Rim Fast.wav
320,192,94071,1,4,0:0:0:0:
448,192,94071,1,2,0:0:0:0:
192,192,94182,1,0,0:0:0:70:LR_Drum Rim Fast.wav
448,192,94404,1,0,0:0:0:70:LR_Drum Rim Fast.wav
192,192,94516,1,0,0:0:0:70:LR_Drum Rim Fast.wav
64,192,94627,1,2,0:0:0:0:
448,192,94627,1,4,0:0:0:0:
320,192,94849,1,0,0:0:0:70:LR_Drum Rim Fast.wav
64,192,94960,1,2,0:0:0:0:
192,192,94960,1,4,0:0:0:0:
320,192,95071,1,0,0:0:0:70:LR_Drum Rim Fast.wav
64,192,95293,1,0,0:0:0:70:LR_Drum Rim Fast.wav
448,192,95442,1,0,0:0:0:0:
192,192,95516,1,0,0:0:0:70:LR4_DrumKickHat.wav
320,192,95516,1,0,0:0:0:0:
64,192,95738,1,0,0:0:0:70:LR_Drum Rim Fast.wav
192,192,95960,1,0,0:0:0:70:clap01_D.wav
448,192,95960,1,0,0:0:0:70:LR_Drum Rim Fast.wav
320,192,96182,1,0,0:0:0:70:LR4_DrumKickHat.wav
64,192,96404,1,2,0:0:0:0:
192,192,96404,1,4,0:0:0:0:
448,192,96627,1,0,0:0:0:70:LR_Drum Rim Fast.wav
64,192,96738,1,2,0:0:0:0:
320,192,96738,1,4,0:0:0:0:
448,192,96849,1,0,0:0:0:70:LR_Drum Rim Fast.wav
192,192,97071,128,0,97293:0:0:0:70:LR_Drum Rim Fast.wav
320,192,97293,1,2,0:0:0:0:
448,192,97293,1,4,0:0:0:0:
64,192,97516,1,0,0:0:0:70:LR_Drum Rim Fast.wav
192,192,97627,1,2,0:0:0:0:
448,192,97627,1,4,0:0:0:0:
64,192,97738,1,0,0:0:0:70:LR_Drum Rim Fast.wav
192,192,97960,1,0,0:0:0:70:LR_Drum Rim Fast.wav
320,192,98071,1,0,0:0:0:70:LR_Drum Rim Fast.wav
64,192,98182,1,4,0:0:0:0:
192,192,98182,1,2,0:0:0:0:
448,192,98404,1,0,0:0:0:70:LR_Drum Rim Fast.wav
64,192,98516,1,4,0:0:0:0:
320,192,98516,1,2,0:0:0:0:
448,192,98627,1,0,0:0:0:70:LR_Drum Rim Fast.wav
192,192,98849,1,4,0:0:0:0:
320,192,98849,1,2,0:0:0:0:
64,192,99071,1,2,0:0:0:0:
192,192,99071,1,4,0:0:0:0:
448,192,99071,1,0,0:0:0:0:
320,192,99293,1,0,0:0:0:0:
64,192,99404,1,0,0:0:0:0:
448,192,99516,1,0,0:0:0:0:
192,192,99738,1,0,0:0:0:0:
64,192,99960,1,0,0:0:0:0:
320,192,99960,1,0,0:0:0:0:
64,192,100293,128,0,100849:0:0:0:0:
448,192,100627,1,0,0:0:0:0:
320,192,100849,1,0,0:0:0:0:
320,192,101182,128,0,101293:0:0:0:0:
192,192,101516,1,0,0:0:0:0:
448,192,101738,1,0,0:0:0:0:
448,192,102071,128,0,102627:0:0:0:0:
192,192,102182,1,0,0:0:0:0:
64,192,102293,1,0,0:0:0:0:
192,192,102404,128,0,102627:0:0:0:0:
64,192,102627,1,4,0:0:0:0:
320,192,102627,128,2,103071:0:0:0:0:
192,192,103071,128,2,103516:0:0:0:0:
448,192,103071,1,4,0:0:0:0:
64,192,103516,1,2,0:0:0:0:
320,192,103516,1,4,0:0:0:0:
448,192,103738,1,0,0:0:0:70:LR_Drum Rim Fast.wav
448,192,103960,1,0,0:0:0:70:LR_Drum Rim Fast.wav
192,192,104182,1,0,0:0:0:70:LR_Drum Rim Fast.wav
192,192,104404,1,4,0:0:0:0:
448,192,104404,1,2,0:0:0:0:
64,192,104627,1,0,0:0:0:70:LR_Drum Rim Fast.wav
64,192,104849,1,0,0:0:0:70:LR_Drum Rim Fast.wav
320,192,105071,1,2,0:0:0:0:
448,192,105071,1,0,0:0:0:0:
64,192,105293,1,2,0:0:0:0:
320,192,105293,1,4,0:0:0:0:
192,192,105516,1,0,0:0:0:70:LR_Drum Rim Fast.wav
320,192,105627,1,0,0:0:0:70:LR_Drum Rim Fast.wav
64,192,105738,1,4,0:0:0:0:
192,192,105738,1,2,0:0:0:0:
448,192,105960,1,0,0:0:0:70:LR_Drum Rim Fast.wav
64,192,106071,1,0,0:0:0:70:LR_Drum Rim Fast.wav
192,192,106182,1,2,0:0:0:0:
448,192,106182,1,4,0:0:0:0:
320,192,106404,1,0,0:0:0:70:LR_Drum Rim Fast.wav
64,192,106516,1,0,0:0:0:70:LR_Drum Rim Fast.wav
320,192,106627,1,4,0:0:0:0:
448,192,106627,1,2,0:0:0:0:
192,192,106849,1,0,0:0:0:70:LR_Drum Rim Fast.wav
448,192,106960,1,0,0:0:0:70:LR_Drum Rim Fast.wav
64,192,107071,1,2,0:0:0:0:
320,192,107071,1,4,0:0:0:0:
448,192,107182,1,0,0:0:0:70:LR_Drum Rim Fast.wav
64,192,107293,1,4,0:0:0:0:
192,192,107293,1,2,0:0:0:0:
320,192,107404,1,0,0:0:0:70:LR_Drum Rim Fast.wav
192,192,107516,1,2,0:0:0:0:
448,192,107516,1,4,0:0:0:0:
64,192,107627,1,0,0:0:0:70:LR_Drum Rim Fast.wav
320,192,107738,1,4,0:0:0:0:
448,192,107738,1,2,0:0:0:0:
192,192,107849,1,0,0:0:0:70:LR_Drum Rim Fast.wav
64,192,107960,128,0,108404:0:0:0:0:
320,192,108404,128,0,108849:0:0:0:0:
64,192,108627,1,0,0:0:0:70:LR4_DrumKickHat.wav
192,192,108627,1,0,0:0:0:0:
64,192,108849,1,2,0:0:0:0:
192,192,108849,1,4,0:0:0:0:
448,192,108849,1,0,0:0:0:0:
320,192,109071,1,8,0:0:0:0:
448,192,109071,128,0,109293:0:0:0:0:
64,192,109293,1,2,0:0:0:0:
192,192,109293,128,0,109516:0:0:0:0:
320,192,109516,128,8,109738:0:0:0:0:
448,192,109516,1,0,0:0:0:0:
64,192,109738,128,2,110404:0:0:0:0:
192,192,109738,1,0,0:0:0:0:
448,192,109960,1,8,0:0:0:0:
192,192,110182,1,2,0:0:0:0:
448,192,110182,1,0,0:0:0:0:
192,192,110404,1,8,0:0:0:0:
64,192,110627,1,4,0:0:0:0:
320,192,110627,1,2,0:0:0:0:
448,192,110627,1,0,0:0:0:0:
64,192,110849,1,8,0:0:0:0:
192,192,110849,128,0,111071:0:0:0:0:
320,192,111071,128,2,111293:0:0:0:0:
448,192,111071,1,0,0:0:0:0:
64,192,111293,128,8,111516:0:0:0:0:
192,192,111293,1,0,0:0:0:0:
320,192,111516,1,2,0:0:0:0:
448,192,111516,128,0,112182:0:0:0:0:
192,192,111738,1,8,0:0:0:0:
192,192,111960,1,2,0:0:0:0:
320,192,111960,1,0,0:0:0:0:
320,192,112182,1,8,0:0:0:0:
64,192,112404,1,4,0:0:0:0:
192,192,112404,1,2,0:0:0:0:
448,192,112404,1,0,0:0:0:0:
192,192,112627,1,8,0:0:0:0:
320,192,112627,128,0,112849:0:0:0:0:
64,192,112849,1,2,0:0:0:0:
448,192,112849,128,0,113071:0:0:0:0:
192,192,113071,128,8,113293:0:0:0:0:
320,192,113071,1,0,0:0:0:0:
64,192,113293,128,2,113960:0:0:0:0:
448,192,113293,1,0,0:0:0:0:
320,192,113516,1,8,0:0:0:0:
192,192,113738,1,2,0:0:0:0:
320,192,113738,1,0,0:0:0:0:
192,192,113960,1,8,0:0:0:0:
64,192,114182,1,2,0:0:0:0:
320,192,114182,1,4,0:0:0:0:
448,192,114182,1,0,0:0:0:0:
192,192,114404,128,0,114627:0:0:0:0:
320,192,114404,1,0,0:0:0:0:
64,192,114627,1,2,0:0:0:0:
448,192,114627,128,0,114849:0:0:0:0:
64,192,114849,1,8,0:0:0:0:
192,192,114849,1,0,0:0:0:0:
320,192,114997,1,0,0:0:0:70:LR4_DrumKickHat.wav
64,192,115071,128,4,115516:0:0:0:0:
448,192,115071,1,2,0:0:0:0:
320,192,115293,1,0,0:0:0:0:
192,192,115516,1,4,0:0:0:0:
448,192,115516,128,2,115960:0:0:0:0:
64,192,115738,1,8,0:0:0:0:
320,192,115738,1,0,0:0:0:0:
64,192,115960,1,2,0:0:0:0:
192,192,115960,1,4,0:0:0:0:
320,192,115960,1,0,0:0:0:0:
192,192,116182,128,8,116404:0:0:0:0:
448,192,116182,1,0,0:0:0:0:
64,192,116404,1,2,0:0:0:0:
320,192,116404,128,4,116627:0:0:0:0:
192,192,116627,1,8,0:0:0:0:
448,192,116627,128,0,116849:0:0:0:0:
64,192,116849,128,2,117516:0:0:0:0:
320,192,116849,1,4,0:0:0:0:
192,192,117071,128,8,117293:0:0:0:0:
320,192,117293,1,2,0:0:0:0:
448,192,117293,128,4,117516:0:0:0:0:
192,192,117516,128,8,117738:0:0:0:0:
64,192,117738,1,4,0:0:0:0:
320,192,117738,1,2,0:0:0:0:
448,192,117738,1,0,0:0:0:0:
192,192,117960,1,8,0:0:0:0:
448,192,117960,128,0,118182:0:0:0:0:
64,192,118182,1,2,0:0:0:0:
320,192,118182,128,4,118404:0:0:0:0:
192,192,118404,128,8,118627:0:0:0:0:
448,192,118404,1,0,0:0:0:0:
64,192,118627,128,2,119293:0:0:0:0:
320,192,118627,1,4,0:0:0:0:
448,192,118849,128,8,119071:0:0:0:0:
192,192,119071,128,2,119293:0:0:0:0:
320,192,119071,1,4,0:0:0:0:
448,192,119293,128,8,119516:0:0:0:0:
64,192,119516,1,4,0:0:0:0:
192,192,119516,1,2,0:0:0:0:
320,192,119516,128,0,120404:0:0:0:0:
448,192,119738,1,8,0:0:0:0:
64,192,119960,1,2,0:0:0:0:
448,192,119960,1,4,0:0:0:0:
192,192,120182,1,8,0:0:0:0:
192,192,120404,1,4,0:0:0:0:
448,192,120404,128,2,120849:0:0:0:0:
64,192,120627,1,0,0:0:0:0:
64,192,120849,128,2,121293:0:0:0:0:
320,192,120849,1,4,0:0:0:0:
448,192,121071,1,0,0:0:0:0:
192,192,121293,1,2,0:0:0:0:
448,192,121293,1,4,0:0:0:0:
192,192,121516,1,8,0:0:0:0:
320,192,121516,1,0,0:0:0:0:
320,192,121738,1,4,0:0:0:0:
448,192,121738,1,2,0:0:0:0:
64,192,121960,1,8,0:0:0:0:
448,192,121960,1,0,0:0:0:0:
64,192,122182,128,4,122627:0:0:0:0:
192,192,122182,1,2,0:0:0:0:
320,192,122627,1,4,0:0:0:0:
448,192,122627,128,2,123071:0:0:0:0:
192,192,123071,128,6,123442:0:0:0:0:
64,192,123442,1,0,0:0:0:70:LR4_DrumKickHat.wav
320,192,123516,1,2,0:0:0:0:
448,192,123516,128,0,123738:0:0:0:70:Cymatics - Future Bass Clap 3.wav
64,192,123738,1,0,0:0:0:50:LR5_Drum Barrel Snare.wav
64,192,123960,128,2,124182:0:0:0:0:
320,192,123960,1,0,0:0:0:0:
192,192,124182,1,0,0:0:0:0:
448,192,124330,1,0,0:0:0:70:LR4_DrumKickHat.wav
192,192,124404,128,2,124627:0:0:0:0:
320,192,124404,1,0,0:0:0:70:Cymatics - Future Bass Clap 3.wav
448,192,124627,128,0,124849:0:0:0:50:LR4_DrumRevBassImpact.wav
64,192,124849,128,2,125071:0:0:0:0:
320,192,124849,1,0,0:0:0:0:
192,192,125071,1,0,0:0:0:0:
448,192,125219,1,0,0:0:0:70:LR4_DrumKickHat.wav
192,192,125293,1,2,0:0:0:0:
320,192,125293,1,0,0:0:0:70:Cymatics - Future Bass Clap 3.wav
64,192,125404,1,0,0:0:0:0:
448,192,125516,1,0,0:0:0:50:LR5_Drum Barrel Snare.wav
192,192,125627,128,0,125960:0:0:0:0:
64,192,125738,1,2,0:0:0:0:
320,192,125738,1,0,0:0:0:0:
448,192,125960,128,0,126071:0:0:0:0:
320,192,126182,128,2,126293:0:0:0:0:
64,192,126293,128,0,126404:0:0:0:0:
320,192,126404,128,0,126516:0:0:0:50:LR4_DrumRevBassImpact.wav
192,192,126516,128,0,126627:0:0:0:0:
64,192,126627,1,2,0:0:0:0:
448,192,126627,128,0,126997:0:0:0:0:
320,192,126997,1,0,0:0:0:70:LR4_DrumKickHat.wav
64,192,127071,1,2,0:0:0:0:
192,192,127071,128,0,127293:0:0:0:70:Cymatics - Future Bass Clap 3.wav
320,192,127293,1,0,0:0:0:50:LR5_Drum Barrel Snare.wav
64,192,127516,1,2,0:0:0:0:
320,192,127516,128,0,127738:0:0:0:0:
448,192,127738,1,0,0:0:0:0:
192,192,127886,1,0,0:0:0:70:LR4_DrumKickHat.wav
64,192,127960,1,2,0:0:0:0:
448,192,127960,128,0,128182:0:0:0:70:Cymatics - Future Bass Clap 3.wav
192,192,128182,128,0,128404:0:0:0:50:LR4_DrumRevBassImpact.wav
64,192,128404,1,2,0:0:0:0:
320,192,128404,128,0,128627:0:0:0:0:
448,192,128627,1,0,0:0:0:0:
192,192,128775,1,0,0:0:0:70:LR4_DrumKickHat.wav
64,192,128849,1,2,0:0:0:0:
448,192,128849,1,0,0:0:0:70:Cymatics - Future Bass Clap 3.wav
320,192,128960,1,0,0:0:0:0:
192,192,129071,1,0,0:0:0:50:LR5_Drum Barrel Snare.wav
448,192,129182,128,0,129516:0:0:0:0:
64,192,129293,1,2,0:0:0:0:
192,192,129293,1,0,0:0:0:0:
320,192,129516,128,0,129738:0:0:0:0:
64,192,129738,128,0,130182:0:0:0:0:
192,192,130182,1,2,0:0:0:0:
448,192,130182,128,4,130404:0:0:0:0:
320,192,130404,1,0,0:0:0:70:LR4_DrumKickHat.wav
192,192,130516,1,2,0:0:0:0:
448,192,130516,128,4,130738:0:0:0:0:
64,192,130738,1,2,0:0:0:0:
192,192,130849,1,2,0:0:0:0:
448,192,130849,1,0,0:0:0:0:
64,192,130960,1,2,0:0:0:0:
320,192,130960,1,0,0:0:0:0:
192,192,131071,128,4,131293:0:0:0:0:
448,192,131071,1,2,0:0:0:0:
64,192,131293,1,0,0:0:0:70:LR4_DrumKickHat.wav
192,192,131404,128,4,131627:0:0:0:0:
448,192,131404,1,2,0:0:0:0:
320,192,131627,1,2,0:0:0:0:
448,192,131738,128,2,131849:0:0:0:0:
192,192,131849,128,2,131960:0:0:0:0:
64,192,131960,1,2,0:0:0:0:
320,192,131960,128,4,132182:0:0:0:0:
448,192,132182,1,0,0:0:0:70:LR4_DrumKickHat.wav
64,192,132293,1,2,0:0:0:0:
320,192,132293,128,4,132516:0:0:0:0:
192,192,132516,1,2,0:0:0:0:
64,192,132627,1,2,0:0:0:0:
320,192,132627,1,0,0:0:0:0:
192,192,132738,1,2,0:0:0:0:
448,192,132738,1,0,0:0:0:0:
64,192,132849,128,4,133071:0:0:0:0:
320,192,132849,1,2,0:0:0:0:
448,192,133071,1,0,0:0:0:70:LR4_DrumKickHat.wav
64,192,133182,128,4,133404:0:0:0:0:
320,192,133182,1,2,0:0:0:0:
192,192,133404,1,2,0:0:0:0:
448,192,133516,128,2,133627:0:0:0:0:
64,192,133627,128,2,133738:0:0:0:0:
192,192,133738,1,4,0:0:0:0:
320,192,133738,1,2,0:0:0:0:
64,192,133960,1,0,0:0:0:70:LR_Drum Rim Fast.wav
448,192,134071,1,0,0:0:0:70:LR_Drum Rim Fast.wav
64,192,134182,1,4,0:0:0:0:
320,192,134182,1,2,0:0:0:0:
192,192,134404,1,0,0:0:0:70:LR_Drum Rim Fast.wav
320,192,134516,1,0,0:0:0:70:LR_Drum Rim Fast.wav
64,192,134627,1,2,0:0:0:0:
192,192,134627,1,4,0:0:0:0:
448,192,134849,1,0,0:0:0:70:LR_Drum Rim Fast.wav
192,192,134960,1,0,0:0:0:70:LR_Drum Rim Fast.wav
320,192,135071,1,4,0:0:0:0:
448,192,135071,1,2,0:0:0:0:
64,192,135293,1,0,0:0:0:70:LR_Drum Rim Fast.wav
192,192,135404,1,0,0:0:0:70:LR_Drum Rim Fast.wav
64,192,135516,1,2,0:0:0:0:
320,192,135516,1,4,0:0:0:0:
448,192,135627,1,0,0:0:0:70:LR_Drum Rim Fast.wav
64,192,135738,1,4,0:0:0:0:
192,192,135738,1,2,0:0:0:0:
320,192,135849,1,0,0:0:0:70:LR_Drum Rim Fast.wav
192,192,135960,1,2,0:0:0:0:
448,192,135960,1,4,0:0:0:0:
64,192,136071,1,0,0:0:0:70:LR_Drum Rim Fast.wav
320,192,136182,1,4,0:0:0:0:
448,192,136182,1,2,0:0:0:0:
192,192,136293,128,0,136627:0:0:0:70:LR_Drum Rim Fast.wav
64,192,136404,1,2,0:0:0:0:
320,192,136404,1,0,0:0:0:0:
448,192,136627,128,0,136738:0:0:0:0:
64,192,136849,128,0,136960:0:0:0:0:
320,192,136960,128,0,137071:0:0:0:0:
192,192,137071,128,0,137182:0:0:0:0:
448,192,137182,128,0,137293:0:0:0:0:
64,192,137293,128,4,137738:0:0:0:0:
192,192,137293,1,2,0:0:0:0:
320,192,137293,1,0,0:0:0:0:
