osu file format v14

[General]
AudioFilename: audio.mp3
AudioLeadIn: 0
PreviewTime: 27016
Countdown: 0
SampleSet: Soft
StackLeniency: 0.7
Mode: 3
LetterboxInBreaks: 0
SpecialStyle: 0
WidescreenStoryboard: 1

[Editor]
DistanceSpacing: 1
BeatDivisor: 4
GridSize: 32
TimelineZoom: 1.899999

[Metadata]
Title:YURUSHITE
TitleUnicode:YURUSHITE
Artist:t+pazolite
ArtistUnicode:t+pazolite
Creator:Shima Rin
Version:Rem's EXPERT
Source:オンゲキ
Tags:逢坂 茜 Ousaka Akane 音擊 ONGEKI Sound Collection 01 Jump!! O.N.G.E.K.I. SEGA CHUNITHM AMAZON PLUS チュウニズム maimai でらっくす Splash DX スプラッシュ Tofu1222 Fresh Chicken Lirai DE-CADE Remuring Rhezie Agayers FAMoss Dubstek Video Game Electronic Instrumental Jazz
BeatmapID:2515104
BeatmapSetID:1185688

[Difficulty]
HPDrainRate:7.8
CircleSize:4
OverallDifficulty:7.8
ApproachRate:5
SliderMultiplier:1.4
SliderTickRate:1

[Events]
//Background and Video events
0,0,"BG.jpg",0,0
//Break Periods
//Storyboard Layer 0 (Background)
//Storyboard Layer 1 (Fail)
//Storyboard Layer 2 (Pass)
//Storyboard Layer 3 (Foreground)
//Storyboard Layer 4 (Overlay)
//Storyboard Sound Samples
Sample,41293,0,"LR4_BassKickReverbXD.wav",70

[TimingPoints]
405,222.222222222222,4,2,1,70,1,0
28849,-100,4,2,1,70,0,1
41293,-100,4,2,1,70,0,0
43182,-100,4,2,1,60,0,0
57293,-100,4,2,1,50,0,0
64404,-100,4,2,1,60,0,0
71516,-100,4,2,1,70,0,1
85738,-100,4,2,1,70,0,0
99293,-100,4,2,1,50,0,0
102627,-100,4,2,1,70,0,0
108849,-100,4,2,1,70,0,1
123071,-100,4,2,1,70,0,0

[HitObjects]
320,192,405,5,0,0:0:0:20:LR5_Drum Barrel Snare.wav
64,192,627,1,0,0:0:0:20:LR5_Drum Barrel Snare_B.wav
192,192,627,1,0,0:0:0:0:
448,192,849,1,0,0:0:0:20:LR5_Drum Barrel Snare.wav
192,192,997,1,0,0:0:0:20:LR5_Drum Barrel Snare_B.wav
320,192,997,1,0,0:0:0:0:
320,192,1293,1,0,0:0:0:20:LR5_Drum Barrel Snare_B.wav
448,192,1293,1,0,0:0:0:0:
64,192,1516,1,0,0:0:0:20:LR5_Drum Barrel Snare.wav
320,192,1664,1,0,0:0:0:20:LR5_Drum Barrel Snare_B.wav
448,192,1664,1,0,0:0:0:0:
320,192,1960,1,0,0:0:0:20:LR5_Drum Barrel Snare_B.wav
448,192,1960,1,0,0:0:0:0:
64,192,2182,1,0,0:0:0:20:LR5_Drum Barrel Snare.wav
192,192,2404,1,0,0:0:0:20:LR5_Drum Barrel Snare_B.wav
320,192,2404,1,0,0:0:0:0:
448,192,2627,1,0,0:0:0:20:LR5_Drum Barrel Snare.wav
64,192,2775,1,0,0:0:0:20:LR5_Drum Barrel Snare_B.wav
192,192,2775,1,0,0:0:0:0:
320,192,3071,1,0,0:0:0:20:LR5_Drum Barrel Snare_B.wav
448,192,3071,1,0,0:0:0:0:
64,192,3293,1,0,0:0:0:20:LR5_Drum Barrel Snare.wav
320,192,3442,1,0,0:0:0:20:LR5_Drum Barrel Snare_B.wav
448,192,3442,1,0,0:0:0:0:
64,192,3738,1,0,0:0:0:20:LR5_Drum Barrel Snare_B.wav
448,192,3738,1,0,0:0:0:0:
192,192,3793,1,0,0:0:0:0:
320,192,3849,1,0,0:0:0:0:
192,192,3960,1,0,0:0:0:20:LR5_Drum Barrel Snare.wav
320,192,4182,1,0,0:0:0:20:LR5_Drum Barrel Snare_B.wav
448,192,4182,1,0,0:0:0:0:
64,192,4404,1,0,0:0:0:20:LR5_Drum Barrel Snare.wav
192,192,4553,1,0,0:0:0:20:LR5_Drum Barrel Snare_B.wav
320,192,4553,1,0,0:0:0:0:
64,192,4849,1,0,0:0:0:20:LR5_Drum Barrel Snare_B.wav
192,192,4849,1,0,0:0:0:0:
448,192,5071,1,0,0:0:0:20:LR5_Drum Barrel Snare.wav
64,192,5219,1,0,0:0:0:20:LR5_Drum Barrel Snare_B.wav
192,192,5219,1,0,0:0:0:0:
320,192,5516,1,0,0:0:0:20:LR5_Drum Barrel Snare_B.wav
448,192,5516,1,0,0:0:0:0:
64,192,5738,128,0,6627:0:0:0:20:LR5_Drum Barrel Snare.wav
192,192,5738,128,0,6182:0:0:0:0:
448,192,6182,1,0,0:0:0:20:LR5_Drum Barrel Snare.wav
320,192,6293,1,0,0:0:0:0:
192,192,6516,1,0,0:0:0:0:
320,192,6738,1,0,0:0:0:0:
192,192,6849,1,0,0:0:0:20:LR5_Drum Barrel Snare.wav
448,192,6960,1,0,0:0:0:0:
192,192,7071,1,0,0:0:0:0:
320,192,7182,1,0,0:0:0:0:
64,192,7293,1,0,0:0:0:20:LR5_Drum Barrel Snare_B.wav
448,192,7404,1,0,0:0:0:0:
64,192,7516,128,4,7627:0:0:0:0:
192,192,7516,128,0,7627:0:0:0:20:LR5_Drum Barrel Snare.wav
64,192,7738,1,0,0:0:0:20:LR5_Drum Barrel Snare_B.wav
192,192,7738,1,0,0:0:0:0:
64,192,8182,128,0,8238:0:0:0:70:Cymatics - Future Bass Clap 3.wav
192,192,8182,128,0,8238:0:0:0:0:
64,192,8293,128,0,8404:0:0:0:0:
192,192,8293,128,0,8404:0:0:0:0:
64,192,8627,1,0,0:0:0:70:Cymatics - Future Bass Clap 3.wav
192,192,8627,1,0,0:0:0:20:LR5_Drum Barrel Snare.wav
64,192,9071,1,0,0:0:0:70:Cymatics - Future Bass Clap 3.wav
192,192,9071,1,0,0:0:0:20:LR5_Drum Barrel Snare_B.wav
320,192,9293,128,0,9404:0:0:0:20:LR5_Drum Barrel Snare.wav
448,192,9293,128,0,9404:0:0:0:0:
320,192,9516,1,0,0:0:0:70:Cymatics - Future Bass Clap 3.wav
448,192,9516,1,0,0:0:0:20:LR5_Drum Barrel Snare_B.wav
320,192,9960,128,0,10016:0:0:0:70:Cymatics - Future Bass Clap 3.wav
448,192,9960,128,0,10016:0:0:0:0:
320,192,10071,128,0,10182:0:0:0:0:
448,192,10071,128,0,10182:0:0:0:0:
320,192,10404,1,0,0:0:0:70:Cymatics - Future Bass Clap 3.wav
448,192,10404,1,0,0:0:0:20:LR5_Drum Barrel Snare.wav
320,192,10627,128,0,11071:0:0:0:0:
448,192,10627,128,0,11071:0:0:0:0:
64,192,10849,1,0,0:0:0:70:Cymatics - Future Bass Clap 3.wav
192,192,10849,1,0,0:0:0:20:LR5_Drum Barrel Snare_B.wav
64,192,11071,128,0,11182:0:0:0:20:LR5_Drum Barrel Snare.wav
192,192,11071,128,0,11182:0:0:0:0:
64,192,11293,1,0,0:0:0:70:Cymatics - Future Bass Clap 3.wav
192,192,11293,1,0,0:0:0:20:LR5_Drum Barrel Snare_B.wav
64,192,11738,128,0,11793:0:0:0:70:Cymatics - Future Bass Clap 3.wav
448,192,11738,128,0,11793:0:0:0:0:
64,192,11849,128,0,11960:0:0:0:0:
448,192,11849,128,0,11960:0:0:0:0:
192,192,12182,128,0,12293:0:0:0:70:Cymatics - Future Bass Clap 3.wav
320,192,12182,128,0,12293:0:0:0:20:LR5_Drum Barrel Snare.wav
64,192,12516,128,0,12627:0:0:0:0:
448,192,12516,128,0,12627:0:0:0:0:
320,192,12849,1,2,0:0:0:0:
448,192,12849,1,4,0:0:0:0:
192,192,12997,1,0,0:0:0:0:
448,192,13071,1,0,0:0:0:0:
320,192,13219,1,0,0:0:0:0:
320,192,13442,1,0,0:0:0:0:
192,192,13664,1,0,0:0:0:0:
64,192,13738,128,0,13904:0:0:0:0:
448,192,13960,128,0,14071:0:0:0:0:
192,192,14182,128,0,14293:0:0:0:0:
320,192,14404,128,0,14516:0:0:0:70:clap01_D.wav
64,192,14627,128,2,14997:0:0:0:0:
320,192,14627,1,4,0:0:0:0:
448,192,14627,1,0,0:0:0:0:
320,192,14997,1,0,0:0:0:70:LR4_DrumKickHat.wav
64,192,15071,1,2,0:0:0:0:
448,192,15071,128,0,15293:0:0:0:70:Cymatics - Future Bass Clap 3.wav
64,192,15293,1,0,0:0:0:50:LR5_Drum Barrel Snare.wav
320,192,15293,1,0,0:0:0:0:
192,192,15516,128,2,15738:0:0:0:0:
448,192,15516,1,0,0:0:0:0:
320,192,15738,128,0,15849:0:0:0:0:
64,192,15849,128,0,15960:0:0:0:0:
192,192,15960,1,2,0:0:0:0:
448,192,15960,128,0,16127:0:0:0:70:Cymatics - Future Bass Clap 3.wav
192,192,16182,1,0,0:0:0:50:LR4_DrumRevBassImpact.wav
448,192,16182,128,0,16404:0:0:0:0:
64,192,16404,1,2,0:0:0:0:
320,192,16404,128,0,16701:0:0:0:0:
64,192,16627,128,0,16701:0:0:0:0:
192,192,16775,1,0,0:0:0:70:LR4_DrumKickHat.wav
320,192,16849,1,2,0:0:0:0:
448,192,16849,1,0,0:0:0:70:Cymatics - Future Bass Clap 3.wav
64,192,16960,1,0,0:0:0:0:
192,192,17016,1,0,0:0:0:0:
320,192,17071,128,0,17182:0:0:0:50:LR5_Drum Barrel Snare.wav
448,192,17071,1,0,0:0:0:0:
64,192,17182,128,0,17516:0:0:0:0:
192,192,17293,1,2,0:0:0:0:
320,192,17293,1,0,0:0:0:0:
448,192,17516,128,0,17664:0:0:0:0:
320,192,17664,1,0,0:0:0:70:LR4_DrumKickHat.wav
64,192,17738,128,2,17793:0:0:0:0:
192,192,17738,1,0,0:0:0:70:Cymatics - Future Bass Clap 3.wav
448,192,17849,128,0,17904:0:0:0:0:
192,192,17960,128,0,18016:0:0:0:50:LR4_DrumRevBassImpact.wav
320,192,18071,128,0,18127:0:0:0:0:
64,192,18182,1,2,0:0:0:0:
448,192,18182,128,0,18553:0:0:0:0:
192,192,18553,1,0,0:0:0:70:LR4_DrumKickHat.wav
64,192,18627,128,2,18849:0:0:0:0:
448,192,18627,1,0,0:0:0:70:Cymatics - Future Bass Clap 3.wav
192,192,18849,1,0,0:0:0:50:LR5_Drum Barrel Snare.wav
448,192,18849,1,0,0:0:0:0:
64,192,19071,1,2,0:0:0:0:
320,192,19071,128,0,19293:0:0:0:0:
192,192,19293,128,0,19404:0:0:0:0:
448,192,19404,128,0,19516:0:0:0:0:
64,192,19516,128,2,19682:0:0:0:0:
320,192,19516,1,0,0:0:0:70:Cymatics - Future Bass Clap 3.wav
64,192,19738,128,0,19960:0:0:0:50:LR4_DrumRevBassImpact.wav
320,192,19738,1,0,0:0:0:0:
192,192,19960,128,2,20256:0:0:0:0:
448,192,19960,1,0,0:0:0:0:
448,192,20182,128,0,20256:0:0:0:0:
320,192,20330,1,0,0:0:0:70:LR4_DrumKickHat.wav
64,192,20404,1,2,0:0:0:0:
192,192,20404,1,0,0:0:0:70:Cymatics - Future Bass Clap 3.wav
448,192,20516,1,0,0:0:0:0:
320,192,20571,1,0,0:0:0:0:
64,192,20627,1,0,0:0:0:50:LR5_Drum Barrel Snare.wav
192,192,20627,128,0,20738:0:0:0:0:
448,192,20738,128,0,21071:0:0:0:0:
192,192,20849,128,2,20904:0:0:0:0:
320,192,20849,1,0,0:0:0:0:
192,192,20960,128,0,21127:0:0:0:0:
192,192,21182,128,0,21238:0:0:0:0:
320,192,21293,128,0,21404:0:0:0:0:
320,192,21460,128,0,21682:0:0:0:0:
64,192,21738,1,2,0:0:0:0:
192,192,21738,1,4,0:0:0:0:
448,192,21738,1,0,0:0:0:0:
320,192,21960,1,0,0:0:0:70:LR4_DrumKickHat.wav
64,192,22071,1,2,0:0:0:0:
192,192,22071,1,4,0:0:0:0:
448,192,22071,1,0,0:0:0:0:
64,192,22182,1,0,0:0:0:70:LR4_DrumKickHat.wav
320,192,22293,1,2,0:0:0:0:
448,192,22349,1,2,0:0:0:0:
192,192,22404,1,2,0:0:0:0:
192,192,22516,1,2,0:0:0:0:
64,192,22627,1,4,0:0:0:0:
320,192,22627,1,2,0:0:0:0:
448,192,22627,1,0,0:0:0:0:
192,192,22849,1,0,0:0:0:70:LR4_DrumKickHat.wav
64,192,22960,1,4,0:0:0:0:
320,192,22960,1,2,0:0:0:0:
448,192,22960,1,0,0:0:0:0:
320,192,23071,1,0,0:0:0:70:LR4_DrumKickHat.wav
192,192,23182,1,2,0:0:0:0:
448,192,23293,1,2,0:0:0:0:
64,192,23349,1,2,0:0:0:0:
192,192,23404,1,2,0:0:0:0:
320,192,23460,1,2,0:0:0:0:
64,192,23516,1,2,0:0:0:0:
192,192,23516,1,4,0:0:0:0:
448,192,23516,1,0,0:0:0:0:
320,192,23738,1,0,0:0:0:70:LR4_DrumKickHat.wav
64,192,23849,1,2,0:0:0:0:
192,192,23849,1,4,0:0:0:0:
448,192,23849,1,0,0:0:0:0:
64,192,23960,1,0,0:0:0:70:LR4_DrumKickHat.wav
320,192,24071,1,2,0:0:0:0:
448,192,24127,1,2,0:0:0:0:
192,192,24182,1,2,0:0:0:0:
192,192,24293,1,2,0:0:0:0:
64,192,24404,1,4,0:0:0:0:
320,192,24404,1,2,0:0:0:0:
448,192,24404,1,0,0:0:0:0:
192,192,24627,1,0,0:0:0:70:LR4_DrumKickHat.wav
64,192,24738,1,4,0:0:0:0:
320,192,24738,1,2,0:0:0:0:
448,192,24738,1,0,0:0:0:0:
320,192,24849,1,0,0:0:0:70:LR4_DrumKickHat.wav
192,192,24960,1,2,0:0:0:0:
448,192,25071,1,2,0:0:0:0:
64,192,25127,1,2,0:0:0:0:
320,192,25182,1,2,0:0:0:0:
192,192,25238,1,2,0:0:0:0:
64,192,25293,1,4,0:0:0:0:
320,192,25293,1,2,0:0:0:0:
448,192,25293,1,0,0:0:0:0:
64,192,25404,1,0,0:0:0:70:LR_Drum Rim Fast.wav
320,192,25516,1,0,0:0:0:70:LR_Drum Rim Fast.wav
320,192,25627,1,0,0:0:0:70:LR_Drum Rim Fast.wav
64,192,25738,1,4,0:0:0:0:
192,192,25738,1,2,0:0:0:0:
448,192,25738,1,0,0:0:0:0:
448,192,25849,1,0,0:0:0:70:LR_Drum Rim Fast.wav
192,192,25960,1,0,0:0:0:70:LR_Drum Rim Fast.wav
192,192,26071,1,0,0:0:0:70:LR_Drum Rim Fast.wav
64,192,26182,1,2,0:0:0:0:
320,192,26182,1,4,0:0:0:0:
448,192,26182,1,0,0:0:0:0:
64,192,26293,1,0,0:0:0:70:LR_Drum Rim Fast.wav
320,192,26404,1,0,0:0:0:70:LR_Drum Rim Fast.wav
320,192,26516,1,0,0:0:0:70:LR_Drum Rim Fast.wav
64,192,26627,1,4,0:0:0:0:
192,192,26627,1,2,0:0:0:0:
448,192,26627,1,0,0:0:0:0:
448,192,26738,1,0,0:0:0:70:LR_Drum Rim Fast.wav
192,192,26849,1,0,0:0:0:70:LR_Drum Rim Fast.wav
192,192,26960,1,0,0:0:0:70:LR_Drum Rim Fast.wav
64,192,27071,1,2,0:0:0:0:
320,192,27071,1,4,0:0:0:0:
448,192,27071,1,0,0:0:0:0:
64,192,27293,1,4,0:0:0:0:
192,192,27293,1,2,0:0:0:0:
448,192,27293,1,0,0:0:0:0:
192,192,27516,1,2,0:0:0:0:
320,192,27516,1,4,0:0:0:0:
448,192,27516,1,0,0:0:0:0:
64,192,27738,1,4,0:0:0:0:
192,192,27738,1,2,0:0:0:0:
320,192,27738,1,0,0:0:0:0:
64,192,27960,128,2,28182:0:0:0:0:
320,192,27960,128,0,28071:0:0:0:0:
448,192,28071,128,0,28293:0:0:0:0:
192,192,28182,128,0,28293:0:0:0:0:
320,192,28293,128,0,28849:0:0:0:0:
64,192,28849,1,4,0:0:0:0:
192,192,28849,1,2,0:0:0:0:
448,192,28849,1,0,0:0:0:0:
320,192,28960,1,2,0:0:0:0:
64,192,29071,1,8,0:0:0:0:
192,192,29071,1,0,0:0:0:0:
448,192,29182,1,2,0:0:0:0:
192,192,29293,1,2,0:0:0:0:
320,192,29293,1,4,0:0:0:0:
64,192,29404,1,2,0:0:0:0:
192,192,29516,1,8,0:0:0:0:
320,192,29516,1,0,0:0:0:0:
64,192,29627,1,2,0:0:0:0:
320,192,29738,1,2,0:0:0:0:
448,192,29738,1,4,0:0:0:0:
192,192,29849,1,2,0:0:0:0:
320,192,29960,1,8,0:0:0:0:
448,192,29960,1,0,0:0:0:0:
192,192,30071,1,2,0:0:0:0:
320,192,30182,1,2,0:0:0:0:
448,192,30182,1,4,0:0:0:0:
64,192,30293,1,2,0:0:0:0:
320,192,30404,1,8,0:0:0:0:
448,192,30404,1,4,0:0:0:0:
64,192,30516,1,2,0:0:0:0:
64,192,30627,1,4,0:0:0:0:
192,192,30627,1,2,0:0:0:0:
320,192,30738,1,2,0:0:0:0:
64,192,30849,1,8,0:0:0:0:
192,192,30849,1,0,0:0:0:0:
448,192,30960,1,2,0:0:0:0:
192,192,31071,1,2,0:0:0:0:
320,192,31071,1,4,0:0:0:0:
64,192,31182,1,2,0:0:0:0:
192,192,31293,1,8,0:0:0:0:
320,192,31293,1,0,0:0:0:0:
64,192,31404,1,2,0:0:0:0:
320,192,31516,1,2,0:0:0:0:
448,192,31516,1,4,0:0:0:0:
192,192,31627,1,2,0:0:0:0:
320,192,31738,1,8,0:0:0:0:
448,192,31738,1,4,0:0:0:0:
192,192,31849,1,2,0:0:0:0:
320,192,31960,1,2,0:0:0:0:
448,192,31960,1,4,0:0:0:0:
192,192,32071,1,2,0:0:0:0:
64,192,32182,1,0,0:0:0:70:electronic13_mix.wav
320,192,32182,1,0,0:0:0:0:
448,192,32182,1,0,0:0:0:0:
64,192,32404,1,4,0:0:0:0:
192,192,32404,1,2,0:0:0:0:
448,192,32404,1,0,0:0:0:0:
320,192,32516,1,2,0:0:0:0:
64,192,32627,1,8,0:0:0:0:
192,192,32627,1,0,0:0:0:0:
448,192,32738,1,2,0:0:0:0:
192,192,32849,1,2,0:0:0:0:
320,192,32849,1,4,0:0:0:0:
64,192,32960,1,2,0:0:0:0:
192,192,33071,1,8,0:0:0:0:
320,192,33071,1,0,0:0:0:0:
64,192,33182,1,2,0:0:0:0:
320,192,33293,1,2,0:0:0:0:
448,192,33293,1,4,0:0:0:0:
192,192,33404,1,2,0:0:0:0:
320,192,33516,1,8,0:0:0:0:
448,192,33516,1,0,0:0:0:0:
192,192,33627,1,2,0:0:0:0:
320,192,33738,1,2,0:0:0:0:
448,192,33738,1,4,0:0:0:0:
64,192,33849,1,2,0:0:0:0:
192,192,33960,1,8,0:0:0:0:
320,192,33960,1,4,0:0:0:0:
64,192,34071,1,2,0:0:0:0:
64,192,34182,1,4,0:0:0:0:
192,192,34182,1,2,0:0:0:0:
448,192,34293,1,2,0:0:0:0:
64,192,34404,1,8,0:0:0:0:
192,192,34404,1,0,0:0:0:0:
448,192,34516,1,2,0:0:0:0:
64,192,34627,1,4,0:0:0:0:
320,192,34627,1,2,0:0:0:0:
192,192,34738,1,2,0:0:0:0:
64,192,34849,1,8,0:0:0:0:
320,192,34849,1,0,0:0:0:0:
192,192,34960,1,2,0:0:0:0:
320,192,35071,1,2,0:0:0:0:
448,192,35071,128,4,35182:0:0:0:0:
192,192,35182,128,2,35293:0:0:0:0:
320,192,35293,1,8,0:0:0:0:
448,192,35293,128,0,35404:0:0:0:0:
192,192,35404,128,0,35516:0:0:0:0:
64,192,35516,1,2,0:0:0:0:
448,192,35516,128,4,35904:0:0:0:0:
64,192,35738,1,0,0:0:0:0:
320,192,35738,1,0,0:0:0:0:
192,192,35849,1,0,0:0:0:0:
64,192,35960,1,2,0:0:0:0:
192,192,35960,1,4,0:0:0:0:
448,192,35960,1,0,0:0:0:0:
320,192,36071,1,2,0:0:0:0:
64,192,36182,1,8,0:0:0:0:
192,192,36182,1,0,0:0:0:0:
448,192,36293,1,2,0:0:0:0:
192,192,36404,1,4,0:0:0:0:
320,192,36404,1,2,0:0:0:0:
64,192,36516,1,2,0:0:0:0:
192,192,36627,1,8,0:0:0:0:
320,192,36627,1,0,0:0:0:0:
64,192,36738,1,2,0:0:0:0:
320,192,36849,1,4,0:0:0:0:
448,192,36849,1,2,0:0:0:0:
192,192,36960,1,2,0:0:0:0:
320,192,37071,1,8,0:0:0:0:
448,192,37071,1,0,0:0:0:0:
192,192,37182,1,2,0:0:0:0:
320,192,37293,1,4,0:0:0:0:
448,192,37293,1,2,0:0:0:0:
64,192,37404,1,2,0:0:0:0:
320,192,37516,1,8,0:0:0:0:
448,192,37516,1,4,0:0:0:0:
64,192,37627,1,2,0:0:0:0:
64,192,37738,1,2,0:0:0:0:
192,192,37738,1,4,0:0:0:0:
320,192,37849,1,2,0:0:0:0:
64,192,37960,1,8,0:0:0:0:
192,192,37960,1,0,0:0:0:0:
448,192,38071,1,2,0:0:0:0:
192,192,38182,1,4,0:0:0:0:
320,192,38182,1,2,0:0:0:0:
64,192,38293,1,2,0:0:0:0:
192,192,38404,1,8,0:0:0:0:
320,192,38404,1,0,0:0:0:0:
64,192,38516,1,2,0:0:0:0:
320,192,38627,1,4,0:0:0:0:
448,192,38627,1,2,0:0:0:0:
192,192,38738,1,2,0:0:0:0:
320,192,38849,1,8,0:0:0:0:
448,192,38849,1,4,0:0:0:0:
192,192,38960,1,2,0:0:0:0:
320,192,39071,1,4,0:0:0:0:
448,192,39071,1,2,0:0:0:0:
192,192,39182,1,2,0:0:0:0:
64,192,39293,1,0,0:0:0:70:electronic13_mix.wav
320,192,39293,1,0,0:0:0:0:
448,192,39293,1,0,0:0:0:0:
64,192,39516,1,2,0:0:0:0:
192,192,39516,1,4,0:0:0:0:
448,192,39516,1,0,0:0:0:0:
320,192,39627,1,2,0:0:0:0:
64,192,39738,1,8,0:0:0:0:
192,192,39738,1,0,0:0:0:0:
448,192,39849,1,2,0:0:0:0:
192,192,39960,1,4,0:0:0:0:
320,192,39960,1,2,0:0:0:0:
64,192,40071,1,2,0:0:0:0:
192,192,40182,1,8,0:0:0:0:
320,192,40182,1,0,0:0:0:0:
64,192,40293,1,2,0:0:0:0:
320,192,40404,1,4,0:0:0:0:
448,192,40404,1,2,0:0:0:0:
192,192,40516,1,2,0:0:0:0:
320,192,40627,1,8,0:0:0:0:
448,192,40627,1,0,0:0:0:0:
192,192,40738,1,0,0:0:0:0:
320,192,40849,1,4,0:0:0:0:
448,192,40849,1,2,0:0:0:0:
192,192,40960,1,2,0:0:0:0:
64,192,41071,1,4,0:0:0:0:
448,192,41071,128,0,41293:0:0:0:0:
64,192,41293,128,4,41349:0:0:0:0:
64,192,41516,128,0,41571:0:0:0:0:
192,192,41738,128,0,41793:0:0:0:0:
320,192,41960,128,0,42016:0:0:0:0:
448,192,42182,128,0,42238:0:0:0:0:
320,192,42404,128,0,42460:0:0:0:0:
448,192,42516,128,0,42571:0:0:0:0:
320,192,42627,128,0,42682:0:0:0:0:
192,192,42738,128,0,42793:0:0:0:0:
64,192,42849,128,0,42904:0:0:0:0:
64,192,43071,1,2,0:0:0:0:
320,192,43071,1,4,0:0:0:0:
448,192,43071,1,0,0:0:0:0:
192,192,43293,1,0,0:0:0:0:
320,192,43404,1,0,0:0:0:0:
192,192,43516,128,0,43960:0:0:0:70:clap01_D.wav
320,192,43738,128,0,43960:0:0:0:0:
64,192,43960,128,0,44293:0:0:0:70:LR4_DrumKickHat.wav
448,192,43960,1,0,0:0:0:0:
320,192,44293,1,0,0:0:0:70:LR4_DrumKickHat.wav
448,192,44293,128,0,44627:0:0:0:0:
64,192,44627,1,0,0:0:0:70:LR4_DrumKickHat.wav
192,192,44627,1,0,0:0:0:0:
64,192,44849,1,0,0:0:0:70:LR4_DrumKickHat.wav
192,192,44849,1,0,0:0:0:0:
320,192,45071,1,0,0:0:0:0:
192,192,45182,1,0,0:0:0:0:
320,192,45293,128,0,45738:0:0:0:70:clap01_D.wav
192,192,45516,128,0,45738:0:0:0:0:
64,192,45738,1,0,0:0:0:70:LR4_DrumKickHat.wav
448,192,45738,128,0,46071:0:0:0:0:
64,192,46071,128,0,46404:0:0:0:70:LR4_DrumKickHat.wav
192,192,46071,1,0,0:0:0:0:
320,192,46404,1,0,0:0:0:70:LR4_DrumKickHat.wav
448,192,46404,1,0,0:0:0:0:
320,192,46627,1,0,0:0:0:70:LR4_DrumKickHat.wav
448,192,46627,1,0,0:0:0:0:
192,192,46849,1,0,0:0:0:0:
320,192,46960,1,0,0:0:0:0:
192,192,47071,128,0,47516:0:0:0:70:clap01_D.wav
320,192,47293,128,0,47516:0:0:0:0:
64,192,47516,128,0,47849:0:0:0:70:LR4_DrumKickHat.wav
448,192,47516,1,0,0:0:0:0:
320,192,47849,128,0,48182:0:0:0:70:LR4_DrumKickHat.wav
448,192,47849,1,0,0:0:0:0:
64,192,48182,128,0,48404:0:0:0:70:LR4_DrumKickHat.wav
448,192,48182,1,0,0:0:0:0:
192,192,48404,128,0,48516:0:0:0:70:LR4_DrumKickHat.wav
448,192,48404,1,0,0:0:0:0:
320,192,48627,128,0,48738:0:0:0:0:
64,192,48849,128,0,48960:0:0:0:70:clap01_D.wav
448,192,48849,1,0,0:0:0:70:LR4_DrumKickHat.wav
320,192,48960,1,0,0:0:0:0:
64,192,49071,1,0,0:0:0:70:LR4_DrumKickHat.wav
448,192,49071,128,0,49182:0:0:0:0:
192,192,49182,1,0,0:0:0:0:
320,192,49293,128,0,49516:0:0:0:70:LR4_DrumKickHat.wav
448,192,49293,1,0,0:0:0:0:
64,192,49516,128,0,49590:0:0:0:0:
192,192,49590,128,0,49664:0:0:0:0:
320,192,49664,128,0,49738:0:0:0:0:
64,192,49738,128,0,49960:0:0:0:70:clap01_D.wav
448,192,49738,1,0,0:0:0:0:
320,192,49960,128,0,50182:0:0:0:70:LR4_DrumKickHat.wav
448,192,49960,1,0,0:0:0:0:
64,192,50182,1,2,0:0:0:0:
192,192,50182,1,4,0:0:0:0:
448,192,50182,1,0,0:0:0:0:
320,192,50404,1,0,0:0:0:0:
192,192,50516,1,0,0:0:0:0:
320,192,50627,128,0,51071:0:0:0:70:clap01_D.wav
192,192,50849,128,0,51071:0:0:0:0:
64,192,51071,1,0,0:0:0:70:LR4_DrumKickHat.wav
448,192,51071,128,0,51404:0:0:0:0:
64,192,51404,128,0,51738:0:0:0:70:LR4_DrumKickHat.wav
192,192,51404,1,0,0:0:0:0:
320,192,51738,1,0,0:0:0:70:LR4_DrumKickHat.wav
448,192,51738,1,0,0:0:0:0:
320,192,51960,1,0,0:0:0:70:LR4_DrumKickHat.wav
448,192,51960,1,0,0:0:0:0:
192,192,52182,1,0,0:0:0:0:
320,192,52293,1,0,0:0:0:0:
192,192,52404,128,0,52849:0:0:0:70:clap01_D.wav
320,192,52627,128,0,52849:0:0:0:0:
64,192,52849,128,0,53182:0:0:0:70:LR4_DrumKickHat.wav
448,192,52849,1,0,0:0:0:0:
320,192,53182,1,0,0:0:0:70:LR4_DrumKickHat.wav
448,192,53182,128,0,53516:0:0:0:0:
64,192,53516,1,0,0:0:0:70:LR4_DrumKickHat.wav
192,192,53516,1,0,0:0:0:0:
64,192,53738,1,0,0:0:0:70:LR4_DrumKickHat.wav
192,192,53738,1,0,0:0:0:0:
320,192,53960,1,0,0:0:0:0:
192,192,54071,1,0,0:0:0:0:
320,192,54182,128,0,54627:0:0:0:70:clap01_D.wav
192,192,54404,128,0,54627:0:0:0:0:
64,192,54627,1,0,0:0:0:70:LR4_DrumKickHat.wav
448,192,54627,128,0,54960:0:0:0:0:
64,192,54960,1,0,0:0:0:70:LR4_DrumKickHat.wav
192,192,54960,128,0,55293:0:0:0:0:
64,192,55293,1,0,0:0:0:70:LR4_DrumKickHat.wav
448,192,55293,128,0,55516:0:0:0:0:
64,192,55516,1,0,0:0:0:70:LR4_DrumKickHat.wav
320,192,55516,128,0,55627:0:0:0:0:
192,192,55738,128,0,55849:0:0:0:0:
64,192,55960,1,0,0:0:0:70:clap01_D.wav
448,192,55960,128,0,56071:0:0:0:70:LR4_DrumKickHat.wav
192,192,56071,1,0,0:0:0:0:
64,192,56182,128,0,56293:0:0:0:70:LR4_DrumKickHat.wav
448,192,56182,1,0,0:0:0:0:
320,192,56293,1,0,0:0:0:0:
64,192,56404,1,0,0:0:0:70:LR4_DrumKickHat.wav
192,192,56404,128,0,56516:0:0:0:0:
320,192,56627,128,0,56738:0:0:0:0:
64,192,56738,1,0,0:0:0:70:LR4_DrumKickHat.wav
192,192,56849,1,0,0:0:0:70:clap01_D.wav
448,192,56849,128,0,56960:0:0:0:0:
192,192,57071,128,0,57182:0:0:0:70:LR4_DrumKickHat.wav
448,192,57071,1,0,0:0:0:0:
64,192,57293,1,0,0:0:0:70:LR4_BassKickReverbXD.wav
320,192,57293,128,0,57404:0:0:0:0:
320,192,57682,128,0,58182:0:0:0:0:
192,192,57960,128,0,58182:0:0:0:0:
448,192,58182,1,0,0:0:0:0:
64,192,58238,1,0,0:0:0:0:
320,192,58516,128,0,58627:0:0:0:0:
64,192,58849,1,0,0:0:0:0:
192,192,59071,128,0,59182:0:0:0:0:
192,192,59460,128,0,59960:0:0:0:0:
320,192,59738,128,0,59960:0:0:0:0:
64,192,59960,1,0,0:0:0:0:
192,192,60293,128,0,60627:0:0:0:0:
448,192,60627,1,0,0:0:0:0:
320,192,60849,128,0,60960:0:0:0:0:
320,192,61238,128,0,61738:0:0:0:0:
192,192,61516,128,0,61738:0:0:0:0:
448,192,61738,1,0,0:0:0:0:
64,192,61793,1,0,0:0:0:0:
320,192,62071,128,0,62182:0:0:0:0:
64,192,62404,1,0,0:0:0:0:
192,192,62627,128,0,62738:0:0:0:0:
192,192,63016,128,0,63516:0:0:0:0:
320,192,63293,128,0,63516:0:0:0:0:
64,192,63516,1,0,0:0:0:0:
448,192,63590,1,0,0:0:0:0:
192,192,63664,1,0,0:0:0:0:
320,192,63738,1,0,0:0:0:0:
64,192,63812,1,0,0:0:0:0:
448,192,63886,1,0,0:0:0:0:
192,192,63960,1,0,0:0:0:0:
64,192,64182,1,0,0:0:0:70:VEC3 Snares 004.wav
448,192,64182,1,0,0:0:0:0:
64,192,64404,1,2,0:0:0:0:
320,192,64404,1,0,0:0:0:0:
448,192,64404,128,0,64849:0:0:0:0:
192,192,64849,128,0,65071:0:0:0:0:
320,192,65071,128,0,65293:0:0:0:0:
64,192,65293,128,0,65627:0:0:0:0:
192,192,65627,128,0,66182:0:0:0:0:
448,192,66182,1,0,0:0:0:70:LR_Drum Rim Fast.wav
320,192,66293,1,0,0:0:0:70:LR_Drum Rim Fast.wav
192,192,66404,1,0,0:0:0:70:LR_Drum Rim Fast.wav
64,192,66516,1,0,0:0:0:70:LR_Drum Rim Fast.wav
320,192,66627,1,0,0:0:0:70:LR_Drum Rim Fast.wav
448,192,66738,1,0,0:0:0:70:LR_Drum Rim Fast.wav
192,192,66849,1,0,0:0:0:70:LR_Drum Rim Fast.wav
320,192,66960,1,0,0:0:0:70:LR_Drum Rim Fast.wav
64,192,67071,1,0,0:0:0:70:LR_Drum Rim Fast.wav
192,192,67182,1,0,0:0:0:70:LR_Drum Rim Fast.wav
448,192,67293,1,0,0:0:0:70:LR_Drum Rim Fast.wav
320,192,67404,1,0,0:0:0:70:LR_Drum Rim Fast.wav
192,192,67516,1,0,0:0:0:70:LR_Drum Rim Fast.wav
64,192,67627,1,0,0:0:0:70:LR_Drum Rim Fast.wav
320,192,67738,1,0,0:0:0:70:LR_Drum Rim Fast.wav
192,192,67849,1,0,0:0:0:70:LR_Drum Rim Fast.wav
448,192,67960,1,0,0:0:0:70:LR_Drum Rim Fast.wav
320,192,68071,1,0,0:0:0:70:LR_Drum Rim Fast.wav
64,192,68182,1,0,0:0:0:70:LR_Drum Rim Fast.wav
192,192,68293,1,0,0:0:0:70:LR_Drum Rim Fast.wav
448,192,68404,1,0,0:0:0:70:LR_Drum Rim Fast.wav
320,192,68516,1,0,0:0:0:70:LR_Drum Rim Fast.wav
64,192,68627,1,0,0:0:0:70:LR_Drum Rim Fast.wav
192,192,68738,1,0,0:0:0:70:LR_Drum Rim Fast.wav
320,192,68849,1,0,0:0:0:70:LR_Drum Rim Fast.wav
320,192,68960,1,0,0:0:0:70:LR_Drum Rim Fast.wav
64,192,69071,1,0,0:0:0:70:LR_Drum Rim Fast.wav
64,192,69182,1,0,0:0:0:70:LR_Drum Rim Fast.wav
448,192,69293,1,0,0:0:0:70:LR_Drum Rim Fast.wav
448,192,69404,1,0,0:0:0:70:LR_Drum Rim Fast.wav
192,192,69516,1,0,0:0:0:70:LR_Drum Rim Fast.wav
192,192,69627,1,0,0:0:0:70:LR_Drum Rim Fast.wav
64,192,69738,128,0,70571:0:0:0:70:LR_Drum Rim Fast.wav
320,192,69738,128,0,70571:0:0:0:70:LR4_BassKickReverbXD.wav
448,192,69738,128,0,70571:0:0:0:0:
64,192,70627,128,2,71238:0:0:0:0:
192,192,70627,128,0,71238:0:0:0:0:
448,192,70627,128,0,71293:0:0:0:0:
64,192,71293,1,0,0:0:0:70:LR4_DrumKickHat.wav
192,192,71293,1,0,0:0:0:0:
64,192,71516,1,4,0:0:0:0:
320,192,71516,1,2,0:0:0:0:
448,192,71516,1,0,0:0:0:0:
320,192,71738,1,8,0:0:0:0:
448,192,71738,1,0,0:0:0:0:
64,192,71960,1,2,0:0:0:0:
192,192,71960,1,0,0:0:0:0:
192,192,72182,1,8,0:0:0:0:
320,192,72182,1,0,0:0:0:0:
320,192,72404,1,2,0:0:0:0:
448,192,72404,128,0,73071:0:0:0:0:
64,192,72627,1,8,0:0:0:0:
192,192,72627,1,0,0:0:0:0:
192,192,72849,1,2,0:0:0:0:
320,192,72849,1,0,0:0:0:0:
64,192,73071,1,8,0:0:0:0:
192,192,73071,1,0,0:0:0:0:
64,192,73293,1,2,0:0:0:0:
320,192,73293,1,4,0:0:0:0:
448,192,73293,1,0,0:0:0:0:
320,192,73516,1,8,0:0:0:0:
448,192,73516,1,0,0:0:0:0:
64,192,73738,1,2,0:0:0:0:
192,192,73738,1,0,0:0:0:0:
192,192,73960,1,8,0:0:0:0:
320,192,73960,1,0,0:0:0:0:
320,192,74182,1,2,0:0:0:0:
448,192,74182,128,0,74849:0:0:0:0:
64,192,74404,1,8,0:0:0:0:
192,192,74404,1,0,0:0:0:0:
192,192,74627,1,2,0:0:0:0:
320,192,74627,1,0,0:0:0:0:
64,192,74849,1,8,0:0:0:0:
192,192,74849,1,0,0:0:0:0:
192,192,74997,1,0,0:0:0:70:LR4_DrumKickHat.wav
64,192,75071,1,2,0:0:0:0:
320,192,75071,1,4,0:0:0:0:
448,192,75071,1,0,0:0:0:0:
320,192,75293,1,8,0:0:0:0:
448,192,75293,1,0,0:0:0:0:
64,192,75516,1,2,0:0:0:0:
192,192,75516,1,0,0:0:0:0:
192,192,75738,1,8,0:0:0:0:
320,192,75738,1,0,0:0:0:0:
320,192,75960,1,2,0:0:0:0:
448,192,75960,128,0,76627:0:0:0:0:
64,192,76182,1,8,0:0:0:0:
192,192,76182,1,0,0:0:0:0:
192,192,76404,1,2,0:0:0:0:
320,192,76404,1,0,0:0:0:0:
64,192,76627,1,8,0:0:0:0:
192,192,76627,1,0,0:0:0:0:
64,192,76849,1,4,0:0:0:0:
320,192,76849,1,2,0:0:0:0:
448,192,76849,1,0,0:0:0:0:
320,192,77071,1,8,0:0:0:0:
448,192,77071,1,0,0:0:0:0:
64,192,77293,1,2,0:0:0:0:
192,192,77293,1,0,0:0:0:0:
192,192,77516,1,8,0:0:0:0:
320,192,77516,1,0,0:0:0:0:
64,192,77664,1,0,0:0:0:70:LR4_DrumKickHat.wav
320,192,77738,1,2,0:0:0:0:
448,192,77738,128,4,78404:0:0:0:0:
192,192,78182,1,2,0:0:0:0:
320,192,78182,1,4,0:0:0:0:
64,192,78404,1,8,0:0:0:0:
192,192,78404,1,0,0:0:0:0:
320,192,78553,1,0,0:0:0:70:LR4_DrumKickHat.wav
64,192,78627,1,4,0:0:0:0:
192,192,78627,1,2,0:0:0:0:
448,192,78627,1,0,0:0:0:0:
64,192,78849,1,8,0:0:0:0:
192,192,78849,1,0,0:0:0:0:
320,192,79071,1,2,0:0:0:0:
448,192,79071,1,0,0:0:0:0:
192,192,79293,1,8,0:0:0:0:
320,192,79293,1,0,0:0:0:0:
64,192,79516,128,2,80182:0:0:0:0:
192,192,79516,1,0,0:0:0:0:
320,192,79738,1,8,0:0:0:0:
448,192,79738,1,0,0:0:0:0:
192,192,79960,1,2,0:0:0:0:
320,192,79960,1,0,0:0:0:0:
320,192,80182,1,8,0:0:0:0:
448,192,80182,1,0,0:0:0:0:
64,192,80404,1,2,0:0:0:0:
192,192,80404,1,4,0:0:0:0:
448,192,80404,1,0,0:0:0:0:
64,192,80627,1,8,0:0:0:0:
192,192,80627,1,0,0:0:0:0:
320,192,80849,1,2,0:0:0:0:
448,192,80849,1,0,0:0:0:0:
192,192,81071,1,8,0:0:0:0:
320,192,81071,1,0,0:0:0:0:
64,192,81293,128,2,81960:0:0:0:0:
192,192,81293,1,0,0:0:0:0:
320,192,81516,1,8,0:0:0:0:
448,192,81516,1,0,0:0:0:0:
192,192,81738,1,2,0:0:0:0:
320,192,81738,1,0,0:0:0:0:
320,192,81960,1,8,0:0:0:0:
448,192,81960,1,0,0:0:0:0:
320,192,82108,1,0,0:0:0:70:LR4_DrumKickHat.wav
64,192,82182,1,2,0:0:0:0:
192,192,82182,1,4,0:0:0:0:
448,192,82182,1,0,0:0:0:0:
64,192,82404,1,8,0:0:0:0:
192,192,82404,1,0,0:0:0:0:
320,192,82627,1,2,0:0:0:0:
448,192,82627,1,0,0:0:0:0:
192,192,82849,1,8,0:0:0:0:
320,192,82849,1,0,0:0:0:0:
64,192,83071,128,2,83738:0:0:0:0:
192,192,83071,1,4,0:0:0:0:
320,192,83293,1,8,0:0:0:0:
448,192,83293,1,0,0:0:0:0:
192,192,83516,1,2,0:0:0:0:
320,192,83516,1,0,0:0:0:0:
320,192,83738,1,8,0:0:0:0:
448,192,83738,1,0,0:0:0:0:
64,192,83960,1,4,0:0:0:0:
192,192,83960,1,2,0:0:0:0:
448,192,83960,1,0,0:0:0:0:
320,192,84182,1,8,0:0:0:0:
448,192,84182,1,0,0:0:0:0:
64,192,84404,1,2,0:0:0:0:
192,192,84404,1,4,0:0:0:0:
64,192,84627,1,8,0:0:0:0:
192,192,84627,1,0,0:0:0:0:
192,192,84849,1,2,0:0:0:0:
320,192,84849,1,4,0:0:0:0:
448,192,84849,128,0,85293:0:0:0:0:
64,192,85293,1,2,0:0:0:0:
192,192,85293,128,4,85738:0:0:0:0:
320,192,85293,1,0,0:0:0:0:
320,192,85516,1,8,0:0:0:0:
448,192,85516,1,0,0:0:0:0:
64,192,85738,1,2,0:0:0:0:
320,192,85738,1,4,0:0:0:0:
448,192,85738,1,0,0:0:0:0:
64,192,86071,1,2,0:0:0:0:
320,192,86071,1,4,0:0:0:0:
448,192,86071,1,0,0:0:0:0:
192,192,86404,1,0,0:0:0:70:LR_Drum Rim Fast.wav
64,192,86627,1,2,0:0:0:0:
192,192,86627,1,4,0:0:0:0:
448,192,86627,1,0,0:0:0:0:
64,192,86960,1,2,0:0:0:0:
192,192,86960,1,4,0:0:0:0:
448,192,86960,1,0,0:0:0:0:
192,192,87293,1,0,0:0:0:70:LR_Drum Rim Fast.wav
192,192,87404,1,0,0:0:0:0:
64,192,87516,1,4,0:0:0:0:
320,192,87516,1,2,0:0:0:0:
448,192,87516,1,0,0:0:0:0:
64,192,87849,1,4,0:0:0:0:
320,192,87849,1,2,0:0:0:0:
448,192,87849,1,0,0:0:0:0:
192,192,88182,1,0,0:0:0:70:LR_Drum Rim Fast.wav
320,192,88330,1,0,0:0:0:0:
64,192,88404,128,0,88516:0:0:0:70:LR4_DrumKickHat.wav
448,192,88404,1,0,0:0:0:0:
192,192,88627,128,0,88738:0:0:0:0:
192,192,88849,1,0,0:0:0:70:clap01_D.wav
320,192,88849,128,0,88960:0:0:0:0:
64,192,89071,1,0,0:0:0:70:LR4_DrumKickHat.wav
448,192,89071,128,0,89182:0:0:0:0:
64,192,89293,1,2,0:0:0:0:
192,192,89293,1,4,0:0:0:0:
448,192,89293,1,0,0:0:0:0:
64,192,89627,1,2,0:0:0:0:
192,192,89627,1,4,0:0:0:0:
448,192,89627,1,0,0:0:0:0:
320,192,89960,1,0,0:0:0:70:LR_Drum Rim Fast.wav
64,192,90182,1,2,0:0:0:0:
320,192,90182,1,4,0:0:0:0:
448,192,90182,1,0,0:0:0:0:
64,192,90516,1,2,0:0:0:0:
320,192,90516,1,4,0:0:0:0:
448,192,90516,1,0,0:0:0:0:
320,192,90849,1,0,0:0:0:70:LR_Drum Rim Fast.wav
320,192,90960,1,0,0:0:0:0:
64,192,91071,1,4,0:0:0:0:
192,192,91071,1,2,0:0:0:0:
448,192,91071,1,0,0:0:0:0:
64,192,91404,1,4,0:0:0:0:
192,192,91404,1,2,0:0:0:0:
448,192,91404,1,0,0:0:0:0:
320,192,91738,1,0,0:0:0:70:LR_Drum Rim Fast.wav
192,192,91886,1,0,0:0:0:0:
64,192,91960,1,0,0:0:0:70:LR4_DrumKickHat.wav
448,192,91960,128,0,92071:0:0:0:0:
320,192,92182,128,0,92293:0:0:0:0:
192,192,92404,128,0,92516:0:0:0:70:clap01_D.wav
320,192,92404,1,0,0:0:0:0:
64,192,92627,128,0,92738:0:0:0:70:LR4_DrumKickHat.wav
448,192,92627,1,0,0:0:0:0:
64,192,92849,1,4,0:0:0:0:
320,192,92849,1,2,0:0:0:0:
448,192,92849,1,0,0:0:0:0:
320,192,93071,1,0,0:0:0:70:LR_Drum Rim Fast.wav
64,192,93182,1,4,0:0:0:0:
192,192,93182,1,2,0:0:0:0:
448,192,93182,1,0,0:0:0:0:
320,192,93293,1,0,0:0:0:70:LR_Drum Rim Fast.wav
64,192,93404,1,0,0:0:0:70:LR_Drum Rim Fast.wav
192,192,93516,1,0,0:0:0:70:LR_Drum Rim Fast.wav
320,192,93627,1,0,0:0:0:70:LR_Drum Rim Fast.wav
64,192,93738,1,4,0:0:0:0:
192,192,93738,1,2,0:0:0:0:
448,192,93738,1,0,0:0:0:0:
192,192,93960,1,0,0:0:0:70:LR_Drum Rim Fast.wav
64,192,94071,1,4,0:0:0:0:
320,192,94071,1,2,0:0:0:0:
448,192,94071,1,0,0:0:0:0:
192,192,94182,1,0,0:0:0:70:LR_Drum Rim Fast.wav
448,192,94293,1,0,0:0:0:70:LR_Drum Rim Fast.wav
320,192,94404,1,0,0:0:0:70:LR_Drum Rim Fast.wav
192,192,94516,1,0,0:0:0:70:LR_Drum Rim Fast.wav
64,192,94627,1,2,0:0:0:0:
320,192,94627,1,4,0:0:0:0:
448,192,94627,1,0,0:0:0:0:
320,192,94849,1,0,0:0:0:70:LR_Drum Rim Fast.wav
64,192,94960,1,2,0:0:0:0:
192,192,94960,1,4,0:0:0:0:
448,192,94960,1,0,0:0:0:0:
320,192,95071,1,0,0:0:0:70:LR_Drum Rim Fast.wav
64,192,95182,1,0,0:0:0:70:LR_Drum Rim Fast.wav
192,192,95293,1,0,0:0:0:70:LR_Drum Rim Fast.wav
448,192,95442,1,0,0:0:0:0:
64,192,95516,1,0,0:0:0:70:LR4_DrumKickHat.wav
320,192,95516,1,0,0:0:0:0:
192,192,95738,1,0,0:0:0:70:LR_Drum Rim Fast.wav
64,192,95960,1,0,0:0:0:70:clap01_D.wav
448,192,95960,1,0,0:0:0:70:LR_Drum Rim Fast.wav
320,192,96182,1,0,0:0:0:70:LR4_DrumKickHat.wav
64,192,96404,1,2,0:0:0:0:
192,192,96404,1,4,0:0:0:0:
448,192,96404,1,0,0:0:0:0:
192,192,96627,1,0,0:0:0:70:LR_Drum Rim Fast.wav
64,192,96738,1,2,0:0:0:0:
320,192,96738,1,4,0:0:0:0:
448,192,96738,1,0,0:0:0:0:
192,192,96849,1,0,0:0:0:70:LR_Drum Rim Fast.wav
448,192,96960,1,0,0:0:0:70:LR_Drum Rim Fast.wav
320,192,97071,1,0,0:0:0:70:LR_Drum Rim Fast.wav
192,192,97182,1,0,0:0:0:70:LR_Drum Rim Fast.wav
64,192,97293,1,2,0:0:0:0:
320,192,97293,1,4,0:0:0:0:
448,192,97293,1,0,0:0:0:0:
320,192,97516,1,0,0:0:0:70:LR_Drum Rim Fast.wav
64,192,97627,1,2,0:0:0:0:
192,192,97627,1,4,0:0:0:0:
448,192,97627,1,0,0:0:0:0:
320,192,97738,1,0,0:0:0:70:LR_Drum Rim Fast.wav
64,192,97849,1,0,0:0:0:70:LR_Drum Rim Fast.wav
192,192,97960,1,0,0:0:0:70:LR_Drum Rim Fast.wav
320,192,98071,1,0,0:0:0:70:LR_Drum Rim Fast.wav
64,192,98182,1,4,0:0:0:0:
192,192,98182,1,2,0:0:0:0:
448,192,98182,1,0,0:0:0:0:
64,192,98516,1,4,0:0:0:0:
320,192,98516,1,2,0:0:0:0:
448,192,98516,1,0,0:0:0:0:
64,192,98849,1,4,0:0:0:0:
192,192,98849,1,2,0:0:0:0:
320,192,98849,1,0,0:0:0:0:
192,192,99071,1,2,0:0:0:0:
320,192,99071,1,4,0:0:0:0:
448,192,99071,1,0,0:0:0:0:
64,192,99293,1,0,0:0:0:0:
192,192,99404,1,0,0:0:0:0:
64,192,99516,1,0,0:0:0:0:
192,192,99738,1,0,0:0:0:0:
320,192,99960,1,0,0:0:0:0:
448,192,99960,1,0,0:0:0:0:
64,192,100293,1,0,0:0:0:0:
320,192,100293,1,0,0:0:0:0:
192,192,100404,1,0,0:0:0:0:
64,192,100627,1,0,0:0:0:0:
448,192,100849,1,0,0:0:0:0:
192,192,100904,1,0,0:0:0:0:
64,192,101182,1,0,0:0:0:0:
320,192,101182,1,0,0:0:0:0:
192,192,101516,1,0,0:0:0:0:
320,192,101738,1,0,0:0:0:0:
448,192,101738,1,0,0:0:0:0:
64,192,102182,1,0,0:0:0:0:
192,192,102293,1,0,0:0:0:0:
320,192,102404,128,0,102627:0:0:0:0:
64,192,102627,128,4,102738:0:0:0:0:
192,192,102627,1,2,0:0:0:0:
448,192,102627,1,0,0:0:0:0:
64,192,102849,128,0,102960:0:0:0:0:
64,192,103071,1,2,0:0:0:0:
192,192,103071,1,4,0:0:0:0:
448,192,103071,128,0,103182:0:0:0:0:
448,192,103293,128,0,103404:0:0:0:0:
64,192,103516,1,2,0:0:0:0:
192,192,103516,1,4,0:0:0:0:
448,192,103516,1,0,0:0:0:0:
320,192,103627,1,0,0:0:0:70:LR_Drum Rim Fast.wav
64,192,103738,1,0,0:0:0:70:LR_Drum Rim Fast.wav
320,192,103849,1,0,0:0:0:70:LR_Drum Rim Fast.wav
64,192,103960,1,0,0:0:0:70:LR_Drum Rim Fast.wav
320,192,104071,1,0,0:0:0:70:LR_Drum Rim Fast.wav
64,192,104182,1,0,0:0:0:70:LR_Drum Rim Fast.wav
192,192,104293,1,0,0:0:0:70:LR_Drum Rim Fast.wav
64,192,104404,1,4,0:0:0:0:
320,192,104404,1,2,0:0:0:0:
448,192,104404,1,0,0:0:0:0:
192,192,104516,1,0,0:0:0:70:LR_Drum Rim Fast.wav
448,192,104627,1,0,0:0:0:70:LR_Drum Rim Fast.wav
192,192,104738,1,0,0:0:0:70:LR_Drum Rim Fast.wav
448,192,104849,1,0,0:0:0:70:LR_Drum Rim Fast.wav
192,192,104960,1,0,0:0:0:70:LR_Drum Rim Fast.wav
320,192,105071,1,2,0:0:0:0:
448,192,105071,1,0,0:0:0:0:
64,192,105293,1,2,0:0:0:0:
192,192,105293,1,4,0:0:0:0:
448,192,105293,1,0,0:0:0:0:
320,192,105404,1,0,0:0:0:70:LR_Drum Rim Fast.wav
448,192,105516,1,0,0:0:0:70:LR_Drum Rim Fast.wav
192,192,105627,1,0,0:0:0:70:LR_Drum Rim Fast.wav
64,192,105738,1,4,0:0:0:0:
320,192,105738,1,2,0:0:0:0:
448,192,105738,1,0,0:0:0:0:
192,192,105849,1,0,0:0:0:70:LR_Drum Rim Fast.wav
64,192,105960,1,0,0:0:0:70:LR_Drum Rim Fast.wav
320,192,106071,1,0,0:0:0:70:LR_Drum Rim Fast.wav
64,192,106182,1,2,0:0:0:0:
192,192,106182,1,4,0:0:0:0:
448,192,106182,1,0,0:0:0:0:
320,192,106293,1,0,0:0:0:70:LR_Drum Rim Fast.wav
64,192,106404,1,0,0:0:0:70:LR_Drum Rim Fast.wav
192,192,106516,1,0,0:0:0:70:LR_Drum Rim Fast.wav
64,192,106627,1,4,0:0:0:0:
320,192,106627,1,2,0:0:0:0:
448,192,106627,1,0,0:0:0:0:
192,192,106738,1,0,0:0:0:70:LR_Drum Rim Fast.wav
448,192,106849,1,0,0:0:0:70:LR_Drum Rim Fast.wav
320,192,106960,1,0,0:0:0:70:LR_Drum Rim Fast.wav
64,192,107071,1,2,0:0:0:0:
192,192,107071,1,4,0:0:0:0:
448,192,107071,1,0,0:0:0:0:
64,192,107293,1,4,0:0:0:0:
320,192,107293,1,2,0:0:0:0:
448,192,107293,1,0,0:0:0:0:
64,192,107516,1,2,0:0:0:0:
192,192,107516,1,4,0:0:0:0:
448,192,107516,1,0,0:0:0:0:
64,192,107738,1,4,0:0:0:0:
320,192,107738,1,2,0:0:0:0:
448,192,107738,1,0,0:0:0:0:
192,192,108627,1,0,0:0:0:70:LR4_DrumKickHat.wav
320,192,108627,1,0,0:0:0:0:
64,192,108849,1,2,0:0:0:0:
320,192,108849,1,4,0:0:0:0:
448,192,108849,1,0,0:0:0:0:
320,192,109071,128,8,109293:0:0:0:0:
448,192,109071,1,0,0:0:0:0:
64,192,109293,128,2,109516:0:0:0:0:
192,192,109293,1,0,0:0:0:0:
192,192,109516,128,8,109738:0:0:0:0:
320,192,109516,1,0,0:0:0:0:
320,192,109738,1,2,0:0:0:0:
448,192,109738,128,0,110404:0:0:0:0:
64,192,109960,1,8,0:0:0:0:
192,192,109960,1,0,0:0:0:0:
192,192,110182,1,2,0:0:0:0:
320,192,110182,1,0,0:0:0:0:
64,192,110404,1,8,0:0:0:0:
192,192,110404,1,0,0:0:0:0:
64,192,110627,1,4,0:0:0:0:
320,192,110627,1,2,0:0:0:0:
448,192,110627,1,0,0:0:0:0:
320,192,110849,128,8,111071:0:0:0:0:
448,192,110849,1,0,0:0:0:0:
64,192,111071,128,2,111293:0:0:0:0:
192,192,111071,1,0,0:0:0:0:
192,192,111293,128,8,111516:0:0:0:0:
320,192,111293,1,0,0:0:0:0:
320,192,111516,1,2,0:0:0:0:
448,192,111516,128,0,112182:0:0:0:0:
64,192,111738,1,8,0:0:0:0:
192,192,111738,1,0,0:0:0:0:
192,192,111960,1,2,0:0:0:0:
320,192,111960,1,0,0:0:0:0:
64,192,112182,1,8,0:0:0:0:
192,192,112182,1,0,0:0:0:0:
64,192,112404,1,4,0:0:0:0:
320,192,112404,1,2,0:0:0:0:
448,192,112404,1,0,0:0:0:0:
320,192,112627,1,8,0:0:0:0:
448,192,112627,128,0,112849:0:0:0:0:
64,192,112849,128,2,113071:0:0:0:0:
192,192,112849,1,0,0:0:0:0:
192,192,113071,128,8,113293:0:0:0:0:
320,192,113071,1,0,0:0:0:0:
320,192,113293,1,2,0:0:0:0:
448,192,113293,128,0,113960:0:0:0:0:
64,192,113516,1,8,0:0:0:0:
192,192,113516,1,0,0:0:0:0:
192,192,113738,1,2,0:0:0:0:
320,192,113738,1,0,0:0:0:0:
64,192,113960,1,8,0:0:0:0:
192,192,113960,1,0,0:0:0:0:
64,192,114182,1,2,0:0:0:0:
320,192,114182,1,4,0:0:0:0:
448,192,114182,1,0,0:0:0:0:
320,192,114404,1,0,0:0:0:0:
448,192,114404,128,0,114627:0:0:0:0:
64,192,114627,128,2,114849:0:0:0:0:
192,192,114627,1,0,0:0:0:0:
320,192,114849,1,8,0:0:0:0:
448,192,114849,1,0,0:0:0:0:
192,192,114997,1,0,0:0:0:70:LR4_DrumKickHat.wav
320,192,115071,1,4,0:0:0:0:
448,192,115071,128,2,115738:0:0:0:0:
64,192,115219,1,0,0:0:0:70:LR4_DrumKickHat.wav
320,192,115293,1,0,0:0:0:0:
64,192,115516,1,4,0:0:0:0:
192,192,115516,1,2,0:0:0:0:
192,192,115738,1,8,0:0:0:0:
320,192,115738,1,0,0:0:0:0:
320,192,115886,1,0,0:0:0:70:LR4_DrumKickHat.wav
64,192,115960,1,2,0:0:0:0:
192,192,115960,1,4,0:0:0:0:
448,192,115960,1,0,0:0:0:0:
320,192,116108,1,0,0:0:0:70:LR4_DrumKickHat.wav
64,192,116182,1,8,0:0:0:0:
192,192,116182,1,0,0:0:0:0:
192,192,116330,1,0,0:0:0:70:LR4_DrumKickHat.wav
320,192,116404,1,2,0:0:0:0:
448,192,116404,1,4,0:0:0:0:
64,192,116553,1,0,0:0:0:70:LR4_DrumKickHat.wav
192,192,116627,1,8,0:0:0:0:
320,192,116627,1,0,0:0:0:0:
448,192,116775,1,0,0:0:0:70:LR4_DrumKickHat.wav
64,192,116849,128,2,117516:0:0:0:0:
192,192,116849,1,4,0:0:0:0:
192,192,116997,1,0,0:0:0:70:LR4_DrumKickHat.wav
320,192,117071,1,8,0:0:0:0:
448,192,117071,1,0,0:0:0:0:
448,192,117219,1,0,0:0:0:70:LR4_DrumKickHat.wav
192,192,117293,1,2,0:0:0:0:
320,192,117293,1,4,0:0:0:0:
192,192,117442,1,0,0:0:0:70:LR4_DrumKickHat.wav
320,192,117516,1,8,0:0:0:0:
448,192,117516,1,0,0:0:0:0:
320,192,117664,1,0,0:0:0:70:LR4_DrumKickHat.wav
64,192,117738,1,4,0:0:0:0:
192,192,117738,1,2,0:0:0:0:
448,192,117738,1,0,0:0:0:0:
320,192,117886,1,0,0:0:0:70:LR4_DrumKickHat.wav
64,192,117960,1,8,0:0:0:0:
192,192,117960,1,0,0:0:0:0:
192,192,118108,1,0,0:0:0:70:LR4_DrumKickHat.wav
320,192,118182,1,2,0:0:0:0:
448,192,118182,1,4,0:0:0:0:
64,192,118330,1,0,0:0:0:70:LR4_DrumKickHat.wav
192,192,118404,1,8,0:0:0:0:
320,192,118404,1,0,0:0:0:0:
448,192,118553,1,0,0:0:0:70:LR4_DrumKickHat.wav
64,192,118627,128,2,119293:0:0:0:0:
192,192,118627,1,4,0:0:0:0:
192,192,118775,1,0,0:0:0:70:LR4_DrumKickHat.wav
320,192,118849,1,8,0:0:0:0:
448,192,118849,1,0,0:0:0:0:
448,192,118997,1,0,0:0:0:70:LR4_DrumKickHat.wav
192,192,119071,1,2,0:0:0:0:
320,192,119071,1,4,0:0:0:0:
192,192,119219,1,0,0:0:0:70:LR4_DrumKickHat.wav
320,192,119293,1,8,0:0:0:0:
448,192,119293,1,0,0:0:0:0:
320,192,119442,1,0,0:0:0:70:LR4_DrumKickHat.wav
64,192,119516,1,4,0:0:0:0:
192,192,119516,1,2,0:0:0:0:
448,192,119516,1,0,0:0:0:0:
192,192,119664,1,0,0:0:0:70:LR4_DrumKickHat.wav
64,192,119738,1,8,0:0:0:0:
320,192,119738,1,0,0:0:0:0:
448,192,119738,1,0,0:0:0:0:
320,192,119886,1,0,0:0:0:70:LR4_DrumKickHat.wav
64,192,119960,1,2,0:0:0:0:
192,192,119960,1,4,0:0:0:0:
448,192,119960,1,0,0:0:0:0:
192,192,120108,1,0,0:0:0:70:LR4_DrumKickHat.wav
64,192,120182,1,8,0:0:0:0:
320,192,120182,1,0,0:0:0:0:
448,192,120182,1,0,0:0:0:0:
192,192,120330,1,0,0:0:0:70:LR4_DrumKickHat.wav
64,192,120404,128,4,120553:0:0:0:0:
320,192,120404,1,2,0:0:0:0:
448,192,120404,1,0,0:0:0:0:
192,192,120553,128,0,120701:0:0:0:70:LR4_DrumKickHat.wav
320,192,120701,128,0,120849:0:0:0:70:LR4_DrumKickHat.wav
192,192,120849,128,6,120997:0:0:0:0:
320,192,120997,128,0,121145:0:0:0:70:LR4_DrumKickHat.wav
448,192,121145,128,0,121293:0:0:0:70:h03.wav
64,192,121293,1,2,0:0:0:0:
192,192,121293,1,4,0:0:0:0:
320,192,121293,1,0,0:0:0:0:
64,192,121442,1,0,0:0:0:70:LR4_DrumKickHat.wav
192,192,121516,1,8,0:0:0:0:
320,192,121516,1,0,0:0:0:0:
448,192,121516,1,0,0:0:0:0:
448,192,121664,1,0,0:0:0:70:LR4_DrumKickHat.wav
64,192,121738,1,4,0:0:0:0:
192,192,121738,1,2,0:0:0:0:
320,192,121738,1,0,0:0:0:0:
64,192,121886,1,0,0:0:0:70:LR4_DrumKickHat.wav
192,192,121960,1,8,0:0:0:0:
320,192,121960,1,0,0:0:0:0:
448,192,121960,1,0,0:0:0:0:
448,192,122108,1,0,0:0:0:70:LR4_DrumKickHat.wav
64,192,122182,1,4,0:0:0:0:
192,192,122182,128,2,122627:0:0:0:0:
320,192,122182,1,0,0:0:0:0:
320,192,122627,128,4,122997:0:0:0:0:
448,192,122627,1,2,0:0:0:0:
192,192,122997,1,0,0:0:0:70:LR4_DrumKickHat.wav
64,192,123071,1,2,0:0:0:0:
448,192,123071,128,4,123442:0:0:0:0:
192,192,123442,1,0,0:0:0:70:LR4_DrumKickHat.wav
64,192,123516,128,2,123738:0:0:0:0:
448,192,123516,1,0,0:0:0:70:Cymatics - Future Bass Clap 3.wav
192,192,123738,1,0,0:0:0:50:LR5_Drum Barrel Snare.wav
448,192,123738,1,0,0:0:0:0:
64,192,123960,1,2,0:0:0:0:
320,192,123960,128,0,124182:0:0:0:0:
192,192,124182,128,0,124293:0:0:0:0:
448,192,124293,128,0,124404:0:0:0:0:
64,192,124404,128,2,124571:0:0:0:0:
320,192,124404,1,0,0:0:0:70:Cymatics - Future Bass Clap 3.wav
64,192,124627,128,0,124849:0:0:0:50:LR4_DrumRevBassImpact.wav
320,192,124627,1,0,0:0:0:0:
192,192,124849,128,2,125145:0:0:0:0:
448,192,124849,1,0,0:0:0:0:
448,192,125071,128,0,125145:0:0:0:0:
320,192,125219,1,0,0:0:0:70:LR4_DrumKickHat.wav
64,192,125293,1,2,0:0:0:0:
192,192,125293,1,0,0:0:0:70:Cymatics - Future Bass Clap 3.wav
448,192,125404,1,0,0:0:0:0:
320,192,125460,1,0,0:0:0:0:
64,192,125516,1,0,0:0:0:50:LR5_Drum Barrel Snare.wav
192,192,125516,128,0,125627:0:0:0:0:
448,192,125627,128,0,125960:0:0:0:0:
192,192,125738,1,2,0:0:0:0:
320,192,125738,1,0,0:0:0:0:
64,192,125960,128,0,126108:0:0:0:0:
192,192,126108,1,0,0:0:0:70:LR4_DrumKickHat.wav
320,192,126182,1,2,0:0:0:0:
448,192,126182,128,0,126238:0:0:0:70:Cymatics - Future Bass Clap 3.wav
192,192,126293,128,0,126349:0:0:0:0:
320,192,126404,128,0,126460:0:0:0:50:LR4_DrumRevBassImpact.wav
64,192,126516,128,0,126571:0:0:0:0:
64,192,126627,128,2,126997:0:0:0:0:
448,192,126627,1,0,0:0:0:0:
320,192,126997,1,0,0:0:0:70:LR4_DrumKickHat.wav
64,192,127071,1,2,0:0:0:0:
448,192,127071,128,0,127293:0:0:0:70:Cymatics - Future Bass Clap 3.wav
64,192,127293,1,0,0:0:0:50:LR5_Drum Barrel Snare.wav
320,192,127293,1,0,0:0:0:0:
192,192,127516,128,2,127738:0:0:0:0:
448,192,127516,1,0,0:0:0:0:
320,192,127738,128,0,127849:0:0:0:0:
64,192,127849,128,0,127960:0:0:0:0:
192,192,127960,1,2,0:0:0:0:
448,192,127960,128,0,128127:0:0:0:70:Cymatics - Future Bass Clap 3.wav
192,192,128182,1,0,0:0:0:50:LR4_DrumRevBassImpact.wav
448,192,128182,128,0,128404:0:0:0:0:
64,192,128404,1,2,0:0:0:0:
320,192,128404,128,0,128701:0:0:0:0:
64,192,128627,128,0,128701:0:0:0:0:
192,192,128775,1,0,0:0:0:70:LR4_DrumKickHat.wav
320,192,128849,1,2,0:0:0:0:
448,192,128849,1,0,0:0:0:70:Cymatics - Future Bass Clap 3.wav
64,192,128960,1,0,0:0:0:0:
192,192,129016,1,0,0:0:0:0:
320,192,129071,128,0,129182:0:0:0:50:LR5_Drum Barrel Snare.wav
448,192,129071,1,0,0:0:0:0:
64,192,129182,128,0,129516:0:0:0:0:
192,192,129293,1,2,0:0:0:0:
320,192,129293,128,0,129349:0:0:0:0:
320,192,129404,128,0,129571:0:0:0:0:
320,192,129627,128,0,129682:0:0:0:0:
192,192,129738,128,0,129849:0:0:0:0:
192,192,129904,128,0,130127:0:0:0:0:
64,192,130182,1,2,0:0:0:0:
320,192,130182,1,4,0:0:0:0:
448,192,130182,1,0,0:0:0:0:
192,192,130404,1,0,0:0:0:70:LR4_DrumKickHat.wav
64,192,130516,1,2,0:0:0:0:
320,192,130516,1,4,0:0:0:0:
448,192,130516,1,0,0:0:0:0:
448,192,130627,1,0,0:0:0:70:LR4_DrumKickHat.wav
192,192,130738,1,2,0:0:0:0:
64,192,130793,1,2,0:0:0:0:
320,192,130849,1,2,0:0:0:0:
320,192,130960,1,2,0:0:0:0:
64,192,131071,1,4,0:0:0:0:
192,192,131071,1,2,0:0:0:0:
448,192,131071,1,0,0:0:0:0:
320,192,131293,1,0,0:0:0:70:LR4_DrumKickHat.wav
64,192,131404,1,4,0:0:0:0:
192,192,131404,1,2,0:0:0:0:
448,192,131404,1,0,0:0:0:0:
192,192,131516,1,0,0:0:0:70:LR4_DrumKickHat.wav
320,192,131627,1,2,0:0:0:0:
64,192,131738,1,2,0:0:0:0:
448,192,131793,1,2,0:0:0:0:
320,192,131849,1,2,0:0:0:0:
192,192,131904,1,2,0:0:0:0:
64,192,131960,1,2,0:0:0:0:
320,192,131960,1,4,0:0:0:0:
448,192,131960,1,0,0:0:0:0:
192,192,132182,1,0,0:0:0:70:LR4_DrumKickHat.wav
64,192,132293,1,2,0:0:0:0:
320,192,132293,1,4,0:0:0:0:
448,192,132293,1,0,0:0:0:0:
448,192,132404,1,0,0:0:0:70:LR4_DrumKickHat.wav
192,192,132516,1,2,0:0:0:0:
64,192,132571,1,2,0:0:0:0:
320,192,132627,1,2,0:0:0:0:
320,192,132738,1,2,0:0:0:0:
64,192,132849,1,4,0:0:0:0:
192,192,132849,1,2,0:0:0:0:
448,192,132849,1,0,0:0:0:0:
320,192,133071,1,0,0:0:0:70:LR4_DrumKickHat.wav
64,192,133182,1,4,0:0:0:0:
192,192,133182,1,2,0:0:0:0:
448,192,133182,1,0,0:0:0:0:
192,192,133293,1,0,0:0:0:70:LR4_DrumKickHat.wav
320,192,133404,1,2,0:0:0:0:
64,192,133516,1,2,0:0:0:0:
448,192,133571,1,2,0:0:0:0:
192,192,133627,1,2,0:0:0:0:
320,192,133682,1,2,0:0:0:0:
64,192,133738,1,4,0:0:0:0:
192,192,133738,1,2,0:0:0:0:
448,192,133738,1,0,0:0:0:0:
448,192,133849,1,0,0:0:0:70:LR_Drum Rim Fast.wav
192,192,133960,1,0,0:0:0:70:LR_Drum Rim Fast.wav
192,192,134071,1,0,0:0:0:70:LR_Drum Rim Fast.wav
64,192,134182,1,4,0:0:0:0:
320,192,134182,1,2,0:0:0:0:
448,192,134182,1,0,0:0:0:0:
64,192,134293,1,0,0:0:0:70:LR_Drum Rim Fast.wav
320,192,134404,1,0,0:0:0:70:LR_Drum Rim Fast.wav
320,192,134516,1,0,0:0:0:70:LR_Drum Rim Fast.wav
64,192,134627,1,2,0:0:0:0:
192,192,134627,1,4,0:0:0:0:
448,192,134627,1,0,0:0:0:0:
448,192,134738,1,0,0:0:0:70:LR_Drum Rim Fast.wav
192,192,134849,1,0,0:0:0:70:LR_Drum Rim Fast.wav
192,192,134960,1,0,0:0:0:70:LR_Drum Rim Fast.wav
64,192,135071,1,4,0:0:0:0:
320,192,135071,1,2,0:0:0:0:
448,192,135071,1,0,0:0:0:0:
64,192,135182,1,0,0:0:0:70:LR_Drum Rim Fast.wav
320,192,135293,1,0,0:0:0:70:LR_Drum Rim Fast.wav
320,192,135404,1,0,0:0:0:70:LR_Drum Rim Fast.wav
64,192,135516,1,2,0:0:0:0:
192,192,135516,1,4,0:0:0:0:
448,192,135516,1,0,0:0:0:0:
64,192,135738,1,4,0:0:0:0:
320,192,135738,1,2,0:0:0:0:
448,192,135738,1,0,0:0:0:0:
64,192,135960,1,2,0:0:0:0:
192,192,135960,1,4,0:0:0:0:
320,192,135960,1,0,0:0:0:0:
192,192,136182,1,4,0:0:0:0:
320,192,136182,1,2,0:0:0:0:
448,192,136182,1,0,0:0:0:0:
192,192,136404,128,2,136516:0:0:0:0:
448,192,136404,128,0,136627:0:0:0:0:
64,192,136516,128,0,136738:0:0:0:0:
320,192,136627,128,0,136738:0:0:0:0:
192,192,136738,128,0,137293:0:0:0:0:
64,192,137293,128,4,137738:0:0:0:0:
320,192,137293,128,2,137738:0:0:0:0:
448,192,137293,128,0,137738:0:0:0:0:
