osu file format v14

[General]
AudioFilename: audio.mp3
AudioLeadIn: 0
PreviewTime: 27016
Countdown: 0
SampleSet: Soft
StackLeniency: 0.7
Mode: 3
LetterboxInBreaks: 0
SpecialStyle: 0
WidescreenStoryboard: 1

[Editor]
DistanceSpacing: 1
BeatDivisor: 4
GridSize: 32
TimelineZoom: 2.499999

[Metadata]
Title:YURUSHITE
TitleUnicode:YURUSHITE
Artist:t+pazolite
ArtistUnicode:t+pazolite
Creator:Shima Rin
Version:BASIC
Source:オンゲキ
Tags:逢坂 茜 Ousaka Akane 音擊 ONGEKI Sound Collection 01 Jump!! O.N.G.E.K.I. SEGA CHUNITHM AMAZON PLUS チュウニズム maimai でらっくす Splash DX スプラッシュ Tofu1222 Fresh Chicken Lirai DE-CADE Remuring Rhezie Agayers FAMoss Dubstek Video Game Electronic Instrumental Jazz
BeatmapID:2553519
BeatmapSetID:1185688

[Difficulty]
HPDrainRate:6.5
CircleSize:4
OverallDifficulty:6.5
ApproachRate:5
SliderMultiplier:1.4
SliderTickRate:1

[Events]
//Background and Video events
0,0,"BG.jpg",0,0
//Break Periods
//Storyboard Layer 0 (Background)
//Storyboard Layer 1 (Fail)
//Storyboard Layer 2 (Pass)
//Storyboard Layer 3 (Foreground)
//Storyboard Layer 4 (Overlay)
//Storyboard Sound Samples
Sample,12182,0,"LR5_Drum Barrel Snare.wav",20
Sample,17738,0,"Cymatics - Future Bass Clap 3.wav",70
Sample,41293,0,"LR4_BassKickReverbXD.wav",70
Sample,48849,0,"LR4_DrumKickHat.wav",70
Sample,55960,0,"LR4_DrumKickHat.wav",70
Sample,95960,0,"LR_Drum Rim Fast.wav",70
Sample,126182,0,"Cymatics - Future Bass Clap 3.wav",70

[TimingPoints]
405,222.222222222222,4,2,1,70,1,0
28849,-100,4,2,1,70,0,1
41293,-100,4,2,1,70,0,0
43182,-100,4,2,1,60,0,0
57293,-100,4,2,1,50,0,0
64404,-100,4,2,1,60,0,0
71516,-100,4,2,1,70,0,1
85738,-100,4,2,1,70,0,0
99293,-100,4,2,1,50,0,0
102627,-100,4,2,1,70,0,0
108849,-100,4,2,1,70,0,1
123071,-100,4,2,1,70,0,0

[HitObjects]
192,192,405,5,0,0:0:0:20:LR5_Drum Barrel Snare.wav
64,192,849,1,0,0:0:0:20:LR5_Drum Barrel Snare.wav
320,192,1293,1,0,0:0:0:20:LR5_Drum Barrel Snare_B.wav
448,192,1664,1,0,0:0:0:20:LR5_Drum Barrel Snare_B.wav
448,192,1960,1,0,0:0:0:20:LR5_Drum Barrel Snare_B.wav
192,192,2182,1,0,0:0:0:20:LR5_Drum Barrel Snare.wav
64,192,2627,1,0,0:0:0:20:LR5_Drum Barrel Snare.wav
320,192,3071,1,0,0:0:0:20:LR5_Drum Barrel Snare_B.wav
448,192,3442,1,0,0:0:0:20:LR5_Drum Barrel Snare_B.wav
192,192,3738,128,0,3960:0:0:0:20:LR5_Drum Barrel Snare_B.wav
320,192,3960,1,0,0:0:0:20:LR5_Drum Barrel Snare.wav
448,192,4404,1,0,0:0:0:20:LR5_Drum Barrel Snare.wav
192,192,4849,1,0,0:0:0:20:LR5_Drum Barrel Snare_B.wav
64,192,5219,1,0,0:0:0:20:LR5_Drum Barrel Snare_B.wav
64,192,5516,1,0,0:0:0:20:LR5_Drum Barrel Snare_B.wav
320,192,5738,128,0,6627:0:0:0:20:LR5_Drum Barrel Snare.wav
448,192,6182,1,0,0:0:0:20:LR5_Drum Barrel Snare.wav
192,192,6627,1,0,0:0:0:20:LR5_Drum Barrel Snare_B.wav
64,192,6997,1,0,0:0:0:20:LR5_Drum Barrel Snare_B.wav
64,192,7293,1,0,0:0:0:20:LR5_Drum Barrel Snare_B.wav
192,192,7516,1,4,0:0:0:0:
320,192,7516,1,0,0:0:0:20:LR5_Drum Barrel Snare.wav
448,192,8182,1,0,0:0:0:70:Cymatics - Future Bass Clap 3.wav
64,192,8293,1,0,0:0:0:0:
320,192,9293,1,0,0:0:0:20:LR5_Drum Barrel Snare.wav
448,192,9960,1,0,0:0:0:70:Cymatics - Future Bass Clap 3.wav
64,192,10071,1,0,0:0:0:0:
448,192,10627,128,0,11071:0:0:0:0:
192,192,11071,1,0,0:0:0:20:LR5_Drum Barrel Snare.wav
64,192,11738,1,0,0:0:0:70:Cymatics - Future Bass Clap 3.wav
448,192,11849,1,0,0:0:0:0:
192,192,12182,1,0,0:0:0:70:Cymatics - Future Bass Clap 3.wav
320,192,12516,1,0,0:0:0:0:
64,192,12849,1,2,0:0:0:0:
448,192,12849,1,4,0:0:0:0:
192,192,13738,1,0,0:0:0:0:
64,192,13960,1,0,0:0:0:0:
320,192,14182,1,0,0:0:0:0:
448,192,14404,1,0,0:0:0:70:clap01_D.wav
64,192,14627,128,2,15071:0:0:0:0:
192,192,14627,1,4,0:0:0:0:
320,192,15071,1,2,0:0:0:0:
448,192,15071,128,0,15293:0:0:0:70:Cymatics - Future Bass Clap 3.wav
64,192,15516,1,2,0:0:0:0:
192,192,15516,128,0,15960:0:0:0:0:
320,192,15960,128,2,16404:0:0:0:0:
448,192,15960,1,0,0:0:0:70:Cymatics - Future Bass Clap 3.wav
64,192,16404,128,2,16849:0:0:0:0:
192,192,16404,1,0,0:0:0:0:
320,192,16849,1,2,0:0:0:0:
448,192,16849,128,0,17516:0:0:0:70:Cymatics - Future Bass Clap 3.wav
64,192,17516,1,0,0:0:0:0:
320,192,17738,1,2,0:0:0:0:
192,192,17960,1,0,0:0:0:50:LR4_DrumRevBassImpact.wav
64,192,18182,1,2,0:0:0:0:
448,192,18182,128,0,18627:0:0:0:0:
64,192,18627,128,2,18849:0:0:0:0:
192,192,18627,1,0,0:0:0:70:Cymatics - Future Bass Clap 3.wav
320,192,19071,128,2,19516:0:0:0:0:
448,192,19071,1,0,0:0:0:0:
64,192,19516,1,2,0:0:0:0:
192,192,19516,128,0,19960:0:0:0:70:Cymatics - Future Bass Clap 3.wav
320,192,19960,1,2,0:0:0:0:
448,192,19960,128,0,20404:0:0:0:0:
64,192,20404,128,2,21071:0:0:0:0:
192,192,20404,1,0,0:0:0:70:Cymatics - Future Bass Clap 3.wav
448,192,21071,1,0,0:0:0:0:
192,192,21293,1,0,0:0:0:0:
320,192,21516,1,0,0:0:0:0:
64,192,21738,1,2,0:0:0:0:
448,192,21738,1,4,0:0:0:0:
192,192,22071,1,2,0:0:0:0:
320,192,22071,1,4,0:0:0:0:
448,192,22404,1,2,0:0:0:0:
64,192,22627,1,4,0:0:0:0:
192,192,22627,1,2,0:0:0:0:
320,192,22960,1,4,0:0:0:0:
448,192,22960,1,2,0:0:0:0:
192,192,23293,1,2,0:0:0:0:
64,192,23516,1,2,0:0:0:0:
448,192,23516,1,4,0:0:0:0:
192,192,23849,1,2,0:0:0:0:
320,192,23849,1,4,0:0:0:0:
64,192,24182,1,2,0:0:0:0:
320,192,24404,1,4,0:0:0:0:
448,192,24404,1,2,0:0:0:0:
64,192,24738,1,4,0:0:0:0:
192,192,24738,1,2,0:0:0:0:
320,192,25071,1,2,0:0:0:0:
64,192,25293,1,4,0:0:0:0:
448,192,25293,1,2,0:0:0:0:
192,192,25738,1,4,0:0:0:0:
448,192,25738,1,2,0:0:0:0:
64,192,26182,1,2,0:0:0:0:
448,192,26182,1,4,0:0:0:0:
64,192,26627,1,4,0:0:0:0:
320,192,26627,1,2,0:0:0:0:
192,192,27071,1,2,0:0:0:0:
448,192,27071,1,4,0:0:0:0:
192,192,27293,1,6,0:0:0:0:
64,192,27516,1,2,0:0:0:0:
320,192,27516,1,4,0:0:0:0:
320,192,27738,1,6,0:0:0:0:
64,192,27960,1,2,0:0:0:0:
448,192,27960,1,0,0:0:0:0:
64,192,28849,1,4,0:0:0:0:
448,192,28849,1,2,0:0:0:0:
64,192,29071,1,8,0:0:0:0:
448,192,29293,1,6,0:0:0:0:
448,192,29516,1,8,0:0:0:0:
192,192,29738,1,6,0:0:0:0:
192,192,29960,1,8,0:0:0:0:
448,192,30182,1,6,0:0:0:0:
320,192,30404,1,12,0:0:0:0:
64,192,30627,1,6,0:0:0:0:
64,192,30849,1,8,0:0:0:0:
448,192,31071,1,6,0:0:0:0:
448,192,31293,1,8,0:0:0:0:
192,192,31516,1,6,0:0:0:0:
192,192,31738,1,12,0:0:0:0:
320,192,31960,1,6,0:0:0:0:
64,192,32182,1,0,0:0:0:70:electronic13_mix.wav
448,192,32182,1,0,0:0:0:0:
192,192,32404,1,6,0:0:0:0:
192,192,32627,1,8,0:0:0:0:
320,192,32849,1,6,0:0:0:0:
320,192,33071,1,8,0:0:0:0:
64,192,33293,1,6,0:0:0:0:
64,192,33516,1,8,0:0:0:0:
192,192,33738,1,6,0:0:0:0:
320,192,33960,1,12,0:0:0:0:
448,192,34182,1,6,0:0:0:0:
448,192,34404,1,8,0:0:0:0:
192,192,34627,1,6,0:0:0:0:
64,192,34849,1,8,0:0:0:0:
448,192,35071,1,6,0:0:0:0:
320,192,35293,1,8,0:0:0:0:
192,192,35516,128,6,35960:0:0:0:0:
64,192,35960,1,2,0:0:0:0:
448,192,35960,1,4,0:0:0:0:
64,192,36182,1,8,0:0:0:0:
448,192,36404,1,6,0:0:0:0:
448,192,36627,1,8,0:0:0:0:
192,192,36849,1,6,0:0:0:0:
192,192,37071,1,8,0:0:0:0:
448,192,37293,1,6,0:0:0:0:
320,192,37516,1,12,0:0:0:0:
64,192,37738,1,6,0:0:0:0:
64,192,37960,1,8,0:0:0:0:
448,192,38182,1,6,0:0:0:0:
448,192,38404,1,8,0:0:0:0:
192,192,38627,1,6,0:0:0:0:
192,192,38849,1,12,0:0:0:0:
320,192,39071,1,6,0:0:0:0:
64,192,39293,1,0,0:0:0:70:electronic13_mix.wav
448,192,39293,1,0,0:0:0:0:
192,192,39516,1,6,0:0:0:0:
192,192,39738,1,8,0:0:0:0:
320,192,39960,1,6,0:0:0:0:
320,192,40182,1,8,0:0:0:0:
64,192,40404,1,6,0:0:0:0:
64,192,40627,1,8,0:0:0:0:
192,192,40849,1,6,0:0:0:0:
320,192,41071,1,4,0:0:0:0:
448,192,41293,1,4,0:0:0:0:
448,192,41516,1,0,0:0:0:0:
192,192,41738,1,0,0:0:0:0:
320,192,41960,1,0,0:0:0:0:
448,192,42182,1,0,0:0:0:0:
64,192,42404,128,0,42849:0:0:0:0:
64,192,43071,1,2,0:0:0:0:
448,192,43071,1,4,0:0:0:0:
192,192,43516,1,0,0:0:0:70:clap01_D.wav
320,192,43960,1,0,0:0:0:70:LR4_DrumKickHat.wav
448,192,44293,1,0,0:0:0:70:LR4_DrumKickHat.wav
192,192,44627,1,0,0:0:0:70:LR4_DrumKickHat.wav
64,192,44849,1,0,0:0:0:70:LR4_DrumKickHat.wav
320,192,45293,1,0,0:0:0:70:clap01_D.wav
192,192,45738,1,0,0:0:0:70:LR4_DrumKickHat.wav
64,192,46071,1,0,0:0:0:70:LR4_DrumKickHat.wav
320,192,46404,1,0,0:0:0:70:LR4_DrumKickHat.wav
448,192,46627,1,0,0:0:0:70:LR4_DrumKickHat.wav
192,192,47071,1,0,0:0:0:70:clap01_D.wav
320,192,47516,1,0,0:0:0:70:LR4_DrumKickHat.wav
448,192,47849,1,0,0:0:0:70:LR4_DrumKickHat.wav
192,192,48182,1,0,0:0:0:70:LR4_DrumKickHat.wav
64,192,48404,1,0,0:0:0:70:LR4_DrumKickHat.wav
320,192,48849,1,0,0:0:0:70:clap01_D.wav
192,192,49071,1,0,0:0:0:70:LR4_DrumKickHat.wav
448,192,49293,1,0,0:0:0:70:LR4_DrumKickHat.wav
320,192,49627,1,0,0:0:0:70:LR4_DrumKickHat.wav
192,192,49960,1,0,0:0:0:70:LR4_DrumKickHat.wav
64,192,50182,1,2,0:0:0:0:
448,192,50182,1,4,0:0:0:0:
320,192,50627,1,0,0:0:0:70:clap01_D.wav
192,192,51071,1,0,0:0:0:70:LR4_DrumKickHat.wav
64,192,51404,1,0,0:0:0:70:LR4_DrumKickHat.wav
320,192,51738,1,0,0:0:0:70:LR4_DrumKickHat.wav
448,192,51960,1,0,0:0:0:70:LR4_DrumKickHat.wav
192,192,52404,1,0,0:0:0:70:clap01_D.wav
320,192,52849,1,0,0:0:0:70:LR4_DrumKickHat.wav
448,192,53182,1,0,0:0:0:70:LR4_DrumKickHat.wav
192,192,53516,1,0,0:0:0:70:LR4_DrumKickHat.wav
64,192,53738,1,0,0:0:0:70:LR4_DrumKickHat.wav
320,192,54182,1,0,0:0:0:70:clap01_D.wav
192,192,54627,1,0,0:0:0:70:LR4_DrumKickHat.wav
64,192,54960,1,0,0:0:0:70:LR4_DrumKickHat.wav
320,192,55293,1,0,0:0:0:70:LR4_DrumKickHat.wav
448,192,55516,1,0,0:0:0:70:LR4_DrumKickHat.wav
192,192,55960,1,0,0:0:0:70:clap01_D.wav
320,192,56182,1,0,0:0:0:70:LR4_DrumKickHat.wav
64,192,56404,1,0,0:0:0:70:LR4_DrumKickHat.wav
192,192,56738,1,0,0:0:0:70:LR4_DrumKickHat.wav
320,192,57071,1,0,0:0:0:70:LR4_DrumKickHat.wav
64,192,57293,1,0,0:0:0:70:LR4_BassKickReverbXD.wav
448,192,57293,1,0,0:0:0:0:
192,192,57682,1,0,0:0:0:0:
320,192,58238,1,0,0:0:0:0:
64,192,58516,1,0,0:0:0:0:
448,192,59071,1,0,0:0:0:0:
320,192,59460,1,0,0:0:0:0:
192,192,59960,1,0,0:0:0:0:
448,192,60293,1,0,0:0:0:0:
64,192,60849,1,0,0:0:0:0:
192,192,61238,1,0,0:0:0:0:
320,192,61793,1,0,0:0:0:0:
64,192,62071,1,0,0:0:0:0:
192,192,62627,1,0,0:0:0:0:
320,192,63016,1,0,0:0:0:0:
64,192,63516,128,0,63960:0:0:0:0:
320,192,64182,1,0,0:0:0:70:VEC3 Snares 004.wav
64,192,64404,1,2,0:0:0:0:
448,192,64404,1,0,0:0:0:0:
320,192,64849,1,0,0:0:0:0:
192,192,65071,1,0,0:0:0:0:
448,192,65293,1,0,0:0:0:0:
192,192,65627,1,0,0:0:0:0:
448,192,66182,1,0,0:0:0:70:LR_Drum Rim Fast.wav
320,192,66627,1,0,0:0:0:70:LR_Drum Rim Fast.wav
64,192,66849,1,0,0:0:0:70:LR_Drum Rim Fast.wav
448,192,67071,1,0,0:0:0:70:LR_Drum Rim Fast.wav
192,192,67404,1,0,0:0:0:70:LR_Drum Rim Fast.wav
320,192,67738,1,0,0:0:0:70:LR_Drum Rim Fast.wav
64,192,67960,1,0,0:0:0:70:LR_Drum Rim Fast.wav
448,192,68293,1,0,0:0:0:70:LR_Drum Rim Fast.wav
192,192,68627,1,0,0:0:0:70:LR_Drum Rim Fast.wav
448,192,68849,1,0,0:0:0:70:LR_Drum Rim Fast.wav
64,192,69182,1,0,0:0:0:70:LR_Drum Rim Fast.wav
320,192,69516,1,0,0:0:0:70:LR_Drum Rim Fast.wav
64,192,69738,128,0,70627:0:0:0:70:LR_Drum Rim Fast.wav
192,192,69738,1,0,0:0:0:70:LR4_BassKickReverbXD.wav
320,192,70627,1,2,0:0:0:0:
448,192,70627,128,0,71293:0:0:0:0:
192,192,71293,1,0,0:0:0:70:LR4_DrumKickHat.wav
64,192,71516,1,4,0:0:0:0:
448,192,71516,1,2,0:0:0:0:
320,192,71738,1,8,0:0:0:0:
192,192,71960,1,2,0:0:0:0:
448,192,72182,1,8,0:0:0:0:
64,192,72404,128,2,73071:0:0:0:0:
192,192,72404,1,0,0:0:0:0:
64,192,73293,1,2,0:0:0:0:
448,192,73293,1,4,0:0:0:0:
192,192,73516,1,8,0:0:0:0:
320,192,73738,1,2,0:0:0:0:
64,192,73960,1,8,0:0:0:0:
320,192,74182,1,2,0:0:0:0:
448,192,74182,128,0,74849:0:0:0:0:
64,192,75071,1,2,0:0:0:0:
448,192,75071,1,4,0:0:0:0:
320,192,75293,1,8,0:0:0:0:
192,192,75516,1,2,0:0:0:0:
448,192,75738,1,8,0:0:0:0:
64,192,75960,128,2,76627:0:0:0:0:
192,192,75960,1,0,0:0:0:0:
64,192,76849,1,4,0:0:0:0:
448,192,76849,1,2,0:0:0:0:
192,192,77071,1,8,0:0:0:0:
320,192,77293,1,2,0:0:0:0:
64,192,77516,1,8,0:0:0:0:
320,192,77738,1,2,0:0:0:0:
448,192,77738,128,4,78182:0:0:0:0:
64,192,78182,1,6,0:0:0:0:
448,192,78404,1,8,0:0:0:0:
64,192,78627,1,4,0:0:0:0:
192,192,78627,1,2,0:0:0:0:
320,192,78849,1,8,0:0:0:0:
448,192,79071,1,2,0:0:0:0:
192,192,79293,1,8,0:0:0:0:
64,192,79516,128,2,80182:0:0:0:0:
448,192,79516,1,0,0:0:0:0:
320,192,80404,1,2,0:0:0:0:
448,192,80404,1,4,0:0:0:0:
192,192,80627,1,8,0:0:0:0:
64,192,80849,1,2,0:0:0:0:
320,192,81071,1,8,0:0:0:0:
64,192,81293,1,2,0:0:0:0:
448,192,81293,128,0,81960:0:0:0:0:
64,192,82182,1,2,0:0:0:0:
192,192,82182,1,4,0:0:0:0:
320,192,82404,1,8,0:0:0:0:
448,192,82627,1,2,0:0:0:0:
192,192,82849,1,8,0:0:0:0:
64,192,83071,128,2,83738:0:0:0:0:
448,192,83071,1,4,0:0:0:0:
320,192,83960,1,4,0:0:0:0:
448,192,83960,1,2,0:0:0:0:
192,192,84182,1,8,0:0:0:0:
64,192,84404,1,2,0:0:0:0:
448,192,84404,1,4,0:0:0:0:
320,192,84627,1,8,0:0:0:0:
64,192,84849,128,2,85293:0:0:0:0:
192,192,84849,1,4,0:0:0:0:
320,192,85293,1,2,0:0:0:0:
448,192,85293,128,4,85738:0:0:0:0:
64,192,85738,1,2,0:0:0:0:
192,192,85738,1,4,0:0:0:0:
64,192,86071,1,2,0:0:0:0:
192,192,86071,1,4,0:0:0:0:
320,192,86627,1,2,0:0:0:0:
448,192,86627,1,4,0:0:0:0:
320,192,86960,1,2,0:0:0:0:
448,192,86960,1,4,0:0:0:0:
64,192,87516,1,4,0:0:0:0:
448,192,87516,1,2,0:0:0:0:
64,192,87849,1,4,0:0:0:0:
448,192,87849,1,2,0:0:0:0:
448,192,88404,1,0,0:0:0:70:LR4_DrumKickHat.wav
320,192,88627,1,0,0:0:0:0:
64,192,88849,1,0,0:0:0:70:clap01_D.wav
192,192,89071,1,0,0:0:0:70:LR4_DrumKickHat.wav
320,192,89293,1,2,0:0:0:0:
448,192,89293,1,4,0:0:0:0:
320,192,89627,1,2,0:0:0:0:
448,192,89627,1,4,0:0:0:0:
64,192,90182,1,2,0:0:0:0:
192,192,90182,1,4,0:0:0:0:
64,192,90516,1,2,0:0:0:0:
192,192,90516,1,4,0:0:0:0:
64,192,91071,1,4,0:0:0:0:
448,192,91071,1,2,0:0:0:0:
64,192,91404,1,4,0:0:0:0:
448,192,91404,1,2,0:0:0:0:
64,192,91960,1,0,0:0:0:70:LR4_DrumKickHat.wav
192,192,92182,1,0,0:0:0:0:
448,192,92404,1,0,0:0:0:70:clap01_D.wav
320,192,92627,1,0,0:0:0:70:LR4_DrumKickHat.wav
64,192,92849,1,4,0:0:0:0:
192,192,92849,1,2,0:0:0:0:
64,192,93182,1,4,0:0:0:0:
192,192,93182,1,2,0:0:0:0:
64,192,93516,1,0,0:0:0:70:LR_Drum Rim Fast.wav
320,192,93738,1,4,0:0:0:0:
448,192,93738,1,2,0:0:0:0:
320,192,94071,1,4,0:0:0:0:
448,192,94071,1,2,0:0:0:0:
448,192,94404,1,0,0:0:0:70:LR_Drum Rim Fast.wav
64,192,94627,1,2,0:0:0:0:
192,192,94627,1,4,0:0:0:0:
64,192,94960,1,2,0:0:0:0:
192,192,94960,1,4,0:0:0:0:
64,192,95293,1,0,0:0:0:70:LR_Drum Rim Fast.wav
448,192,95516,1,0,0:0:0:70:LR4_DrumKickHat.wav
192,192,95738,1,0,0:0:0:70:LR_Drum Rim Fast.wav
320,192,95960,1,0,0:0:0:70:clap01_D.wav
64,192,96182,1,0,0:0:0:70:LR4_DrumKickHat.wav
320,192,96404,1,2,0:0:0:0:
448,192,96404,1,4,0:0:0:0:
320,192,96738,1,2,0:0:0:0:
448,192,96738,1,4,0:0:0:0:
448,192,97071,1,0,0:0:0:70:LR_Drum Rim Fast.wav
64,192,97293,1,2,0:0:0:0:
192,192,97293,1,4,0:0:0:0:
64,192,97627,1,2,0:0:0:0:
192,192,97627,1,4,0:0:0:0:
64,192,97960,1,0,0:0:0:70:LR_Drum Rim Fast.wav
320,192,98182,1,4,0:0:0:0:
448,192,98182,1,2,0:0:0:0:
64,192,98516,1,4,0:0:0:0:
192,192,98516,1,2,0:0:0:0:
320,192,98849,1,4,0:0:0:0:
448,192,98849,1,2,0:0:0:0:
64,192,99071,1,2,0:0:0:0:
192,192,99071,1,4,0:0:0:0:
448,192,99293,1,0,0:0:0:0:
320,192,99404,1,0,0:0:0:0:
192,192,99516,1,0,0:0:0:0:
448,192,99738,1,0,0:0:0:0:
64,192,99960,1,0,0:0:0:0:
320,192,100404,1,0,0:0:0:0:
192,192,100627,1,0,0:0:0:0:
448,192,100849,1,0,0:0:0:0:
320,192,101182,1,0,0:0:0:0:
192,192,101516,1,0,0:0:0:0:
448,192,101738,1,0,0:0:0:0:
64,192,102182,1,0,0:0:0:0:
320,192,102404,128,0,102627:0:0:0:0:
64,192,102627,1,4,0:0:0:0:
192,192,102627,1,2,0:0:0:0:
320,192,103071,1,2,0:0:0:0:
448,192,103071,1,4,0:0:0:0:
64,192,103516,1,2,0:0:0:0:
192,192,103516,1,4,0:0:0:0:
448,192,103960,1,0,0:0:0:70:LR_Drum Rim Fast.wav
192,192,104404,1,4,0:0:0:0:
320,192,104404,1,2,0:0:0:0:
64,192,104849,1,0,0:0:0:70:LR_Drum Rim Fast.wav
192,192,105071,1,2,0:0:0:0:
320,192,105293,1,2,0:0:0:0:
448,192,105293,1,4,0:0:0:0:
192,192,105738,1,4,0:0:0:0:
320,192,105738,1,2,0:0:0:0:
64,192,106182,1,2,0:0:0:0:
192,192,106182,1,4,0:0:0:0:
192,192,106627,1,4,0:0:0:0:
320,192,106627,1,2,0:0:0:0:
320,192,107071,1,2,0:0:0:0:
448,192,107071,1,4,0:0:0:0:
64,192,107293,1,6,0:0:0:0:
320,192,107516,1,2,0:0:0:0:
448,192,107516,1,4,0:0:0:0:
192,192,107738,1,6,0:0:0:0:
320,192,108627,1,0,0:0:0:70:LR4_DrumKickHat.wav
64,192,108849,1,2,0:0:0:0:
448,192,108849,1,4,0:0:0:0:
192,192,109071,1,8,0:0:0:0:
320,192,109293,1,2,0:0:0:0:
64,192,109516,1,8,0:0:0:0:
320,192,109738,1,2,0:0:0:0:
448,192,109738,128,0,110404:0:0:0:0:
64,192,110627,1,4,0:0:0:0:
448,192,110627,1,2,0:0:0:0:
320,192,110849,1,8,0:0:0:0:
192,192,111071,1,2,0:0:0:0:
448,192,111293,1,8,0:0:0:0:
64,192,111516,128,2,112182:0:0:0:0:
192,192,111516,1,0,0:0:0:0:
64,192,112404,1,4,0:0:0:0:
448,192,112404,1,2,0:0:0:0:
192,192,112627,1,8,0:0:0:0:
320,192,112849,1,2,0:0:0:0:
64,192,113071,1,8,0:0:0:0:
320,192,113293,1,2,0:0:0:0:
448,192,113293,128,0,113960:0:0:0:0:
64,192,114182,1,2,0:0:0:0:
192,192,114182,1,4,0:0:0:0:
320,192,114627,1,2,0:0:0:0:
448,192,114627,1,0,0:0:0:0:
192,192,114849,1,8,0:0:0:0:
64,192,115071,128,4,115516:0:0:0:0:
448,192,115071,1,2,0:0:0:0:
192,192,115516,128,4,115960:0:0:0:0:
320,192,115516,1,2,0:0:0:0:
64,192,115960,1,2,0:0:0:0:
448,192,115960,1,4,0:0:0:0:
448,192,116182,1,8,0:0:0:0:
64,192,116404,1,6,0:0:0:0:
64,192,116627,1,8,0:0:0:0:
320,192,116849,1,2,0:0:0:0:
448,192,116849,128,4,117516:0:0:0:0:
64,192,117071,1,8,0:0:0:0:
192,192,117293,1,6,0:0:0:0:
320,192,117516,1,8,0:0:0:0:
64,192,117738,1,4,0:0:0:0:
448,192,117738,1,2,0:0:0:0:
64,192,117960,1,8,0:0:0:0:
448,192,118182,1,6,0:0:0:0:
448,192,118404,1,8,0:0:0:0:
64,192,118627,128,2,119293:0:0:0:0:
192,192,118627,1,4,0:0:0:0:
448,192,118849,1,8,0:0:0:0:
320,192,119071,1,6,0:0:0:0:
192,192,119293,1,8,0:0:0:0:
64,192,119516,1,4,0:0:0:0:
448,192,119516,1,2,0:0:0:0:
448,192,119738,1,8,0:0:0:0:
64,192,119960,1,6,0:0:0:0:
64,192,120182,1,8,0:0:0:0:
320,192,120404,128,4,120849:0:0:0:0:
448,192,120404,1,2,0:0:0:0:
64,192,120849,1,2,0:0:0:0:
192,192,120849,128,4,121293:0:0:0:0:
448,192,121293,1,6,0:0:0:0:
320,192,121516,1,8,0:0:0:0:
64,192,121738,1,6,0:0:0:0:
192,192,121960,1,8,0:0:0:0:
320,192,122182,1,4,0:0:0:0:
448,192,122182,128,2,122627:0:0:0:0:
64,192,122627,128,4,123071:0:0:0:0:
192,192,122627,1,2,0:0:0:0:
320,192,123071,1,2,0:0:0:0:
448,192,123071,128,4,123516:0:0:0:0:
64,192,123516,128,2,123738:0:0:0:0:
192,192,123516,1,0,0:0:0:70:Cymatics - Future Bass Clap 3.wav
320,192,123960,128,2,124404:0:0:0:0:
448,192,123960,1,0,0:0:0:0:
64,192,124404,1,2,0:0:0:0:
192,192,124404,128,0,124849:0:0:0:70:Cymatics - Future Bass Clap 3.wav
320,192,124849,1,2,0:0:0:0:
448,192,124849,128,0,125293:0:0:0:0:
64,192,125293,128,2,125960:0:0:0:0:
192,192,125293,1,0,0:0:0:70:Cymatics - Future Bass Clap 3.wav
448,192,125960,1,0,0:0:0:0:
192,192,126182,1,2,0:0:0:0:
320,192,126404,1,0,0:0:0:50:LR4_DrumRevBassImpact.wav
64,192,126627,128,2,127071:0:0:0:0:
448,192,126627,1,0,0:0:0:0:
320,192,127071,1,2,0:0:0:0:
448,192,127071,128,0,127293:0:0:0:70:Cymatics - Future Bass Clap 3.wav
64,192,127516,1,2,0:0:0:0:
192,192,127516,128,0,127960:0:0:0:0:
320,192,127960,128,2,128404:0:0:0:0:
448,192,127960,1,0,0:0:0:70:Cymatics - Future Bass Clap 3.wav
64,192,128404,128,2,128849:0:0:0:0:
192,192,128404,1,0,0:0:0:0:
320,192,128849,1,2,0:0:0:0:
448,192,128849,128,0,129516:0:0:0:70:Cymatics - Future Bass Clap 3.wav
64,192,129516,1,0,0:0:0:0:
320,192,129738,1,0,0:0:0:0:
192,192,129960,1,0,0:0:0:0:
64,192,130182,1,2,0:0:0:0:
448,192,130182,1,4,0:0:0:0:
192,192,130516,1,2,0:0:0:0:
320,192,130516,1,4,0:0:0:0:
64,192,130849,1,2,0:0:0:0:
320,192,131071,1,4,0:0:0:0:
448,192,131071,1,2,0:0:0:0:
64,192,131404,1,4,0:0:0:0:
192,192,131404,1,2,0:0:0:0:
320,192,131738,1,2,0:0:0:0:
64,192,131960,1,2,0:0:0:0:
448,192,131960,1,4,0:0:0:0:
192,192,132293,1,2,0:0:0:0:
320,192,132293,1,4,0:0:0:0:
448,192,132627,1,2,0:0:0:0:
64,192,132849,1,4,0:0:0:0:
192,192,132849,1,2,0:0:0:0:
320,192,133182,1,4,0:0:0:0:
448,192,133182,1,2,0:0:0:0:
192,192,133516,1,2,0:0:0:0:
64,192,133738,1,4,0:0:0:0:
448,192,133738,1,2,0:0:0:0:
192,192,134182,1,4,0:0:0:0:
448,192,134182,1,2,0:0:0:0:
64,192,134627,1,2,0:0:0:0:
448,192,134627,1,4,0:0:0:0:
64,192,135071,1,4,0:0:0:0:
320,192,135071,1,2,0:0:0:0:
192,192,135516,1,2,0:0:0:0:
448,192,135516,1,4,0:0:0:0:
192,192,135738,1,6,0:0:0:0:
64,192,135960,1,2,0:0:0:0:
320,192,135960,1,4,0:0:0:0:
320,192,136182,1,6,0:0:0:0:
64,192,136404,1,2,0:0:0:0:
448,192,136404,1,0,0:0:0:0:
64,192,137293,128,4,137738:0:0:0:0:
448,192,137293,128,2,137738:0:0:0:0:
