osu file format v14

[General]
AudioFilename: audio.mp3
AudioLeadIn: 0
PreviewTime: 60670
Countdown: 0
SampleSet: Normal
StackLeniency: 0.7
Mode: 1
LetterboxInBreaks: 0
WidescreenStoryboard: 0

[Editor]
Bookmarks: 9570,15970,22370,25570,28770,31970,35170,41570,44770,47970,54370,60770,67170,73570,76770,83170,89570,95970,102370,108770,115170,121570,127970,140770,147170
DistanceSpacing: 0.8
BeatDivisor: 4
GridSize: 32
TimelineZoom: 3.5

[Metadata]
Title:Ultrasonic Anthem (Kobaryo's FTN-Remix)
TitleUnicode:Ultrasonic Anthem (Kobaryo's FTN-Remix)
Artist:t+pazolite
ArtistUnicode:t+pazolite
Creator:tasuke912
Version:TAIKO-HOLIC
Source:
Tags:komasy thzz maziari1105 Ayyri eiri- Midnaait CHS C.H.S Speedcore Cutie Headshaking Sounds
BeatmapID:1369026
BeatmapSetID:646093

[Difficulty]
HPDrainRate:5.5
CircleSize:2
OverallDifficulty:8.8
ApproachRate:5
SliderMultiplier:1.4
SliderTickRate:1

[Events]
//Background and Video events
0,0,"bg.png",0,40
//Break Periods
2,60970,65970
//Storyboard Layer 0 (Background)
//Storyboard Layer 1 (Fail)
//Storyboard Layer 2 (Pass)
//Storyboard Layer 3 (Foreground)
//Storyboard Sound Samples

[TimingPoints]
1570,200,4,1,0,75,1,0
1570,-133.333333333333,4,1,0,75,0,0
19170,-128.205128205128,4,1,0,75,0,0
19270,-126.582278481013,4,1,0,75,0,0
19370,-125,4,1,0,75,0,0
19470,-123.456790123457,4,1,0,75,0,0
19570,-121.951219512195,4,1,0,75,0,0
19670,-120.481927710843,4,1,0,75,0,0
19770,-119.047619047619,4,1,0,75,0,0
19870,-117.647058823529,4,1,0,75,0,0
19970,-116.279069767442,4,1,0,75,0,0
20070,-114.942528735632,4,1,0,75,0,0
20170,-113.636363636364,4,1,0,75,0,0
20270,-111.111111111111,4,1,0,75,0,0
20370,-108.695652173913,4,1,0,75,0,0
20470,-106.382978723404,4,1,0,75,0,0
20570,-104.166666666667,4,1,0,75,0,0
20670,-102.040816326531,4,1,0,75,0,0
20770,-100,4,1,0,75,0,0
22370,-100,4,1,0,85,0,0
24970,-107.52688172043,4,1,0,85,0,0
25070,-111.111111111111,4,1,0,85,0,0
25370,-125,4,1,0,85,0,0
25570,-100,4,1,0,85,0,0
31370,-107.52688172043,4,1,0,85,0,0
31470,-111.111111111111,4,1,0,85,0,0
31770,-125,4,1,0,85,0,0
31970,-100,4,1,0,85,0,0
36870,-117.647058823529,4,1,0,85,0,0
38370,-100,4,1,0,85,0,0
40070,-117.647058823529,4,1,0,85,0,0
41570,-100,4,1,0,85,0,0
48070,-133.333333333333,4,1,0,65,0,0
54370,-133.333333333333,4,1,0,70,0,0
60870,-200,4,1,0,45,0,0
73570,-153.846153846154,4,1,0,65,0,0
73670,-148.148148148148,4,1,0,65,0,0
73770,-142.857142857143,4,1,0,65,0,0
73870,-137.931034482759,4,1,0,65,0,0
73970,-133.333333333333,4,1,0,65,0,0
74070,-129.032258064516,4,1,0,65,0,0
74170,-125,4,1,0,65,0,0
74270,-121.951219512195,4,1,0,65,0,0
74370,-119.047619047619,4,1,0,65,0,0
74470,-116.279069767442,4,1,0,65,0,0
74570,-113.636363636364,4,1,0,65,0,0
74670,-111.111111111111,4,1,0,65,0,0
74770,-108.695652173913,4,1,0,65,0,0
74870,-106.382978723404,4,1,0,65,0,0
74970,-104.166666666667,4,1,0,65,0,0
75070,-102.040816326531,4,1,0,65,0,0
75170,-100,4,1,0,65,0,0
76770,-100,4,1,0,75,0,0
89570,-100,4,1,0,85,0,0
90370,-125,4,1,0,75,0,0
91170,-142.857142857143,4,1,0,75,0,0
91970,-166.666666666667,4,1,0,75,0,0
92770,-105.263157894737,4,1,0,75,0,0
92970,-111.111111111111,4,1,0,75,0,0
93070,-113.636363636364,4,1,0,75,0,0
93170,-116.279069767442,4,1,0,75,0,0
93270,-119.047619047619,4,1,0,75,0,0
93370,-121.951219512195,4,1,0,75,0,0
93470,-125,4,1,0,75,0,0
93570,-128.205128205128,4,1,0,75,0,0
93670,-131.578947368421,4,1,0,75,0,0
93770,-135.135135135135,4,1,0,75,0,0
93870,-138.888888888889,4,1,0,75,0,0
93970,-142.857142857143,4,1,0,75,0,0
94170,-153.846153846154,4,1,0,75,0,0
94370,-166.666666666667,4,1,0,75,0,0
94670,-133.333333333333,4,1,0,75,0,0
94970,-111.111111111111,4,1,0,75,0,0
95170,-96.7741935483871,4,1,0,75,0,0
95270,-90.9090909090909,4,1,0,75,0,0
95570,-76.9230769230769,4,1,0,75,0,0
95770,-100,4,1,0,75,0,0
96070,-111.111111111111,4,1,0,75,0,0
97570,-133.333333333333,4,1,0,75,0,0
99170,-111.111111111111,4,1,0,75,0,0
100870,-1.5625,4,1,0,20,0,0
101570,-12.5,4,1,0,20,0,0
102120,-100,4,1,0,85,0,0
102370,-100,4,1,0,85,0,1
115170,-100,4,1,0,85,0,0
115270,-133.333333333333,4,1,0,75,0,0
124670,-130.890052356021,4,1,0,75,0,0
124770,-128.205128205128,4,1,0,75,0,0
124870,-126.582278481013,4,1,0,75,0,0
124970,-125,4,1,0,75,0,0
125070,-123.456790123457,4,1,0,75,0,0
125170,-121.951219512195,4,1,0,75,0,0
125270,-120.481927710843,4,1,0,75,0,0
125370,-119.047619047619,4,1,0,75,0,0
125470,-117.647058823529,4,1,0,75,0,0
125570,-116.279069767442,4,1,0,75,0,0
125670,-114.942528735632,4,1,0,75,0,0
125770,-113.636363636364,4,1,0,75,0,0
125870,-111.111111111111,4,1,0,75,0,0
125970,-108.695652173913,4,1,0,75,0,0
126070,-106.382978723404,4,1,0,75,0,0
126170,-104.166666666667,4,1,0,75,0,0
126270,-102.040816326531,4,1,0,75,0,0
126370,-100,4,1,0,75,0,0
127970,-100,4,1,0,85,0,0
134370,-100,4,1,0,85,0,1
139970,-100,4,1,0,75,0,0
140870,-133.333333333333,4,1,0,75,0,0
147270,-200,4,1,0,75,0,0
153570,-153.846153846153,4,1,0,75,0,0
159970,-100,4,1,0,85,0,0
166370,-100,4,1,0,85,0,1
179170,-100,4,1,0,85,0,0
179270,-111.111111111111,4,1,0,60,0,0
182370,-125,4,1,0,60,0,0
185570,-142.857142857143,4,1,0,60,0,0
188770,-166.666666666667,4,1,0,60,0,0
192120,-166.666666666667,4,1,0,15,0,0

[HitObjects]
256,192,2670,5,2,0:0:0:0:
256,192,2720,1,2,0:0:0:0:
256,192,2770,1,2,0:0:0:0:
256,192,2970,1,2,0:0:0:0:
256,192,3070,1,2,0:0:0:0:
256,192,3170,1,4,0:0:0:0:
256,192,3570,1,2,0:0:0:0:
256,192,3770,1,0,0:0:0:0:
256,192,3870,1,0,0:0:0:0:
256,192,4070,1,2,0:0:0:0:
256,192,4170,1,0,0:0:0:0:
256,192,4370,1,2,0:0:0:0:
256,192,4570,1,0,0:0:0:0:
256,192,4670,1,2,0:0:0:0:
256,192,4770,1,0,0:0:0:0:
256,192,4970,1,0,0:0:0:0:
256,192,5070,1,0,0:0:0:0:
256,192,5170,1,2,0:0:0:0:
256,192,5370,1,0,0:0:0:0:
256,192,5470,1,0,0:0:0:0:
256,192,5570,1,2,0:0:0:0:
256,192,5670,1,2,0:0:0:0:
256,192,5770,1,0,0:0:0:0:
256,192,5970,1,2,0:0:0:0:
256,192,6070,1,0,0:0:0:0:
256,192,6170,1,2,0:0:0:0:
256,192,6270,1,2,0:0:0:0:
256,192,6370,1,0,0:0:0:0:
256,192,6570,1,0,0:0:0:0:
256,192,6670,1,0,0:0:0:0:
256,192,6770,1,2,0:0:0:0:
256,192,6970,1,0,0:0:0:0:
256,192,7070,1,2,0:0:0:0:
256,192,7270,1,2,0:0:0:0:
256,192,7370,1,0,0:0:0:0:
256,192,7570,1,2,0:0:0:0:
256,192,7770,1,2,0:0:0:0:
256,192,7870,1,2,0:0:0:0:
256,192,7970,1,0,0:0:0:0:
256,192,8170,1,0,0:0:0:0:
256,192,8270,1,0,0:0:0:0:
256,192,8370,1,2,0:0:0:0:
256,192,8570,1,0,0:0:0:0:
256,192,8670,1,2,0:0:0:0:
256,192,8770,1,0,0:0:0:0:
256,192,8870,1,2,0:0:0:0:
256,192,8970,1,0,0:0:0:0:
256,192,9170,1,2,0:0:0:0:
256,192,9370,1,2,0:0:0:0:
256,192,9470,1,2,0:0:0:0:
256,192,9570,5,0,0:0:0:0:
256,192,9770,1,0,0:0:0:0:
256,192,9970,1,2,0:0:0:0:
256,192,10170,1,0,0:0:0:0:
256,192,10270,1,0,0:0:0:0:
256,192,10470,1,2,0:0:0:0:
256,192,10570,1,0,0:0:0:0:
256,192,10770,1,2,0:0:0:0:
256,192,10970,1,0,0:0:0:0:
256,192,11070,1,2,0:0:0:0:
256,192,11170,1,0,0:0:0:0:
256,192,11370,1,0,0:0:0:0:
256,192,11470,1,0,0:0:0:0:
256,192,11570,1,2,0:0:0:0:
256,192,11670,1,2,0:0:0:0:
256,192,11770,1,0,0:0:0:0:
256,192,11870,1,2,0:0:0:0:
256,192,12070,1,2,0:0:0:0:
256,192,12170,1,0,0:0:0:0:
256,192,12270,1,0,0:0:0:0:
256,192,12370,1,2,0:0:0:0:
256,192,12470,1,0,0:0:0:0:
256,192,12570,1,2,0:0:0:0:
256,192,12670,1,2,0:0:0:0:
256,192,12770,1,0,0:0:0:0:
256,192,12970,1,2,0:0:0:0:
256,192,13070,1,0,0:0:0:0:
256,192,13170,1,2,0:0:0:0:
256,192,13270,1,2,0:0:0:0:
256,192,13370,1,0,0:0:0:0:
256,192,13570,1,0,0:0:0:0:
256,192,13670,1,2,0:0:0:0:
256,192,13770,1,0,0:0:0:0:
256,192,13870,1,0,0:0:0:0:
256,192,13970,1,2,0:0:0:0:
256,192,14070,1,0,0:0:0:0:
256,192,14170,1,2,0:0:0:0:
256,192,14270,1,2,0:0:0:0:
256,192,14370,1,0,0:0:0:0:
256,192,14570,1,2,0:0:0:0:
256,192,14670,1,2,0:0:0:0:
256,192,14770,1,0,0:0:0:0:
256,192,14870,1,2,0:0:0:0:
256,192,14970,1,2,0:0:0:0:
256,192,15070,1,2,0:0:0:0:
256,192,15170,1,0,0:0:0:0:
256,192,15270,1,2,0:0:0:0:
256,192,15370,1,0,0:0:0:0:
256,192,15470,1,0,0:0:0:0:
256,192,15570,5,2,0:0:0:0:
256,192,15620,1,2,0:0:0:0:
256,192,15670,1,2,0:0:0:0:
256,192,15720,1,2,0:0:0:0:
256,192,15770,1,2,0:0:0:0:
256,192,15820,1,2,0:0:0:0:
256,192,15870,1,2,0:0:0:0:
256,192,15920,1,2,0:0:0:0:
256,192,15970,5,0,0:0:0:0:
256,192,19170,1,0,0:0:0:0:
256,192,19270,1,0,0:0:0:0:
256,192,19370,1,0,0:0:0:0:
256,192,19470,1,0,0:0:0:0:
256,192,19570,1,2,0:0:0:0:
256,192,19670,1,0,0:0:0:0:
256,192,19770,1,0,0:0:0:0:
256,192,19870,1,2,0:0:0:0:
256,192,19970,1,0,0:0:0:0:
256,192,20070,1,2,0:0:0:0:
256,192,20170,1,0,0:0:0:0:
256,192,20270,1,0,0:0:0:0:
256,192,20370,1,2,0:0:0:0:
256,192,20470,1,0,0:0:0:0:
256,192,20570,1,0,0:0:0:0:
256,192,20670,1,2,0:0:0:0:
256,192,20770,1,0,0:0:0:0:
256,192,20820,1,0,0:0:0:0:
256,192,20870,1,0,0:0:0:0:
256,192,20920,1,0,0:0:0:0:
256,192,20970,1,2,0:0:0:0:
256,192,21020,1,2,0:0:0:0:
256,192,21070,1,2,0:0:0:0:
256,192,21120,1,2,0:0:0:0:
256,192,21170,1,0,0:0:0:0:
256,192,21220,1,2,0:0:0:0:
256,192,21270,1,2,0:0:0:0:
256,192,21320,1,2,0:0:0:0:
256,192,21370,1,0,0:0:0:0:
256,192,21420,1,0,0:0:0:0:
256,192,21470,1,2,0:0:0:0:
256,192,21520,1,2,0:0:0:0:
256,192,21570,1,0,0:0:0:0:
256,192,21620,1,0,0:0:0:0:
256,192,21670,1,2,0:0:0:0:
256,192,21720,1,0,0:0:0:0:
256,192,21770,1,2,0:0:0:0:
256,192,21820,1,2,0:0:0:0:
256,192,21870,1,0,0:0:0:0:
256,192,21920,1,2,0:0:0:0:
256,192,21970,1,0,0:0:0:0:
256,192,22370,5,4,0:0:0:0:
256,192,22470,1,0,0:0:0:0:
256,192,22570,1,2,0:0:0:0:
256,192,22670,1,0,0:0:0:0:
256,192,22720,1,0,0:0:0:0:
256,192,22770,1,2,0:0:0:0:
256,192,22870,1,0,0:0:0:0:
256,192,22970,1,0,0:0:0:0:
256,192,23070,1,2,0:0:0:0:
256,192,23170,1,0,0:0:0:0:
256,192,23270,1,2,0:0:0:0:
256,192,23320,1,2,0:0:0:0:
256,192,23370,1,0,0:0:0:0:
256,192,23470,1,2,0:0:0:0:
256,192,23570,1,0,0:0:0:0:
256,192,23620,1,0,0:0:0:0:
256,192,23670,1,2,0:0:0:0:
256,192,23770,1,0,0:0:0:0:
256,192,23870,1,2,0:0:0:0:
256,192,23970,1,4,0:0:0:0:
256,192,24070,1,0,0:0:0:0:
256,192,24170,1,2,0:0:0:0:
256,192,24270,1,0,0:0:0:0:
256,192,24320,1,0,0:0:0:0:
256,192,24370,1,2,0:0:0:0:
256,192,24420,1,2,0:0:0:0:
256,192,24470,1,0,0:0:0:0:
256,192,24570,1,0,0:0:0:0:
256,192,24670,1,2,0:0:0:0:
256,192,24770,1,0,0:0:0:0:
256,192,24970,1,0,0:0:0:0:
256,192,25070,1,2,0:0:0:0:
256,192,25370,1,2,0:0:0:0:
256,192,25570,5,4,0:0:0:0:
256,192,25670,1,0,0:0:0:0:
256,192,25770,1,2,0:0:0:0:
256,192,25870,1,0,0:0:0:0:
256,192,25920,1,0,0:0:0:0:
256,192,25970,1,2,0:0:0:0:
256,192,26070,1,0,0:0:0:0:
256,192,26170,1,0,0:0:0:0:
256,192,26270,1,2,0:0:0:0:
256,192,26370,1,0,0:0:0:0:
256,192,26470,1,2,0:0:0:0:
256,192,26520,1,2,0:0:0:0:
256,192,26570,1,0,0:0:0:0:
256,192,26670,1,2,0:0:0:0:
256,192,26770,1,0,0:0:0:0:
256,192,26820,1,2,0:0:0:0:
256,192,26870,1,0,0:0:0:0:
256,192,26920,1,0,0:0:0:0:
256,192,26970,1,2,0:0:0:0:
256,192,27070,1,2,0:0:0:0:
256,192,27120,1,2,0:0:0:0:
256,192,27170,1,0,0:0:0:0:
256,192,27270,1,2,0:0:0:0:
256,192,27370,1,0,0:0:0:0:
256,192,27470,1,2,0:0:0:0:
256,192,27520,1,0,0:0:0:0:
256,192,27570,1,0,0:0:0:0:
256,192,27670,1,2,0:0:0:0:
256,192,27770,1,0,0:0:0:0:
256,192,27820,1,2,0:0:0:0:
256,192,27870,1,2,0:0:0:0:
256,192,27970,1,4,0:0:0:0:
256,192,28270,1,6,0:0:0:0:
256,192,28570,1,2,0:0:0:0:
256,192,28620,1,2,0:0:0:0:
256,192,28670,1,2,0:0:0:0:
256,192,28770,1,4,0:0:0:0:
256,192,28870,1,2,0:0:0:0:
256,192,28920,1,2,0:0:0:0:
256,192,28970,1,0,0:0:0:0:
256,192,29070,1,2,0:0:0:0:
256,192,29170,1,0,0:0:0:0:
256,192,29220,1,0,0:0:0:0:
256,192,29270,1,2,0:0:0:0:
256,192,29370,1,0,0:0:0:0:
256,192,29470,1,2,0:0:0:0:
256,192,29570,1,0,0:0:0:0:
256,192,29670,1,0,0:0:0:0:
256,192,29720,1,2,0:0:0:0:
256,192,29770,1,0,0:0:0:0:
256,192,29870,1,2,0:0:0:0:
256,192,29970,1,0,0:0:0:0:
256,192,30020,1,0,0:0:0:0:
256,192,30070,1,2,0:0:0:0:
256,192,30170,1,0,0:0:0:0:
256,192,30270,1,2,0:0:0:0:
256,192,30370,1,4,0:0:0:0:
256,192,30470,1,0,0:0:0:0:
256,192,30570,1,2,0:0:0:0:
256,192,30670,1,0,0:0:0:0:
256,192,30720,1,0,0:0:0:0:
256,192,30770,1,2,0:0:0:0:
256,192,30820,1,2,0:0:0:0:
256,192,30870,1,0,0:0:0:0:
256,192,30970,1,0,0:0:0:0:
256,192,31070,1,2,0:0:0:0:
256,192,31170,1,0,0:0:0:0:
256,192,31370,1,2,0:0:0:0:
256,192,31470,1,0,0:0:0:0:
256,192,31770,1,2,0:0:0:0:
256,192,31970,5,4,0:0:0:0:
256,192,32070,1,0,0:0:0:0:
256,192,32170,1,2,0:0:0:0:
256,192,32270,1,0,0:0:0:0:
256,192,32320,1,0,0:0:0:0:
256,192,32370,1,2,0:0:0:0:
256,192,32470,1,0,0:0:0:0:
256,192,32570,1,0,0:0:0:0:
256,192,32670,1,2,0:0:0:0:
256,192,32770,1,0,0:0:0:0:
256,192,32820,1,0,0:0:0:0:
256,192,32870,1,2,0:0:0:0:
256,192,32920,1,2,0:0:0:0:
256,192,32970,1,0,0:0:0:0:
256,192,33070,1,2,0:0:0:0:
256,192,33170,1,0,0:0:0:0:
256,192,33220,1,2,0:0:0:0:
256,192,33270,1,2,0:0:0:0:
256,192,33370,1,0,0:0:0:0:
256,192,33470,1,2,0:0:0:0:
256,192,33570,1,0,0:0:0:0:
256,192,33670,1,2,0:0:0:0:
256,192,33720,1,0,0:0:0:0:
256,192,33770,1,0,0:0:0:0:
256,192,33870,1,2,0:0:0:0:
256,192,33970,1,0,0:0:0:0:
256,192,34020,1,2,0:0:0:0:
256,192,34070,1,0,0:0:0:0:
256,192,34120,1,0,0:0:0:0:
256,192,34170,1,2,0:0:0:0:
256,192,34270,1,0,0:0:0:0:
256,192,34370,1,2,0:0:0:0:
256,192,34420,1,2,0:0:0:0:
256,192,34470,1,2,0:0:0:0:
256,192,34520,1,2,0:0:0:0:
256,192,34570,1,2,0:0:0:0:
256,192,34670,1,0,0:0:0:0:
256,192,34720,1,0,0:0:0:0:
256,192,34770,1,0,0:0:0:0:
256,192,34820,1,0,0:0:0:0:
256,192,34870,1,0,0:0:0:0:
256,192,34970,1,2,0:0:0:0:
256,192,35020,1,2,0:0:0:0:
256,192,35070,1,2,0:0:0:0:
256,192,35170,5,0,0:0:0:0:
256,192,35270,1,0,0:0:0:0:
256,192,35370,1,0,0:0:0:0:
256,192,35470,1,2,0:0:0:0:
256,192,35570,1,0,0:0:0:0:
256,192,35670,1,0,0:0:0:0:
256,192,35770,1,2,0:0:0:0:
256,192,35870,1,2,0:0:0:0:
256,192,35920,1,2,0:0:0:0:
256,192,35970,1,0,0:0:0:0:
256,192,36070,1,0,0:0:0:0:
256,192,36170,1,2,0:0:0:0:
256,192,36270,1,0,0:0:0:0:
256,192,36370,1,2,0:0:0:0:
256,192,36470,1,2,0:0:0:0:
256,192,36570,1,0,0:0:0:0:
256,192,36620,1,0,0:0:0:0:
256,192,36670,1,2,0:0:0:0:
256,192,36703,1,2,0:0:0:0:
256,192,36736,1,2,0:0:0:0:
256,192,36770,1,0,0:0:0:0:
256,192,36970,1,0,0:0:0:0:
256,192,37070,1,0,0:0:0:0:
256,192,37170,1,2,0:0:0:0:
256,192,37370,1,2,0:0:0:0:
256,192,37470,1,2,0:0:0:0:
256,192,37570,1,0,0:0:0:0:
256,192,37620,1,0,0:0:0:0:
256,192,37670,1,0,0:0:0:0:
256,192,37770,1,2,0:0:0:0:
256,192,37870,1,0,0:0:0:0:
256,192,37970,1,2,0:0:0:0:
256,192,38170,1,2,0:0:0:0:
256,192,38270,1,2,0:0:0:0:
256,192,38370,1,0,0:0:0:0:
256,192,38470,1,2,0:0:0:0:
256,192,38520,1,2,0:0:0:0:
256,192,38570,1,0,0:0:0:0:
256,192,38670,1,2,0:0:0:0:
256,192,38720,1,2,0:0:0:0:
256,192,38770,1,0,0:0:0:0:
256,192,38870,1,2,0:0:0:0:
256,192,38970,1,0,0:0:0:0:
256,192,39020,1,0,0:0:0:0:
256,192,39070,1,2,0:0:0:0:
256,192,39120,1,2,0:0:0:0:
256,192,39170,1,0,0:0:0:0:
256,192,39270,1,0,0:0:0:0:
256,192,39370,1,2,0:0:0:0:
256,192,39420,1,0,0:0:0:0:
256,192,39470,1,0,0:0:0:0:
256,192,39570,1,2,0:0:0:0:
256,192,39670,1,0,0:0:0:0:
256,192,39720,1,0,0:0:0:0:
256,192,39770,1,2,0:0:0:0:
256,192,39870,1,2,0:0:0:0:
256,192,39920,1,2,0:0:0:0:
256,192,39970,1,0,0:0:0:0:
256,192,40370,1,2,0:0:0:0:
256,192,40570,1,0,0:0:0:0:
256,192,40670,1,2,0:0:0:0:
256,192,40770,1,2,0:0:0:0:
256,192,40970,1,2,0:0:0:0:
256,192,41070,1,0,0:0:0:0:
256,192,41270,1,0,0:0:0:0:
256,192,41370,1,2,0:0:0:0:
256,192,41420,1,2,0:0:0:0:
256,192,41470,1,2,0:0:0:0:
256,192,41570,5,0,0:0:0:0:
256,192,41670,1,0,0:0:0:0:
256,192,41720,1,0,0:0:0:0:
256,192,41770,1,0,0:0:0:0:
256,192,41870,1,2,0:0:0:0:
256,192,41920,1,0,0:0:0:0:
256,192,41970,1,0,0:0:0:0:
256,192,42070,1,2,0:0:0:0:
256,192,42170,1,0,0:0:0:0:
256,192,42220,1,0,0:0:0:0:
256,192,42270,1,2,0:0:0:0:
256,192,42320,1,2,0:0:0:0:
256,192,42370,1,0,0:0:0:0:
256,192,42470,1,0,0:0:0:0:
256,192,42570,1,2,0:0:0:0:
256,192,42620,1,2,0:0:0:0:
256,192,42670,1,2,0:0:0:0:
256,192,42770,1,0,0:0:0:0:
256,192,42870,1,0,0:0:0:0:
256,192,42920,1,2,0:0:0:0:
256,192,42970,1,0,0:0:0:0:
256,192,43020,1,0,0:0:0:0:
256,192,43070,1,2,0:0:0:0:
256,192,43120,1,2,0:0:0:0:
256,192,43170,1,0,0:0:0:0:
256,192,43270,1,0,0:0:0:0:
256,192,43320,1,0,0:0:0:0:
256,192,43370,1,2,0:0:0:0:
256,192,43420,1,0,0:0:0:0:
256,192,43470,1,2,0:0:0:0:
256,192,43520,1,2,0:0:0:0:
256,192,43570,1,0,0:0:0:0:
256,192,43670,1,0,0:0:0:0:
256,192,43720,1,0,0:0:0:0:
256,192,43770,1,2,0:0:0:0:
256,192,43820,1,2,0:0:0:0:
256,192,43870,1,0,0:0:0:0:
256,192,43920,1,2,0:0:0:0:
256,192,43970,1,0,0:0:0:0:
256,192,44020,1,0,0:0:0:0:
256,192,44070,1,2,0:0:0:0:
256,192,44103,1,2,0:0:0:0:
256,192,44136,1,2,0:0:0:0:
256,192,44170,1,0,0:0:0:0:
256,192,44220,1,0,0:0:0:0:
256,192,44270,1,2,0:0:0:0:
256,192,44303,1,2,0:0:0:0:
256,192,44336,1,2,0:0:0:0:
256,192,44370,1,0,0:0:0:0:
256,192,44570,1,0,0:0:0:0:
256,192,44770,5,0,0:0:0:0:
256,192,44870,1,0,0:0:0:0:
256,192,44920,1,2,0:0:0:0:
256,192,44970,1,0,0:0:0:0:
256,192,45070,1,2,0:0:0:0:
256,192,45120,1,0,0:0:0:0:
256,192,45170,1,0,0:0:0:0:
256,192,45270,1,2,0:0:0:0:
256,192,45370,1,0,0:0:0:0:
256,192,45420,1,2,0:0:0:0:
256,192,45470,1,2,0:0:0:0:
256,192,45520,1,2,0:0:0:0:
256,192,45570,1,0,0:0:0:0:
256,192,45670,1,0,0:0:0:0:
256,192,45770,1,2,0:0:0:0:
256,192,45820,1,0,0:0:0:0:
256,192,45870,1,2,0:0:0:0:
256,192,45920,1,2,0:0:0:0:
256,192,45970,1,0,0:0:0:0:
256,192,46070,1,0,0:0:0:0:
256,192,46120,1,2,0:0:0:0:
256,192,46170,1,0,0:0:0:0:
256,192,46220,1,0,0:0:0:0:
256,192,46270,1,2,0:0:0:0:
256,192,46320,1,2,0:0:0:0:
256,192,46370,1,0,0:0:0:0:
256,192,46470,1,2,0:0:0:0:
256,192,46503,1,2,0:0:0:0:
256,192,46536,1,2,0:0:0:0:
256,192,46570,1,0,0:0:0:0:
256,192,46620,1,0,0:0:0:0:
256,192,46670,1,2,0:0:0:0:
256,192,46770,1,0,0:0:0:0:
256,192,46820,1,0,0:0:0:0:
256,192,46870,1,2,0:0:0:0:
256,192,46903,1,2,0:0:0:0:
256,192,46936,1,2,0:0:0:0:
256,192,46970,1,0,0:0:0:0:
256,192,47070,1,2,0:0:0:0:
256,192,47170,1,4,0:0:0:0:
256,192,47370,1,0,0:0:0:0:
256,192,47470,1,6,0:0:0:0:
256,192,47770,1,2,0:0:0:0:
256,192,47820,1,2,0:0:0:0:
256,192,47870,1,2,0:0:0:0:
256,192,47920,1,2,0:0:0:0:
256,192,47970,5,0,0:0:0:0:
256,192,48370,1,2,0:0:0:0:
256,192,48770,1,0,0:0:0:0:
256,192,48870,1,2,0:0:0:0:
256,192,49070,1,2,0:0:0:0:
256,192,49170,1,0,0:0:0:0:
256,192,49370,1,2,0:0:0:0:
256,192,49470,1,2,0:0:0:0:
256,192,49570,1,0,0:0:0:0:
256,192,49970,1,2,0:0:0:0:
256,192,50270,1,2,0:0:0:0:
256,192,50370,1,0,0:0:0:0:
256,192,50470,1,2,0:0:0:0:
256,192,50670,1,2,0:0:0:0:
256,192,50770,1,0,0:0:0:0:
256,192,50970,1,0,0:0:0:0:
256,192,51070,1,2,0:0:0:0:
256,192,51170,1,0,0:0:0:0:
256,192,51470,1,0,0:0:0:0:
256,192,51570,1,2,0:0:0:0:
256,192,51770,1,2,0:0:0:0:
256,192,51970,1,0,0:0:0:0:
256,192,52070,1,0,0:0:0:0:
256,192,52270,1,2,0:0:0:0:
256,192,52370,1,0,0:0:0:0:
256,192,52570,1,2,0:0:0:0:
256,192,52670,1,2,0:0:0:0:
256,192,52770,1,0,0:0:0:0:
256,192,53070,1,0,0:0:0:0:
256,192,53170,1,2,0:0:0:0:
256,192,53370,1,2,0:0:0:0:
256,192,53470,1,2,0:0:0:0:
256,192,53570,1,0,0:0:0:0:
256,192,53670,1,2,0:0:0:0:
256,192,53770,1,0,0:0:0:0:
256,192,53870,1,0,0:0:0:0:
256,192,53970,1,2,0:0:0:0:
256,192,54020,1,2,0:0:0:0:
256,192,54070,1,2,0:0:0:0:
256,192,54120,1,2,0:0:0:0:
256,192,54170,1,2,0:0:0:0:
256,192,54220,1,2,0:0:0:0:
256,192,54270,1,2,0:0:0:0:
256,192,54320,1,2,0:0:0:0:
256,192,54370,5,0,0:0:0:0:
256,192,54570,1,0,0:0:0:0:
256,192,54670,1,0,0:0:0:0:
256,192,54770,1,2,0:0:0:0:
256,192,54970,1,2,0:0:0:0:
256,192,55070,1,2,0:0:0:0:
256,192,55170,1,0,0:0:0:0:
256,192,55270,1,2,0:0:0:0:
256,192,55470,1,2,0:0:0:0:
256,192,55570,1,0,0:0:0:0:
256,192,55670,1,0,0:0:0:0:
256,192,55770,1,2,0:0:0:0:
256,192,55870,1,2,0:0:0:0:
256,192,55970,1,0,0:0:0:0:
256,192,56170,1,2,0:0:0:0:
256,192,56270,1,0,0:0:0:0:
256,192,56370,1,2,0:0:0:0:
256,192,56570,1,2,0:0:0:0:
256,192,56670,1,2,0:0:0:0:
256,192,56770,1,0,0:0:0:0:
256,192,56870,1,0,0:0:0:0:
256,192,56970,1,2,0:0:0:0:
256,192,57170,1,0,0:0:0:0:
256,192,57270,1,0,0:0:0:0:
256,192,57370,1,2,0:0:0:0:
256,192,57420,1,2,0:0:0:0:
256,192,57470,1,2,0:0:0:0:
256,192,57520,1,2,0:0:0:0:
256,192,57570,5,0,0:0:0:0:
256,192,57770,1,0,0:0:0:0:
256,192,57870,1,0,0:0:0:0:
256,192,57970,1,2,0:0:0:0:
256,192,58170,1,2,0:0:0:0:
256,192,58270,1,2,0:0:0:0:
256,192,58370,1,0,0:0:0:0:
256,192,58470,1,2,0:0:0:0:
256,192,58670,1,2,0:0:0:0:
256,192,58770,1,0,0:0:0:0:
256,192,58870,1,0,0:0:0:0:
256,192,58970,1,0,0:0:0:0:
256,192,59070,1,2,0:0:0:0:
256,192,59170,1,0,0:0:0:0:
256,192,59370,1,0,0:0:0:0:
256,192,59470,1,0,0:0:0:0:
256,192,59570,1,2,0:0:0:0:
256,192,59770,1,2,0:0:0:0:
256,192,59870,1,2,0:0:0:0:
256,192,59970,1,0,0:0:0:0:
256,192,60070,1,2,0:0:0:0:
256,192,60170,1,0,0:0:0:0:
256,192,60270,1,0,0:0:0:0:
256,192,60370,1,2,0:0:0:0:
256,192,60470,1,2,0:0:0:0:
256,192,60570,1,2,0:0:0:0:
256,192,60620,1,2,0:0:0:0:
256,192,60670,1,2,0:0:0:0:
256,192,60720,1,2,0:0:0:0:
256,192,60770,5,0,0:0:0:0:
256,192,67170,5,0,0:0:0:0:
256,192,67370,1,2,0:0:0:0:
256,192,67570,1,2,0:0:0:0:
256,192,67770,1,2,0:0:0:0:
256,192,67870,1,2,0:0:0:0:
256,192,67970,1,2,0:0:0:0:
256,192,68170,1,0,0:0:0:0:
256,192,68370,1,2,0:0:0:0:
256,192,68570,1,2,0:0:0:0:
256,192,68670,1,2,0:0:0:0:
256,192,68770,1,0,0:0:0:0:
256,192,68970,1,2,0:0:0:0:
256,192,69170,1,2,0:0:0:0:
256,192,69370,1,0,0:0:0:0:
256,192,69470,1,0,0:0:0:0:
256,192,69570,1,2,0:0:0:0:
256,192,69770,1,2,0:0:0:0:
256,192,69870,1,2,0:0:0:0:
256,192,69970,1,0,0:0:0:0:
256,192,70170,1,2,0:0:0:0:
256,192,70370,1,0,0:0:0:0:
256,192,70570,1,2,0:0:0:0:
256,192,70770,1,2,0:0:0:0:
256,192,70970,1,2,0:0:0:0:
256,192,71070,1,2,0:0:0:0:
256,192,71170,1,2,0:0:0:0:
256,192,71370,1,0,0:0:0:0:
256,192,71570,1,2,0:0:0:0:
256,192,71770,1,2,0:0:0:0:
256,192,71870,1,2,0:0:0:0:
256,192,71970,1,0,0:0:0:0:
256,192,72170,1,2,0:0:0:0:
256,192,72370,1,2,0:0:0:0:
256,192,72570,1,0,0:0:0:0:
256,192,72670,1,0,0:0:0:0:
256,192,72770,1,2,0:0:0:0:
256,192,72870,1,2,0:0:0:0:
256,192,72970,1,0,0:0:0:0:
256,192,73170,1,0,0:0:0:0:
256,192,73370,1,2,0:0:0:0:
256,192,73570,1,0,0:0:0:0:
256,192,73670,1,0,0:0:0:0:
256,192,73770,1,0,0:0:0:0:
256,192,73870,1,0,0:0:0:0:
256,192,73970,1,2,0:0:0:0:
256,192,74070,1,0,0:0:0:0:
256,192,74170,1,0,0:0:0:0:
256,192,74270,1,2,0:0:0:0:
256,192,74370,1,0,0:0:0:0:
256,192,74470,1,2,0:0:0:0:
256,192,74570,1,0,0:0:0:0:
256,192,74670,1,0,0:0:0:0:
256,192,74770,1,2,0:0:0:0:
256,192,74870,1,0,0:0:0:0:
256,192,74970,1,0,0:0:0:0:
256,192,75070,1,2,0:0:0:0:
256,192,75170,1,0,0:0:0:0:
256,192,75220,1,0,0:0:0:0:
256,192,75270,1,0,0:0:0:0:
256,192,75320,1,0,0:0:0:0:
256,192,75370,1,2,0:0:0:0:
256,192,75420,1,0,0:0:0:0:
256,192,75470,1,2,0:0:0:0:
256,192,75520,1,2,0:0:0:0:
256,192,75570,1,0,0:0:0:0:
256,192,75620,1,0,0:0:0:0:
256,192,75670,1,2,0:0:0:0:
256,192,75720,1,2,0:0:0:0:
256,192,75770,1,0,0:0:0:0:
256,192,75820,1,2,0:0:0:0:
256,192,75870,1,2,0:0:0:0:
256,192,75920,1,2,0:0:0:0:
256,192,75970,1,0,0:0:0:0:
256,192,76020,1,2,0:0:0:0:
256,192,76070,1,0,0:0:0:0:
256,192,76120,1,0,0:0:0:0:
256,192,76170,1,2,0:0:0:0:
256,192,76220,1,0,0:0:0:0:
256,192,76270,1,2,0:0:0:0:
256,192,76320,1,2,0:0:0:0:
256,192,76370,1,0,0:0:0:0:
256,192,76570,1,0,0:0:0:0:
256,192,76670,1,0,0:0:0:0:
256,192,76770,5,6,0:0:0:0:
256,192,76970,1,0,0:0:0:0:
256,192,77170,1,2,0:0:0:0:
256,192,77270,1,2,0:0:0:0:
256,192,77470,1,0,0:0:0:0:
256,192,77670,1,2,0:0:0:0:
256,192,77770,1,0,0:0:0:0:
256,192,77970,1,2,0:0:0:0:
256,192,78170,1,0,0:0:0:0:
256,192,78270,1,0,0:0:0:0:
256,192,78370,1,2,0:0:0:0:
256,192,78570,1,0,0:0:0:0:
256,192,78770,1,2,0:0:0:0:
256,192,78870,1,2,0:0:0:0:
256,192,79070,1,0,0:0:0:0:
256,192,79270,1,2,0:0:0:0:
256,192,79370,1,0,0:0:0:0:
256,192,79570,1,2,0:0:0:0:
256,192,79770,1,0,0:0:0:0:
256,192,79870,1,2,0:0:0:0:
256,192,79970,1,2,0:0:0:0:
256,192,80170,1,0,0:0:0:0:
256,192,80370,1,0,0:0:0:0:
256,192,80470,1,2,0:0:0:0:
256,192,80670,1,0,0:0:0:0:
256,192,80870,1,2,0:0:0:0:
256,192,80970,1,0,0:0:0:0:
256,192,81170,1,2,0:0:0:0:
256,192,81370,1,0,0:0:0:0:
256,192,81570,1,2,0:0:0:0:
256,192,81870,1,2,0:0:0:0:
256,192,82170,1,2,0:0:0:0:
256,192,82370,1,0,0:0:0:0:
256,192,82470,1,2,0:0:0:0:
256,192,82670,1,0,0:0:0:0:
256,192,82770,1,2,0:0:0:0:
256,192,82970,1,2,0:0:0:0:
256,192,83070,1,2,0:0:0:0:
256,192,83170,5,4,0:0:0:0:
256,192,83370,1,2,0:0:0:0:
256,192,83570,1,0,0:0:0:0:
256,192,83670,1,2,0:0:0:0:
256,192,83870,1,2,0:0:0:0:
256,192,83970,1,0,0:0:0:0:
256,192,84070,1,2,0:0:0:0:
256,192,84170,1,0,0:0:0:0:
256,192,84370,1,2,0:0:0:0:
256,192,84570,1,2,0:0:0:0:
256,192,84670,1,2,0:0:0:0:
256,192,84770,1,0,0:0:0:0:
256,192,84970,1,2,0:0:0:0:
256,192,85070,1,0,0:0:0:0:
256,192,85170,1,0,0:0:0:0:
256,192,85270,1,2,0:0:0:0:
256,192,85470,1,2,0:0:0:0:
256,192,85570,1,0,0:0:0:0:
256,192,85670,1,2,0:0:0:0:
256,192,85770,1,0,0:0:0:0:
256,192,85870,1,0,0:0:0:0:
256,192,85970,1,2,0:0:0:0:
256,192,86170,1,2,0:0:0:0:
256,192,86270,1,2,0:0:0:0:
256,192,86370,1,0,0:0:0:0:
256,192,86470,1,2,0:0:0:0:
256,192,86570,1,0,0:0:0:0:
256,192,86770,1,0,0:0:0:0:
256,192,86870,1,2,0:0:0:0:
256,192,87070,1,2,0:0:0:0:
256,192,87170,1,0,0:0:0:0:
256,192,87270,1,2,0:0:0:0:
256,192,87370,1,0,0:0:0:0:
256,192,87470,1,0,0:0:0:0:
256,192,87570,1,2,0:0:0:0:
256,192,87670,1,0,0:0:0:0:
256,192,87770,1,2,0:0:0:0:
256,192,87870,1,2,0:0:0:0:
256,192,87970,1,0,0:0:0:0:
256,192,88170,1,0,0:0:0:0:
256,192,88270,1,2,0:0:0:0:
256,192,88470,1,0,0:0:0:0:
256,192,88570,1,2,0:0:0:0:
256,192,88670,1,2,0:0:0:0:
256,192,88770,1,0,0:0:0:0:
256,192,88870,1,2,0:0:0:0:
256,192,88970,1,2,0:0:0:0:
256,192,89070,1,0,0:0:0:0:
256,192,89170,1,2,0:0:0:0:
256,192,89220,1,2,0:0:0:0:
256,192,89270,1,2,0:0:0:0:
256,192,89320,1,2,0:0:0:0:
256,192,89370,1,0,0:0:0:0:
256,192,89420,1,0,0:0:0:0:
256,192,89470,1,2,0:0:0:0:
256,192,89570,5,4,0:0:0:0:
256,192,89970,1,2,0:0:0:0:
256,192,90070,1,2,0:0:0:0:
256,192,90170,1,2,0:0:0:0:
256,192,90370,1,0,0:0:0:0:
256,192,90470,1,0,0:0:0:0:
256,192,90570,1,2,0:0:0:0:
256,192,90670,1,0,0:0:0:0:
256,192,90770,1,2,0:0:0:0:
256,192,90970,1,2,0:0:0:0:
256,192,91070,1,2,0:0:0:0:
256,192,91170,1,0,0:0:0:0:
256,192,91270,1,0,0:0:0:0:
256,192,91370,1,2,0:0:0:0:
256,192,91470,1,0,0:0:0:0:
256,192,91570,1,2,0:0:0:0:
256,192,91670,1,0,0:0:0:0:
256,192,91770,1,2,0:0:0:0:
256,192,91870,1,2,0:0:0:0:
256,192,91970,1,0,0:0:0:0:
256,192,92070,1,2,0:0:0:0:
256,192,92170,1,0,0:0:0:0:
256,192,92270,1,0,0:0:0:0:
256,192,92370,1,2,0:0:0:0:
256,192,92570,1,0,0:0:0:0:
256,192,92770,1,4,0:0:0:0:
256,192,92970,1,0,0:0:0:0:
256,192,93070,1,2,0:0:0:0:
256,192,93170,1,2,0:0:0:0:
256,192,93270,1,0,0:0:0:0:
256,192,93370,1,2,0:0:0:0:
256,192,93470,1,0,0:0:0:0:
256,192,93570,1,0,0:0:0:0:
256,192,93670,1,2,0:0:0:0:
256,192,93770,1,0,0:0:0:0:
256,192,93870,1,0,0:0:0:0:
256,192,93970,1,2,0:0:0:0:
256,192,94170,1,2,0:0:0:0:
256,192,94370,1,4,0:0:0:0:
256,192,94670,1,4,0:0:0:0:
256,192,94970,1,4,0:0:0:0:
256,192,95270,1,6,0:0:0:0:
256,192,95570,1,6,0:0:0:0:
256,192,95770,1,2,0:0:0:0:
256,192,95820,1,2,0:0:0:0:
256,192,95870,1,2,0:0:0:0:
256,192,95920,1,2,0:0:0:0:
256,192,95970,5,0,0:0:0:0:
256,192,96170,1,0,0:0:0:0:
256,192,96370,1,2,0:0:0:0:
256,192,96470,1,0,0:0:0:0:
256,192,96670,1,0,0:0:0:0:
256,192,96770,1,2,0:0:0:0:
256,192,96870,1,0,0:0:0:0:
256,192,96970,1,0,0:0:0:0:
256,192,97170,1,2,0:0:0:0:
256,192,97370,1,2,0:0:0:0:
256,192,97470,1,2,0:0:0:0:
256,192,97570,1,0,0:0:0:0:
256,192,97770,1,0,0:0:0:0:
256,192,97970,1,2,0:0:0:0:
256,192,98070,1,2,0:0:0:0:
256,192,98270,1,2,0:0:0:0:
256,192,98470,1,2,0:0:0:0:
256,192,98570,1,0,0:0:0:0:
256,192,98770,1,2,0:0:0:0:
256,192,98970,1,2,0:0:0:0:
256,192,99070,1,2,0:0:0:0:
256,192,99170,1,0,0:0:0:0:
256,192,99370,1,0,0:0:0:0:
256,192,99470,1,0,0:0:0:0:
256,192,99570,1,2,0:0:0:0:
256,192,99670,1,2,0:0:0:0:
256,192,99770,1,0,0:0:0:0:
256,192,99870,1,2,0:0:0:0:
256,192,100070,1,2,0:0:0:0:
256,192,100170,1,2,0:0:0:0:
256,192,100270,1,0,0:0:0:0:
256,192,100370,1,2,0:0:0:0:
256,192,100470,1,2,0:0:0:0:
256,192,100570,1,0,0:0:0:0:
256,192,100670,1,0,0:0:0:0:
256,192,100770,1,6,0:0:0:0:
256,192,100870,12,0,101970,0:0:0:0:
256,192,102170,5,2,0:0:0:0:
256,192,102270,1,2,0:0:0:0:
256,192,102370,1,4,0:0:0:0:
256,192,102470,1,0,0:0:0:0:
256,192,102570,1,2,0:0:0:0:
256,192,102670,1,0,0:0:0:0:
256,192,102720,1,0,0:0:0:0:
256,192,102770,1,2,0:0:0:0:
256,192,102820,1,2,0:0:0:0:
256,192,102870,1,0,0:0:0:0:
256,192,102970,1,2,0:0:0:0:
256,192,103070,1,0,0:0:0:0:
256,192,103120,1,2,0:0:0:0:
256,192,103170,1,2,0:0:0:0:
256,192,103270,1,0,0:0:0:0:
256,192,103370,1,2,0:0:0:0:
256,192,103470,1,0,0:0:0:0:
256,192,103520,1,0,0:0:0:0:
256,192,103570,1,2,0:0:0:0:
256,192,103670,1,0,0:0:0:0:
256,192,103770,1,2,0:0:0:0:
256,192,103870,1,2,0:0:0:0:
256,192,103920,1,2,0:0:0:0:
256,192,103970,1,0,0:0:0:0:
256,192,104070,1,0,0:0:0:0:
256,192,104120,1,2,0:0:0:0:
256,192,104170,1,0,0:0:0:0:
256,192,104270,1,2,0:0:0:0:
256,192,104370,1,0,0:0:0:0:
256,192,104420,1,0,0:0:0:0:
256,192,104470,1,2,0:0:0:0:
256,192,104570,1,0,0:0:0:0:
256,192,104670,1,2,0:0:0:0:
256,192,104720,1,2,0:0:0:0:
256,192,104770,1,0,0:0:0:0:
256,192,104820,1,0,0:0:0:0:
256,192,104870,1,2,0:0:0:0:
256,192,104970,1,0,0:0:0:0:
256,192,105070,1,2,0:0:0:0:
256,192,105120,1,0,0:0:0:0:
256,192,105170,1,2,0:0:0:0:
256,192,105220,1,2,0:0:0:0:
256,192,105270,1,0,0:0:0:0:
256,192,105320,1,2,0:0:0:0:
256,192,105370,1,0,0:0:0:0:
256,192,105420,1,0,0:0:0:0:
256,192,105470,1,2,0:0:0:0:
256,192,105520,1,2,0:0:0:0:
256,192,105570,1,0,0:0:0:0:
256,192,105670,1,2,0:0:0:0:
256,192,105720,1,2,0:0:0:0:
256,192,105770,1,0,0:0:0:0:
256,192,105870,1,2,0:0:0:0:
256,192,105970,1,0,0:0:0:0:
256,192,106020,1,0,0:0:0:0:
256,192,106070,1,2,0:0:0:0:
256,192,106170,1,0,0:0:0:0:
256,192,106270,1,0,0:0:0:0:
256,192,106320,1,2,0:0:0:0:
256,192,106420,1,2,0:0:0:0:
256,192,106470,1,0,0:0:0:0:
256,192,106570,1,2,0:0:0:0:
256,192,106670,1,2,0:0:0:0:
256,192,106720,1,2,0:0:0:0:
256,192,106770,1,0,0:0:0:0:
256,192,106870,1,2,0:0:0:0:
256,192,106970,1,0,0:0:0:0:
256,192,107070,1,0,0:0:0:0:
256,192,107120,1,0,0:0:0:0:
256,192,107170,1,2,0:0:0:0:
256,192,107270,1,0,0:0:0:0:
256,192,107320,1,0,0:0:0:0:
256,192,107370,1,0,0:0:0:0:
256,192,107470,1,2,0:0:0:0:
256,192,107570,1,0,0:0:0:0:
256,192,107620,1,2,0:0:0:0:
256,192,107670,1,0,0:0:0:0:
256,192,107720,1,0,0:0:0:0:
256,192,107770,1,2,0:0:0:0:
256,192,107870,1,2,0:0:0:0:
256,192,107920,1,2,0:0:0:0:
256,192,107970,1,0,0:0:0:0:
256,192,108070,1,2,0:0:0:0:
256,192,108120,1,0,0:0:0:0:
256,192,108170,1,2,0:0:0:0:
256,192,108220,1,2,0:0:0:0:
256,192,108270,1,0,0:0:0:0:
256,192,108320,1,0,0:0:0:0:
256,192,108370,1,2,0:0:0:0:
256,192,108470,1,0,0:0:0:0:
256,192,108520,1,0,0:0:0:0:
256,192,108570,1,2,0:0:0:0:
256,192,108670,1,2,0:0:0:0:
256,192,108720,1,2,0:0:0:0:
256,192,108770,5,0,0:0:0:0:
256,192,108870,1,0,0:0:0:0:
256,192,108920,1,0,0:0:0:0:
256,192,108970,1,0,0:0:0:0:
256,192,109070,1,2,0:0:0:0:
256,192,109170,1,0,0:0:0:0:
256,192,109220,1,2,0:0:0:0:
256,192,109270,1,0,0:0:0:0:
256,192,109320,1,0,0:0:0:0:
256,192,109370,1,2,0:0:0:0:
256,192,109470,1,0,0:0:0:0:
256,192,109520,1,2,0:0:0:0:
256,192,109570,1,2,0:0:0:0:
256,192,109620,1,2,0:0:0:0:
256,192,109670,1,0,0:0:0:0:
256,192,109770,1,2,0:0:0:0:
256,192,109870,1,2,0:0:0:0:
256,192,109970,1,0,0:0:0:0:
256,192,110020,1,0,0:0:0:0:
256,192,110070,1,2,0:0:0:0:
256,192,110120,1,2,0:0:0:0:
256,192,110170,1,0,0:0:0:0:
256,192,110220,1,2,0:0:0:0:
256,192,110270,1,2,0:0:0:0:
256,192,110370,1,0,0:0:0:0:
256,192,110470,1,2,0:0:0:0:
256,192,110520,1,0,0:0:0:0:
256,192,110570,1,0,0:0:0:0:
256,192,110670,1,2,0:0:0:0:
256,192,110770,1,0,0:0:0:0:
256,192,110820,1,0,0:0:0:0:
256,192,110870,1,2,0:0:0:0:
256,192,111070,1,6,0:0:0:0:
256,192,111270,1,2,0:0:0:0:
256,192,111370,1,0,0:0:0:0:
256,192,111470,1,0,0:0:0:0:
256,192,111520,1,0,0:0:0:0:
256,192,111570,1,2,0:0:0:0:
256,192,111670,1,0,0:0:0:0:
256,192,111720,1,0,0:0:0:0:
256,192,111770,1,2,0:0:0:0:
256,192,111803,1,2,0:0:0:0:
256,192,111836,1,2,0:0:0:0:
256,192,111870,1,0,0:0:0:0:
256,192,111920,1,0,0:0:0:0:
256,192,111970,1,0,0:0:0:0:
256,192,112070,1,2,0:0:0:0:
256,192,112120,1,0,0:0:0:0:
256,192,112170,1,0,0:0:0:0:
256,192,112270,1,2,0:0:0:0:
256,192,112370,1,0,0:0:0:0:
256,192,112420,1,2,0:0:0:0:
256,192,112470,1,0,0:0:0:0:
256,192,112520,1,0,0:0:0:0:
256,192,112570,1,2,0:0:0:0:
256,192,112620,1,2,0:0:0:0:
256,192,112670,1,0,0:0:0:0:
256,192,112770,1,2,0:0:0:0:
256,192,112820,1,2,0:0:0:0:
256,192,112870,1,0,0:0:0:0:
256,192,112970,1,2,0:0:0:0:
256,192,113070,1,2,0:0:0:0:
256,192,113120,1,0,0:0:0:0:
256,192,113170,1,2,0:0:0:0:
256,192,113220,1,2,0:0:0:0:
256,192,113270,1,0,0:0:0:0:
256,192,113320,1,0,0:0:0:0:
256,192,113370,1,2,0:0:0:0:
256,192,113470,1,2,0:0:0:0:
256,192,113520,1,2,0:0:0:0:
256,192,113570,1,0,0:0:0:0:
256,192,113620,1,2,0:0:0:0:
256,192,113670,1,2,0:0:0:0:
256,192,113770,1,0,0:0:0:0:
256,192,113870,1,2,0:0:0:0:
256,192,113920,1,2,0:0:0:0:
256,192,113970,1,2,0:0:0:0:
256,192,114070,1,0,0:0:0:0:
256,192,114170,1,2,0:0:0:0:
256,192,114220,1,0,0:0:0:0:
256,192,114270,1,2,0:0:0:0:
256,192,114320,1,2,0:0:0:0:
256,192,114370,1,0,0:0:0:0:
256,192,114470,1,2,0:0:0:0:
256,192,114520,1,2,0:0:0:0:
256,192,114570,1,2,0:0:0:0:
256,192,114670,1,0,0:0:0:0:
256,192,114720,1,2,0:0:0:0:
256,192,114770,1,0,0:0:0:0:
256,192,114820,1,0,0:0:0:0:
256,192,114870,1,2,0:0:0:0:
256,192,114903,1,2,0:0:0:0:
256,192,114936,1,2,0:0:0:0:
256,192,114970,1,0,0:0:0:0:
256,192,115020,1,0,0:0:0:0:
256,192,115070,1,2,0:0:0:0:
256,192,115103,1,2,0:0:0:0:
256,192,115136,1,2,0:0:0:0:
256,192,115170,5,0,0:0:0:0:
256,192,115570,1,2,0:0:0:0:
256,192,115770,1,0,0:0:0:0:
256,192,115870,1,0,0:0:0:0:
256,192,116070,1,2,0:0:0:0:
256,192,116170,1,0,0:0:0:0:
256,192,116370,1,2,0:0:0:0:
256,192,116570,1,2,0:0:0:0:
256,192,116670,1,2,0:0:0:0:
256,192,116770,1,0,0:0:0:0:
256,192,116970,1,0,0:0:0:0:
256,192,117170,1,2,0:0:0:0:
256,192,117370,1,0,0:0:0:0:
256,192,117470,1,2,0:0:0:0:
256,192,117570,1,0,0:0:0:0:
256,192,117670,1,2,0:0:0:0:
256,192,117770,1,0,0:0:0:0:
256,192,117970,1,2,0:0:0:0:
256,192,118170,1,0,0:0:0:0:
256,192,118270,1,0,0:0:0:0:
256,192,118370,1,0,0:0:0:0:
256,192,118570,1,0,0:0:0:0:
256,192,118770,1,2,0:0:0:0:
256,192,118970,1,0,0:0:0:0:
256,192,119070,1,0,0:0:0:0:
256,192,119270,1,2,0:0:0:0:
256,192,119370,1,0,0:0:0:0:
256,192,119570,1,2,0:0:0:0:
256,192,119770,1,0,0:0:0:0:
256,192,119870,1,0,0:0:0:0:
256,192,119970,1,0,0:0:0:0:
256,192,120170,1,0,0:0:0:0:
256,192,120270,1,0,0:0:0:0:
256,192,120370,1,2,0:0:0:0:
256,192,120570,1,2,0:0:0:0:
256,192,120670,1,2,0:0:0:0:
256,192,120770,1,0,0:0:0:0:
256,192,120870,1,2,0:0:0:0:
256,192,120970,1,0,0:0:0:0:
256,192,121070,1,0,0:0:0:0:
256,192,121170,1,2,0:0:0:0:
256,192,121370,1,2,0:0:0:0:
256,192,121470,1,2,0:0:0:0:
256,192,121570,5,0,0:0:0:0:
256,192,121770,1,0,0:0:0:0:
256,192,121970,1,2,0:0:0:0:
256,192,122070,1,0,0:0:0:0:
256,192,122270,1,0,0:0:0:0:
256,192,122370,1,2,0:0:0:0:
256,192,122470,1,0,0:0:0:0:
256,192,122570,1,0,0:0:0:0:
256,192,122770,1,2,0:0:0:0:
256,192,122970,1,0,0:0:0:0:
256,192,123070,1,0,0:0:0:0:
256,192,123170,1,2,0:0:0:0:
256,192,123370,1,0,0:0:0:0:
256,192,123570,1,2,0:0:0:0:
256,192,123670,1,0,0:0:0:0:
256,192,123870,1,0,0:0:0:0:
256,192,123970,1,2,0:0:0:0:
256,192,124070,1,2,0:0:0:0:
256,192,124170,1,0,0:0:0:0:
256,192,124370,1,2,0:0:0:0:
256,192,124570,1,0,0:0:0:0:
256,192,124670,1,0,0:0:0:0:
256,192,124770,1,2,0:0:0:0:
256,192,124870,1,0,0:0:0:0:
256,192,124970,1,0,0:0:0:0:
256,192,125070,1,0,0:0:0:0:
256,192,125170,1,2,0:0:0:0:
256,192,125270,1,0,0:0:0:0:
256,192,125370,1,0,0:0:0:0:
256,192,125470,1,2,0:0:0:0:
256,192,125570,1,0,0:0:0:0:
256,192,125670,1,2,0:0:0:0:
256,192,125770,1,0,0:0:0:0:
256,192,125870,1,0,0:0:0:0:
256,192,125970,1,2,0:0:0:0:
256,192,126070,1,0,0:0:0:0:
256,192,126170,1,2,0:0:0:0:
256,192,126270,1,2,0:0:0:0:
256,192,126370,1,0,0:0:0:0:
256,192,126420,1,0,0:0:0:0:
256,192,126470,1,0,0:0:0:0:
256,192,126520,1,0,0:0:0:0:
256,192,126570,1,2,0:0:0:0:
256,192,126620,1,0,0:0:0:0:
256,192,126670,1,0,0:0:0:0:
256,192,126720,1,2,0:0:0:0:
256,192,126770,1,0,0:0:0:0:
256,192,126820,1,0,0:0:0:0:
256,192,126870,1,2,0:0:0:0:
256,192,126920,1,2,0:0:0:0:
256,192,126970,1,0,0:0:0:0:
256,192,127020,1,2,0:0:0:0:
256,192,127070,1,2,0:0:0:0:
256,192,127120,1,2,0:0:0:0:
256,192,127170,1,0,0:0:0:0:
256,192,127220,1,2,0:0:0:0:
256,192,127270,1,0,0:0:0:0:
256,192,127320,1,0,0:0:0:0:
256,192,127370,1,2,0:0:0:0:
256,192,127420,1,0,0:0:0:0:
256,192,127470,1,2,0:0:0:0:
256,192,127520,1,2,0:0:0:0:
256,192,127570,1,0,0:0:0:0:
256,192,127970,5,4,0:0:0:0:
256,192,128070,1,0,0:0:0:0:
256,192,128170,1,2,0:0:0:0:
256,192,128270,1,0,0:0:0:0:
256,192,128320,1,0,0:0:0:0:
256,192,128370,1,2,0:0:0:0:
256,192,128420,1,0,0:0:0:0:
256,192,128470,1,0,0:0:0:0:
256,192,128570,1,2,0:0:0:0:
256,192,128670,1,0,0:0:0:0:
256,192,128720,1,0,0:0:0:0:
256,192,128770,1,2,0:0:0:0:
256,192,128870,1,0,0:0:0:0:
256,192,128970,1,2,0:0:0:0:
256,192,129020,1,0,0:0:0:0:
256,192,129070,1,2,0:0:0:0:
256,192,129120,1,2,0:0:0:0:
256,192,129170,1,0,0:0:0:0:
256,192,129220,1,0,0:0:0:0:
256,192,129270,1,2,0:0:0:0:
256,192,129303,1,2,0:0:0:0:
256,192,129336,1,2,0:0:0:0:
256,192,129370,1,0,0:0:0:0:
256,192,129420,1,0,0:0:0:0:
256,192,129470,1,0,0:0:0:0:
256,192,129570,1,0,0:0:0:0:
256,192,129620,1,2,0:0:0:0:
256,192,129670,1,0,0:0:0:0:
256,192,129720,1,0,0:0:0:0:
256,192,129770,1,2,0:0:0:0:
256,192,129870,1,0,0:0:0:0:
256,192,129970,1,2,0:0:0:0:
256,192,130020,1,2,0:0:0:0:
256,192,130070,1,0,0:0:0:0:
256,192,130170,1,2,0:0:0:0:
256,192,130270,1,0,0:0:0:0:
256,192,130320,1,0,0:0:0:0:
256,192,130370,1,2,0:0:0:0:
256,192,130420,1,2,0:0:0:0:
256,192,130470,1,0,0:0:0:0:
256,192,130520,1,2,0:0:0:0:
256,192,130570,1,0,0:0:0:0:
256,192,130670,1,2,0:0:0:0:
256,192,130720,1,0,0:0:0:0:
256,192,130770,1,0,0:0:0:0:
256,192,130820,1,2,0:0:0:0:
256,192,130870,1,0,0:0:0:0:
256,192,130920,1,0,0:0:0:0:
256,192,130970,1,2,0:0:0:0:
256,192,131003,1,2,0:0:0:0:
256,192,131036,1,2,0:0:0:0:
256,192,131070,1,2,0:0:0:0:
256,192,131120,1,2,0:0:0:0:
256,192,131170,1,0,0:0:0:0:
256,192,131270,1,0,0:0:0:0:
256,192,131320,1,0,0:0:0:0:
256,192,131370,1,2,0:0:0:0:
256,192,131470,1,0,0:0:0:0:
256,192,131570,1,2,0:0:0:0:
256,192,131620,1,0,0:0:0:0:
256,192,131670,1,0,0:0:0:0:
256,192,131770,1,2,0:0:0:0:
256,192,131870,1,0,0:0:0:0:
256,192,131920,1,2,0:0:0:0:
256,192,131970,1,0,0:0:0:0:
256,192,132070,1,0,0:0:0:0:
256,192,132120,1,0,0:0:0:0:
256,192,132170,1,2,0:0:0:0:
256,192,132270,1,0,0:0:0:0:
256,192,132370,1,2,0:0:0:0:
256,192,132403,1,2,0:0:0:0:
256,192,132436,1,2,0:0:0:0:
256,192,132470,1,0,0:0:0:0:
256,192,132520,1,0,0:0:0:0:
256,192,132570,1,2,0:0:0:0:
256,192,132603,1,2,0:0:0:0:
256,192,132636,1,2,0:0:0:0:
256,192,132670,1,0,0:0:0:0:
256,192,132720,1,0,0:0:0:0:
256,192,132770,1,0,0:0:0:0:
256,192,132870,1,0,0:0:0:0:
256,192,132970,1,2,0:0:0:0:
256,192,133070,1,0,0:0:0:0:
256,192,133120,1,0,0:0:0:0:
256,192,133170,1,2,0:0:0:0:
256,192,133220,1,2,0:0:0:0:
256,192,133270,1,0,0:0:0:0:
256,192,133320,1,2,0:0:0:0:
256,192,133370,1,0,0:0:0:0:
256,192,133420,1,0,0:0:0:0:
256,192,133470,1,2,0:0:0:0:
256,192,133570,1,4,0:0:0:0:
256,192,133770,1,0,0:0:0:0:
256,192,133870,1,6,0:0:0:0:
256,192,134170,1,2,0:0:0:0:
256,192,134220,1,2,0:0:0:0:
256,192,134270,1,2,0:0:0:0:
256,192,134370,5,0,0:0:0:0:
256,192,134420,1,0,0:0:0:0:
256,192,134470,1,0,0:0:0:0:
256,192,134520,1,0,0:0:0:0:
256,192,134570,1,2,0:0:0:0:
256,192,134620,1,2,0:0:0:0:
256,192,134670,1,0,0:0:0:0:
256,192,134720,1,0,0:0:0:0:
256,192,134770,1,2,0:0:0:0:
256,192,134820,1,2,0:0:0:0:
256,192,134870,1,0,0:0:0:0:
256,192,134920,1,2,0:0:0:0:
256,192,134970,1,0,0:0:0:0:
256,192,135020,1,0,0:0:0:0:
256,192,135070,1,2,0:0:0:0:
256,192,135120,1,2,0:0:0:0:
256,192,135170,1,0,0:0:0:0:
256,192,135220,1,0,0:0:0:0:
256,192,135270,1,2,0:0:0:0:
256,192,135320,1,0,0:0:0:0:
256,192,135370,1,2,0:0:0:0:
256,192,135420,1,2,0:0:0:0:
256,192,135470,1,0,0:0:0:0:
256,192,135520,1,2,0:0:0:0:
256,192,135570,1,0,0:0:0:0:
256,192,135620,1,0,0:0:0:0:
256,192,135670,1,0,0:0:0:0:
256,192,135720,1,0,0:0:0:0:
256,192,135770,1,2,0:0:0:0:
256,192,135870,1,2,0:0:0:0:
256,192,135970,1,0,0:0:0:0:
256,192,136020,1,2,0:0:0:0:
256,192,136070,1,2,0:0:0:0:
256,192,136120,1,0,0:0:0:0:
256,192,136170,1,2,0:0:0:0:
256,192,136220,1,2,0:0:0:0:
256,192,136270,1,0,0:0:0:0:
256,192,136320,1,0,0:0:0:0:
256,192,136370,1,2,0:0:0:0:
256,192,136420,1,2,0:0:0:0:
256,192,136470,1,0,0:0:0:0:
256,192,136520,1,2,0:0:0:0:
256,192,136570,1,0,0:0:0:0:
256,192,136620,1,0,0:0:0:0:
256,192,136670,1,2,0:0:0:0:
256,192,136720,1,2,0:0:0:0:
256,192,136770,1,0,0:0:0:0:
256,192,136820,1,2,0:0:0:0:
256,192,136870,1,0,0:0:0:0:
256,192,136920,1,0,0:0:0:0:
256,192,136970,1,2,0:0:0:0:
256,192,137003,1,2,0:0:0:0:
256,192,137036,1,2,0:0:0:0:
256,192,137070,1,0,0:0:0:0:
256,192,137270,1,0,0:0:0:0:
256,192,137370,1,2,0:0:0:0:
256,192,137570,1,0,0:0:0:0:
256,192,137620,1,0,0:0:0:0:
256,192,137670,1,2,0:0:0:0:
256,192,137720,1,0,0:0:0:0:
256,192,137770,1,2,0:0:0:0:
256,192,137820,1,2,0:0:0:0:
256,192,137870,1,0,0:0:0:0:
256,192,137920,1,0,0:0:0:0:
256,192,137970,1,2,0:0:0:0:
256,192,138020,1,0,0:0:0:0:
256,192,138070,1,0,0:0:0:0:
256,192,138120,1,2,0:0:0:0:
256,192,138170,1,0,0:0:0:0:
256,192,138220,1,0,0:0:0:0:
256,192,138270,1,2,0:0:0:0:
256,192,138320,1,2,0:0:0:0:
256,192,138370,1,0,0:0:0:0:
256,192,138420,1,2,0:0:0:0:
256,192,138470,1,2,0:0:0:0:
256,192,138520,1,0,0:0:0:0:
256,192,138570,1,2,0:0:0:0:
256,192,138620,1,2,0:0:0:0:
256,192,138670,1,0,0:0:0:0:
256,192,138720,1,0,0:0:0:0:
256,192,138770,1,2,0:0:0:0:
256,192,138803,1,2,0:0:0:0:
256,192,138836,1,2,0:0:0:0:
256,192,138870,1,0,0:0:0:0:
256,192,138920,1,0,0:0:0:0:
256,192,138970,1,2,0:0:0:0:
256,192,139003,1,2,0:0:0:0:
256,192,139036,1,2,0:0:0:0:
256,192,139070,1,2,0:0:0:0:
256,192,139120,1,2,0:0:0:0:
256,192,139170,1,0,0:0:0:0:
256,192,139270,1,0,0:0:0:0:
256,192,139320,1,0,0:0:0:0:
256,192,139370,1,2,0:0:0:0:
256,192,139470,1,0,0:0:0:0:
256,192,139520,1,0,0:0:0:0:
256,192,139570,1,2,0:0:0:0:
256,192,139620,1,2,0:0:0:0:
256,192,139670,1,0,0:0:0:0:
256,192,139720,1,2,0:0:0:0:
256,192,139770,1,0,0:0:0:0:
256,192,139820,1,0,0:0:0:0:
256,192,139870,1,2,0:0:0:0:
256,192,139920,1,2,0:0:0:0:
256,192,139970,5,0,0:0:0:0:
256,192,140270,1,2,0:0:0:0:
256,192,140320,1,2,0:0:0:0:
256,192,140370,1,2,0:0:0:0:
256,192,140570,1,2,0:0:0:0:
256,192,140670,1,2,0:0:0:0:
256,192,140770,5,0,0:0:0:0:
256,192,141070,1,2,0:0:0:0:
256,192,141170,1,0,0:0:0:0:
256,192,141370,1,2,0:0:0:0:
256,192,141570,1,0,0:0:0:0:
256,192,141670,1,0,0:0:0:0:
256,192,141770,1,2,0:0:0:0:
256,192,141870,1,2,0:0:0:0:
256,192,141970,1,0,0:0:0:0:
256,192,142170,1,2,0:0:0:0:
256,192,142370,1,0,0:0:0:0:
256,192,142470,1,2,0:0:0:0:
256,192,142670,1,2,0:0:0:0:
256,192,142770,1,0,0:0:0:0:
256,192,142970,1,2,0:0:0:0:
256,192,143070,1,2,0:0:0:0:
256,192,143170,1,0,0:0:0:0:
256,192,143370,1,2,0:0:0:0:
256,192,143570,1,0,0:0:0:0:
256,192,143670,1,0,0:0:0:0:
256,192,143770,1,2,0:0:0:0:
256,192,143970,1,0,0:0:0:0:
256,192,144270,1,2,0:0:0:0:
256,192,144370,1,0,0:0:0:0:
256,192,144570,1,2,0:0:0:0:
256,192,144670,1,2,0:0:0:0:
256,192,144770,1,0,0:0:0:0:
256,192,144870,1,2,0:0:0:0:
256,192,144970,1,0,0:0:0:0:
256,192,145170,1,2,0:0:0:0:
256,192,145370,1,0,0:0:0:0:
256,192,145570,1,0,0:0:0:0:
256,192,145670,1,2,0:0:0:0:
256,192,145770,1,2,0:0:0:0:
256,192,145870,1,2,0:0:0:0:
256,192,145970,1,0,0:0:0:0:
256,192,146070,1,0,0:0:0:0:
256,192,146170,1,2,0:0:0:0:
256,192,146270,1,2,0:0:0:0:
256,192,146370,1,0,0:0:0:0:
256,192,146570,1,2,0:0:0:0:
256,192,146670,1,0,0:0:0:0:
256,192,146770,1,2,0:0:0:0:
256,192,146970,1,2,0:0:0:0:
256,192,147070,1,2,0:0:0:0:
256,192,147170,5,0,0:0:0:0:
256,192,147570,1,0,0:0:0:0:
256,192,147670,1,0,0:0:0:0:
256,192,147770,1,0,0:0:0:0:
256,192,147970,1,2,0:0:0:0:
256,192,148170,1,2,0:0:0:0:
256,192,148270,1,2,0:0:0:0:
256,192,148370,1,0,0:0:0:0:
256,192,148470,1,2,0:0:0:0:
256,192,148570,1,2,0:0:0:0:
256,192,148770,1,0,0:0:0:0:
256,192,148970,1,2,0:0:0:0:
256,192,149070,1,2,0:0:0:0:
256,192,149170,1,2,0:0:0:0:
256,192,149370,1,0,0:0:0:0:
256,192,149470,1,0,0:0:0:0:
256,192,149570,1,2,0:0:0:0:
256,192,149770,1,2,0:0:0:0:
256,192,149970,1,0,0:0:0:0:
256,192,150070,1,2,0:0:0:0:
256,192,150170,1,2,0:0:0:0:
256,192,150270,1,2,0:0:0:0:
256,192,150370,1,0,0:0:0:0:
256,192,150570,1,0,0:0:0:0:
256,192,150770,1,2,0:0:0:0:
256,192,150970,1,0,0:0:0:0:
256,192,151070,1,0,0:0:0:0:
256,192,151170,1,2,0:0:0:0:
256,192,151370,1,2,0:0:0:0:
256,192,151470,1,0,0:0:0:0:
256,192,151570,1,2,0:0:0:0:
256,192,151670,1,2,0:0:0:0:
256,192,151770,1,0,0:0:0:0:
256,192,151870,1,0,0:0:0:0:
256,192,151970,1,0,0:0:0:0:
256,192,152170,1,2,0:0:0:0:
256,192,152270,1,2,0:0:0:0:
256,192,152370,1,2,0:0:0:0:
256,192,152470,1,0,0:0:0:0:
256,192,152570,1,0,0:0:0:0:
256,192,152670,1,2,0:0:0:0:
256,192,152770,1,0,0:0:0:0:
256,192,152870,1,2,0:0:0:0:
256,192,152970,1,2,0:0:0:0:
256,192,153070,1,0,0:0:0:0:
256,192,153270,1,2,0:0:0:0:
256,192,153370,1,0,0:0:0:0:
256,192,153570,5,2,0:0:0:0:
256,192,153970,1,2,0:0:0:0:
256,192,154370,1,2,0:0:0:0:
256,192,154770,1,2,0:0:0:0:
256,192,155170,1,2,0:0:0:0:
256,192,155570,1,2,0:0:0:0:
256,192,155970,1,2,0:0:0:0:
256,192,156370,1,2,0:0:0:0:
256,192,156770,1,2,0:0:0:0:
256,192,157170,1,2,0:0:0:0:
256,192,157570,1,2,0:0:0:0:
256,192,157970,1,2,0:0:0:0:
256,192,158370,1,2,0:0:0:0:
256,192,158770,1,2,0:0:0:0:
256,192,159170,1,2,0:0:0:0:
256,192,159570,1,2,0:0:0:0:
256,192,159970,5,4,0:0:0:0:
256,192,160370,1,6,0:0:0:0:
256,192,160670,1,4,0:0:0:0:
256,192,160970,1,0,0:0:0:0:
256,192,161170,1,6,0:0:0:0:
256,192,161370,1,2,0:0:0:0:
256,192,161470,1,2,0:0:0:0:
256,192,161570,1,4,0:0:0:0:
256,192,161770,1,2,0:0:0:0:
256,192,161970,1,4,0:0:0:0:
256,192,162070,1,6,0:0:0:0:
256,192,162270,1,6,0:0:0:0:
256,192,162470,1,2,0:0:0:0:
256,192,162570,1,0,0:0:0:0:
256,192,162670,1,0,0:0:0:0:
256,192,162720,1,0,0:0:0:0:
256,192,162770,1,2,0:0:0:0:
256,192,162870,1,0,0:0:0:0:
256,192,162970,1,2,0:0:0:0:
256,192,163020,1,2,0:0:0:0:
256,192,163070,1,2,0:0:0:0:
256,192,163120,1,2,0:0:0:0:
256,192,163170,1,0,0:0:0:0:
256,192,163270,1,0,0:0:0:0:
256,192,163370,1,0,0:0:0:0:
256,192,163470,1,0,0:0:0:0:
256,192,163570,1,2,0:0:0:0:
256,192,163670,1,0,0:0:0:0:
256,192,163770,1,0,0:0:0:0:
256,192,163870,1,2,0:0:0:0:
256,192,163970,1,0,0:0:0:0:
256,192,164070,1,2,0:0:0:0:
256,192,164170,1,0,0:0:0:0:
256,192,164270,1,0,0:0:0:0:
256,192,164370,1,2,0:0:0:0:
256,192,164470,1,0,0:0:0:0:
256,192,164570,1,2,0:0:0:0:
256,192,164670,1,2,0:0:0:0:
256,192,164770,1,0,0:0:0:0:
256,192,164820,1,0,0:0:0:0:
256,192,164870,1,2,0:0:0:0:
256,192,164920,1,2,0:0:0:0:
256,192,164970,1,0,0:0:0:0:
256,192,165020,1,2,0:0:0:0:
256,192,165070,1,2,0:0:0:0:
256,192,165120,1,2,0:0:0:0:
256,192,165170,1,0,0:0:0:0:
256,192,165220,1,0,0:0:0:0:
256,192,165270,1,2,0:0:0:0:
256,192,165320,1,0,0:0:0:0:
256,192,165370,1,2,0:0:0:0:
256,192,165420,1,2,0:0:0:0:
256,192,165470,1,0,0:0:0:0:
256,192,165520,1,2,0:0:0:0:
256,192,165570,1,0,0:0:0:0:
256,192,165620,1,0,0:0:0:0:
256,192,165670,1,2,0:0:0:0:
256,192,165720,1,2,0:0:0:0:
256,192,165770,1,0,0:0:0:0:
256,192,165820,1,2,0:0:0:0:
256,192,165870,1,2,0:0:0:0:
256,192,165920,1,2,0:0:0:0:
256,192,165970,1,0,0:0:0:0:
256,192,166170,1,2,0:0:0:0:
256,192,166270,1,2,0:0:0:0:
256,192,166370,5,4,0:0:0:0:
256,192,166470,1,0,0:0:0:0:
256,192,166570,1,2,0:0:0:0:
256,192,166670,1,0,0:0:0:0:
256,192,166720,1,0,0:0:0:0:
256,192,166770,1,2,0:0:0:0:
256,192,166820,1,2,0:0:0:0:
256,192,166870,1,0,0:0:0:0:
256,192,166970,1,2,0:0:0:0:
256,192,167070,1,0,0:0:0:0:
256,192,167120,1,2,0:0:0:0:
256,192,167170,1,2,0:0:0:0:
256,192,167270,1,0,0:0:0:0:
256,192,167370,1,2,0:0:0:0:
256,192,167470,1,0,0:0:0:0:
256,192,167520,1,0,0:0:0:0:
256,192,167570,1,2,0:0:0:0:
256,192,167670,1,0,0:0:0:0:
256,192,167770,1,2,0:0:0:0:
256,192,167820,1,0,0:0:0:0:
256,192,167870,1,2,0:0:0:0:
256,192,167920,1,2,0:0:0:0:
256,192,167970,1,0,0:0:0:0:
256,192,168070,1,2,0:0:0:0:
256,192,168120,1,0,0:0:0:0:
256,192,168170,1,0,0:0:0:0:
256,192,168270,1,2,0:0:0:0:
256,192,168370,1,0,0:0:0:0:
256,192,168420,1,0,0:0:0:0:
256,192,168470,1,2,0:0:0:0:
256,192,168570,1,0,0:0:0:0:
256,192,168670,1,0,0:0:0:0:
256,192,168720,1,2,0:0:0:0:
256,192,168770,1,2,0:0:0:0:
256,192,168820,1,2,0:0:0:0:
256,192,168870,1,0,0:0:0:0:
256,192,168970,1,2,0:0:0:0:
256,192,169070,1,2,0:0:0:0:
256,192,169120,1,0,0:0:0:0:
256,192,169170,1,2,0:0:0:0:
256,192,169220,1,2,0:0:0:0:
256,192,169270,1,0,0:0:0:0:
256,192,169320,1,2,0:0:0:0:
256,192,169370,1,0,0:0:0:0:
256,192,169420,1,0,0:0:0:0:
256,192,169470,1,2,0:0:0:0:
256,192,169520,1,2,0:0:0:0:
256,192,169570,1,0,0:0:0:0:
256,192,169670,1,0,0:0:0:0:
256,192,169720,1,2,0:0:0:0:
256,192,169770,1,0,0:0:0:0:
256,192,169870,1,2,0:0:0:0:
256,192,169970,1,0,0:0:0:0:
256,192,170020,1,0,0:0:0:0:
256,192,170070,1,2,0:0:0:0:
256,192,170170,1,0,0:0:0:0:
256,192,170270,1,0,0:0:0:0:
256,192,170320,1,2,0:0:0:0:
256,192,170420,1,2,0:0:0:0:
256,192,170470,1,0,0:0:0:0:
256,192,170570,1,2,0:0:0:0:
256,192,170670,1,2,0:0:0:0:
256,192,170720,1,2,0:0:0:0:
256,192,170770,1,0,0:0:0:0:
256,192,170820,1,0,0:0:0:0:
256,192,170870,1,2,0:0:0:0:
256,192,170970,1,0,0:0:0:0:
256,192,171070,1,0,0:0:0:0:
256,192,171120,1,0,0:0:0:0:
256,192,171170,1,2,0:0:0:0:
256,192,171270,1,0,0:0:0:0:
256,192,171320,1,0,0:0:0:0:
256,192,171370,1,0,0:0:0:0:
256,192,171470,1,2,0:0:0:0:
256,192,171570,1,0,0:0:0:0:
256,192,171620,1,2,0:0:0:0:
256,192,171670,1,0,0:0:0:0:
256,192,171720,1,0,0:0:0:0:
256,192,171770,1,2,0:0:0:0:
256,192,171820,1,0,0:0:0:0:
256,192,171870,1,2,0:0:0:0:
256,192,171920,1,2,0:0:0:0:
256,192,171970,1,0,0:0:0:0:
256,192,172070,1,2,0:0:0:0:
256,192,172120,1,2,0:0:0:0:
256,192,172170,1,2,0:0:0:0:
256,192,172270,1,0,0:0:0:0:
256,192,172370,1,0,0:0:0:0:
256,192,172470,1,2,0:0:0:0:
256,192,172520,1,2,0:0:0:0:
256,192,172570,1,0,0:0:0:0:
256,192,172670,1,0,0:0:0:0:
256,192,172770,5,2,0:0:0:0:
256,192,172803,1,2,0:0:0:0:
256,192,172836,1,2,0:0:0:0:
256,192,172870,1,0,0:0:0:0:
256,192,172920,1,0,0:0:0:0:
256,192,172970,1,2,0:0:0:0:
256,192,173003,1,2,0:0:0:0:
256,192,173036,1,2,0:0:0:0:
256,192,173070,1,0,0:0:0:0:
256,192,173120,1,0,0:0:0:0:
256,192,173170,1,2,0:0:0:0:
256,192,173270,1,2,0:0:0:0:
256,192,173303,1,2,0:0:0:0:
256,192,173336,1,2,0:0:0:0:
256,192,173370,1,0,0:0:0:0:
256,192,173470,1,0,0:0:0:0:
256,192,173570,1,0,0:0:0:0:
256,192,173620,1,2,0:0:0:0:
256,192,173670,1,0,0:0:0:0:
256,192,173720,1,0,0:0:0:0:
256,192,173770,1,2,0:0:0:0:
256,192,173803,1,2,0:0:0:0:
256,192,173836,1,2,0:0:0:0:
256,192,173870,1,0,0:0:0:0:
256,192,173920,1,0,0:0:0:0:
256,192,173970,1,2,0:0:0:0:
256,192,174020,1,2,0:0:0:0:
256,192,174070,1,0,0:0:0:0:
256,192,174120,1,2,0:0:0:0:
256,192,174170,1,0,0:0:0:0:
256,192,174203,1,0,0:0:0:0:
256,192,174236,1,0,0:0:0:0:
256,192,174270,1,2,0:0:0:0:
256,192,174320,1,2,0:0:0:0:
256,192,174370,1,0,0:0:0:0:
256,192,174470,1,0,0:0:0:0:
256,192,174503,1,2,0:0:0:0:
256,192,174536,1,2,0:0:0:0:
256,192,174570,1,0,0:0:0:0:
256,192,174670,1,2,0:0:0:0:
256,192,174703,1,2,0:0:0:0:
256,192,174736,1,2,0:0:0:0:
256,192,174770,1,0,0:0:0:0:
256,192,174870,1,0,0:0:0:0:
256,192,175070,1,6,0:0:0:0:
256,192,175270,1,2,0:0:0:0:
256,192,175370,1,0,0:0:0:0:
256,192,175470,1,0,0:0:0:0:
256,192,175520,1,0,0:0:0:0:
256,192,175570,1,2,0:0:0:0:
256,192,175620,1,2,0:0:0:0:
256,192,175670,1,0,0:0:0:0:
256,192,175720,1,2,0:0:0:0:
256,192,175770,1,0,0:0:0:0:
256,192,175803,1,0,0:0:0:0:
256,192,175836,1,0,0:0:0:0:
256,192,175870,1,2,0:0:0:0:
256,192,175920,1,2,0:0:0:0:
256,192,175970,1,0,0:0:0:0:
256,192,176070,1,2,0:0:0:0:
256,192,176120,1,2,0:0:0:0:
256,192,176170,1,0,0:0:0:0:
256,192,176270,1,2,0:0:0:0:
256,192,176370,1,0,0:0:0:0:
256,192,176420,1,0,0:0:0:0:
256,192,176470,1,2,0:0:0:0:
256,192,176520,1,2,0:0:0:0:
256,192,176570,1,0,0:0:0:0:
256,192,176670,1,0,0:0:0:0:
256,192,176720,1,2,0:0:0:0:
256,192,176820,1,2,0:0:0:0:
256,192,176870,1,0,0:0:0:0:
256,192,176970,1,2,0:0:0:0:
256,192,177070,1,2,0:0:0:0:
256,192,177120,1,0,0:0:0:0:
256,192,177170,1,2,0:0:0:0:
256,192,177220,1,2,0:0:0:0:
256,192,177270,1,0,0:0:0:0:
256,192,177320,1,2,0:0:0:0:
256,192,177370,1,0,0:0:0:0:
256,192,177420,1,0,0:0:0:0:
256,192,177470,1,2,0:0:0:0:
256,192,177520,1,2,0:0:0:0:
256,192,177570,1,0,0:0:0:0:
256,192,177620,1,2,0:0:0:0:
256,192,177670,1,2,0:0:0:0:
256,192,177770,1,0,0:0:0:0:
256,192,177870,1,0,0:0:0:0:
256,192,177920,1,2,0:0:0:0:
256,192,177970,1,2,0:0:0:0:
256,192,178070,1,0,0:0:0:0:
256,192,178170,1,0,0:0:0:0:
256,192,178220,1,2,0:0:0:0:
256,192,178270,1,2,0:0:0:0:
256,192,178320,1,2,0:0:0:0:
256,192,178370,1,0,0:0:0:0:
256,192,178420,1,0,0:0:0:0:
256,192,178470,1,2,0:0:0:0:
256,192,178520,1,2,0:0:0:0:
256,192,178570,1,0,0:0:0:0:
256,192,178620,1,2,0:0:0:0:
256,192,178670,1,0,0:0:0:0:
256,192,178720,1,0,0:0:0:0:
256,192,178770,1,2,0:0:0:0:
256,192,178820,1,0,0:0:0:0:
256,192,178870,1,2,0:0:0:0:
256,192,178903,1,2,0:0:0:0:
256,192,178936,1,2,0:0:0:0:
256,192,178970,1,0,0:0:0:0:
256,192,179020,1,0,0:0:0:0:
256,192,179070,1,2,0:0:0:0:
256,192,179103,1,2,0:0:0:0:
256,192,179136,1,2,0:0:0:0:
256,192,179170,5,0,0:0:0:0:
256,192,179570,1,2,0:0:0:0:
256,192,179970,1,0,0:0:0:0:
256,192,180070,1,2,0:0:0:0:
256,192,180270,1,2,0:0:0:0:
256,192,180570,1,2,0:0:0:0:
256,192,180670,1,2,0:0:0:0:
256,192,180770,1,0,0:0:0:0:
256,192,181170,1,2,0:0:0:0:
256,192,182370,1,0,0:0:0:0:
256,192,182770,1,2,0:0:0:0:
256,192,183170,1,0,0:0:0:0:
256,192,183270,1,2,0:0:0:0:
256,192,183470,1,2,0:0:0:0:
256,192,183770,1,2,0:0:0:0:
256,192,183870,1,2,0:0:0:0:
256,192,183970,1,0,0:0:0:0:
256,192,184370,1,2,0:0:0:0:
256,192,184770,1,0,0:0:0:0:
256,192,185170,1,2,0:0:0:0:
256,192,185570,1,0,0:0:0:0:
256,192,185970,1,2,0:0:0:0:
256,192,186370,1,0,0:0:0:0:
256,192,186470,1,2,0:0:0:0:
256,192,186670,1,2,0:0:0:0:
256,192,187170,1,0,0:0:0:0:
256,192,187570,1,2,0:0:0:0:
256,192,188770,1,0,0:0:0:0:
256,192,189170,1,2,0:0:0:0:
256,192,189570,1,0,0:0:0:0:
256,192,189670,1,2,0:0:0:0:
256,192,189870,1,2,0:0:0:0:
256,192,190370,1,0,0:0:0:0:
256,192,190770,1,2,0:0:0:0:
256,192,191170,1,0,0:0:0:0:
256,192,191570,1,2,0:0:0:0:
256,192,191970,1,4,0:0:0:0:
256,192,192120,12,0,195170,0:0:0:0:
