osu file format v14

[General]
AudioFilename: audio.mp3
AudioLeadIn: 0
PreviewTime: 60670
Countdown: 0
SampleSet: Normal
StackLeniency: 0.7
Mode: 1
LetterboxInBreaks: 0
WidescreenStoryboard: 1

[Editor]
Bookmarks: 15970,35170,89570
DistanceSpacing: 0.8
BeatDivisor: 2
GridSize: 32
TimelineZoom: 1.100001

[Metadata]
Title:Ultrasonic Anthem (Kobaryo's FTN-Remix)
TitleUnicode:Ultrasonic Anthem (Kobaryo's FTN-Remix)
Artist:t+pazolite
ArtistUnicode:t+pazolite
Creator:tasuke912
Version:Mid's Futsuu
Source:
Tags:komasy thzz maziari1105 Ayyri eiri- Midnaait CHS C.H.S Speedcore Cutie Headshaking Sounds
BeatmapID:1508953
BeatmapSetID:646093

[Difficulty]
HPDrainRate:6
CircleSize:2
OverallDifficulty:4
ApproachRate:5
SliderMultiplier:1.4
SliderTickRate:1

[Events]
//Background and Video events
0,0,"bg.png",0,40
//Break Periods
2,60970,65970
//Storyboard Layer 0 (Background)
//Storyboard Layer 1 (Fail)
//Storyboard Layer 2 (Pass)
//Storyboard Layer 3 (Foreground)
//Storyboard Sound Samples

[TimingPoints]
1570,200,4,1,0,75,1,0
1570,-133.333333333333,4,1,0,75,0,0
22370,-133.333333333333,4,1,0,85,0,0
47970,-153.846153846153,4,1,0,65,0,0
54370,-153.846153846153,4,1,0,70,0,0
60870,-200,4,1,0,45,0,0
73570,-153.846153846153,4,1,0,65,0,0
76770,-133.333333333333,4,1,0,75,0,0
76970,-133.333333333333,4,1,0,40,0,0
83170,-133.333333333333,4,1,0,75,0,0
89570,-133.333333333333,4,1,0,85,0,0
89670,-133.333333333333,4,1,0,85,0,0
102370,-133.333333333333,4,1,0,85,0,1
115170,-133.333333333333,4,1,0,85,0,0
115270,-133.333333333333,4,1,0,75,0,0
127970,-133.333333333333,4,1,0,85,0,0
134370,-117.647058823529,4,1,0,85,0,1
140770,-142.857142857143,4,1,0,75,0,0
147270,-200,4,1,0,75,0,0
153570,-153.846153846153,4,1,0,75,0,0
153770,-153.846153846153,4,1,0,40,0,0
159970,-133.333333333333,4,1,0,85,0,0
166370,-133.333333333333,4,1,0,85,0,1
179170,-133.333333333333,4,1,0,85,0,0
179270,-142.857142857143,4,1,0,60,0,0
182370,-153.846153846154,4,1,0,60,0,0
185570,-166.666666666667,4,1,0,60,0,0
188770,-200,4,1,0,60,0,0
192120,-200,4,1,0,15,0,0

[HitObjects]
256,192,3170,5,4,0:0:0:0:
256,192,4770,1,8,0:0:0:0:
256,192,5170,1,8,0:0:0:0:
256,192,6370,1,0,0:0:0:0:
256,192,7970,1,0,0:0:0:0:
256,192,8370,1,8,0:0:0:0:
256,192,8770,1,0,0:0:0:0:
256,192,9170,1,8,0:0:0:0:
256,192,9570,1,0,0:0:0:0:
256,192,11170,1,8,0:0:0:0:
256,192,11570,1,8,0:0:0:0:
256,192,12770,1,0,0:0:0:0:
256,192,14370,1,0,0:0:0:0:
256,192,14770,1,8,0:0:0:0:
256,192,15170,1,0,0:0:0:0:
256,192,15570,1,8,0:0:0:0:
256,192,15970,1,4,0:0:0:0:
256,192,19170,1,0,0:0:0:0:
256,192,19570,1,8,0:0:0:0:
256,192,19970,1,0,0:0:0:0:
256,192,20170,1,0,0:0:0:0:
256,192,20370,1,8,0:0:0:0:
256,192,20770,1,0,0:0:0:0:
256,192,21170,1,8,0:0:0:0:
256,192,21970,1,8,0:0:0:0:
256,192,22370,1,4,0:0:0:0:
256,192,22770,1,8,0:0:0:0:
256,192,23170,1,0,0:0:0:0:
256,192,23370,1,0,0:0:0:0:
256,192,23570,1,0,0:0:0:0:
256,192,23970,1,0,0:0:0:0:
256,192,24770,1,8,0:0:0:0:
256,192,25570,1,8,0:0:0:0:
256,192,25970,1,0,0:0:0:0:
256,192,26370,1,8,0:0:0:0:
256,192,26570,1,8,0:0:0:0:
256,192,26770,1,8,0:0:0:0:
256,192,27170,1,8,0:0:0:0:
256,192,27970,1,0,0:0:0:0:
256,192,28770,1,0,0:0:0:0:
256,192,29170,1,0,0:0:0:0:
256,192,29570,1,8,0:0:0:0:
256,192,29770,1,8,0:0:0:0:
256,192,29970,1,8,0:0:0:0:
256,192,30370,1,0,0:0:0:0:
256,192,31170,1,8,0:0:0:0:
256,192,31970,1,8,0:0:0:0:
256,192,32370,1,8,0:0:0:0:
256,192,32770,1,0,0:0:0:0:
256,192,32970,1,0,0:0:0:0:
256,192,33170,1,0,0:0:0:0:
256,192,33570,1,8,0:0:0:0:
256,192,33970,1,8,0:0:0:0:
256,192,34370,1,0,0:0:0:0:
256,192,35170,1,12,0:0:0:0:
256,192,35970,1,8,0:0:0:0:
256,192,36170,1,8,0:0:0:0:
256,192,36370,1,0,0:0:0:0:
256,192,36770,1,0,0:0:0:0:
256,192,37570,1,8,0:0:0:0:
256,192,38370,1,0,0:0:0:0:
256,192,39170,1,8,0:0:0:0:
256,192,39370,1,0,0:0:0:0:
256,192,39570,1,8,0:0:0:0:
256,192,39970,1,8,0:0:0:0:
256,192,40570,1,0,0:0:0:0:
256,192,40770,1,8,0:0:0:0:
256,192,41570,1,0,0:0:0:0:
256,192,41970,1,8,0:0:0:0:
256,192,42370,1,0,0:0:0:0:
256,192,42570,1,0,0:0:0:0:
256,192,42770,1,8,0:0:0:0:
256,192,43170,1,0,0:0:0:0:
256,192,43570,1,0,0:0:0:0:
256,192,43970,1,8,0:0:0:0:
256,192,44170,1,8,0:0:0:0:
256,192,44770,1,8,0:0:0:0:
256,192,45170,1,0,0:0:0:0:
256,192,45570,1,8,0:0:0:0:
256,192,45770,1,8,0:0:0:0:
256,192,45970,1,0,0:0:0:0:
256,192,46370,1,8,0:0:0:0:
256,192,46970,1,8,0:0:0:0:
256,192,47170,1,8,0:0:0:0:
256,192,47970,1,4,0:0:0:0:
256,192,49570,1,8,0:0:0:0:
256,192,51170,1,0,0:0:0:0:
256,192,52770,1,0,0:0:0:0:
256,192,53170,1,8,0:0:0:0:
256,192,53570,1,0,0:0:0:0:
256,192,53970,1,8,0:0:0:0:
256,192,54370,1,0,0:0:0:0:
256,192,55170,1,0,0:0:0:0:
256,192,55570,1,0,0:0:0:0:
256,192,55970,1,8,0:0:0:0:
256,192,56370,1,8,0:0:0:0:
256,192,57170,1,8,0:0:0:0:
256,192,57570,1,0,0:0:0:0:
256,192,58370,1,8,0:0:0:0:
256,192,59170,1,0,0:0:0:0:
256,192,59570,1,8,0:0:0:0:
256,192,59970,1,0,0:0:0:0:
256,192,60370,1,8,0:0:0:0:
256,192,60770,1,4,0:0:0:0:
256,192,67170,5,8,0:0:0:0:
256,192,67970,1,8,0:0:0:0:
256,192,68770,1,8,0:0:0:0:
256,192,69570,1,8,0:0:0:0:
256,192,70370,1,8,0:0:0:0:
256,192,71170,1,8,0:0:0:0:
256,192,71570,1,8,0:0:0:0:
256,192,71970,1,8,0:0:0:0:
256,192,73170,1,8,0:0:0:0:
256,192,73570,1,0,0:0:0:0:
256,192,73970,1,8,0:0:0:0:
256,192,74370,1,0,0:0:0:0:
256,192,74570,1,0,0:0:0:0:
256,192,74770,1,8,0:0:0:0:
256,192,75170,1,0,0:0:0:0:
256,192,75570,1,8,0:0:0:0:
256,192,76370,1,8,0:0:0:0:
256,192,76770,1,4,0:0:0:0:
256,192,76970,8,0,82770,0:0:0:0:
256,192,83170,5,0,0:0:0:0:
256,192,83970,1,8,0:0:0:0:
256,192,84770,1,0,0:0:0:0:
256,192,85570,1,8,0:0:0:0:
256,192,85970,1,8,0:0:0:0:
256,192,86370,1,0,0:0:0:0:
256,192,87170,1,8,0:0:0:0:
256,192,87970,1,0,0:0:0:0:
256,192,88370,1,8,0:0:0:0:
256,192,89170,1,8,0:0:0:0:
256,192,89570,1,4,0:0:0:0:
256,192,90370,1,8,0:0:0:0:
256,192,91170,1,0,0:0:0:0:
256,192,91970,1,0,0:0:0:0:
256,192,92370,1,8,0:0:0:0:
256,192,92770,1,0,0:0:0:0:
256,192,94370,1,8,0:0:0:0:
256,192,94970,1,8,0:0:0:0:
256,192,95570,1,8,0:0:0:0:
256,192,95970,1,4,0:0:0:0:
256,192,96770,1,8,0:0:0:0:
256,192,97170,1,8,0:0:0:0:
256,192,97570,1,0,0:0:0:0:
256,192,98370,1,0,0:0:0:0:
256,192,98770,1,0,0:0:0:0:
256,192,99170,1,8,0:0:0:0:
256,192,99970,1,8,0:0:0:0:
256,192,100270,1,0,0:0:0:0:
256,192,100570,1,0,0:0:0:0:
256,192,100770,1,12,0:0:0:0:
256,192,102370,1,4,0:0:0:0:
256,192,102770,1,8,0:0:0:0:
256,192,103170,1,0,0:0:0:0:
256,192,103370,1,0,0:0:0:0:
256,192,103570,1,8,0:0:0:0:
256,192,103970,1,0,0:0:0:0:
256,192,104370,1,8,0:0:0:0:
256,192,104670,1,8,0:0:0:0:
256,192,105570,1,0,0:0:0:0:
256,192,105970,1,8,0:0:0:0:
256,192,106370,1,8,0:0:0:0:
256,192,106570,1,8,0:0:0:0:
256,192,106770,1,0,0:0:0:0:
256,192,107170,1,8,0:0:0:0:
256,192,107970,1,8,0:0:0:0:
256,192,108770,1,0,0:0:0:0:
256,192,108970,1,0,0:0:0:0:
256,192,109170,1,0,0:0:0:0:
256,192,109570,1,8,0:0:0:0:
256,192,109970,1,8,0:0:0:0:
256,192,110370,1,0,0:0:0:0:
256,192,111070,1,12,0:0:0:0:
256,192,111970,1,0,0:0:0:0:
256,192,112370,1,8,0:0:0:0:
256,192,112770,1,0,0:0:0:0:
256,192,112970,1,0,0:0:0:0:
256,192,113170,1,0,0:0:0:0:
256,192,113570,1,8,0:0:0:0:
256,192,114170,1,8,0:0:0:0:
256,192,114770,1,8,0:0:0:0:
256,192,115170,1,4,0:0:0:0:
256,192,115970,1,0,0:0:0:0:
256,192,116370,1,0,0:0:0:0:
256,192,116770,1,8,0:0:0:0:
256,192,117570,1,8,0:0:0:0:
256,192,117970,1,8,0:0:0:0:
256,192,118370,1,0,0:0:0:0:
256,192,119170,1,8,0:0:0:0:
256,192,119570,1,0,0:0:0:0:
256,192,119970,1,0,0:0:0:0:
256,192,120770,1,0,0:0:0:0:
256,192,121170,1,8,0:0:0:0:
256,192,121570,1,4,0:0:0:0:
256,192,122370,1,8,0:0:0:0:
256,192,123170,1,8,0:0:0:0:
256,192,123570,1,8,0:0:0:0:
256,192,123970,1,8,0:0:0:0:
256,192,124770,1,0,0:0:0:0:
256,192,125170,1,8,0:0:0:0:
256,192,125570,1,0,0:0:0:0:
256,192,125770,1,0,0:0:0:0:
256,192,125970,1,8,0:0:0:0:
256,192,126370,1,8,0:0:0:0:
256,192,126970,1,8,0:0:0:0:
256,192,127970,1,4,0:0:0:0:
256,192,128370,1,8,0:0:0:0:
256,192,128770,1,0,0:0:0:0:
256,192,128970,1,0,0:0:0:0:
256,192,129170,1,0,0:0:0:0:
256,192,129570,1,0,0:0:0:0:
256,192,130370,1,8,0:0:0:0:
256,192,130970,1,8,0:0:0:0:
256,192,131170,1,8,0:0:0:0:
256,192,131570,1,0,0:0:0:0:
256,192,131970,1,8,0:0:0:0:
256,192,132170,1,8,0:0:0:0:
256,192,132370,1,8,0:0:0:0:
256,192,132770,1,0,0:0:0:0:
256,192,133570,1,8,0:0:0:0:
256,192,134370,1,0,0:0:0:0:
256,192,134570,1,0,0:0:0:0:
256,192,134770,1,0,0:0:0:0:
256,192,135170,1,8,0:0:0:0:
256,192,135370,1,8,0:0:0:0:
256,192,135570,1,8,0:0:0:0:
256,192,135970,1,0,0:0:0:0:
256,192,136370,1,8,0:0:0:0:
256,192,136570,1,8,0:0:0:0:
256,192,136770,1,0,0:0:0:0:
256,192,137570,1,0,0:0:0:0:
256,192,137770,1,0,0:0:0:0:
256,192,137970,1,8,0:0:0:0:
256,192,138370,1,8,0:0:0:0:
256,192,138570,1,8,0:0:0:0:
256,192,138770,1,0,0:0:0:0:
256,192,139170,1,0,0:0:0:0:
256,192,139570,1,8,0:0:0:0:
256,192,139770,1,8,0:0:0:0:
256,192,139970,1,8,0:0:0:0:
256,192,140770,1,0,0:0:0:0:
256,192,141170,1,0,0:0:0:0:
256,192,141570,1,0,0:0:0:0:
256,192,142370,1,8,0:0:0:0:
256,192,142770,1,8,0:0:0:0:
256,192,143170,1,8,0:0:0:0:
256,192,143970,1,0,0:0:0:0:
256,192,144370,1,0,0:0:0:0:
256,192,144770,1,0,0:0:0:0:
256,192,145570,1,8,0:0:0:0:
256,192,145970,1,8,0:0:0:0:
256,192,146370,1,0,0:0:0:0:
256,192,146770,1,8,0:0:0:0:
256,192,147170,1,0,0:0:0:0:
256,192,147970,1,8,0:0:0:0:
256,192,148770,1,0,0:0:0:0:
256,192,149370,1,0,0:0:0:0:
256,192,149570,1,8,0:0:0:0:
256,192,150370,1,0,0:0:0:0:
256,192,151170,1,8,0:0:0:0:
256,192,151970,1,0,0:0:0:0:
256,192,152570,1,0,0:0:0:0:
256,192,152770,1,8,0:0:0:0:
256,192,153070,1,0,0:0:0:0:
256,192,153570,1,12,0:0:0:0:
256,192,153770,8,0,159570,0:0:0:0:
256,192,159970,5,4,0:0:0:0:
256,192,160670,1,4,0:0:0:0:
256,192,161570,1,12,0:0:0:0:
256,192,162270,1,12,0:0:0:0:
256,192,163170,1,0,0:0:0:0:
256,192,163570,1,0,0:0:0:0:
256,192,163970,1,8,0:0:0:0:
256,192,164170,1,8,0:0:0:0:
256,192,164370,1,8,0:0:0:0:
256,192,164770,1,0,0:0:0:0:
256,192,165170,1,0,0:0:0:0:
256,192,165570,1,8,0:0:0:0:
256,192,166370,1,4,0:0:0:0:
256,192,166770,1,8,0:0:0:0:
256,192,167170,1,0,0:0:0:0:
256,192,167370,1,0,0:0:0:0:
256,192,167570,1,0,0:0:0:0:
256,192,167970,1,8,0:0:0:0:
256,192,168370,1,0,0:0:0:0:
256,192,168770,1,8,0:0:0:0:
256,192,169570,1,8,0:0:0:0:
256,192,169970,1,0,0:0:0:0:
256,192,170370,1,8,0:0:0:0:
256,192,170570,1,8,0:0:0:0:
256,192,170770,1,8,0:0:0:0:
256,192,171170,1,0,0:0:0:0:
256,192,171770,1,8,0:0:0:0:
256,192,172370,1,8,0:0:0:0:
256,192,172770,1,0,0:0:0:0:
256,192,172970,1,0,0:0:0:0:
256,192,173170,1,0,0:0:0:0:
256,192,173570,1,8,0:0:0:0:
256,192,173770,1,8,0:0:0:0:
256,192,173970,1,8,0:0:0:0:
256,192,174370,1,0,0:0:0:0:
256,192,174770,1,0,0:0:0:0:
256,192,175070,1,12,0:0:0:0:
256,192,175970,1,0,0:0:0:0:
256,192,176170,1,0,0:0:0:0:
256,192,176370,1,0,0:0:0:0:
256,192,176770,1,8,0:0:0:0:
256,192,177170,1,8,0:0:0:0:
256,192,177570,1,0,0:0:0:0:
256,192,178170,1,8,0:0:0:0:
253,203,178370,1,8,0:0:0:0:
256,192,178770,1,8,0:0:0:0:
256,192,179170,1,4,0:0:0:0:
256,192,180770,1,8,0:0:0:0:
256,192,181170,1,8,0:0:0:0:
256,192,182370,1,0,0:0:0:0:
256,192,183970,1,8,0:0:0:0:
256,192,184770,1,8,0:0:0:0:
256,192,185570,1,0,0:0:0:0:
256,192,187170,1,8,0:0:0:0:
256,192,187570,1,8,0:0:0:0:
256,192,188770,1,0,0:0:0:0:
256,192,190370,1,8,0:0:0:0:
256,192,191170,1,8,0:0:0:0:
256,192,191970,1,4,0:0:0:0:
256,192,192170,8,0,195170,0:0:0:0:
