osu file format v14

[General]
AudioFilename: audio.mp3
AudioLeadIn: 0
PreviewTime: 60670
Countdown: 0
SampleSet: Normal
StackLeniency: 0.7
Mode: 1
LetterboxInBreaks: 0
WidescreenStoryboard: 0

[Editor]
DistanceSpacing: 0.8
BeatDivisor: 4
GridSize: 32
TimelineZoom: 2.7

[Metadata]
Title:Ultrasonic Anthem (Kobaryo's FTN-Remix)
TitleUnicode:Ultrasonic Anthem (Kobaryo's FTN-Remix)
Artist:t+pazolite
ArtistUnicode:t+pazolite
Creator:tasuke912
Version:Ayyri's Oni
Source:
Tags:komasy thzz maziari1105 Ayyri eiri- Midnaait CHS C.H.S Speedcore Cutie Headshaking Sounds
BeatmapID:1472887
BeatmapSetID:646093

[Difficulty]
HPDrainRate:4
CircleSize:2
OverallDifficulty:6
ApproachRate:5
SliderMultiplier:1.4
SliderTickRate:1

[Events]
//Background and Video events
0,0,"bg.png",0,40
//Break Periods
//Storyboard Layer 0 (Background)
//Storyboard Layer 1 (Fail)
//Storyboard Layer 2 (Pass)
//Storyboard Layer 3 (Foreground)
//Storyboard Sound Samples

[TimingPoints]
1570,200,4,1,0,75,1,0
1570,-133.333333333333,4,1,0,75,0,0
22370,-117.647058823529,4,1,0,85,0,0
48070,-133.333333333333,4,1,0,65,0,0
54370,-133.333333333333,4,1,0,70,0,0
60870,-200,4,1,0,45,0,0
73570,-133.333333333333,4,1,0,65,0,0
76770,-117.647058823529,4,1,0,75,0,0
89570,-117.647058823529,4,1,0,85,0,0
89670,-133.333333333333,4,1,0,85,0,0
101970,-133.333333333333,4,1,0,5,0,0
102370,-117.647058823529,4,1,0,85,0,1
115170,-117.647058823529,4,1,0,85,0,0
115270,-133.333333333333,4,1,0,75,0,0
127970,-117.647058823529,4,1,0,85,0,0
134370,-111.111111111111,4,1,0,85,0,1
140770,-111.111111111111,4,1,0,75,0,0
141170,-114.942528735632,4,1,0,75,0,0
141570,-117.647058823529,4,1,0,75,0,0
141770,-120.481927710843,4,1,0,75,0,0
141970,-125,4,1,0,75,0,0
147270,-200,4,1,0,75,0,0
153570,-153.846153846153,4,1,0,75,0,0
159970,-125,4,1,0,85,0,0
166370,-117.647058823529,4,1,0,85,0,1
179170,-117.647058823529,4,1,0,85,0,0
179270,-125,4,1,0,60,0,0
182370,-142.857142857143,4,1,0,60,0,0
185570,-166.666666666667,4,1,0,60,0,0
188770,-200,4,1,0,60,0,0
192120,-200,4,1,0,15,0,0

[HitObjects]
256,192,3170,5,4,0:0:0:0:
256,192,3570,1,8,0:0:0:0:
256,192,3970,1,0,0:0:0:0:
256,192,4170,1,0,0:0:0:0:
256,192,4370,1,8,0:0:0:0:
256,192,4770,1,0,0:0:0:0:
256,192,5170,1,8,0:0:0:0:
256,192,5570,1,0,0:0:0:0:
256,192,5670,1,0,0:0:0:0:
256,192,5770,1,0,0:0:0:0:
256,192,5970,1,8,0:0:0:0:
256,192,6070,1,8,0:0:0:0:
256,192,6170,1,8,0:0:0:0:
256,192,6370,1,0,0:0:0:0:
256,192,6770,1,8,0:0:0:0:
256,192,7170,1,0,0:0:0:0:
256,192,7270,1,0,0:0:0:0:
256,192,7370,1,0,0:0:0:0:
256,192,7570,1,8,0:0:0:0:
256,192,7770,1,8,0:0:0:0:
256,192,7970,1,0,0:0:0:0:
256,192,8370,1,8,0:0:0:0:
256,192,8570,1,0,0:0:0:0:
256,192,8670,1,8,0:0:0:0:
256,192,8770,1,0,0:0:0:0:
256,192,8970,1,0,0:0:0:0:
256,192,9070,1,0,0:0:0:0:
256,192,9170,1,8,0:0:0:0:
256,192,9370,1,8,0:0:0:0:
256,192,9570,1,0,0:0:0:0:
256,192,9970,1,8,0:0:0:0:
256,192,10370,1,0,0:0:0:0:
256,192,10570,1,0,0:0:0:0:
256,192,10670,1,0,0:0:0:0:
256,192,10770,1,8,0:0:0:0:
256,192,10970,1,8,0:0:0:0:
256,192,11170,1,0,0:0:0:0:
256,192,11570,1,8,0:0:0:0:
256,192,11970,1,0,0:0:0:0:
256,192,12070,1,0,0:0:0:0:
256,192,12170,1,0,0:0:0:0:
256,192,12370,1,8,0:0:0:0:
256,192,12470,1,8,0:0:0:0:
256,192,12570,1,8,0:0:0:0:
256,192,12770,1,0,0:0:0:0:
256,192,13170,1,8,0:0:0:0:
256,192,13570,1,0,0:0:0:0:
256,192,13770,1,0,0:0:0:0:
256,192,13970,1,8,0:0:0:0:
256,192,14170,1,8,0:0:0:0:
256,192,14370,1,0,0:0:0:0:
256,192,14470,1,0,0:0:0:0:
256,192,14570,1,0,0:0:0:0:
256,192,14770,1,8,0:0:0:0:
256,192,15170,1,0,0:0:0:0:
256,192,15270,1,0,0:0:0:0:
256,192,15370,1,0,0:0:0:0:
256,192,15570,1,8,0:0:0:0:
256,192,15670,1,8,0:0:0:0:
256,192,15770,1,8,0:0:0:0:
256,192,15970,1,4,0:0:0:0:
256,192,19170,1,0,0:0:0:0:
256,192,19370,1,0,0:0:0:0:
256,192,19570,1,8,0:0:0:0:
256,192,19770,1,0,0:0:0:0:
256,192,19870,1,8,0:0:0:0:
256,192,20070,1,8,0:0:0:0:
256,192,20170,1,0,0:0:0:0:
256,192,20270,1,0,0:0:0:0:
256,192,20370,1,8,0:0:0:0:
256,192,20570,1,0,0:0:0:0:
256,192,20670,1,8,0:0:0:0:
256,192,20770,1,0,0:0:0:0:
256,192,20870,1,0,0:0:0:0:
256,192,20970,1,8,0:0:0:0:
256,192,21170,1,8,0:0:0:0:
256,192,21270,1,0,0:0:0:0:
256,192,21370,1,8,0:0:0:0:
256,192,21570,1,0,0:0:0:0:
256,192,21670,1,0,0:0:0:0:
256,192,21770,1,0,0:0:0:0:
256,192,21870,1,0,0:0:0:0:
256,192,21970,1,12,0:0:0:0:
256,192,22370,1,4,0:0:0:0:
256,192,22570,1,0,0:0:0:0:
256,192,22670,1,0,0:0:0:0:
256,192,22770,1,8,0:0:0:0:
256,192,22970,1,0,0:0:0:0:
256,192,23070,1,8,0:0:0:0:
256,192,23270,1,0,0:0:0:0:
256,192,23370,1,8,0:0:0:0:
256,192,23470,1,8,0:0:0:0:
256,192,23570,1,0,0:0:0:0:
256,192,23970,1,0,0:0:0:0:
256,192,24170,1,0,0:0:0:0:
256,192,24270,1,8,0:0:0:0:
256,192,24370,1,0,0:0:0:0:
256,192,24570,1,0,0:0:0:0:
256,192,24670,1,0,0:0:0:0:
256,192,24770,1,8,0:0:0:0:
256,192,25070,1,8,0:0:0:0:
256,192,25370,1,8,0:0:0:0:
256,192,25470,1,8,0:0:0:0:
256,192,25570,1,0,0:0:0:0:
256,192,25770,1,0,0:0:0:0:
256,192,25970,1,8,0:0:0:0:
256,192,26170,1,0,0:0:0:0:
256,192,26270,1,8,0:0:0:0:
256,192,26470,1,8,0:0:0:0:
256,192,26570,1,0,0:0:0:0:
256,192,26770,1,8,0:0:0:0:
256,192,26820,1,8,0:0:0:0:
256,192,26870,1,8,0:0:0:0:
256,192,26970,1,8,0:0:0:0:
256,192,27170,1,0,0:0:0:0:
256,192,27370,1,0,0:0:0:0:
256,192,27570,1,8,0:0:0:0:
256,192,27770,1,0,0:0:0:0:
256,192,27870,1,8,0:0:0:0:
256,192,27970,1,4,0:0:0:0:
256,192,28270,1,12,0:0:0:0:
256,192,28570,1,8,0:0:0:0:
256,192,28770,1,0,0:0:0:0:
256,192,28870,1,0,0:0:0:0:
256,192,28970,1,8,0:0:0:0:
256,192,29170,1,8,0:0:0:0:
256,192,29270,1,0,0:0:0:0:
256,192,29370,1,8,0:0:0:0:
256,192,29570,1,0,0:0:0:0:
256,192,29670,1,0,0:0:0:0:
256,192,29770,1,8,0:0:0:0:
256,192,29870,1,8,0:0:0:0:
256,192,29970,1,0,0:0:0:0:
256,192,30170,1,8,0:0:0:0:
256,192,30370,1,0,0:0:0:0:
256,192,30470,1,0,0:0:0:0:
256,192,30570,1,8,0:0:0:0:
256,192,30670,1,0,0:0:0:0:
256,192,30770,1,8,0:0:0:0:
256,192,30970,1,8,0:0:0:0:
256,192,31070,1,0,0:0:0:0:
256,192,31170,1,8,0:0:0:0:
256,192,31470,1,8,0:0:0:0:
256,192,31770,1,8,0:0:0:0:
256,192,31870,1,8,0:0:0:0:
256,192,31970,1,0,0:0:0:0:
256,192,32170,1,0,0:0:0:0:
256,192,32370,1,8,0:0:0:0:
256,192,32570,1,0,0:0:0:0:
256,192,32670,1,8,0:0:0:0:
256,192,32870,1,8,0:0:0:0:
256,192,32970,1,0,0:0:0:0:
256,192,33170,1,8,0:0:0:0:
256,192,33370,1,8,0:0:0:0:
256,192,33570,1,0,0:0:0:0:
256,192,33670,1,0,0:0:0:0:
256,192,33770,1,8,0:0:0:0:
256,192,33970,1,8,0:0:0:0:
256,192,34170,1,8,0:0:0:0:
256,192,34270,1,8,0:0:0:0:
256,192,34370,1,4,0:0:0:0:
256,192,34670,1,12,0:0:0:0:
256,192,35170,1,0,0:0:0:0:
256,192,35370,1,0,0:0:0:0:
256,192,35470,1,0,0:0:0:0:
256,192,35570,1,0,0:0:0:0:
256,192,35770,1,0,0:0:0:0:
256,192,35870,1,0,0:0:0:0:
256,192,35920,1,0,0:0:0:0:
256,192,35970,1,0,0:0:0:0:
256,192,36070,1,0,0:0:0:0:
256,192,36170,1,8,0:0:0:0:
256,192,36370,1,8,0:0:0:0:
256,192,36570,1,0,0:0:0:0:
256,192,36670,1,0,0:0:0:0:
256,192,36770,1,8,0:0:0:0:
256,192,36970,1,0,0:0:0:0:
256,192,37170,1,8,0:0:0:0:
256,192,37270,1,8,0:0:0:0:
256,192,37370,1,0,0:0:0:0:
256,192,37470,1,0,0:0:0:0:
256,192,37570,1,8,0:0:0:0:
256,192,37770,1,0,0:0:0:0:
256,192,37970,1,8,0:0:0:0:
256,192,38370,1,0,0:0:0:0:
256,192,38570,1,0,0:0:0:0:
256,192,38670,1,0,0:0:0:0:
256,192,38770,1,0,0:0:0:0:
256,192,38970,1,0,0:0:0:0:
256,192,39070,1,0,0:0:0:0:
256,192,39170,1,8,0:0:0:0:
256,192,39370,1,8,0:0:0:0:
256,192,39470,1,0,0:0:0:0:
256,192,39520,1,0,0:0:0:0:
256,192,39570,1,0,0:0:0:0:
256,192,39670,1,0,0:0:0:0:
256,192,39770,1,8,0:0:0:0:
256,192,39970,1,0,0:0:0:0:
256,192,40170,1,8,0:0:0:0:
256,192,40370,1,0,0:0:0:0:
256,192,40570,1,0,0:0:0:0:
256,192,40770,1,8,0:0:0:0:
256,192,41070,1,0,0:0:0:0:
256,192,41370,1,8,0:0:0:0:
256,192,41570,1,0,0:0:0:0:
256,192,41670,1,0,0:0:0:0:
256,192,41770,1,8,0:0:0:0:
256,192,41870,1,8,0:0:0:0:
256,192,42070,1,0,0:0:0:0:
256,192,42170,1,8,0:0:0:0:
256,192,42270,1,8,0:0:0:0:
256,192,42370,1,0,0:0:0:0:
256,192,42570,1,8,0:0:0:0:
256,192,42670,1,8,0:0:0:0:
256,192,42870,1,8,0:0:0:0:
256,192,42970,1,8,0:0:0:0:
256,192,43070,1,8,0:0:0:0:
256,192,43170,1,0,0:0:0:0:
256,192,43370,1,8,0:0:0:0:
256,192,43570,1,0,0:0:0:0:
256,192,43770,1,8,0:0:0:0:
256,192,43970,1,8,0:0:0:0:
256,192,44070,1,0,0:0:0:0:
256,192,44170,1,8,0:0:0:0:
256,192,44270,1,8,0:0:0:0:
256,192,44370,1,4,0:0:0:0:
256,192,44570,1,4,0:0:0:0:
256,192,44770,1,0,0:0:0:0:
256,192,44870,1,0,0:0:0:0:
256,192,44970,1,8,0:0:0:0:
256,192,45070,1,8,0:0:0:0:
256,192,45270,1,0,0:0:0:0:
256,192,45370,1,8,0:0:0:0:
256,192,45470,1,8,0:0:0:0:
256,192,45570,1,0,0:0:0:0:
256,192,45770,1,8,0:0:0:0:
256,192,45870,1,0,0:0:0:0:
256,192,45970,1,8,0:0:0:0:
256,192,46070,1,8,0:0:0:0:
256,192,46170,1,8,0:0:0:0:
256,192,46270,1,8,0:0:0:0:
256,192,46370,1,0,0:0:0:0:
256,192,46570,1,8,0:0:0:0:
256,192,46770,1,0,0:0:0:0:
256,192,46870,1,0,0:0:0:0:
256,192,46970,1,8,0:0:0:0:
256,192,47070,1,8,0:0:0:0:
256,192,47170,1,4,0:0:0:0:
256,192,47470,1,12,0:0:0:0:
256,192,47770,1,12,0:0:0:0:
256,192,47970,1,4,0:0:0:0:
256,192,48370,1,8,0:0:0:0:
256,192,48770,1,0,0:0:0:0:
256,192,49070,1,0,0:0:0:0:
256,192,49370,1,0,0:0:0:0:
256,192,49470,1,0,0:0:0:0:
256,192,49570,1,8,0:0:0:0:
256,192,49970,1,8,0:0:0:0:
256,192,51170,1,0,0:0:0:0:
256,192,51570,1,8,0:0:0:0:
256,192,51970,1,0,0:0:0:0:
256,192,52270,1,0,0:0:0:0:
256,192,52570,1,0,0:0:0:0:
256,192,52670,1,0,0:0:0:0:
256,192,52770,1,8,0:0:0:0:
256,192,53170,1,8,0:0:0:0:
256,192,53570,1,0,0:0:0:0:
256,192,53970,1,8,0:0:0:0:
256,192,54370,1,12,0:0:0:0:
256,192,54570,1,0,0:0:0:0:
256,192,54770,1,8,0:0:0:0:
256,192,55170,1,0,0:0:0:0:
256,192,55270,1,0,0:0:0:0:
256,192,55370,1,0,0:0:0:0:
256,192,55570,1,8,0:0:0:0:
256,192,55770,1,8,0:0:0:0:
256,192,55870,1,8,0:0:0:0:
256,192,55970,1,0,0:0:0:0:
256,192,56170,1,0,0:0:0:0:
256,192,56370,1,8,0:0:0:0:
256,192,56770,1,0,0:0:0:0:
256,192,56970,1,8,0:0:0:0:
256,192,57170,1,8,0:0:0:0:
256,192,57270,1,8,0:0:0:0:
256,192,57370,1,0,0:0:0:0:
256,192,57470,1,0,0:0:0:0:
256,192,57570,1,8,0:0:0:0:
256,192,57770,1,0,0:0:0:0:
256,192,57970,1,8,0:0:0:0:
256,192,58370,1,0,0:0:0:0:
256,192,58470,1,0,0:0:0:0:
256,192,58570,1,0,0:0:0:0:
256,192,58770,1,8,0:0:0:0:
256,192,58970,1,0,0:0:0:0:
256,192,59170,1,8,0:0:0:0:
256,192,59570,1,8,0:0:0:0:
256,192,59770,1,8,0:0:0:0:
256,192,59970,1,0,0:0:0:0:
256,192,60070,1,0,0:0:0:0:
256,192,60170,1,0,0:0:0:0:
256,192,60370,1,8,0:0:0:0:
256,192,60470,1,8,0:0:0:0:
256,192,60570,1,8,0:0:0:0:
256,192,60770,1,4,0:0:0:0:
256,192,61170,1,8,0:0:0:0:
256,192,61770,1,8,0:0:0:0:
256,192,61970,1,8,0:0:0:0:
256,192,62170,1,8,0:0:0:0:
256,192,62370,1,0,0:0:0:0:
256,192,62970,1,0,0:0:0:0:
256,192,63170,1,8,0:0:0:0:
256,192,63970,1,0,0:0:0:0:
256,192,64370,1,8,0:0:0:0:
256,192,64970,1,0,0:0:0:0:
256,192,65170,1,8,0:0:0:0:
256,192,65370,1,8,0:0:0:0:
256,192,65570,1,0,0:0:0:0:
256,192,67170,1,0,0:0:0:0:
256,192,67570,1,8,0:0:0:0:
256,192,68170,1,8,0:0:0:0:
256,192,68370,1,8,0:0:0:0:
256,192,68570,1,8,0:0:0:0:
256,192,68770,1,0,0:0:0:0:
256,192,69370,1,0,0:0:0:0:
256,192,69570,1,8,0:0:0:0:
256,192,70370,1,0,0:0:0:0:
256,192,70770,1,8,0:0:0:0:
256,192,71370,1,8,0:0:0:0:
256,192,71570,1,0,0:0:0:0:
256,192,71770,1,8,0:0:0:0:
256,192,71970,1,0,0:0:0:0:
256,192,73170,1,8,0:0:0:0:
256,192,73570,1,0,0:0:0:0:
256,192,73770,1,0,0:0:0:0:
256,192,73970,1,8,0:0:0:0:
256,192,74170,1,0,0:0:0:0:
256,192,74270,1,8,0:0:0:0:
256,192,74470,1,8,0:0:0:0:
256,192,74570,1,0,0:0:0:0:
256,192,74670,1,0,0:0:0:0:
256,192,74770,1,8,0:0:0:0:
256,192,74970,1,0,0:0:0:0:
256,192,75070,1,8,0:0:0:0:
256,192,75170,1,0,0:0:0:0:
256,192,75270,1,0,0:0:0:0:
256,192,75370,1,8,0:0:0:0:
256,192,75570,1,8,0:0:0:0:
256,192,75670,1,0,0:0:0:0:
256,192,75770,1,8,0:0:0:0:
256,192,75970,1,0,0:0:0:0:
256,192,76070,1,0,0:0:0:0:
256,192,76170,1,0,0:0:0:0:
256,192,76270,1,0,0:0:0:0:
256,192,76370,1,12,0:0:0:0:
256,192,76770,1,4,0:0:0:0:
256,192,76970,1,8,0:0:0:0:
256,192,77170,1,0,0:0:0:0:
256,192,77270,1,8,0:0:0:0:
256,192,77470,1,8,0:0:0:0:
256,192,77670,1,8,0:0:0:0:
256,192,77770,1,0,0:0:0:0:
256,192,77970,1,8,0:0:0:0:
256,192,78370,1,8,0:0:0:0:
256,192,78570,1,8,0:0:0:0:
256,192,78770,1,8,0:0:0:0:
256,192,78870,1,0,0:0:0:0:
256,192,79070,1,8,0:0:0:0:
256,192,79270,1,8,0:0:0:0:
256,192,79370,1,0,0:0:0:0:
256,192,79570,1,8,0:0:0:0:
256,192,79970,1,8,0:0:0:0:
256,192,80170,1,8,0:0:0:0:
256,192,80370,1,8,0:0:0:0:
256,192,80470,1,0,0:0:0:0:
256,192,80670,1,8,0:0:0:0:
256,192,80870,1,0,0:0:0:0:
256,192,80970,1,8,0:0:0:0:
256,192,81170,1,8,0:0:0:0:
256,192,81370,1,0,0:0:0:0:
256,192,81570,1,8,0:0:0:0:
256,192,81870,1,8,0:0:0:0:
256,192,82170,1,8,0:0:0:0:
256,192,82470,1,8,0:0:0:0:
256,192,82770,1,8,0:0:0:0:
256,192,82970,1,8,0:0:0:0:
256,192,83070,1,8,0:0:0:0:
256,192,83170,1,4,0:0:0:0:
256,192,83370,1,8,0:0:0:0:
256,192,83570,1,0,0:0:0:0:
256,192,83670,1,8,0:0:0:0:
256,192,83870,1,8,0:0:0:0:
256,192,84070,1,8,0:0:0:0:
256,192,84170,1,0,0:0:0:0:
256,192,84370,1,8,0:0:0:0:
256,192,84770,1,0,0:0:0:0:
256,192,84970,1,8,0:0:0:0:
256,192,85170,1,0,0:0:0:0:
256,192,85270,1,8,0:0:0:0:
256,192,85470,1,8,0:0:0:0:
256,192,85670,1,8,0:0:0:0:
256,192,85770,1,8,0:0:0:0:
256,192,85970,1,8,0:0:0:0:
256,192,86370,1,0,0:0:0:0:
256,192,86570,1,8,0:0:0:0:
256,192,86770,1,0,0:0:0:0:
256,192,86870,1,8,0:0:0:0:
256,192,87070,1,8,0:0:0:0:
256,192,87270,1,8,0:0:0:0:
256,192,87370,1,0,0:0:0:0:
256,192,87570,1,8,0:0:0:0:
256,192,87770,1,0,0:0:0:0:
256,192,87970,1,8,0:0:0:0:
256,192,88270,1,8,0:0:0:0:
256,192,88570,1,8,0:0:0:0:
256,192,88870,1,8,0:0:0:0:
256,192,89170,1,8,0:0:0:0:
256,192,89570,1,4,0:0:0:0:
256,192,90170,1,8,0:0:0:0:
256,192,90370,1,4,0:0:0:0:
256,192,90570,1,0,0:0:0:0:
256,192,90670,1,0,0:0:0:0:
256,192,90770,1,8,0:0:0:0:
256,192,90970,1,8,0:0:0:0:
256,192,91170,1,4,0:0:0:0:
256,192,91370,1,8,0:0:0:0:
256,192,91470,1,8,0:0:0:0:
256,192,91570,1,0,0:0:0:0:
256,192,91770,1,8,0:0:0:0:
256,192,91970,1,12,0:0:0:0:
256,192,92170,1,8,0:0:0:0:
256,192,92270,1,0,0:0:0:0:
256,192,92370,1,8,0:0:0:0:
256,192,92570,1,8,0:0:0:0:
256,192,92770,1,4,0:0:0:0:
256,192,93070,1,8,0:0:0:0:
256,192,93370,1,8,0:0:0:0:
256,192,93670,1,0,0:0:0:0:
256,192,93770,1,8,0:0:0:0:
256,192,93870,1,0,0:0:0:0:
256,192,93970,1,8,0:0:0:0:
256,192,94170,1,8,0:0:0:0:
256,192,94370,1,4,0:0:0:0:
256,192,94670,1,4,0:0:0:0:
256,192,94970,1,4,0:0:0:0:
256,192,95270,1,12,0:0:0:0:
256,192,95570,1,12,0:0:0:0:
256,192,95770,1,4,0:0:0:0:
256,192,95970,1,12,0:0:0:0:
256,192,96170,1,0,0:0:0:0:
256,192,96370,1,8,0:0:0:0:
256,192,96470,1,0,0:0:0:0:
256,192,96570,1,8,0:0:0:0:
256,192,96770,1,8,0:0:0:0:
256,192,96970,1,0,0:0:0:0:
256,192,97070,1,8,0:0:0:0:
256,192,97170,1,0,0:0:0:0:
256,192,97570,1,8,0:0:0:0:
256,192,97770,1,0,0:0:0:0:
256,192,97870,1,0,0:0:0:0:
256,192,97970,1,8,0:0:0:0:
256,192,98070,1,8,0:0:0:0:
256,192,98270,1,8,0:0:0:0:
256,192,98470,1,8,0:0:0:0:
256,192,98570,1,0,0:0:0:0:
256,192,98770,1,8,0:0:0:0:
256,192,99170,1,4,0:0:0:0:
256,192,99370,1,0,0:0:0:0:
256,192,99570,1,8,0:0:0:0:
256,192,99670,1,8,0:0:0:0:
256,192,99770,1,0,0:0:0:0:
256,192,99870,1,0,0:0:0:0:
256,192,99970,1,8,0:0:0:0:
256,192,100170,1,8,0:0:0:0:
256,192,100270,1,0,0:0:0:0:
256,192,100370,1,8,0:0:0:0:
256,192,100570,1,0,0:0:0:0:
256,192,100770,1,12,0:0:0:0:
256,192,100870,8,0,101970,0:0:0:0:
256,192,102370,5,4,0:0:0:0:
256,192,102570,1,0,0:0:0:0:
256,192,102770,1,8,0:0:0:0:
256,192,102970,1,0,0:0:0:0:
256,192,103070,1,8,0:0:0:0:
256,192,103270,1,8,0:0:0:0:
256,192,103370,1,0,0:0:0:0:
256,192,103570,1,8,0:0:0:0:
256,192,103770,1,0,0:0:0:0:
256,192,103870,1,0,0:0:0:0:
256,192,103970,1,8,0:0:0:0:
256,192,104170,1,0,0:0:0:0:
256,192,104370,1,8,0:0:0:0:
256,192,104470,1,8,0:0:0:0:
256,192,104570,1,0,0:0:0:0:
256,192,104670,1,8,0:0:0:0:
256,192,104870,1,8,0:0:0:0:
256,192,104970,1,0,0:0:0:0:
256,192,105170,1,4,0:0:0:0:
256,192,105370,1,12,0:0:0:0:
256,192,105570,1,0,0:0:0:0:
256,192,105770,1,0,0:0:0:0:
256,192,105970,1,8,0:0:0:0:
256,192,106070,1,8,0:0:0:0:
256,192,106170,1,0,0:0:0:0:
256,192,106270,1,8,0:0:0:0:
256,192,106470,1,8,0:0:0:0:
256,192,106570,1,0,0:0:0:0:
256,192,106770,1,8,0:0:0:0:
256,192,106970,1,0,0:0:0:0:
256,192,107070,1,0,0:0:0:0:
256,192,107170,1,8,0:0:0:0:
256,192,107370,1,0,0:0:0:0:
256,192,107470,1,8,0:0:0:0:
256,192,107770,1,8,0:0:0:0:
256,192,108070,1,8,0:0:0:0:
256,192,108370,1,8,0:0:0:0:
256,192,108470,1,8,0:0:0:0:
256,192,108520,1,8,0:0:0:0:
256,192,108570,1,8,0:0:0:0:
256,192,108670,1,8,0:0:0:0:
256,192,108770,1,0,0:0:0:0:
256,192,108870,1,0,0:0:0:0:
256,192,108970,1,8,0:0:0:0:
256,192,109170,1,0,0:0:0:0:
256,192,109270,1,8,0:0:0:0:
256,192,109470,1,8,0:0:0:0:
256,192,109670,1,8,0:0:0:0:
256,192,109770,1,0,0:0:0:0:
256,192,109970,1,8,0:0:0:0:
256,192,110070,1,8,0:0:0:0:
256,192,110170,1,8,0:0:0:0:
256,192,110220,1,8,0:0:0:0:
256,192,110270,1,8,0:0:0:0:
256,192,110370,1,0,0:0:0:0:
256,192,110470,1,0,0:0:0:0:
256,192,110570,1,8,0:0:0:0:
256,192,110770,1,0,0:0:0:0:
256,192,110870,1,8,0:0:0:0:
256,192,111070,1,12,0:0:0:0:
256,192,111270,1,8,0:0:0:0:
256,192,111370,1,0,0:0:0:0:
256,192,111470,1,0,0:0:0:0:
256,192,111570,1,8,0:0:0:0:
256,192,111670,1,0,0:0:0:0:
256,192,111770,1,8,0:0:0:0:
256,192,111820,1,8,0:0:0:0:
256,192,111870,1,8,0:0:0:0:
256,192,111970,1,0,0:0:0:0:
256,192,112070,1,0,0:0:0:0:
256,192,112170,1,8,0:0:0:0:
256,192,112370,1,0,0:0:0:0:
256,192,112470,1,8,0:0:0:0:
256,192,112670,1,8,0:0:0:0:
256,192,112870,1,8,0:0:0:0:
256,192,112970,1,0,0:0:0:0:
256,192,113170,1,8,0:0:0:0:
256,192,113270,1,8,0:0:0:0:
256,192,113320,1,8,0:0:0:0:
256,192,113370,1,8,0:0:0:0:
256,192,113470,1,0,0:0:0:0:
256,192,113570,1,8,0:0:0:0:
256,192,113620,1,8,0:0:0:0:
256,192,113670,1,8,0:0:0:0:
256,192,113770,1,0,0:0:0:0:
256,192,113870,1,8,0:0:0:0:
256,192,114070,1,0,0:0:0:0:
256,192,114170,1,8,0:0:0:0:
256,192,114220,1,8,0:0:0:0:
256,192,114270,1,8,0:0:0:0:
256,192,114370,1,0,0:0:0:0:
256,192,114470,1,8,0:0:0:0:
256,192,114670,1,0,0:0:0:0:
256,192,114770,1,8,0:0:0:0:
256,192,114870,1,0,0:0:0:0:
256,192,114970,1,8,0:0:0:0:
256,192,115020,1,8,0:0:0:0:
256,192,115070,1,8,0:0:0:0:
256,192,115170,1,4,0:0:0:0:
256,192,115370,1,0,0:0:0:0:
256,192,115570,1,8,0:0:0:0:
256,192,115670,1,0,0:0:0:0:
256,192,115870,1,0,0:0:0:0:
256,192,116070,1,0,0:0:0:0:
256,192,116170,1,8,0:0:0:0:
256,192,116370,1,8,0:0:0:0:
256,192,116570,1,0,0:0:0:0:
256,192,116670,1,0,0:0:0:0:
256,192,116770,1,8,0:0:0:0:
256,192,116970,1,8,0:0:0:0:
256,192,117170,1,8,0:0:0:0:
256,192,117270,1,0,0:0:0:0:
256,192,117470,1,8,0:0:0:0:
256,192,117670,1,0,0:0:0:0:
256,192,117770,1,8,0:0:0:0:
256,192,117970,1,8,0:0:0:0:
256,192,118170,1,0,0:0:0:0:
256,192,118270,1,0,0:0:0:0:
256,192,118370,1,8,0:0:0:0:
256,192,118570,1,8,0:0:0:0:
256,192,118770,1,8,0:0:0:0:
256,192,118870,1,0,0:0:0:0:
256,192,119070,1,0,0:0:0:0:
256,192,119270,1,0,0:0:0:0:
256,192,119370,1,8,0:0:0:0:
256,192,119570,1,8,0:0:0:0:
256,192,119770,1,0,0:0:0:0:
256,192,119970,1,8,0:0:0:0:
256,192,120270,1,8,0:0:0:0:
256,192,120570,1,8,0:0:0:0:
256,192,120870,1,8,0:0:0:0:
256,192,121170,1,8,0:0:0:0:
256,192,121370,1,0,0:0:0:0:
256,192,121470,1,0,0:0:0:0:
256,192,121570,1,8,0:0:0:0:
256,192,121970,1,8,0:0:0:0:
256,192,122370,1,8,0:0:0:0:
256,192,122770,1,8,0:0:0:0:
256,192,123170,1,8,0:0:0:0:
256,192,123570,1,8,0:0:0:0:
256,192,123970,1,8,0:0:0:0:
256,192,124370,1,8,0:0:0:0:
256,192,124770,1,0,0:0:0:0:
256,192,124970,1,0,0:0:0:0:
256,192,125170,1,8,0:0:0:0:
256,192,125370,1,0,0:0:0:0:
256,192,125470,1,8,0:0:0:0:
256,192,125670,1,8,0:0:0:0:
256,192,125770,1,0,0:0:0:0:
256,192,125870,1,0,0:0:0:0:
256,192,125970,1,8,0:0:0:0:
256,192,126170,1,0,0:0:0:0:
256,192,126270,1,8,0:0:0:0:
256,192,126370,1,0,0:0:0:0:
256,192,126470,1,0,0:0:0:0:
256,192,126570,1,8,0:0:0:0:
256,192,126770,1,8,0:0:0:0:
256,192,126870,1,0,0:0:0:0:
256,192,126970,1,8,0:0:0:0:
256,192,127170,1,0,0:0:0:0:
256,192,127270,1,0,0:0:0:0:
256,192,127370,1,0,0:0:0:0:
256,192,127470,1,0,0:0:0:0:
256,192,127570,1,12,0:0:0:0:
256,192,127970,1,4,0:0:0:0:
256,192,128170,1,0,0:0:0:0:
256,192,128270,1,0,0:0:0:0:
256,192,128370,1,8,0:0:0:0:
256,192,128570,1,0,0:0:0:0:
256,192,128670,1,8,0:0:0:0:
256,192,128870,1,8,0:0:0:0:
256,192,128970,1,0,0:0:0:0:
256,192,129170,1,8,0:0:0:0:
256,192,129220,1,8,0:0:0:0:
256,192,129270,1,8,0:0:0:0:
256,192,129370,1,8,0:0:0:0:
256,192,129470,1,0,0:0:0:0:
256,192,129570,1,0,0:0:0:0:
256,192,129770,1,0,0:0:0:0:
256,192,129870,1,8,0:0:0:0:
256,192,129970,1,8,0:0:0:0:
256,192,130170,1,0,0:0:0:0:
256,192,130270,1,0,0:0:0:0:
256,192,130370,1,8,0:0:0:0:
256,192,130420,1,8,0:0:0:0:
256,192,130470,1,8,0:0:0:0:
256,192,130570,1,0,0:0:0:0:
256,192,130670,1,8,0:0:0:0:
256,192,130720,1,8,0:0:0:0:
256,192,130770,1,8,0:0:0:0:
256,192,130870,1,0,0:0:0:0:
256,192,130970,1,8,0:0:0:0:
256,192,131170,1,0,0:0:0:0:
256,192,131270,1,0,0:0:0:0:
256,192,131370,1,8,0:0:0:0:
256,192,131570,1,8,0:0:0:0:
256,192,131670,1,8,0:0:0:0:
256,192,131770,1,0,0:0:0:0:
256,192,131870,1,8,0:0:0:0:
256,192,131970,1,0,0:0:0:0:
256,192,132070,1,0,0:0:0:0:
256,192,132170,1,8,0:0:0:0:
256,192,132370,1,8,0:0:0:0:
256,192,132470,1,0,0:0:0:0:
256,192,132570,1,8,0:0:0:0:
256,192,132620,1,8,0:0:0:0:
256,192,132670,1,8,0:0:0:0:
256,192,132770,1,0,0:0:0:0:
256,192,132970,1,8,0:0:0:0:
256,192,133070,1,0,0:0:0:0:
256,192,133170,1,8,0:0:0:0:
256,192,133370,1,0,0:0:0:0:
256,192,133470,1,8,0:0:0:0:
256,192,133570,1,4,0:0:0:0:
256,192,133870,1,12,0:0:0:0:
256,192,134370,1,0,0:0:0:0:
256,192,134420,1,0,0:0:0:0:
256,192,134470,1,0,0:0:0:0:
256,192,134570,1,8,0:0:0:0:
256,192,134670,1,8,0:0:0:0:
256,192,134770,1,0,0:0:0:0:
256,192,134870,1,0,0:0:0:0:
256,192,134970,1,8,0:0:0:0:
256,192,135070,1,8,0:0:0:0:
256,192,135170,1,0,0:0:0:0:
256,192,135220,1,0,0:0:0:0:
256,192,135270,1,0,0:0:0:0:
256,192,135370,1,8,0:0:0:0:
256,192,135470,1,8,0:0:0:0:
256,192,135570,1,4,0:0:0:0:
256,192,135770,1,12,0:0:0:0:
256,192,135970,1,0,0:0:0:0:
256,192,136020,1,0,0:0:0:0:
256,192,136070,1,0,0:0:0:0:
256,192,136170,1,8,0:0:0:0:
256,192,136270,1,8,0:0:0:0:
256,192,136370,1,0,0:0:0:0:
256,192,136470,1,0,0:0:0:0:
256,192,136570,1,8,0:0:0:0:
256,192,136670,1,0,0:0:0:0:
256,192,136770,1,12,0:0:0:0:
256,192,137070,1,4,0:0:0:0:
256,192,137370,1,12,0:0:0:0:
256,192,137570,1,0,0:0:0:0:
256,192,137620,1,0,0:0:0:0:
256,192,137670,1,0,0:0:0:0:
256,192,137770,1,8,0:0:0:0:
256,192,137870,1,8,0:0:0:0:
256,192,137970,1,0,0:0:0:0:
256,192,138020,1,0,0:0:0:0:
256,192,138070,1,0,0:0:0:0:
256,192,138170,1,8,0:0:0:0:
256,192,138270,1,8,0:0:0:0:
256,192,138370,1,0,0:0:0:0:
256,192,138420,1,0,0:0:0:0:
256,192,138470,1,0,0:0:0:0:
256,192,138570,1,8,0:0:0:0:
256,192,138670,1,8,0:0:0:0:
256,192,138770,1,0,0:0:0:0:
256,192,138970,1,8,0:0:0:0:
256,192,139070,1,8,0:0:0:0:
256,192,139170,1,0,0:0:0:0:
256,192,139220,1,0,0:0:0:0:
256,192,139270,1,0,0:0:0:0:
256,192,139370,1,8,0:0:0:0:
256,192,139470,1,8,0:0:0:0:
256,192,139570,1,0,0:0:0:0:
256,192,139620,1,0,0:0:0:0:
256,192,139670,1,0,0:0:0:0:
256,192,139770,1,8,0:0:0:0:
256,192,139870,1,8,0:0:0:0:
256,192,139970,1,4,0:0:0:0:
256,192,140370,1,0,0:0:0:0:
256,192,140570,1,8,0:0:0:0:
256,192,140670,1,8,0:0:0:0:
256,192,140770,1,4,0:0:0:0:
256,192,141170,1,8,0:0:0:0:
256,192,141570,1,0,0:0:0:0:
256,192,141770,1,8,0:0:0:0:
256,192,141970,1,0,0:0:0:0:
256,192,142170,1,0,0:0:0:0:
256,192,142370,1,0,0:0:0:0:
256,192,142470,1,0,0:0:0:0:
256,192,142570,1,8,0:0:0:0:
256,192,142770,1,0,0:0:0:0:
256,192,142870,1,0,0:0:0:0:
256,192,142970,1,8,0:0:0:0:
256,192,143170,1,0,0:0:0:0:
256,192,143370,1,8,0:0:0:0:
256,192,143570,1,0,0:0:0:0:
256,192,143770,1,8,0:0:0:0:
256,192,143970,1,0,0:0:0:0:
256,192,144370,1,8,0:0:0:0:
256,192,144670,1,0,0:0:0:0:
256,192,144770,1,8,0:0:0:0:
256,192,144970,1,8,0:0:0:0:
256,192,145170,1,0,0:0:0:0:
256,192,145370,1,8,0:0:0:0:
256,192,145570,1,0,0:0:0:0:
256,192,145670,1,0,0:0:0:0:
256,192,145770,1,8,0:0:0:0:
256,192,145970,1,0,0:0:0:0:
256,192,146070,1,0,0:0:0:0:
256,192,146170,1,8,0:0:0:0:
256,192,146270,1,8,0:0:0:0:
256,192,146370,1,0,0:0:0:0:
256,192,146570,1,8,0:0:0:0:
256,192,146670,1,0,0:0:0:0:
256,192,146770,1,8,0:0:0:0:
256,192,146970,1,0,0:0:0:0:
256,192,147070,1,0,0:0:0:0:
256,192,147170,1,12,0:0:0:0:
256,192,147770,1,0,0:0:0:0:
256,192,147970,1,8,0:0:0:0:
256,192,148170,1,0,0:0:0:0:
256,192,148370,1,8,0:0:0:0:
256,192,148570,1,8,0:0:0:0:
256,192,148770,1,0,0:0:0:0:
256,192,148870,1,0,0:0:0:0:
256,192,148970,1,8,0:0:0:0:
256,192,149170,1,8,0:0:0:0:
256,192,149270,1,0,0:0:0:0:
256,192,149370,1,8,0:0:0:0:
256,192,149570,1,8,0:0:0:0:
256,192,149970,1,0,0:0:0:0:
256,192,150170,1,0,0:0:0:0:
256,192,150370,1,12,0:0:0:0:
256,192,150970,1,0,0:0:0:0:
256,192,151170,1,8,0:0:0:0:
256,192,151370,1,0,0:0:0:0:
256,192,151570,1,8,0:0:0:0:
256,192,151770,1,8,0:0:0:0:
256,192,151970,1,12,0:0:0:0:
256,192,152170,1,0,0:0:0:0:
256,192,152270,1,0,0:0:0:0:
256,192,152370,1,8,0:0:0:0:
256,192,152570,1,8,0:0:0:0:
256,192,152770,1,0,0:0:0:0:
256,192,153070,1,8,0:0:0:0:
256,192,153370,1,0,0:0:0:0:
256,192,153570,1,8,0:0:0:0:
256,192,153970,1,8,0:0:0:0:
256,192,154370,1,8,0:0:0:0:
256,192,154770,1,8,0:0:0:0:
256,192,155170,1,8,0:0:0:0:
256,192,155570,1,8,0:0:0:0:
256,192,155970,1,8,0:0:0:0:
256,192,156370,1,8,0:0:0:0:
256,192,156770,1,8,0:0:0:0:
256,192,157170,1,8,0:0:0:0:
256,192,157570,1,8,0:0:0:0:
256,192,157970,1,8,0:0:0:0:
256,192,158370,1,8,0:0:0:0:
256,192,158770,1,8,0:0:0:0:
256,192,159170,1,8,0:0:0:0:
256,192,159570,1,8,0:0:0:0:
256,192,159970,1,12,0:0:0:0:
256,192,160370,1,0,0:0:0:0:
256,192,160670,1,12,0:0:0:0:
256,192,161170,1,12,0:0:0:0:
256,192,161570,1,0,0:0:0:0:
256,192,161970,1,0,0:0:0:0:
256,192,162070,1,0,0:0:0:0:
256,192,162270,1,12,0:0:0:0:
256,192,162470,1,0,0:0:0:0:
256,192,162570,1,8,0:0:0:0:
256,192,162770,1,8,0:0:0:0:
256,192,163170,1,0,0:0:0:0:
256,192,163370,1,0,0:0:0:0:
256,192,163570,1,8,0:0:0:0:
256,192,163770,1,0,0:0:0:0:
256,192,163870,1,8,0:0:0:0:
256,192,164070,1,8,0:0:0:0:
256,192,164170,1,0,0:0:0:0:
256,192,164270,1,0,0:0:0:0:
256,192,164370,1,8,0:0:0:0:
256,192,164570,1,0,0:0:0:0:
256,192,164670,1,8,0:0:0:0:
256,192,164770,1,0,0:0:0:0:
256,192,164870,1,0,0:0:0:0:
256,192,164970,1,8,0:0:0:0:
256,192,165170,1,8,0:0:0:0:
256,192,165270,1,0,0:0:0:0:
256,192,165370,1,8,0:0:0:0:
256,192,165570,1,0,0:0:0:0:
256,192,165670,1,0,0:0:0:0:
256,192,165770,1,0,0:0:0:0:
256,192,165870,1,0,0:0:0:0:
256,192,165970,1,12,0:0:0:0:
256,192,166370,1,4,0:0:0:0:
256,192,166570,1,8,0:0:0:0:
256,192,166770,1,0,0:0:0:0:
256,192,166870,1,0,0:0:0:0:
256,192,166970,1,8,0:0:0:0:
256,192,167070,1,0,0:0:0:0:
256,192,167270,1,0,0:0:0:0:
256,192,167370,1,8,0:0:0:0:
256,192,167570,1,0,0:0:0:0:
256,192,167770,1,0,0:0:0:0:
256,192,167870,1,0,0:0:0:0:
256,192,167970,1,8,0:0:0:0:
256,192,168170,1,8,0:0:0:0:
256,192,168370,1,0,0:0:0:0:
256,192,168470,1,8,0:0:0:0:
256,192,168570,1,0,0:0:0:0:
256,192,168670,1,8,0:0:0:0:
256,192,168870,1,0,0:0:0:0:
256,192,168970,1,8,0:0:0:0:
256,192,169170,1,0,0:0:0:0:
256,192,169270,1,0,0:0:0:0:
256,192,169370,1,8,0:0:0:0:
256,192,169470,1,8,0:0:0:0:
256,192,169570,1,0,0:0:0:0:
256,192,169770,1,8,0:0:0:0:
256,192,169970,1,0,0:0:0:0:
256,192,170070,1,8,0:0:0:0:
256,192,170170,1,0,0:0:0:0:
256,192,170270,1,8,0:0:0:0:
256,192,170470,1,8,0:0:0:0:
256,192,170570,1,0,0:0:0:0:
256,192,170770,1,8,0:0:0:0:
256,192,170870,1,8,0:0:0:0:
256,192,170970,1,0,0:0:0:0:
256,192,171070,1,0,0:0:0:0:
256,192,171170,1,8,0:0:0:0:
256,192,171370,1,0,0:0:0:0:
256,192,171470,1,8,0:0:0:0:
256,192,171670,1,0,0:0:0:0:
256,192,171770,1,8,0:0:0:0:
256,192,171970,1,0,0:0:0:0:
256,192,172070,1,8,0:0:0:0:
256,192,172170,1,0,0:0:0:0:
256,192,172370,1,8,0:0:0:0:
256,192,172470,1,0,0:0:0:0:
256,192,172520,1,0,0:0:0:0:
256,192,172570,1,0,0:0:0:0:
256,192,172670,1,0,0:0:0:0:
256,192,172770,1,8,0:0:0:0:
256,192,172970,1,0,0:0:0:0:
256,192,173020,1,0,0:0:0:0:
256,192,173070,1,0,0:0:0:0:
256,192,173170,1,0,0:0:0:0:
256,192,173270,1,8,0:0:0:0:
256,192,173470,1,8,0:0:0:0:
256,192,173670,1,8,0:0:0:0:
256,192,173770,1,0,0:0:0:0:
256,192,173970,1,8,0:0:0:0:
256,192,174070,1,0,0:0:0:0:
256,192,174170,1,8,0:0:0:0:
256,192,174220,1,8,0:0:0:0:
256,192,174270,1,8,0:0:0:0:
256,192,174370,1,0,0:0:0:0:
256,192,174570,1,8,0:0:0:0:
256,192,174770,1,0,0:0:0:0:
256,192,174870,1,8,0:0:0:0:
256,192,175070,1,12,0:0:0:0:
256,192,175270,1,8,0:0:0:0:
256,192,175370,1,0,0:0:0:0:
256,192,175470,1,0,0:0:0:0:
256,192,175570,1,8,0:0:0:0:
256,192,175770,1,8,0:0:0:0:
256,192,175820,1,8,0:0:0:0:
256,192,175870,1,8,0:0:0:0:
256,192,175970,1,0,0:0:0:0:
256,192,176170,1,8,0:0:0:0:
256,192,176370,1,0,0:0:0:0:
256,192,176470,1,8,0:0:0:0:
256,192,176570,1,0,0:0:0:0:
256,192,176670,1,8,0:0:0:0:
256,192,176870,1,0,0:0:0:0:
256,192,176970,1,8,0:0:0:0:
256,192,177170,1,0,0:0:0:0:
256,192,177270,1,8,0:0:0:0:
256,192,177370,1,8,0:0:0:0:
256,192,177570,1,8,0:0:0:0:
256,192,177770,1,0,0:0:0:0:
256,192,177870,1,8,0:0:0:0:
256,192,177970,1,0,0:0:0:0:
256,192,178070,1,0,0:0:0:0:
256,192,178170,1,8,0:0:0:0:
256,192,178370,1,0,0:0:0:0:
256,192,178470,1,8,0:0:0:0:
256,192,178670,1,0,0:0:0:0:
256,192,178770,1,8,0:0:0:0:
256,192,178870,1,0,0:0:0:0:
256,192,178970,1,8,0:0:0:0:
256,192,179020,1,8,0:0:0:0:
256,192,179070,1,8,0:0:0:0:
256,192,179170,1,4,0:0:0:0:
256,192,179570,1,0,0:0:0:0:
256,192,179970,1,8,0:0:0:0:
256,192,180070,1,8,0:0:0:0:
256,192,180270,1,8,0:0:0:0:
256,192,180570,1,8,0:0:0:0:
256,192,180670,1,8,0:0:0:0:
256,192,180770,1,0,0:0:0:0:
256,192,181170,1,8,0:0:0:0:
256,192,182370,1,0,0:0:0:0:
256,192,182770,1,0,0:0:0:0:
256,192,183170,1,8,0:0:0:0:
256,192,183270,1,8,0:0:0:0:
256,192,183470,1,8,0:0:0:0:
256,192,183770,1,8,0:0:0:0:
256,192,183870,1,8,0:0:0:0:
256,192,183970,1,0,0:0:0:0:
256,192,184370,1,8,0:0:0:0:
256,192,184770,1,0,0:0:0:0:
256,192,185170,1,8,0:0:0:0:
256,192,185570,1,0,0:0:0:0:
256,192,185970,1,0,0:0:0:0:
256,192,186370,1,8,0:0:0:0:
256,192,186470,1,8,0:0:0:0:
256,192,186670,1,8,0:0:0:0:
256,192,186970,1,8,0:0:0:0:
256,192,187070,1,8,0:0:0:0:
256,192,187170,1,0,0:0:0:0:
256,192,187570,1,8,0:0:0:0:
256,192,188770,1,0,0:0:0:0:
256,192,189170,1,0,0:0:0:0:
256,192,189570,1,8,0:0:0:0:
256,192,189670,1,8,0:0:0:0:
256,192,189870,1,8,0:0:0:0:
256,192,190170,1,8,0:0:0:0:
256,192,190270,1,8,0:0:0:0:
256,192,190370,1,0,0:0:0:0:
256,192,190770,1,8,0:0:0:0:
256,192,191170,1,0,0:0:0:0:
256,192,191570,1,8,0:0:0:0:
256,192,191970,1,4,0:0:0:0:
256,192,192120,8,0,195170,0:0:0:0:
