osu file format v14

[General]
AudioFilename: audio.mp3
AudioLeadIn: 0
PreviewTime: 99648
Countdown: 0
SampleSet: Normal
StackLeniency: 0.7
Mode: 3
LetterboxInBreaks: 0
SpecialStyle: 0
WidescreenStoryboard: 1

[Editor]
DistanceSpacing: 0.5
BeatDivisor: 4
GridSize: 4
TimelineZoom: 2.3

[Metadata]
Title:UMMU
TitleUnicode:UMMU
Artist:t+pazolite
ArtistUnicode:t+pazolite
Creator:ppass1234
Version:Normal
Source:beatmania IIDX 25 CANNON BALLERS
Tags:beatmania IIDX 25 CANNON BALLERS t+pazolite osharave Ppass Normal Hyper Another hardcore
BeatmapID:1780346
BeatmapSetID:848590

[Difficulty]
HPDrainRate:7
CircleSize:4
OverallDifficulty:7.5
ApproachRate:5
SliderMultiplier:1.4
SliderTickRate:1

[Events]
//Background and Video events
0,0,"UUUU.png",0,0
//Break Periods
//Storyboard Layer 0 (Background)
//Storyboard Layer 1 (Fail)
//Storyboard Layer 2 (Pass)
//Storyboard Layer 3 (Foreground)
//Storyboard Sound Samples
Sample,24398,0,"normal-hitwhistle.wav",70
Sample,24481,0,"normal-hitwhistle.wav",70
Sample,24564,0,"normal-hitwhistle.wav",70
Sample,24648,0,"normal-hitwhistle.wav",70
Sample,24731,0,"normal-hitwhistle.wav",70
Sample,24814,0,"normal-hitwhistle.wav",70
Sample,24898,0,"normal-hitwhistle.wav",70
Sample,33976,0,"normal-hitwhistle.wav",70
Sample,40309,0,"normal-hitwhistle.wav",70
Sample,40643,0,"normal-hitwhistle.wav",70
Sample,50976,0,"normal-hitnormal.wav",70
Sample,51309,0,"normal-hitnormal.wav",70
Sample,66309,0,"normal-hitwhistle.wav",70
Sample,66643,0,"normal-hitwhistle.wav",70
Sample,66976,0,"normal-hitwhistle.wav",70
Sample,73309,0,"normal-hitnormal.wav",70
Sample,73643,0,"normal-hitnormal.wav",70
Sample,73976,0,"normal-hitnormal.wav",70
Sample,74309,0,"normal-hitnormal.wav",70
Sample,74643,0,"normal-hitnormal.wav",70
Sample,74976,0,"normal-hitnormal.wav",70
Sample,75309,0,"normal-hitnormal.wav",70
Sample,75643,0,"normal-hitnormal.wav",70
Sample,75976,0,"normal-hitnormal.wav",70
Sample,76309,0,"normal-hitnormal.wav",70
Sample,76643,0,"normal-hitnormal.wav",70
Sample,76976,0,"normal-hitnormal.wav",70
Sample,77309,0,"normal-hitnormal.wav",70
Sample,77643,0,"normal-hitnormal.wav",70
Sample,98309,0,"LR4_BassKickReverbXD.wav",70
Sample,108976,0,"normal-hitwhistle.wav",70
Sample,109309,0,"normal-hitwhistle.wav",70
Sample,109643,0,"normal-hitwhistle.wav",70
Sample,115976,0,"normal-hitwhistle.wav",70
Sample,116309,0,"normal-hitwhistle.wav",70
Sample,116643,0,"normal-hitwhistle.wav",70
Sample,116976,0,"normal-hitwhistle.wav",70
Sample,117309,0,"normal-hitwhistle.wav",70
Sample,117643,0,"normal-hitwhistle.wav",70
Sample,117976,0,"normal-hitwhistle.wav",70
Sample,118309,0,"normal-hitwhistle.wav",70
Sample,118476,0,"normal-hitwhistle.wav",70
Sample,118643,0,"normal-hitwhistle.wav",70
Sample,118809,0,"normal-hitwhistle.wav",70
Sample,120643,0,"snare.wav",70

[TimingPoints]
2315,333.333333333333,4,1,1,60,1,0
35648,-100,4,1,1,60,0,1
44981,-100,4,1,1,60,0,0
99648,-100,4,1,1,60,0,1
108981,-100,4,1,1,60,0,0

[HitObjects]
64,192,3481,5,0,0:0:0:0:
448,192,3481,1,0,0:0:0:0:
320,192,3814,5,0,0:0:0:0:
192,192,4148,1,0,0:0:0:0:
64,192,4481,1,0,0:0:0:0:
448,192,4814,1,0,0:0:0:0:
64,192,5148,1,0,0:0:0:0:
448,192,5481,1,0,0:0:0:0:
192,192,5814,1,0,0:0:0:0:
448,192,6148,1,0,0:0:0:0:
64,192,6481,1,0,0:0:0:0:
320,192,6814,1,0,0:0:0:0:
192,192,7148,1,0,0:0:0:0:
448,192,7481,1,0,0:0:0:0:
320,192,7814,1,0,0:0:0:0:
64,192,8148,1,0,0:0:0:0:
448,192,8481,1,0,0:0:0:0:
320,192,8814,5,0,0:0:0:0:
192,192,8898,1,0,0:0:0:0:
320,192,8981,1,0,0:0:0:0:
64,192,9148,1,0,0:0:0:0:
448,192,9481,1,0,0:0:0:0:
192,192,9814,1,0,0:0:0:0:
320,192,10148,1,0,0:0:0:0:
448,192,10481,1,0,0:0:0:0:
64,192,10814,1,0,0:0:0:0:
320,192,11148,1,0,0:0:0:0:
192,192,11481,1,0,0:0:0:0:
448,192,11814,1,0,0:0:0:0:
64,192,12148,1,0,0:0:0:0:
320,192,12481,1,0,0:0:0:0:
192,192,12814,1,0,0:0:0:0:
448,192,13148,5,0,0:0:0:0:
64,192,13481,1,0,0:0:0:0:
320,192,13814,1,0,0:0:0:0:
192,192,13981,1,0,0:0:0:0:
320,192,14148,1,0,0:0:0:0:
448,192,14314,5,8,0:0:0:0:
64,192,14314,1,2,0:0:0:0:
192,192,14481,1,0,0:0:0:0:
320,192,14814,1,2,0:0:0:0:
448,192,14814,1,8,0:0:0:0:
192,192,15148,1,0,0:0:0:0:
320,192,15314,1,0,0:0:0:0:
448,192,15481,1,0,0:0:0:0:
64,192,15648,1,2,0:0:0:0:
320,192,15648,1,8,0:0:0:0:
448,192,15898,1,2,0:0:0:0:
192,192,15898,1,8,0:0:0:0:
192,192,16148,1,8,0:0:0:0:
64,192,16148,1,2,0:0:0:0:
320,192,16481,1,0,0:0:0:0:
192,192,16648,1,0,0:0:0:0:
320,192,16814,1,0,0:0:0:0:
448,192,16981,1,8,0:0:0:0:
64,192,16981,1,2,0:0:0:0:
192,192,17148,1,0,0:0:0:0:
448,192,17481,1,2,0:0:0:0:
320,192,17481,1,8,0:0:0:0:
192,192,17814,1,0,0:0:0:0:
320,192,17981,1,0,0:0:0:0:
192,192,18148,1,0,0:0:0:0:
64,192,18314,1,8,0:0:0:0:
448,192,18314,1,2,0:0:0:0:
192,192,18564,1,2,0:0:0:0:
320,192,18564,1,8,0:0:0:0:
64,192,18814,1,8,0:0:0:0:
448,192,18814,1,2,0:0:0:0:
192,192,19148,1,0,0:0:0:0:
320,192,19314,1,0,0:0:0:0:
448,192,19481,1,0,0:0:0:0:
192,192,19648,1,8,0:0:0:0:
64,192,19648,1,4,0:0:0:0:
448,192,19981,1,2,0:0:0:0:
192,192,20148,1,0,0:0:0:0:
64,192,20314,1,2,0:0:0:0:
320,192,20481,1,0,0:0:0:0:
448,192,20648,1,2,0:0:0:0:
192,192,20814,1,0,0:0:0:0:
320,192,20981,1,2,0:0:0:0:
64,192,21314,1,2,0:0:0:0:
320,192,21648,1,2,0:0:0:0:
64,192,21814,1,0,0:0:0:0:
192,192,21981,1,2,0:0:0:0:
320,192,22148,1,0,0:0:0:0:
64,192,22314,1,4,0:0:0:0:
448,192,22314,1,2,0:0:0:0:
192,192,22648,1,2,0:0:0:0:
448,192,22814,1,0,0:0:0:0:
320,192,22981,1,2,0:0:0:0:
192,192,23148,1,0,0:0:0:0:
64,192,23314,1,2,0:0:0:0:
320,192,23481,1,0,0:0:0:0:
448,192,23648,1,2,0:0:0:0:
64,192,23648,1,0,0:0:0:0:
192,192,23814,1,2,0:0:0:0:
320,192,23981,1,2,0:0:0:0:
192,192,24148,1,2,0:0:0:0:
64,192,24314,128,2,24981:0:0:0:0:
320,192,24981,1,2,0:0:0:0:
448,192,24981,1,4,0:0:0:0:
192,192,25314,1,0,0:0:0:0:
320,192,25648,1,0,0:0:0:0:
64,192,25981,1,0,0:0:0:0:
192,192,26148,1,0,0:0:0:0:
320,192,26231,1,0,0:0:0:0:
448,192,26314,1,0,0:0:0:0:
64,192,26648,1,0,0:0:0:0:
448,192,26981,1,0,0:0:0:0:
320,192,27148,1,0,0:0:0:0:
64,192,27314,1,8,0:0:0:0:
192,192,27314,1,0,0:0:0:70:snare.wav
320,192,27648,1,4,0:0:0:0:
448,192,27648,1,2,0:0:0:0:
64,192,27981,1,0,0:0:0:0:
320,192,28314,1,0,0:0:0:0:
448,192,28648,1,0,0:0:0:0:
320,192,28814,1,0,0:0:0:0:
192,192,28898,1,0,0:0:0:0:
64,192,28981,1,0,0:0:0:0:
448,192,29314,1,0,0:0:0:0:
192,192,29648,1,0,0:0:0:0:
320,192,29814,1,0,0:0:0:0:
448,192,29981,1,8,0:0:0:0:
64,192,29981,1,0,0:0:0:70:snare.wav
192,192,30314,1,4,0:0:0:0:
320,192,30314,1,2,0:0:0:0:
64,192,30481,1,0,0:0:0:0:
448,192,30648,1,0,0:0:0:0:
320,192,30814,1,0,0:0:0:0:
64,192,30981,1,0,0:0:0:0:
192,192,31148,1,0,0:0:0:0:
320,192,31314,1,0,0:0:0:0:
64,192,31481,1,0,0:0:0:0:
192,192,31564,1,0,0:0:0:0:
320,192,31648,1,0,0:0:0:0:
448,192,31814,1,0,0:0:0:0:
192,192,31981,1,0,0:0:0:0:
64,192,32148,1,0,0:0:0:0:
448,192,32314,1,0,0:0:0:0:
320,192,32398,1,0,0:0:0:0:
64,192,32481,1,0,0:0:0:0:
192,192,32564,1,0,0:0:0:0:
320,192,32648,1,0,0:0:0:70:snare.wav
448,192,32648,1,8,0:0:0:0:
64,192,32981,128,4,33314:0:0:0:0:
192,192,32981,1,2,0:0:0:0:
448,192,33314,128,0,33648:0:0:0:0:
320,192,33648,128,0,33981:0:0:0:0:
64,192,33981,1,2,0:0:0:0:
192,192,34314,1,8,0:0:0:0:
448,192,34314,1,2,0:0:0:0:
64,192,34564,1,2,0:0:0:0:
320,192,34564,1,8,0:0:0:0:
192,192,34814,1,8,0:0:0:0:
64,192,34814,1,2,0:0:0:0:
448,192,35314,1,8,0:0:0:0:
320,192,35314,1,0,0:0:0:70:snare.wav
64,192,35648,128,0,35981:0:0:0:0:
192,192,35648,1,2,0:0:0:0:
448,192,35981,1,2,0:0:0:0:
192,192,36148,1,0,0:0:0:0:
320,192,36314,1,2,0:0:0:0:
448,192,36481,1,0,0:0:0:0:
64,192,36648,1,2,0:0:0:0:
192,192,36814,1,0,0:0:0:0:
448,192,36981,1,2,0:0:0:0:
320,192,37148,1,0,0:0:0:0:
192,192,37314,1,2,0:0:0:0:
64,192,37481,1,0,0:0:0:0:
320,192,37648,1,2,0:0:0:0:
192,192,37814,1,0,0:0:0:0:
448,192,37981,1,2,0:0:0:0:
320,192,38148,1,0,0:0:0:0:
192,192,38314,128,2,38648:0:0:0:0:
448,192,38648,1,2,0:0:0:0:
64,192,38814,1,0,0:0:0:0:
320,192,38981,1,2,0:0:0:0:
448,192,39148,1,0,0:0:0:0:
64,192,39314,1,2,0:0:0:0:
192,192,39481,1,0,0:0:0:0:
448,192,39648,1,2,0:0:0:0:
320,192,39814,1,0,0:0:0:0:
448,192,39981,1,2,0:0:0:0:
192,192,40148,1,0,0:0:0:0:
320,192,40314,128,8,40648:0:0:0:0:
448,192,40314,1,0,0:0:0:0:
192,192,40648,128,8,40981:0:0:0:0:
64,192,40648,1,0,0:0:0:0:
64,192,40981,128,2,41314:0:0:0:0:
448,192,40981,1,0,0:0:0:0:
448,192,41314,1,2,0:0:0:0:
320,192,41481,1,0,0:0:0:0:
192,192,41648,1,2,0:0:0:0:
64,192,41814,1,0,0:0:0:0:
320,192,41981,1,2,0:0:0:0:
448,192,42148,1,0,0:0:0:0:
64,192,42314,1,2,0:0:0:0:
192,192,42481,1,0,0:0:0:0:
320,192,42648,1,2,0:0:0:0:
64,192,42814,1,0,0:0:0:0:
448,192,42981,1,2,0:0:0:0:
320,192,43148,1,0,0:0:0:0:
64,192,43314,1,2,0:0:0:0:
448,192,43481,1,0,0:0:0:0:
320,192,43648,128,2,43981:0:0:0:0:
192,192,43981,1,2,0:0:0:0:
64,192,44148,1,0,0:0:0:0:
448,192,44314,1,2,0:0:0:0:
320,192,44481,1,0,0:0:0:0:
448,192,44648,1,2,0:0:0:0:
192,192,44814,1,0,0:0:0:0:
64,192,44981,1,0,0:0:0:0:
448,192,45981,1,8,0:0:0:0:
64,192,45981,1,0,0:0:0:70:snare.wav
320,192,46314,128,2,46648:0:0:0:0:
448,192,46648,1,2,0:0:0:0:
64,192,46814,1,0,0:0:0:0:
192,192,46981,1,2,0:0:0:0:
448,192,47148,1,0,0:0:0:0:
320,192,47314,1,2,0:0:0:0:
192,192,47481,1,0,0:0:0:0:
64,192,47648,1,2,0:0:0:0:
448,192,47814,1,0,0:0:0:0:
320,192,47981,1,2,0:0:0:0:
192,192,48148,1,0,0:0:0:0:
64,192,48314,1,2,0:0:0:0:
320,192,48481,1,0,0:0:0:0:
448,192,48648,1,2,0:0:0:0:
64,192,48814,1,0,0:0:0:0:
192,192,48981,128,2,49314:0:0:0:0:
448,192,49314,1,2,0:0:0:0:
320,192,49481,1,0,0:0:0:0:
64,192,49648,1,2,0:0:0:0:
192,192,49814,1,0,0:0:0:0:
320,192,49981,1,2,0:0:0:0:
448,192,50148,1,0,0:0:0:0:
64,192,50314,128,2,50648:0:0:0:0:
192,192,50648,128,0,50981:0:0:0:0:
448,192,50981,128,8,51314:0:0:0:0:
320,192,50981,1,0,0:0:0:0:
320,192,51314,128,8,51648:0:0:0:0:
192,192,51314,1,0,0:0:0:0:
192,192,51648,128,2,51981:0:0:0:0:
64,192,51648,1,0,0:0:0:0:
448,192,51981,1,2,0:0:0:0:
64,192,52148,1,0,0:0:0:0:
320,192,52314,1,2,0:0:0:0:
448,192,52481,1,0,0:0:0:0:
192,192,52648,1,2,0:0:0:0:
320,192,52814,1,0,0:0:0:0:
64,192,52981,1,2,0:0:0:0:
448,192,52981,1,4,0:0:0:0:
192,192,53148,1,0,0:0:0:0:
320,192,53314,1,2,0:0:0:0:
448,192,53481,1,0,0:0:0:0:
64,192,53648,1,2,0:0:0:0:
192,192,53814,1,0,0:0:0:0:
448,192,53981,1,2,0:0:0:0:
320,192,54148,1,0,0:0:0:0:
192,192,54314,1,2,0:0:0:0:
64,192,54314,1,4,0:0:0:0:
448,192,54481,1,0,0:0:0:0:
320,192,54648,1,2,0:0:0:0:
192,192,54814,1,0,0:0:0:0:
448,192,54981,1,2,0:0:0:0:
64,192,54981,1,4,0:0:0:0:
320,192,55148,1,0,0:0:0:0:
192,192,55314,1,2,0:0:0:0:
448,192,55481,1,0,0:0:0:0:
320,192,55648,1,4,0:0:0:0:
64,192,55648,1,0,0:0:0:70:BassDrop.wav
448,192,56648,1,0,0:0:0:70:snare.wav
64,192,56648,1,8,0:0:0:0:
192,192,56981,1,2,0:0:0:0:
64,192,56981,1,4,0:0:0:0:
320,192,57314,1,2,0:0:0:0:
64,192,57481,1,0,0:0:0:0:
192,192,57648,1,2,0:0:0:0:
448,192,57814,1,0,0:0:0:0:
320,192,57981,1,2,0:0:0:0:
192,192,58148,1,0,0:0:0:0:
448,192,58314,1,2,0:0:0:0:
64,192,58648,1,2,0:0:0:0:
448,192,58981,1,2,0:0:0:0:
192,192,59314,1,2,0:0:0:0:
320,192,59648,1,2,0:0:0:0:
64,192,59981,1,2,0:0:0:0:
448,192,60314,1,2,0:0:0:0:
320,192,60648,1,2,0:0:0:0:
192,192,60981,1,2,0:0:0:0:
64,192,61314,1,2,0:0:0:0:
320,192,61648,1,2,0:0:0:0:
448,192,61981,1,2,0:0:0:0:
64,192,62314,1,2,0:0:0:0:
320,192,62648,1,2,0:0:0:0:
192,192,62814,1,0,0:0:0:0:
448,192,62981,1,2,0:0:0:0:
192,192,63148,1,0,0:0:0:0:
320,192,63314,1,2,0:0:0:0:
64,192,63481,1,0,0:0:0:0:
448,192,63648,1,2,0:0:0:0:
64,192,63981,1,2,0:0:0:0:
320,192,64314,1,2,0:0:0:0:
448,192,64648,1,2,0:0:0:0:
192,192,64981,1,2,0:0:0:0:
448,192,65314,1,2,0:0:0:0:
64,192,65648,1,2,0:0:0:0:
320,192,65981,1,2,0:0:0:0:
448,192,66314,128,8,66648:0:0:0:0:
320,192,66648,128,8,66981:0:0:0:0:
192,192,66981,128,8,67314:0:0:0:0:
64,192,67314,1,0,0:0:0:70:snare.wav
448,192,67314,1,8,0:0:0:0:
320,192,67648,1,8,0:0:0:70:normal-hitwhistle.wav
64,192,67648,1,4,0:0:0:0:
192,192,67981,1,2,0:0:0:0:
448,192,67981,1,8,0:0:0:0:
320,192,68314,1,2,0:0:0:0:
448,192,68314,1,8,0:0:0:0:
192,192,68648,1,8,0:0:0:0:
64,192,68648,1,2,0:0:0:0:
448,192,68981,1,2,0:0:0:0:
64,192,68981,1,8,0:0:0:0:
320,192,69314,1,8,0:0:0:0:
64,192,69314,1,2,0:0:0:0:
192,192,69648,1,8,0:0:0:0:
448,192,69648,1,2,0:0:0:0:
64,192,69981,1,0,0:0:0:0:
320,192,70148,1,0,0:0:0:0:
448,192,70314,1,8,0:0:0:0:
64,192,70314,1,2,0:0:0:0:
192,192,70648,1,8,0:0:0:0:
64,192,70648,1,2,0:0:0:0:
448,192,70981,1,8,0:0:0:0:
64,192,70981,1,2,0:0:0:0:
320,192,71314,1,8,0:0:0:0:
448,192,71314,1,2,0:0:0:0:
192,192,71648,1,8,0:0:0:0:
448,192,71648,1,2,0:0:0:0:
320,192,71981,1,8,0:0:0:0:
64,192,71981,1,2,0:0:0:0:
192,192,72314,1,8,0:0:0:0:
64,192,72314,1,2,0:0:0:0:
320,192,72648,1,0,0:0:0:0:
192,192,72752,1,0,0:0:0:0:
320,192,72870,1,0,0:0:0:0:
448,192,72981,1,2,0:0:0:70:normal-hitnormal.wav
64,192,72981,1,8,0:0:0:0:
192,192,73148,1,2,0:0:0:0:
448,192,73314,1,8,0:0:0:0:
320,192,73481,1,2,0:0:0:0:
64,192,73648,1,8,0:0:0:0:
192,192,73814,1,2,0:0:0:0:
320,192,73981,1,8,0:0:0:0:
448,192,74148,1,2,0:0:0:0:
64,192,74314,1,8,0:0:0:0:
192,192,74481,1,2,0:0:0:0:
448,192,74648,1,8,0:0:0:0:
320,192,74814,1,2,0:0:0:0:
192,192,74981,1,8,0:0:0:0:
64,192,75148,1,2,0:0:0:0:
448,192,75314,1,8,0:0:0:0:
192,192,75481,1,2,0:0:0:0:
64,192,75648,128,8,75981:0:0:0:0:
320,192,75981,128,8,76314:0:0:0:0:
192,192,76314,128,8,76648:0:0:0:0:
448,192,76648,128,8,76981:0:0:0:0:
64,192,76981,128,8,77314:0:0:0:0:
320,192,76981,1,0,0:0:0:0:
192,192,77314,128,8,77648:0:0:0:0:
320,192,77314,1,0,0:0:0:0:
320,192,77648,128,8,77981:0:0:0:0:
448,192,77648,1,0,0:0:0:0:
448,192,77981,1,8,0:0:0:0:
64,192,77981,1,0,0:0:0:70:snare.wav
192,192,78314,1,0,0:0:0:0:
448,192,78648,1,0,0:0:0:0:
320,192,78981,1,0,0:0:0:0:
192,192,79314,1,0,0:0:0:0:
320,192,79648,1,0,0:0:0:0:
64,192,79981,1,0,0:0:0:0:
320,192,80314,1,0,0:0:0:0:
192,192,80648,1,0,0:0:0:0:
448,192,80981,1,0,0:0:0:0:
64,192,81314,1,0,0:0:0:0:
320,192,81648,1,0,0:0:0:0:
448,192,81981,1,0,0:0:0:0:
192,192,82314,1,0,0:0:0:0:
320,192,82648,1,0,0:0:0:0:
64,192,82981,1,0,0:0:0:0:
448,192,83314,1,0,0:0:0:0:
64,192,83648,1,0,0:0:0:0:
192,192,83814,1,0,0:0:0:0:
320,192,83981,1,0,0:0:0:0:
192,192,84314,1,0,0:0:0:0:
448,192,84648,1,0,0:0:0:0:
320,192,84814,1,0,0:0:0:0:
64,192,84981,1,0,0:0:0:0:
448,192,85148,1,0,0:0:0:0:
320,192,85314,1,0,0:0:0:0:
192,192,85648,1,0,0:0:0:0:
320,192,85981,1,0,0:0:0:0:
64,192,86148,1,0,0:0:0:0:
448,192,86314,1,0,0:0:0:0:
320,192,86481,1,0,0:0:0:0:
192,192,86648,1,0,0:0:0:0:
64,192,86981,1,0,0:0:0:0:
320,192,87148,1,0,0:0:0:0:
448,192,87314,1,0,0:0:0:0:
192,192,87481,1,0,0:0:0:0:
320,192,87648,1,0,0:0:0:0:
64,192,87814,1,0,0:0:0:0:
448,192,87981,1,0,0:0:0:0:
320,192,88148,1,0,0:0:0:0:
64,192,88314,1,0,0:0:0:0:
192,192,88481,1,0,0:0:0:0:
448,192,88648,1,0,0:0:0:0:
320,192,88731,1,0,0:0:0:0:
64,192,88814,1,0,0:0:0:0:
192,192,88898,1,0,0:0:0:0:
448,192,88981,1,8,0:0:0:0:
320,192,88981,1,2,0:0:0:0:
320,192,89314,1,0,0:0:0:0:
192,192,89648,1,0,0:0:0:0:
448,192,89981,1,0,0:0:0:0:
320,192,90148,1,0,0:0:0:0:
192,192,90231,1,0,0:0:0:0:
64,192,90314,1,0,0:0:0:0:
320,192,90648,1,0,0:0:0:0:
64,192,90981,1,0,0:0:0:0:
448,192,91314,128,0,91648:0:0:0:0:
192,192,91648,1,8,0:0:0:0:
64,192,91648,1,2,0:0:0:0:
320,192,91981,1,0,0:0:0:0:
448,192,92314,1,0,0:0:0:0:
64,192,92648,1,0,0:0:0:0:
192,192,92814,1,0,0:0:0:0:
320,192,92898,1,0,0:0:0:0:
448,192,92981,1,0,0:0:0:0:
64,192,93148,1,0,0:0:0:0:
320,192,93481,1,0,0:0:0:0:
192,192,93564,1,0,0:0:0:0:
64,192,93648,1,0,0:0:0:0:
448,192,93814,1,0,0:0:0:0:
64,192,93981,1,0,0:0:0:0:
448,192,94148,1,0,0:0:0:0:
192,192,94314,1,8,0:0:0:0:
64,192,94314,1,2,0:0:0:0:
320,192,94481,1,0,0:0:0:0:
448,192,94648,1,0,0:0:0:0:
64,192,94814,1,0,0:0:0:0:
192,192,94981,1,0,0:0:0:0:
448,192,95148,1,0,0:0:0:0:
320,192,95314,1,0,0:0:0:0:
192,192,95481,1,0,0:0:0:0:
64,192,95648,1,2,0:0:0:0:
320,192,95648,1,8,0:0:0:0:
448,192,95814,1,0,0:0:0:0:
320,192,95981,1,0,0:0:0:0:
64,192,96148,1,0,0:0:0:0:
192,192,96314,1,0,0:0:0:0:
448,192,96481,1,0,0:0:0:0:
64,192,96648,1,0,0:0:0:0:
320,192,96814,1,0,0:0:0:0:
192,192,96981,128,8,97314:0:0:0:0:
448,192,96981,1,2,0:0:0:0:
64,192,97314,128,0,97648:0:0:0:0:
448,192,97648,128,0,97981:0:0:0:0:
192,192,97981,5,0,0:0:0:70:BassDrop.wav
64,192,98314,1,0,0:0:0:50:35.Short Whistle.wav
320,192,98398,1,0,0:0:0:50:35.Short Whistle.wav
192,192,98564,1,0,0:0:0:50:35.Short Whistle.wav
448,192,98648,1,0,0:0:0:50:35.Short Whistle.wav
192,192,98814,1,0,0:0:0:50:35.Short Whistle.wav
320,192,98981,1,0,0:0:0:50:35.Short Whistle.wav
448,192,99314,5,8,0:0:0:0:
64,192,99314,1,0,0:0:0:70:snare.wav
320,192,99648,1,4,0:0:0:0:
448,192,99648,1,2,0:0:0:0:
64,192,99814,1,0,0:0:0:0:
448,192,99981,1,2,0:0:0:0:
192,192,100148,1,0,0:0:0:0:
64,192,100314,1,2,0:0:0:0:
448,192,100481,1,0,0:0:0:0:
192,192,100648,1,2,0:0:0:0:
320,192,100814,1,0,0:0:0:0:
448,192,100981,1,2,0:0:0:0:
320,192,101231,1,0,0:0:0:0:
192,192,101314,1,2,0:0:0:0:
64,192,101481,1,0,0:0:0:0:
192,192,101648,1,2,0:0:0:0:
320,192,101814,1,0,0:0:0:0:
64,192,101981,1,2,0:0:0:0:
192,192,102148,1,0,0:0:0:0:
320,192,102314,1,2,0:0:0:0:
64,192,102481,1,0,0:0:0:0:
448,192,102648,1,2,0:0:0:0:
320,192,102814,1,0,0:0:0:0:
192,192,102981,1,2,0:0:0:0:
64,192,103148,1,0,0:0:0:0:
448,192,103314,1,2,0:0:0:0:
320,192,103481,1,0,0:0:0:0:
64,192,103648,1,2,0:0:0:0:
320,192,103898,1,0,0:0:0:0:
192,192,103981,1,2,0:0:0:0:
448,192,104148,1,0,0:0:0:0:
64,192,104314,1,2,0:0:0:0:
320,192,104481,1,0,0:0:0:0:
448,192,104648,1,2,0:0:0:0:
192,192,104814,1,0,0:0:0:0:
448,192,104981,1,4,0:0:0:0:
320,192,104981,1,2,0:0:0:0:
64,192,105148,1,0,0:0:0:0:
192,192,105314,1,2,0:0:0:0:
448,192,105481,1,0,0:0:0:0:
320,192,105648,1,2,0:0:0:0:
192,192,105814,1,0,0:0:0:0:
64,192,105981,1,2,0:0:0:0:
320,192,106148,1,0,0:0:0:0:
448,192,106314,1,2,0:0:0:0:
320,192,106564,1,0,0:0:0:0:
192,192,106648,1,2,0:0:0:0:
64,192,106814,1,0,0:0:0:0:
192,192,106981,1,2,0:0:0:0:
320,192,107148,1,0,0:0:0:0:
64,192,107314,1,2,0:0:0:0:
192,192,107481,1,0,0:0:0:0:
448,192,107648,1,2,0:0:0:0:
320,192,107814,1,0,0:0:0:0:
192,192,107981,1,2,0:0:0:0:
448,192,108148,1,0,0:0:0:0:
320,192,108314,1,2,0:0:0:0:
192,192,108481,1,0,0:0:0:0:
64,192,108648,1,2,0:0:0:0:
320,192,108814,1,0,0:0:0:0:
448,192,108981,128,8,109314:0:0:0:0:
192,192,108981,1,0,0:0:0:0:
320,192,109314,128,8,109648:0:0:0:0:
64,192,109314,1,0,0:0:0:0:
192,192,109648,128,8,109981:0:0:0:0:
64,192,109648,1,0,0:0:0:0:
64,192,109981,1,8,0:0:0:0:
448,192,109981,1,0,0:0:0:70:snare.wav
320,192,110314,1,8,0:0:0:0:
448,192,110314,1,2,0:0:0:0:
192,192,110648,1,8,0:0:0:0:
64,192,110648,1,2,0:0:0:0:
320,192,110814,1,0,0:0:0:0:
448,192,110981,1,2,0:0:0:0:
64,192,110981,1,8,0:0:0:0:
192,192,111148,1,0,0:0:0:0:
320,192,111314,1,2,0:0:0:0:
448,192,111314,1,8,0:0:0:0:
64,192,111481,1,0,0:0:0:0:
448,192,111648,1,0,0:0:0:70:BassDrop.wav
448,192,112481,128,0,112981:0:0:0:0:
320,192,112981,1,8,0:0:0:0:
64,192,112981,1,2,0:0:0:0:
448,192,113314,1,8,0:0:0:0:
64,192,113314,1,2,0:0:0:0:
320,192,113481,1,0,0:0:0:0:
448,192,113648,1,2,0:0:0:0:
192,192,113648,1,8,0:0:0:0:
64,192,113814,1,0,0:0:0:0:
448,192,113981,1,2,0:0:0:0:
320,192,113981,1,8,0:0:0:0:
192,192,114148,1,0,0:0:0:0:
64,192,114314,1,0,0:0:0:70:BassDrop.wav
320,192,115148,128,0,115648:0:0:0:0:
448,192,115648,1,2,0:0:0:0:
64,192,115648,1,8,0:0:0:0:
192,192,115814,1,2,0:0:0:0:
320,192,115981,1,8,0:0:0:0:
64,192,116148,1,2,0:0:0:0:
448,192,116314,1,8,0:0:0:0:
320,192,116481,1,2,0:0:0:0:
64,192,116648,1,8,0:0:0:0:
448,192,116814,1,2,0:0:0:0:
320,192,116981,1,8,0:0:0:0:
192,192,117148,1,2,0:0:0:0:
448,192,117314,1,8,0:0:0:0:
320,192,117481,1,2,0:0:0:0:
64,192,117648,1,8,0:0:0:0:
448,192,117814,1,2,0:0:0:0:
192,192,117981,1,8,0:0:0:0:
64,192,118148,1,2,0:0:0:0:
448,192,118314,1,8,0:0:0:0:
320,192,118481,1,8,0:0:0:0:
64,192,118648,1,8,0:0:0:0:
192,192,118814,1,8,0:0:0:0:
448,192,118981,1,2,0:0:0:0:
320,192,119064,1,2,0:0:0:0:
64,192,119148,1,2,0:0:0:0:
192,192,119231,1,2,0:0:0:0:
320,192,119314,128,2,119648:0:0:0:0:
64,192,119648,1,0,0:0:0:0:
192,192,119648,1,0,0:0:0:0:
448,192,119898,1,0,0:0:0:0:
192,192,119898,1,0,0:0:0:0:
320,192,120148,1,0,0:0:0:0:
448,192,120148,1,0,0:0:0:0:
64,192,120648,1,8,0:0:0:0:
448,192,120648,1,4,0:0:0:0:
