osu file format v14

[General]
AudioFilename: audio.mp3
AudioLeadIn: 0
PreviewTime: 99103
Countdown: 1
SampleSet: Normal
StackLeniency: 0.7
Mode: 1
LetterboxInBreaks: 0
WidescreenStoryboard: 0

[Editor]
Bookmarks: 3687,7603,14353,14853,15687,16187,17020,17520,18353,18853,19687,23687,24353,25020,27353,27687,30020,30353,32687,33020,33103,33187,33270,33353,33520,33603,33770,33853,34020,34103,34187,34353,34853,35687,45020,46353,55687,57020,66353,66687,67020,67353,67687,72687,73020,75687,77020,77353,77687,78020,78353,83687,89020,91687,94353,95687,97020,98020,98353,99687,109020,109353,109687,110020,110353,111687,111770,111853,111937,112020,112187,112270,112437,112520,114353,114437,114520,114603,114687,114770,114853,114937,115020,115103,115270,115353,115437,115520,115687,117020,117103,117187,117270,117353,117520,117603,117770,117853,118020,118103,118187,118353,119687,120520,120687
DistanceSpacing: 1.6
BeatDivisor: 4
GridSize: 8
TimelineZoom: 1

[Metadata]
Title:UMMU
TitleUnicode:UMMU
Artist:t+pazolite
ArtistUnicode:t+pazolite
Creator:404 AccNotFound
Version:asdfrgreg oni (No SV)
Source:
Tags:
BeatmapID:1925941
BeatmapSetID:922252

[Difficulty]
HPDrainRate:5
CircleSize:5
OverallDifficulty:5
ApproachRate:5
SliderMultiplier:1.4
SliderTickRate:1

[Events]
//Background and Video events
0,0,"picc.jpg",0,-50
//Break Periods
//Storyboard Layer 0 (Background)
//Storyboard Layer 1 (Fail)
//Storyboard Layer 2 (Pass)
//Storyboard Layer 3 (Foreground)
//Storyboard Sound Samples

[TimingPoints]
2354,333.333333333333,4,1,0,95,1,0
99687,-100,4,1,0,95,0,1
120687,-100,4,1,0,95,0,0

[HitObjects]
177,312,2353,5,8,0:2:0:0:
177,312,2437,1,8,0:2:0:0:
219,193,2520,1,0,0:2:0:0:
219,193,2603,1,0,0:2:0:0:
219,193,2687,1,0,0:2:0:0:
177,312,2770,1,8,0:2:0:0:
177,312,2853,1,8,0:2:0:0:
219,193,2937,1,0,0:2:0:0:
177,312,3020,1,8,0:2:0:0:
177,312,3103,1,8,0:2:0:0:
219,193,3187,1,0,0:2:0:0:
219,193,3270,1,8,0:2:0:0:
219,193,3353,1,0,0:2:0:0:
219,193,3520,1,12,0:2:0:0:
211,153,3687,1,0,0:2:0:0:
211,153,3853,1,8,0:2:0:0:
283,186,4020,1,8,0:2:0:0:
283,186,4187,1,0,0:2:0:0:
283,186,4270,1,0,0:2:0:0:
283,186,4353,1,8,0:2:0:0:
283,186,4603,1,8,0:2:0:0:
177,59,4687,1,0,0:2:0:0:
283,186,4853,1,8,0:2:0:0:
174,121,5020,1,0,0:2:0:0:
283,186,5103,1,8,0:2:0:0:
283,186,5353,1,8,0:2:0:0:
199,148,5520,1,0,0:2:0:0:
174,128,5603,1,0,0:2:0:0:
283,186,5687,1,8,0:2:0:0:
283,186,5937,1,8,0:2:0:0:
170,81,6020,1,0,0:2:0:0:
283,186,6187,1,8,0:2:0:0:
283,186,6353,1,0,0:2:0:0:
283,186,6520,1,8,0:2:0:0:
283,186,6687,1,8,0:2:0:0:
283,186,6770,1,0,0:2:0:0:
283,186,6853,1,0,0:2:0:0:
283,186,6937,1,0,0:2:0:0:
283,186,7020,1,8,0:2:0:0:
283,186,7187,1,0,0:2:0:0:
283,186,7270,1,0,0:2:0:0:
283,186,7437,1,8,0:2:0:0:
283,186,7520,1,0,0:2:0:0:
114,129,7687,1,0,0:2:0:0:
165,104,7770,1,8,0:2:0:0:
283,186,7853,1,8,0:2:0:0:
283,186,8020,1,8,0:2:0:0:
290,177,8103,1,0,0:0:0:0:
283,186,8187,1,8,0:2:0:0:
283,186,8270,1,8,0:2:0:0:
283,186,8353,1,0,0:2:0:0:
283,186,8520,1,8,0:2:0:0:
283,186,8603,1,0,0:2:0:0:
366,100,8770,1,0,0:2:0:0:
283,186,8853,1,8,0:2:0:0:
283,186,8937,1,8,0:2:0:0:
283,186,9020,1,0,0:2:0:0:
134,162,9187,1,8,0:2:0:0:
134,162,9353,1,8,0:2:0:0:
163,137,9520,1,0,0:2:0:0:
163,137,9603,1,0,0:2:0:0:
134,162,9687,1,8,0:2:0:0:
134,162,9937,1,8,0:2:0:0:
186,78,10020,1,0,0:2:0:0:
134,162,10187,1,8,0:2:0:0:
161,106,10270,1,0,0:0:0:0:
146,120,10353,1,0,0:2:0:0:
134,162,10437,1,8,0:2:0:0:
173,88,10603,1,0,0:0:0:0:
134,162,10687,1,8,0:2:0:0:
78,126,10853,1,0,0:2:0:0:
137,81,10937,1,8,0:2:0:0:
134,162,11020,1,0,0:2:0:0:
134,162,11270,1,8,0:2:0:0:
210,113,11353,1,0,0:2:0:0:
134,162,11520,1,8,0:2:0:0:
134,162,11687,1,0,0:2:0:0:
134,162,11853,1,8,0:2:0:0:
134,162,12020,1,8,0:2:0:0:
134,162,12103,1,0,0:2:0:0:
134,162,12187,1,8,0:2:0:0:
181,144,12353,1,0,0:2:0:0:
181,144,12520,1,8,0:2:0:0:
181,144,12603,1,0,0:2:0:0:
181,144,12687,1,8,0:2:0:0:
181,144,12770,1,8,0:2:0:0:
181,144,12853,1,0,0:2:0:0:
181,144,13020,1,8,0:2:0:0:
181,144,13187,1,0,0:2:0:0:
181,144,13353,1,8,0:2:0:0:
181,144,13437,1,8,0:2:0:0:
181,144,13520,1,0,0:2:0:0:
181,144,13603,1,8,0:2:0:0:
181,144,13687,1,0,0:2:0:0:
430,128,13742,1,0,0:2:0:0:
430,128,13798,1,0,0:2:0:0:
430,128,13853,1,0,0:2:0:0:
258,152,14020,1,8,0:2:0:0:
258,152,14187,1,8,0:2:0:0:
258,152,14353,1,4,0:2:0:0:
165,162,14853,1,12,0:2:0:0:
165,162,15687,1,4,0:2:0:0:
165,162,15937,1,4,0:2:0:0:
165,162,16187,1,4,0:2:0:0:
190,149,17020,1,4,0:2:0:0:
190,149,17520,1,12,0:2:0:0:
190,149,18353,1,12,0:2:0:0:
190,149,18603,1,12,0:2:0:0:
190,149,18853,1,12,0:2:0:0:
225,164,19687,1,4,0:2:0:0:
260,237,20020,1,0,0:0:0:0:
254,174,20187,1,8,0:0:0:0:
260,237,20520,1,8,0:0:0:0:
260,237,20687,1,0,0:0:0:0:
49,158,20853,1,8,0:0:0:0:
260,237,21020,1,0,0:0:0:0:
146,93,21270,1,8,0:0:0:0:
260,237,21353,1,0,0:0:0:0:
146,93,21520,1,8,0:0:0:0:
260,237,21687,1,0,0:0:0:0:
146,93,21853,1,8,0:0:0:0:
72,189,21937,1,0,0:0:0:0:
260,237,22020,1,8,0:0:0:0:
77,185,22187,1,8,0:0:0:0:
260,237,22353,1,0,0:0:0:0:
260,237,22687,1,0,0:0:0:0:
146,93,22853,1,8,0:0:0:0:
260,237,23020,1,0,0:0:0:0:
146,93,23187,1,8,0:0:0:0:
77,134,23270,1,8,0:0:0:0:
146,93,23353,1,0,0:0:0:0:
146,93,23520,1,8,0:0:0:0:
146,93,23687,1,0,0:0:0:0:
146,93,23853,1,0,0:0:0:0:
146,93,24020,1,8,0:0:0:0:
146,93,24187,1,8,0:0:0:0:
146,93,24353,1,0,0:0:0:0:
146,93,24437,1,0,0:0:0:0:
146,93,24520,1,8,0:0:0:0:
146,93,24603,1,0,0:0:0:0:
146,93,24687,1,8,0:0:0:0:
146,93,24770,1,8,0:0:0:0:
146,93,24853,1,0,0:0:0:0:
146,93,25020,1,8,0:0:0:0:
131,138,25353,1,8,0:0:0:0:
131,138,25687,1,8,0:0:0:0:
131,138,26020,1,8,0:0:0:0:
131,138,26353,1,8,0:0:0:0:
131,138,26687,1,8,0:0:0:0:
131,138,27020,1,8,0:0:0:0:
210,225,27353,1,12,0:0:0:0:
131,138,27687,1,0,0:0:0:0:
131,138,28020,1,0,0:0:0:0:
131,138,28353,1,0,0:0:0:0:
131,138,28687,1,0,0:0:0:0:
131,138,29020,1,0,0:0:0:0:
131,138,29353,1,0,0:0:0:0:
131,138,29687,1,0,0:0:0:0:
283,178,30020,1,12,0:0:0:0:
68,155,30353,1,0,0:0:0:0:
68,155,30520,1,8,0:0:0:0:
68,155,30687,1,8,0:0:0:0:
68,155,30853,1,8,0:0:0:0:
68,155,30937,1,8,0:0:0:0:
68,155,31020,1,0,0:0:0:0:
95,149,31187,1,8,0:0:0:0:
95,149,31353,1,8,0:0:0:0:
95,149,31520,1,0,0:0:0:0:
95,149,31603,1,8,0:0:0:0:
95,149,31687,1,0,0:0:0:0:
95,149,31853,1,8,0:0:0:0:
92,147,32020,1,8,0:0:0:0:
103,146,32187,1,0,0:0:0:0:
103,146,32270,1,8,0:0:0:0:
103,146,32353,1,0,0:0:0:0:
103,146,32437,1,0,0:0:0:0:
103,146,32520,1,8,0:0:0:0:
103,146,32687,1,8,0:0:0:0:
163,171,33020,1,0,0:0:0:0:
163,171,33103,1,0,0:0:0:0:
163,171,33187,1,0,0:0:0:0:
163,171,33270,1,0,0:0:0:0:
176,66,33353,1,8,0:0:0:0:
176,66,33437,1,0,0:0:0:0:
232,156,33520,1,8,0:0:0:0:
232,156,33603,1,8,0:0:0:0:
102,126,33687,1,0,0:0:0:0:
163,171,33770,1,0,0:0:0:0:
163,171,33853,1,8,0:0:0:0:
126,108,33937,1,8,0:0:0:0:
163,171,34020,1,8,0:0:0:0:
163,171,34103,1,8,0:0:0:0:
163,171,34187,1,0,0:0:0:0:
163,171,34353,1,12,0:0:0:0:
267,190,34603,5,12,0:0:0:0:
267,190,34853,1,12,0:0:0:0:
267,190,35187,1,8,0:0:0:0:
343,129,35242,1,0,0:0:0:0:
343,129,35298,1,0,0:0:0:0:
343,129,35353,1,8,0:0:0:0:
221,159,35687,5,0,0:2:0:0:
244,105,36020,1,8,0:2:0:0:
244,105,36103,1,8,0:2:0:0:
244,105,36187,1,8,0:2:0:0:
244,105,36270,1,0,0:2:0:0:
244,105,36353,1,8,0:2:0:0:
244,105,36437,1,8,0:2:0:0:
244,105,36520,1,0,0:2:0:0:
244,105,36603,1,8,0:2:0:0:
244,105,36687,1,8,0:2:0:0:
244,105,36770,1,8,0:2:0:0:
244,105,36853,1,8,0:2:0:0:
244,105,36937,1,0,0:2:0:0:
244,105,37020,1,8,0:2:0:0:
244,105,37103,1,8,0:2:0:0:
244,105,37187,1,0,0:2:0:0:
244,105,37270,1,0,0:2:0:0:
244,105,37353,1,8,0:2:0:0:
244,105,37437,1,8,0:2:0:0:
244,105,37520,1,0,0:2:0:0:
244,105,37603,1,8,0:2:0:0:
244,105,37687,1,8,0:2:0:0:
244,105,37770,1,8,0:2:0:0:
244,105,37853,1,8,0:2:0:0:
244,105,37937,1,0,0:2:0:0:
244,105,38020,1,8,0:2:0:0:
231,193,38187,1,8,0:2:0:0:
231,193,38353,1,0,0:2:0:0:
244,105,38687,1,8,0:2:0:0:
244,105,38770,1,8,0:2:0:0:
244,105,38854,1,8,0:2:0:0:
244,105,38937,1,0,0:2:0:0:
244,105,39020,1,8,0:2:0:0:
244,105,39104,1,0,0:2:0:0:
244,105,39187,1,8,0:2:0:0:
244,105,39270,1,8,0:2:0:0:
244,105,39354,1,8,0:2:0:0:
244,105,39437,1,8,0:2:0:0:
244,105,39520,1,0,0:2:0:0:
244,105,39604,1,8,0:2:0:0:
244,105,39687,1,0,0:2:0:0:
244,105,39770,1,8,0:2:0:0:
244,105,39854,1,8,0:2:0:0:
244,105,39937,1,8,0:2:0:0:
244,105,40020,1,8,0:2:0:0:
244,105,40104,1,0,0:2:0:0:
244,105,40187,1,0,0:2:0:0:
244,105,40354,1,12,0:2:0:0:
244,105,40687,1,12,0:2:0:0:
231,193,41020,1,0,0:2:0:0:
244,105,41353,1,8,0:2:0:0:
244,105,41436,1,8,0:2:0:0:
244,105,41520,1,8,0:2:0:0:
244,105,41603,1,0,0:2:0:0:
244,105,41686,1,8,0:2:0:0:
244,105,41770,1,8,0:2:0:0:
244,105,41853,1,0,0:2:0:0:
244,105,41936,1,8,0:2:0:0:
244,105,42020,1,8,0:2:0:0:
244,105,42103,1,0,0:2:0:0:
244,105,42187,1,8,0:2:0:0:
244,105,42270,1,8,0:2:0:0:
244,105,42353,1,8,0:2:0:0:
244,105,42437,1,8,0:2:0:0:
244,105,42520,1,0,0:2:0:0:
244,105,42603,1,8,0:2:0:0:
244,105,42686,1,8,0:2:0:0:
244,105,42770,1,0,0:2:0:0:
244,105,42853,1,0,0:2:0:0:
244,105,42936,1,8,0:2:0:0:
244,105,43020,1,8,0:2:0:0:
244,105,43103,1,8,0:2:0:0:
244,105,43186,1,8,0:2:0:0:
244,105,43270,1,0,0:2:0:0:
244,105,43353,1,8,0:2:0:0:
231,193,43520,1,8,0:2:0:0:
276,178,43687,1,0,0:2:0:0:
176,166,44020,1,8,0:0:0:0:
176,166,44103,1,8,0:0:0:0:
176,166,44187,1,8,0:0:0:0:
176,166,44270,1,0,0:0:0:0:
176,166,44353,1,8,0:0:0:0:
176,166,44437,1,0,0:0:0:0:
176,166,44520,1,8,0:0:0:0:
176,166,44603,1,8,0:0:0:0:
176,166,44687,1,8,0:0:0:0:
176,166,44770,1,8,0:0:0:0:
176,166,44853,1,0,0:0:0:0:
176,166,44937,1,8,0:0:0:0:
176,166,45020,1,0,0:0:0:0:
337,224,45103,1,8,0:0:0:0:
337,224,45270,1,8,0:0:0:0:
337,224,45353,1,0,0:0:0:0:
337,224,45520,1,0,0:0:0:0:
337,224,45603,1,8,0:0:0:0:
337,224,45770,1,8,0:0:0:0:
337,224,45853,1,0,0:0:0:0:
337,224,46020,1,12,0:0:0:0:
337,224,46353,1,4,0:0:0:0:
113,139,46520,1,0,0:0:0:0:
113,139,46687,1,8,0:0:0:0:
113,139,46770,1,8,0:0:0:0:
113,139,46853,1,8,0:0:0:0:
113,139,46937,1,0,0:0:0:0:
113,139,47020,1,8,0:0:0:0:
113,139,47103,1,8,0:0:0:0:
113,139,47187,1,8,0:0:0:0:
113,139,47270,1,0,0:0:0:0:
113,139,47353,1,8,0:0:0:0:
113,139,47437,1,8,0:0:0:0:
113,139,47520,1,0,0:0:0:0:
113,139,47603,1,8,0:0:0:0:
113,139,47687,1,8,0:0:0:0:
113,139,47770,1,8,0:0:0:0:
113,139,47853,1,8,0:0:0:0:
113,139,47937,1,0,0:0:0:0:
113,139,48020,1,8,0:0:0:0:
113,139,48103,1,8,0:0:0:0:
113,139,48187,1,0,0:0:0:0:
113,139,48270,1,8,0:0:0:0:
113,139,48353,1,8,0:0:0:0:
113,139,48437,1,8,0:0:0:0:
113,139,48520,1,8,0:0:0:0:
113,139,48603,1,0,0:0:0:0:
113,139,48687,1,8,0:0:0:0:
113,139,48853,1,8,0:0:0:0:
113,139,49020,1,0,0:0:0:0:
113,139,49187,1,8,0:0:0:0:
144,67,49270,1,0,0:0:0:0:
113,139,49353,1,8,0:0:0:0:
113,139,49437,1,8,0:0:0:0:
113,139,49520,1,8,0:0:0:0:
113,139,49603,1,0,0:0:0:0:
113,139,49687,1,8,0:0:0:0:
119,140,49770,1,8,0:0:0:0:
119,140,49853,1,0,0:0:0:0:
119,140,49937,1,8,0:0:0:0:
119,140,50020,1,8,0:0:0:0:
119,140,50103,1,0,0:0:0:0:
119,140,50187,1,8,0:0:0:0:
119,140,50353,1,0,0:0:0:0:
119,140,50437,1,8,0:0:0:0:
281,151,50520,1,8,0:0:0:0:
281,151,50576,1,0,0:0:0:0:
281,151,50631,1,0,0:0:0:0:
281,151,50687,1,8,0:0:0:0:
204,202,50770,1,8,0:0:0:0:
204,202,50853,1,0,0:0:0:0:
204,202,51020,1,12,0:0:0:0:
204,202,51353,1,12,0:0:0:0:
204,202,51687,1,0,0:0:0:0:
244,105,52020,1,8,0:2:0:0:
244,105,52103,1,8,0:2:0:0:
244,105,52187,1,8,0:2:0:0:
244,105,52270,1,0,0:2:0:0:
244,105,52353,1,8,0:2:0:0:
244,105,52437,1,8,0:2:0:0:
244,105,52520,1,0,0:2:0:0:
244,105,52603,1,8,0:2:0:0:
244,105,52687,1,8,0:2:0:0:
244,105,52770,1,0,0:2:0:0:
244,105,52854,1,8,0:2:0:0:
244,105,52937,1,8,0:2:0:0:
244,105,53020,1,8,0:2:0:0:
244,105,53103,1,8,0:2:0:0:
244,105,53187,1,0,0:2:0:0:
244,105,53270,1,8,0:2:0:0:
244,105,53353,1,8,0:2:0:0:
244,105,53437,1,0,0:2:0:0:
244,105,53520,1,0,0:2:0:0:
244,105,53603,1,8,0:2:0:0:
244,105,53687,1,8,0:2:0:0:
244,105,53770,1,8,0:2:0:0:
244,105,53853,1,8,0:2:0:0:
244,105,53937,1,0,0:2:0:0:
244,105,54020,1,8,0:2:0:0:
85,166,54103,1,8,0:0:0:0:
231,193,54187,1,8,0:2:0:0:
93,166,54270,1,8,0:0:0:0:
153,153,54353,1,0,0:0:0:0:
153,153,54437,1,8,0:0:0:0:
153,153,54520,1,0,0:0:0:0:
153,153,54603,1,8,0:0:0:0:
153,153,54687,1,8,0:0:0:0:
153,153,54770,1,0,0:0:0:0:
153,153,54853,1,8,0:0:0:0:
153,153,54937,1,8,0:0:0:0:
153,153,55020,1,0,0:0:0:0:
153,153,55103,1,8,0:0:0:0:
153,153,55187,1,8,0:0:0:0:
153,153,55270,1,0,0:0:0:0:
153,153,55353,1,8,0:0:0:0:
153,153,55437,1,8,0:0:0:0:
153,153,55520,1,0,0:0:0:0:
21,165,55603,1,8,0:0:0:0:
153,153,55687,1,0,0:0:0:0:
153,153,55770,1,0,0:0:0:0:
153,153,56020,1,8,0:0:0:0:
153,153,56187,1,8,0:0:0:0:
153,153,56270,1,0,0:0:0:0:
153,153,56353,1,8,0:0:0:0:
153,153,56687,1,8,0:0:0:0:
153,153,57020,1,4,0:0:0:0:
236,148,57353,1,8,0:0:0:0:
236,148,57520,1,0,0:0:0:0:
169,103,57603,1,8,0:0:0:0:
236,148,57687,1,0,0:0:0:0:
236,148,57853,1,8,0:0:0:0:
208,171,57937,1,0,0:0:0:0:
208,171,58020,1,8,0:0:0:0:
208,171,58103,1,8,0:0:0:0:
208,171,58187,1,0,0:0:0:0:
208,171,58353,1,8,0:0:0:0:
212,174,58603,1,0,0:0:0:0:
212,174,58687,1,8,0:0:0:0:
212,174,58853,1,0,0:0:0:0:
48,115,58937,1,0,0:0:0:0:
212,174,59020,1,8,0:0:0:0:
261,186,59076,1,8,0:0:0:0:
261,186,59131,1,8,0:0:0:0:
261,186,59187,1,0,0:0:0:0:
260,158,59270,1,0,0:0:0:0:
260,158,59353,1,8,0:0:0:0:
260,158,59520,1,0,0:0:0:0:
118,92,59603,1,8,0:0:0:0:
260,158,59687,1,0,0:0:0:0:
260,158,59853,1,0,0:0:0:0:
260,158,59937,1,8,0:0:0:0:
260,158,60103,1,0,0:0:0:0:
260,158,60187,1,8,0:0:0:0:
260,158,60270,1,8,0:0:0:0:
260,158,60353,1,0,0:0:0:0:
260,158,60520,1,8,0:0:0:0:
260,158,60603,1,8,0:0:0:0:
260,158,60687,1,0,0:0:0:0:
260,158,60770,1,8,0:0:0:0:
260,158,60853,1,8,0:0:0:0:
260,158,60937,1,0,0:0:0:0:
260,158,61020,1,0,0:0:0:0:
192,124,61103,1,8,0:0:0:0:
192,124,61187,1,0,0:0:0:0:
192,124,61270,1,0,0:0:0:0:
192,124,61353,1,8,0:0:0:0:
192,124,61437,1,8,0:0:0:0:
192,124,61520,1,0,0:0:0:0:
192,124,61603,1,8,0:0:0:0:
192,124,61687,1,0,0:0:0:0:
192,124,61853,1,8,0:0:0:0:
192,124,61937,1,0,0:0:0:0:
192,124,62103,1,0,0:0:0:0:
192,124,62187,1,8,0:0:0:0:
192,124,62353,1,0,0:0:0:0:
192,124,62603,1,8,0:0:0:0:
192,124,62687,1,0,0:0:0:0:
192,124,62853,1,8,0:0:0:0:
192,124,63020,1,0,0:0:0:0:
192,124,63187,1,8,0:0:0:0:
192,124,63270,1,0,0:0:0:0:
192,124,63353,1,8,0:0:0:0:
192,124,63520,1,8,0:0:0:0:
99,125,63603,1,8,0:0:0:0:
192,124,63687,1,0,0:0:0:0:
126,100,63853,1,8,0:0:0:0:
192,124,63937,1,0,0:0:0:0:
192,124,64020,1,8,0:0:0:0:
192,124,64103,1,8,0:0:0:0:
192,124,64187,1,0,0:0:0:0:
192,124,64270,1,0,0:0:0:0:
192,124,64353,1,8,0:0:0:0:
15,206,64395,1,8,0:0:0:0:
15,206,64437,1,8,0:0:0:0:
214,121,64520,1,8,0:0:0:0:
158,122,64687,1,8,0:0:0:0:
331,155,64742,1,8,0:0:0:0:
331,155,64798,1,8,0:0:0:0:
331,155,64853,1,8,0:0:0:0:
211,149,65020,1,0,0:0:0:0:
200,205,65187,1,0,0:0:0:0:
200,205,65270,1,8,0:0:0:0:
200,205,65437,1,0,0:0:0:0:
200,205,65520,1,8,0:0:0:0:
200,205,65603,1,8,0:0:0:0:
200,205,65687,1,0,0:0:0:0:
200,205,65853,1,8,0:0:0:0:
200,205,65937,1,8,0:0:0:0:
200,205,66020,1,0,0:0:0:0:
200,205,66103,1,0,0:0:0:0:
200,205,66187,1,8,0:0:0:0:
200,205,66353,1,4,0:0:0:0:
192,108,66687,1,4,0:0:0:0:
192,108,67020,1,4,0:0:0:0:
192,108,67353,1,8,0:0:0:0:
153,153,67687,1,4,0:0:0:0:
236,148,68020,1,8,0:0:0:0:
236,148,68187,1,0,0:0:0:0:
169,103,68270,1,8,0:0:0:0:
236,148,68354,1,0,0:0:0:0:
236,148,68520,1,8,0:0:0:0:
208,171,68604,1,0,0:0:0:0:
208,171,68687,1,8,0:0:0:0:
208,171,68770,1,8,0:0:0:0:
208,171,68854,1,0,0:0:0:0:
208,171,69020,1,8,0:0:0:0:
212,174,69270,1,0,0:0:0:0:
212,174,69354,1,8,0:0:0:0:
212,174,69520,1,0,0:0:0:0:
48,115,69604,1,8,0:0:0:0:
212,174,69687,1,0,0:0:0:0:
261,186,69743,1,8,0:0:0:0:
261,186,69798,1,8,0:0:0:0:
261,186,69854,1,0,0:0:0:0:
260,158,70020,1,12,0:0:0:0:
260,158,70103,1,0,0:0:0:0:
260,158,70353,1,12,0:0:0:0:
260,158,70520,1,0,0:0:0:0:
260,158,70604,1,8,0:0:0:0:
260,158,70770,1,0,0:0:0:0:
260,158,70854,1,8,0:0:0:0:
260,158,70937,1,8,0:0:0:0:
260,158,71020,1,0,0:0:0:0:
260,158,71187,1,8,0:0:0:0:
260,158,71270,1,8,0:0:0:0:
260,158,71354,1,0,0:0:0:0:
260,158,71437,1,8,0:0:0:0:
260,158,71520,1,8,0:0:0:0:
260,158,71604,1,0,0:0:0:0:
260,158,71687,1,0,0:0:0:0:
192,124,71770,1,8,0:0:0:0:
192,124,71854,1,0,0:0:0:0:
192,124,71937,1,0,0:0:0:0:
192,124,72020,1,8,0:0:0:0:
192,124,72104,1,8,0:0:0:0:
192,124,72187,1,0,0:0:0:0:
192,124,72270,1,8,0:0:0:0:
192,124,72354,1,0,0:0:0:0:
192,124,72520,1,8,0:0:0:0:
192,124,72604,1,0,0:0:0:0:
207,142,72687,1,8,0:0:0:0:
249,161,72798,1,8,0:0:0:0:
249,161,72909,1,8,0:0:0:0:
249,161,73020,1,0,0:0:0:0:
275,177,73270,1,8,0:0:0:0:
275,177,73353,1,0,0:0:0:0:
267,188,73520,1,8,0:0:0:0:
266,188,73687,1,0,0:0:0:0:
265,189,73853,1,8,0:0:0:0:
265,189,73937,1,0,0:0:0:0:
265,189,74020,1,8,0:0:0:0:
265,189,74103,1,8,0:0:0:0:
265,188,74187,1,0,0:0:0:0:
266,188,74353,1,8,0:0:0:0:
255,176,74520,1,0,0:0:0:0:
255,176,74603,1,8,0:0:0:0:
254,176,74687,1,0,0:0:0:0:
254,176,74770,1,0,0:0:0:0:
254,176,74853,1,8,0:0:0:0:
254,176,74937,1,0,0:0:0:0:
425,106,75020,1,8,0:0:0:0:
413,114,75062,1,0,0:0:0:0:
412,113,75103,1,0,0:0:0:0:
411,113,75187,1,8,0:0:0:0:
333,163,75353,1,0,0:0:0:0:
333,163,75409,1,8,0:0:0:0:
333,163,75465,1,8,0:0:0:0:
333,163,75520,1,0,0:0:0:0:
328,167,75687,1,0,0:0:0:0:
214,191,75742,1,0,0:0:0:0:
214,191,75798,1,0,0:0:0:0:
214,191,75853,1,8,0:0:0:0:
278,175,75937,1,0,0:0:0:0:
214,191,76020,1,8,0:0:0:0:
214,191,76076,1,0,0:0:0:0:
214,191,76131,1,0,0:0:0:0:
214,191,76187,1,8,0:0:0:0:
279,176,76270,1,8,0:0:0:0:
214,191,76353,1,0,0:0:0:0:
214,191,76409,1,0,0:0:0:0:
214,191,76465,1,0,0:0:0:0:
214,191,76520,1,8,0:0:0:0:
279,176,76603,1,0,0:0:0:0:
214,191,76687,1,8,0:0:0:0:
214,191,76742,1,0,0:0:0:0:
214,191,76798,1,0,0:0:0:0:
214,191,76853,1,8,0:0:0:0:
178,132,76937,1,0,0:0:0:0:
241,165,77020,5,12,0:0:0:0:
241,165,77353,1,12,0:0:0:0:
241,165,77687,1,12,0:0:0:0:
241,165,78020,1,12,0:0:0:0:
245,220,78353,5,0,0:0:0:0:
245,220,78853,1,8,0:0:0:0:
245,220,79020,1,0,0:0:0:0:
350,160,79103,1,8,0:0:0:0:
254,214,79187,1,0,0:0:0:0:
254,214,79242,1,0,0:0:0:0:
277,173,79353,1,8,0:0:0:0:
277,173,79465,1,8,0:0:0:0:
277,173,79687,1,0,0:0:0:0:
147,122,81020,1,0,0:0:0:0:
274,186,81520,1,8,0:0:0:0:
274,186,81687,1,8,0:0:0:0:
274,186,81742,1,0,0:0:0:0:
152,197,81798,1,0,0:0:0:0:
292,179,81853,1,0,0:0:0:0:
173,78,82020,1,8,0:0:0:0:
432,102,82131,1,0,0:0:0:0:
283,158,82353,1,8,0:0:0:0:
273,173,83687,1,0,0:0:0:0:
214,175,83853,1,0,0:0:0:0:
269,184,84020,1,8,0:0:0:0:
261,188,84187,1,0,0:0:0:0:
269,184,84270,1,8,0:0:0:0:
269,184,84437,1,0,0:0:0:0:
261,188,84520,1,0,0:0:0:0:
269,184,84687,1,8,0:0:0:0:
261,188,84853,1,0,0:0:0:0:
210,79,84937,1,8,0:0:0:0:
269,184,85020,1,0,0:0:0:0:
111,142,85187,1,0,0:0:0:0:
269,184,85270,1,8,0:0:0:0:
269,184,85353,1,8,0:0:0:0:
261,188,85520,1,0,0:0:0:0:
269,184,85603,1,8,0:0:0:0:
269,184,85770,1,0,0:0:0:0:
261,188,85853,1,8,0:0:0:0:
131,133,85937,1,0,0:0:0:0:
269,184,86020,1,0,0:0:0:0:
261,188,86103,1,8,0:0:0:0:
261,188,86187,1,8,0:0:0:0:
243,108,86270,1,8,0:0:0:0:
269,184,86353,1,0,0:0:0:0:
142,91,86520,1,0,0:0:0:0:
269,184,86687,1,8,0:0:0:0:
217,118,86853,1,0,0:0:0:0:
269,184,86937,1,8,0:0:0:0:
269,184,87103,1,0,0:0:0:0:
261,188,87187,1,8,0:0:0:0:
172,106,87270,1,0,0:0:0:0:
269,184,87353,1,0,0:0:0:0:
185,50,87437,1,8,0:0:0:0:
261,188,87520,1,8,0:0:0:0:
261,188,87603,1,0,0:0:0:0:
269,184,87687,1,0,0:0:0:0:
188,106,87853,1,0,0:0:0:0:
225,153,87937,1,8,0:0:0:0:
269,184,88020,1,8,0:0:0:0:
261,188,88187,1,0,0:0:0:0:
269,184,88270,1,8,0:0:0:0:
269,184,88437,1,0,0:0:0:0:
261,188,88520,1,8,0:0:0:0:
137,108,88603,1,0,0:0:0:0:
269,184,88687,1,0,0:0:0:0:
261,188,88770,1,8,0:0:0:0:
261,188,88853,1,8,0:0:0:0:
48,192,88937,1,8,0:0:0:0:
269,184,89020,1,0,0:0:0:0:
226,196,89353,1,8,0:0:0:0:
226,196,89687,1,8,0:0:0:0:
219,147,90020,1,8,0:0:0:0:
219,147,90187,1,0,0:0:0:0:
219,147,90270,1,8,0:0:0:0:
226,196,90353,1,0,0:0:0:0:
226,196,90687,1,8,0:0:0:0:
226,196,91020,1,8,0:0:0:0:
211,155,91187,1,0,0:0:0:0:
211,155,91353,1,0,0:0:0:0:
211,155,91437,1,8,0:0:0:0:
211,155,91520,1,0,0:0:0:0:
203,94,91603,1,8,0:0:0:0:
226,196,91687,1,0,0:0:0:0:
226,196,92020,1,8,0:0:0:0:
226,196,92353,1,8,0:0:0:0:
178,148,92687,1,8,0:0:0:0:
178,148,92853,1,0,0:0:0:0:
178,148,92937,1,8,0:0:0:0:
226,196,93020,1,0,0:0:0:0:
224,156,93187,1,8,0:0:0:0:
156,136,93270,1,0,0:0:0:0:
156,136,93437,1,0,0:0:0:0:
155,137,93520,1,8,0:0:0:0:
172,92,93603,1,8,0:0:0:0:
155,137,93687,1,0,0:0:0:0:
229,98,93728,1,8,0:0:0:0:
160,107,93853,1,0,0:0:0:0:
160,107,94020,1,0,0:0:0:0:
221,112,94062,1,8,0:0:0:0:
160,107,94187,1,0,0:0:0:0:
160,107,94353,1,12,0:0:0:0:
266,186,94520,1,0,0:0:0:0:
266,186,94603,1,8,0:0:0:0:
266,186,94770,1,0,0:0:0:0:
266,186,94853,1,8,0:0:0:0:
170,68,94937,1,0,0:0:0:0:
177,26,95020,1,8,0:0:0:0:
266,186,95187,1,0,0:0:0:0:
266,186,95270,1,8,0:0:0:0:
266,186,95437,1,0,0:0:0:0:
266,186,95520,1,8,0:0:0:0:
186,147,95687,1,4,0:0:0:0:
266,186,95853,5,8,0:0:0:0:
266,186,95937,1,0,0:0:0:0:
266,186,96103,1,0,0:0:0:0:
266,186,96187,1,8,0:0:0:0:
266,186,96353,1,0,0:0:0:0:
266,186,96520,1,8,0:0:0:0:
266,186,96603,1,0,0:0:0:0:
266,186,96770,1,0,0:0:0:0:
266,186,96853,1,8,0:0:0:0:
177,147,97020,5,4,0:0:0:0:
266,186,97187,1,0,0:0:0:0:
266,186,97270,1,8,0:0:0:0:
322,152,97353,1,0,0:0:0:0:
91,90,97437,1,0,0:0:0:0:
322,152,97520,1,8,0:0:0:0:
277,138,97603,1,0,0:0:0:0:
277,138,97687,1,8,0:0:0:0:
294,166,97742,1,8,0:0:0:0:
294,166,97798,1,8,0:0:0:0:
294,166,97853,1,0,0:0:0:0:
382,100,97937,1,0,0:0:0:0:
362,114,98020,1,8,0:0:0:0:
287,177,98353,5,12,0:0:0:0:
287,177,98437,1,4,0:0:0:0:
287,177,98603,1,4,0:0:0:0:
287,177,98687,1,12,0:0:0:0:
287,177,98853,1,4,0:0:0:0:
287,177,99020,1,12,0:0:0:0:
287,177,99353,1,8,0:0:0:0:
195,144,99687,1,4,0:0:0:0:
250,163,99853,1,8,0:0:0:0:
250,163,100020,1,0,0:0:0:0:
250,163,100187,1,8,0:0:0:0:
250,163,100270,1,8,0:0:0:0:
250,163,100353,1,0,0:0:0:0:
250,163,100520,1,8,0:0:0:0:
250,163,100687,1,0,0:0:0:0:
250,163,100853,1,8,0:0:0:0:
250,163,100937,1,8,0:0:0:0:
250,163,101020,1,0,0:0:0:0:
175,120,101270,1,8,0:0:0:0:
165,84,101353,1,0,0:0:0:0:
250,163,101520,1,8,0:0:0:0:
172,98,101687,1,0,0:0:0:0:
201,176,101853,1,8,0:0:0:0:
201,176,101937,1,0,0:0:0:0:
201,176,102020,1,8,0:0:0:0:
201,176,102103,1,8,0:0:0:0:
201,176,102187,1,0,0:0:0:0:
201,176,102353,1,8,0:0:0:0:
201,176,102520,1,8,0:0:0:0:
201,176,102687,1,0,0:0:0:0:
201,176,102853,1,8,0:0:0:0:
201,176,102937,1,8,0:0:0:0:
201,176,103020,1,0,0:0:0:0:
23,141,103187,1,0,0:0:0:0:
139,138,103270,1,8,0:0:0:0:
139,138,103353,1,0,0:0:0:0:
139,138,103520,1,8,0:0:0:0:
139,138,103687,1,0,0:0:0:0:
121,163,103853,1,8,0:0:0:0:
125,107,103937,1,8,0:0:0:0:
226,154,104020,1,0,0:0:0:0:
181,102,104103,1,8,0:0:0:0:
159,144,104187,1,0,0:0:0:0:
150,131,104353,1,8,0:0:0:0:
103,141,104520,1,0,0:0:0:0:
159,144,104603,1,8,0:0:0:0:
104,142,104770,1,0,0:0:0:0:
159,144,104853,1,8,0:0:0:0:
63,99,104937,1,8,0:0:0:0:
195,144,105020,1,0,0:0:0:0:
250,163,105186,1,8,0:0:0:0:
250,163,105353,1,0,0:0:0:0:
250,163,105520,1,8,0:0:0:0:
250,163,105603,1,8,0:0:0:0:
250,163,105686,1,0,0:0:0:0:
250,163,105853,1,8,0:0:0:0:
250,163,106020,1,0,0:0:0:0:
250,163,106186,1,8,0:0:0:0:
250,163,106270,1,8,0:0:0:0:
250,163,106353,1,0,0:0:0:0:
175,120,106603,1,8,0:0:0:0:
165,84,106686,1,0,0:0:0:0:
250,163,106853,1,8,0:0:0:0:
172,98,107020,1,0,0:0:0:0:
201,176,107186,1,8,0:0:0:0:
201,176,107270,1,0,0:0:0:0:
201,176,107353,1,8,0:0:0:0:
201,176,107436,1,8,0:0:0:0:
201,176,107520,1,0,0:0:0:0:
201,176,107686,1,8,0:0:0:0:
93,170,107853,1,8,0:0:0:0:
93,170,108020,1,0,0:0:0:0:
93,170,108187,1,8,0:0:0:0:
184,117,108270,1,0,0:0:0:0:
93,170,108353,1,8,0:0:0:0:
81,161,108520,1,8,0:0:0:0:
145,69,108603,1,8,0:0:0:0:
84,160,108687,1,0,0:0:0:0:
141,150,108853,1,8,0:0:0:0:
255,137,109020,5,4,0:0:0:0:
255,137,109353,1,4,0:0:0:0:
255,137,109687,1,4,0:0:0:0:
255,137,110020,1,8,0:0:0:0:
255,137,110353,1,4,0:0:0:0:
176,131,110687,1,0,0:0:0:0:
176,131,110853,1,8,0:0:0:0:
176,131,111020,1,0,0:0:0:0:
176,131,111187,1,8,0:0:0:0:
176,131,111270,1,8,0:0:0:0:
176,131,111353,1,0,0:0:0:0:
176,131,111520,1,8,0:0:0:0:
192,138,111687,5,8,0:0:0:0:
192,138,111770,1,8,0:0:0:0:
192,138,111853,1,8,0:0:0:0:
192,138,111937,1,0,0:0:0:0:
192,138,112020,1,8,0:0:0:0:
192,138,112187,1,0,0:0:0:0:
192,138,112270,1,8,0:0:0:0:
192,138,112437,1,8,0:0:0:0:
192,138,112520,1,0,0:0:0:0:
192,138,112687,1,8,0:0:0:0:
192,138,112770,1,0,0:0:0:0:
192,138,112853,1,8,0:0:0:0:
192,138,112937,1,8,0:0:0:0:
192,138,113020,1,0,0:0:0:0:
192,118,113187,1,8,0:0:0:0:
192,118,113353,1,0,0:0:0:0:
192,118,113520,1,8,0:0:0:0:
192,118,113603,1,8,0:0:0:0:
192,118,113687,1,0,0:0:0:0:
192,118,113853,1,8,0:0:0:0:
134,102,113937,1,0,0:0:0:0:
192,118,114020,1,8,0:0:0:0:
134,102,114187,1,8,0:0:0:0:
227,138,114353,5,8,0:0:0:0:
227,138,114437,1,8,0:0:0:0:
227,138,114520,1,8,0:0:0:0:
227,138,114603,1,0,0:0:0:0:
227,138,114687,1,0,0:0:0:0:
227,138,114770,1,8,0:0:0:0:
227,138,114853,1,8,0:0:0:0:
227,138,114937,1,0,0:0:0:0:
227,138,115020,1,8,0:0:0:0:
171,122,115103,1,0,0:0:0:0:
171,122,115270,1,8,0:0:0:0:
171,122,115353,1,0,0:0:0:0:
171,122,115520,1,8,0:0:0:0:
49,158,115687,1,0,0:0:0:0:
218,147,115853,1,8,0:0:0:0:
218,147,116020,1,0,0:0:0:0:
218,147,116187,1,8,0:0:0:0:
218,147,116270,1,8,0:0:0:0:
218,147,116353,1,0,0:0:0:0:
218,147,116437,1,0,0:0:0:0:
218,147,116520,1,8,0:0:0:0:
218,147,116687,1,0,0:0:0:0:
218,147,116853,1,8,0:0:0:0:
157,78,116937,1,0,0:0:0:0:
168,97,117020,1,8,0:0:0:0:
179,129,117103,1,8,0:0:0:0:
179,129,117187,1,0,0:0:0:0:
179,129,117270,1,8,0:0:0:0:
179,129,117353,1,8,0:0:0:0:
107,182,117520,1,0,0:0:0:0:
107,182,117603,1,8,0:0:0:0:
107,182,117770,1,8,0:0:0:0:
107,182,117853,1,0,0:0:0:0:
107,182,117937,1,0,0:0:0:0:
107,182,118020,1,8,0:0:0:0:
107,182,118103,1,8,0:0:0:0:
107,182,118187,1,0,0:0:0:0:
149,140,118270,1,8,0:0:0:0:
149,140,118353,1,0,0:0:0:0:
190,116,118437,1,0,0:0:0:0:
190,116,118520,1,0,0:0:0:0:
190,116,118603,1,0,0:0:0:0:
195,110,118687,1,8,0:0:0:0:
195,110,118770,1,8,0:0:0:0:
195,110,118853,1,0,0:0:0:0:
195,110,118937,1,8,0:0:0:0:
169,93,119020,1,0,0:0:0:0:
169,93,119103,1,8,0:0:0:0:
169,93,119187,1,8,0:0:0:0:
169,93,119270,1,0,0:0:0:0:
151,189,119353,1,8,0:0:0:0:
151,189,119409,1,8,0:0:0:0:
151,189,119465,1,8,0:0:0:0:
151,189,119520,1,8,0:0:0:0:
257,166,119687,1,4,0:0:0:0:
201,154,119937,1,4,0:0:0:0:
201,154,120187,1,4,0:0:0:0:
201,154,120520,1,8,0:0:0:0:
152,213,120576,1,0,0:0:0:0:
152,213,120631,1,0,0:0:0:0:
201,154,120687,1,8,0:0:0:0:
