osu file format v14

[General]
AudioFilename: Tsugihagi Construction 2012_1.2.mp3
AudioLeadIn: 1500
PreviewTime: 66666
Countdown: 0
SampleSet: None
StackLeniency: 0.7
Mode: 3
LetterboxInBreaks: 0
SpecialStyle: 0
WidescreenStoryboard: 0

[Editor]
DistanceSpacing: 0.9
BeatDivisor: 4
GridSize: 16
TimelineZoom: 1

[Metadata]
Title:Tsugihagi Construction 2012
TitleUnicode:Tsugihagi Construction 2012
Artist:t+pazolite
ArtistUnicode:t+pazolite
Creator:booty
Version:Challenge(dance-single) x1.2
Source:
Tags:
BeatmapID:1875543
BeatmapSetID:897783

[Difficulty]
HPDrainRate:7
CircleSize:4
OverallDifficulty:7
ApproachRate:9
SliderMultiplier:1.4
SliderTickRate:1

[Events]
//Background and Video events
0,0,"BG.png",0,0
//Break Periods
//Storyboard Layer 0 (Background)
//Storyboard Layer 1 (Fail)
//Storyboard Layer 2 (Pass)
//Storyboard Layer 3 (Foreground)
//Storyboard Sound Samples

[TimingPoints]
258,208.333333333333,4,1,0,15,1,0

[HitObjects]
64,0,233,5,0,0:0:0:0:
192,0,233,1,0,0:0:0:0:
320,0,233,1,0,0:0:0:0:
448,0,233,1,0,0:0:0:0:
192,0,337,1,0,0:0:0:0:
320,0,441,1,0,0:0:0:0:
64,0,545,1,0,0:0:0:0:
320,0,650,1,0,0:0:0:0:
192,0,754,1,0,0:0:0:0:
448,0,858,1,0,0:0:0:0:
320,0,962,1,0,0:0:0:0:
64,0,1066,1,0,0:0:0:0:
192,0,1066,1,0,0:0:0:0:
320,0,1170,1,0,0:0:0:0:
64,0,1275,1,0,0:0:0:0:
320,0,1379,1,0,0:0:0:0:
448,0,1379,1,0,0:0:0:0:
192,0,1483,1,0,0:0:0:0:
320,0,1587,1,0,0:0:0:0:
64,0,1691,1,0,0:0:0:0:
448,0,1691,1,0,0:0:0:0:
320,0,1795,1,0,0:0:0:0:
64,0,1900,1,0,0:0:0:0:
192,0,1900,1,0,0:0:0:0:
320,0,2004,1,0,0:0:0:0:
448,0,2108,1,0,0:0:0:0:
192,0,2212,1,0,0:0:0:0:
320,0,2212,1,0,0:0:0:0:
64,0,2316,1,0,0:0:0:0:
192,0,2420,1,0,0:0:0:0:
320,0,2525,1,0,0:0:0:0:
448,0,2525,1,0,0:0:0:0:
192,0,2629,1,0,0:0:0:0:
64,0,2733,1,0,0:0:0:0:
448,0,2733,1,0,0:0:0:0:
320,0,2837,1,0,0:0:0:0:
192,0,2941,1,0,0:0:0:0:
64,0,3045,1,0,0:0:0:0:
320,0,3045,1,0,0:0:0:0:
448,0,3150,1,0,0:0:0:0:
320,0,3254,1,0,0:0:0:0:
64,0,3358,1,0,0:0:0:0:
192,0,3358,1,0,0:0:0:0:
192,0,3462,1,0,0:0:0:0:
320,0,3462,1,0,0:0:0:0:
320,0,3566,1,0,0:0:0:0:
448,0,3566,1,0,0:0:0:0:
192,0,3670,1,0,0:0:0:0:
320,0,3775,1,0,0:0:0:0:
64,0,3879,1,0,0:0:0:0:
448,0,3879,1,0,0:0:0:0:
192,0,3983,1,0,0:0:0:0:
320,0,4087,1,0,0:0:0:0:
64,0,4191,1,0,0:0:0:0:
192,0,4191,1,0,0:0:0:0:
320,0,4295,1,0,0:0:0:0:
64,0,4400,1,0,0:0:0:0:
448,0,4400,1,0,0:0:0:0:
320,0,4504,1,0,0:0:0:0:
192,0,4608,1,0,0:0:0:0:
320,0,4712,1,0,0:0:0:0:
448,0,4712,1,0,0:0:0:0:
64,0,4816,1,0,0:0:0:0:
192,0,4920,1,0,0:0:0:0:
320,0,5025,1,0,0:0:0:0:
448,0,5025,1,0,0:0:0:0:
64,0,5129,1,0,0:0:0:0:
192,0,5233,1,0,0:0:0:0:
320,0,5233,1,0,0:0:0:0:
448,0,5337,1,0,0:0:0:0:
192,0,5441,1,0,0:0:0:0:
320,0,5545,1,0,0:0:0:0:
448,0,5545,1,0,0:0:0:0:
64,0,5650,1,0,0:0:0:0:
192,0,5754,1,0,0:0:0:0:
320,0,5858,1,0,0:0:0:0:
192,0,5962,1,0,0:0:0:0:
448,0,6066,1,0,0:0:0:0:
320,0,6170,1,0,0:0:0:0:
192,0,6275,1,0,0:0:0:0:
320,0,6379,1,0,0:0:0:0:
64,0,6483,1,0,0:0:0:0:
320,0,6587,1,0,0:0:0:0:
192,0,6691,1,0,0:0:0:0:
64,0,6795,1,0,0:0:0:0:
320,0,6900,1,0,0:0:0:0:
448,0,6925,1,0,0:0:0:0:
192,0,7004,1,0,0:0:0:0:
320,0,7108,1,0,0:0:0:0:
64,0,7212,1,0,0:0:0:0:
192,0,7316,1,0,0:0:0:0:
320,0,7420,1,0,0:0:0:0:
448,0,7525,1,0,0:0:0:0:
320,0,7629,1,0,0:0:0:0:
64,0,7733,1,0,0:0:0:0:
192,0,7733,1,0,0:0:0:0:
448,0,7837,1,0,0:0:0:0:
320,0,7941,1,0,0:0:0:0:
64,0,8045,1,0,0:0:0:0:
192,0,8045,1,0,0:0:0:0:
320,0,8150,1,0,0:0:0:0:
448,0,8254,1,0,0:0:0:0:
192,0,8358,1,0,0:0:0:0:
320,0,8358,1,0,0:0:0:0:
64,0,8462,1,0,0:0:0:0:
320,0,8566,1,0,0:0:0:0:
448,0,8566,1,0,0:0:0:0:
192,0,8670,1,0,0:0:0:0:
320,0,8775,1,0,0:0:0:0:
64,0,8879,1,0,0:0:0:0:
448,0,8879,1,0,0:0:0:0:
192,0,8983,1,0,0:0:0:0:
320,0,9087,1,0,0:0:0:0:
64,0,9191,1,0,0:0:0:0:
192,0,9191,1,0,0:0:0:0:
448,0,9295,1,0,0:0:0:0:
192,0,9400,1,0,0:0:0:0:
320,0,9400,1,0,0:0:0:0:
64,0,9504,1,0,0:0:0:0:
192,0,9608,1,0,0:0:0:0:
320,0,9712,1,0,0:0:0:0:
448,0,9712,1,0,0:0:0:0:
64,0,9816,1,0,0:0:0:0:
320,0,9920,1,0,0:0:0:0:
64,0,10025,1,0,0:0:0:0:
192,0,10025,1,0,0:0:0:0:
192,0,10129,1,0,0:0:0:0:
320,0,10129,1,0,0:0:0:0:
320,0,10233,1,0,0:0:0:0:
448,0,10233,1,0,0:0:0:0:
192,0,10337,1,0,0:0:0:0:
320,0,10441,1,0,0:0:0:0:
64,0,10545,1,0,0:0:0:0:
448,0,10545,1,0,0:0:0:0:
192,0,10650,1,0,0:0:0:0:
320,0,10754,1,0,0:0:0:0:
64,0,10858,1,0,0:0:0:0:
192,0,10858,1,0,0:0:0:0:
448,0,10962,1,0,0:0:0:0:
192,0,11066,1,0,0:0:0:0:
320,0,11066,1,0,0:0:0:0:
64,0,11170,1,0,0:0:0:0:
192,0,11275,1,0,0:0:0:0:
320,0,11379,1,0,0:0:0:0:
448,0,11379,1,0,0:0:0:0:
192,0,11483,1,0,0:0:0:0:
320,0,11587,1,0,0:0:0:0:
64,0,11691,1,0,0:0:0:0:
448,0,11691,1,0,0:0:0:0:
192,0,11795,1,0,0:0:0:0:
448,0,11900,1,0,0:0:0:0:
320,0,11935,1,0,0:0:0:0:
192,0,11969,1,0,0:0:0:0:
64,0,12004,1,0,0:0:0:0:
448,0,12039,1,0,0:0:0:0:
320,0,12073,1,0,0:0:0:0:
192,0,12108,1,0,0:0:0:0:
64,0,12143,1,0,0:0:0:0:
448,0,12177,1,0,0:0:0:0:
320,0,12212,1,0,0:0:0:0:
192,0,12247,1,0,0:0:0:0:
64,0,12281,1,0,0:0:0:0:
448,0,12316,1,0,0:0:0:0:
320,0,12351,1,0,0:0:0:0:
192,0,12385,1,0,0:0:0:0:
64,0,12420,1,0,0:0:0:0:
448,0,12455,1,0,0:0:0:0:
320,0,12490,1,0,0:0:0:0:
192,0,12525,1,0,0:0:0:0:
64,0,12560,1,0,0:0:0:0:
448,0,12594,1,0,0:0:0:0:
320,0,12629,1,0,0:0:0:0:
192,0,12664,1,0,0:0:0:0:
64,0,12698,1,0,0:0:0:0:
448,0,12733,1,0,0:0:0:0:
320,0,12785,1,0,0:0:0:0:
192,0,12837,1,0,0:0:0:0:
64,0,12890,1,0,0:0:0:0:
448,0,12941,1,0,0:0:0:0:
320,0,12994,1,0,0:0:0:0:
192,0,13045,1,0,0:0:0:0:
64,0,13098,1,0,0:0:0:0:
448,0,13150,128,0,13566:0:0:0:0:
192,0,13358,1,0,0:0:0:0:
320,0,13462,1,0,0:0:0:0:
64,0,13566,1,0,0:0:0:0:
192,0,13566,1,0,0:0:0:0:
320,0,13619,1,0,0:0:0:0:
64,0,13670,1,0,0:0:0:0:
448,0,13670,1,0,0:0:0:0:
192,0,13723,1,0,0:0:0:0:
320,0,13775,1,0,0:0:0:0:
448,0,13775,1,0,0:0:0:0:
64,0,13827,1,0,0:0:0:0:
192,0,13879,1,0,0:0:0:0:
320,0,13879,1,0,0:0:0:0:
448,0,13931,1,0,0:0:0:0:
64,0,13983,1,0,0:0:0:0:
192,0,13983,1,0,0:0:0:0:
448,0,14035,1,0,0:0:0:0:
192,0,14087,1,0,0:0:0:0:
320,0,14087,1,0,0:0:0:0:
64,0,14140,1,0,0:0:0:0:
320,0,14191,1,0,0:0:0:0:
448,0,14191,1,0,0:0:0:0:
192,0,14244,1,0,0:0:0:0:
64,0,14295,1,0,0:0:0:0:
448,0,14295,1,0,0:0:0:0:
320,0,14348,1,0,0:0:0:0:
64,0,14400,1,0,0:0:0:0:
192,0,14400,1,0,0:0:0:0:
320,0,14452,1,0,0:0:0:0:
64,0,14504,1,0,0:0:0:0:
448,0,14504,1,0,0:0:0:0:
192,0,14556,1,0,0:0:0:0:
320,0,14608,1,0,0:0:0:0:
448,0,14608,1,0,0:0:0:0:
64,0,14660,1,0,0:0:0:0:
192,0,14712,1,0,0:0:0:0:
320,0,14712,1,0,0:0:0:0:
448,0,14765,1,0,0:0:0:0:
64,0,14816,1,0,0:0:0:0:
192,0,14816,1,0,0:0:0:0:
448,0,14869,1,0,0:0:0:0:
192,0,14920,1,0,0:0:0:0:
320,0,14920,1,0,0:0:0:0:
64,0,14973,1,0,0:0:0:0:
320,0,15025,1,0,0:0:0:0:
448,0,15025,1,0,0:0:0:0:
64,0,15077,1,0,0:0:0:0:
192,0,15077,1,0,0:0:0:0:
320,0,15129,1,0,0:0:0:0:
448,0,15129,1,0,0:0:0:0:
64,0,15181,1,0,0:0:0:0:
192,0,15181,1,0,0:0:0:0:
320,0,15233,1,0,0:0:0:0:
448,0,15233,1,0,0:0:0:0:
192,0,15285,1,0,0:0:0:0:
64,0,15337,1,0,0:0:0:0:
448,0,15337,1,0,0:0:0:0:
320,0,15390,1,0,0:0:0:0:
64,0,15441,1,0,0:0:0:0:
192,0,15441,1,0,0:0:0:0:
320,0,15494,1,0,0:0:0:0:
64,0,15545,1,0,0:0:0:0:
448,0,15545,1,0,0:0:0:0:
192,0,15598,1,0,0:0:0:0:
320,0,15650,1,0,0:0:0:0:
448,0,15650,1,0,0:0:0:0:
64,0,15702,1,0,0:0:0:0:
192,0,15754,1,0,0:0:0:0:
320,0,15754,1,0,0:0:0:0:
448,0,15806,1,0,0:0:0:0:
64,0,15858,1,0,0:0:0:0:
192,0,15858,1,0,0:0:0:0:
320,0,15910,1,0,0:0:0:0:
64,0,15962,1,0,0:0:0:0:
448,0,15962,1,0,0:0:0:0:
192,0,16015,1,0,0:0:0:0:
320,0,16066,1,0,0:0:0:0:
448,0,16066,1,0,0:0:0:0:
64,0,16170,1,0,0:0:0:0:
192,0,16275,1,0,0:0:0:0:
320,0,16275,1,0,0:0:0:0:
448,0,16379,1,0,0:0:0:0:
64,0,16483,1,0,0:0:0:0:
192,0,16483,1,0,0:0:0:0:
320,0,16587,1,0,0:0:0:0:
448,0,16587,1,0,0:0:0:0:
64,0,16691,1,0,0:0:0:0:
448,0,16691,1,0,0:0:0:0:
192,0,16795,1,0,0:0:0:0:
320,0,16795,1,0,0:0:0:0:
64,0,16900,1,0,0:0:0:0:
448,0,16900,1,0,0:0:0:0:
192,0,16952,1,0,0:0:0:0:
320,0,17004,1,0,0:0:0:0:
448,0,17004,1,0,0:0:0:0:
64,0,17056,1,0,0:0:0:0:
192,0,17108,1,0,0:0:0:0:
320,0,17108,1,0,0:0:0:0:
448,0,17160,1,0,0:0:0:0:
64,0,17212,1,0,0:0:0:0:
192,0,17212,1,0,0:0:0:0:
320,0,17265,1,0,0:0:0:0:
64,0,17316,1,0,0:0:0:0:
448,0,17316,1,0,0:0:0:0:
320,0,17369,1,0,0:0:0:0:
64,0,17420,1,0,0:0:0:0:
192,0,17420,1,0,0:0:0:0:
448,0,17473,1,0,0:0:0:0:
192,0,17525,1,0,0:0:0:0:
320,0,17525,1,0,0:0:0:0:
64,0,17577,1,0,0:0:0:0:
320,0,17629,1,0,0:0:0:0:
448,0,17629,1,0,0:0:0:0:
192,0,17681,1,0,0:0:0:0:
64,0,17733,1,0,0:0:0:0:
448,0,17733,1,0,0:0:0:0:
192,0,17785,1,0,0:0:0:0:
320,0,17837,1,0,0:0:0:0:
448,0,17837,1,0,0:0:0:0:
64,0,17890,1,0,0:0:0:0:
192,0,17941,1,0,0:0:0:0:
320,0,17941,1,0,0:0:0:0:
448,0,17994,1,0,0:0:0:0:
64,0,18045,1,0,0:0:0:0:
192,0,18045,1,0,0:0:0:0:
320,0,18098,1,0,0:0:0:0:
64,0,18150,1,0,0:0:0:0:
448,0,18150,1,0,0:0:0:0:
320,0,18202,1,0,0:0:0:0:
64,0,18254,1,0,0:0:0:0:
192,0,18254,1,0,0:0:0:0:
448,0,18306,1,0,0:0:0:0:
64,0,18358,1,0,0:0:0:0:
192,0,18358,1,0,0:0:0:0:
320,0,18410,1,0,0:0:0:0:
448,0,18410,1,0,0:0:0:0:
64,0,18462,1,0,0:0:0:0:
192,0,18462,1,0,0:0:0:0:
320,0,18515,1,0,0:0:0:0:
448,0,18515,1,0,0:0:0:0:
64,0,18566,1,0,0:0:0:0:
192,0,18566,1,0,0:0:0:0:
320,0,18619,1,0,0:0:0:0:
64,0,18670,1,0,0:0:0:0:
448,0,18670,1,0,0:0:0:0:
192,0,18723,1,0,0:0:0:0:
320,0,18775,1,0,0:0:0:0:
448,0,18775,1,0,0:0:0:0:
64,0,18827,1,0,0:0:0:0:
192,0,18879,1,0,0:0:0:0:
320,0,18879,1,0,0:0:0:0:
448,0,18931,1,0,0:0:0:0:
64,0,18983,1,0,0:0:0:0:
192,0,18983,1,0,0:0:0:0:
448,0,19035,1,0,0:0:0:0:
192,0,19087,1,0,0:0:0:0:
320,0,19087,1,0,0:0:0:0:
64,0,19140,1,0,0:0:0:0:
320,0,19191,1,0,0:0:0:0:
448,0,19191,1,0,0:0:0:0:
192,0,19244,1,0,0:0:0:0:
64,0,19295,1,0,0:0:0:0:
448,0,19295,1,0,0:0:0:0:
320,0,19348,1,0,0:0:0:0:
64,0,19400,1,0,0:0:0:0:
192,0,19400,1,0,0:0:0:0:
448,0,19504,1,0,0:0:0:0:
320,0,19556,1,0,0:0:0:0:
64,0,19608,1,0,0:0:0:0:
192,0,19608,1,0,0:0:0:0:
320,0,19712,1,0,0:0:0:0:
448,0,19712,1,0,0:0:0:0:
64,0,19816,1,0,0:0:0:0:
448,0,19816,1,0,0:0:0:0:
320,0,19920,1,0,0:0:0:0:
64,0,20025,1,0,0:0:0:0:
192,0,20025,1,0,0:0:0:0:
448,0,20129,1,0,0:0:0:0:
192,0,20233,1,0,0:0:0:0:
320,0,20233,1,0,0:0:0:0:
64,0,20285,1,0,0:0:0:0:
320,0,20337,1,0,0:0:0:0:
448,0,20337,1,0,0:0:0:0:
192,0,20390,1,0,0:0:0:0:
64,0,20441,1,0,0:0:0:0:
448,0,20441,1,0,0:0:0:0:
320,0,20494,1,0,0:0:0:0:
64,0,20545,1,0,0:0:0:0:
192,0,20545,1,0,0:0:0:0:
448,0,20598,1,0,0:0:0:0:
192,0,20650,1,0,0:0:0:0:
320,0,20650,1,0,0:0:0:0:
64,0,20702,1,0,0:0:0:0:
320,0,20754,1,0,0:0:0:0:
448,0,20754,1,0,0:0:0:0:
64,0,20806,1,0,0:0:0:0:
192,0,20858,1,0,0:0:0:0:
320,0,20858,1,0,0:0:0:0:
448,0,20910,1,0,0:0:0:0:
64,0,20962,1,0,0:0:0:0:
192,0,20962,1,0,0:0:0:0:
448,0,21015,1,0,0:0:0:0:
192,0,21066,1,0,0:0:0:0:
320,0,21066,1,0,0:0:0:0:
64,0,21119,1,0,0:0:0:0:
320,0,21170,1,0,0:0:0:0:
448,0,21170,1,0,0:0:0:0:
192,0,21223,1,0,0:0:0:0:
64,0,21275,1,0,0:0:0:0:
448,0,21275,1,0,0:0:0:0:
320,0,21327,1,0,0:0:0:0:
64,0,21379,1,0,0:0:0:0:
192,0,21379,1,0,0:0:0:0:
448,0,21431,1,0,0:0:0:0:
192,0,21483,1,0,0:0:0:0:
320,0,21483,1,0,0:0:0:0:
64,0,21535,1,0,0:0:0:0:
320,0,21587,1,0,0:0:0:0:
448,0,21587,1,0,0:0:0:0:
64,0,21640,1,0,0:0:0:0:
320,0,21691,1,0,0:0:0:0:
448,0,21691,1,0,0:0:0:0:
64,0,21744,1,0,0:0:0:0:
192,0,21744,1,0,0:0:0:0:
320,0,21795,1,0,0:0:0:0:
448,0,21795,1,0,0:0:0:0:
64,0,21848,1,0,0:0:0:0:
192,0,21848,1,0,0:0:0:0:
320,0,21900,1,0,0:0:0:0:
448,0,21900,1,0,0:0:0:0:
192,0,21952,1,0,0:0:0:0:
64,0,22004,1,0,0:0:0:0:
448,0,22004,1,0,0:0:0:0:
320,0,22056,1,0,0:0:0:0:
64,0,22108,1,0,0:0:0:0:
192,0,22108,1,0,0:0:0:0:
448,0,22160,1,0,0:0:0:0:
192,0,22212,1,0,0:0:0:0:
320,0,22212,1,0,0:0:0:0:
64,0,22265,1,0,0:0:0:0:
192,0,22316,1,0,0:0:0:0:
320,0,22316,1,0,0:0:0:0:
64,0,22369,1,0,0:0:0:0:
320,0,22420,1,0,0:0:0:0:
448,0,22420,1,0,0:0:0:0:
64,0,22473,1,0,0:0:0:0:
192,0,22525,1,0,0:0:0:0:
320,0,22525,1,0,0:0:0:0:
448,0,22577,1,0,0:0:0:0:
64,0,22629,1,0,0:0:0:0:
192,0,22629,1,0,0:0:0:0:
448,0,22681,1,0,0:0:0:0:
192,0,22733,1,0,0:0:0:0:
320,0,22733,1,0,0:0:0:0:
64,0,22837,1,0,0:0:0:0:
192,0,22941,1,0,0:0:0:0:
448,0,22941,1,0,0:0:0:0:
320,0,23045,1,0,0:0:0:0:
64,0,23150,1,0,0:0:0:0:
192,0,23150,1,0,0:0:0:0:
320,0,23202,1,0,0:0:0:0:
192,0,23254,1,0,0:0:0:0:
64,0,23358,1,0,0:0:0:0:
448,0,23358,1,0,0:0:0:0:
320,0,23462,1,0,0:0:0:0:
64,0,23566,1,0,0:0:0:0:
192,0,23566,1,0,0:0:0:0:
320,0,23619,1,0,0:0:0:0:
64,0,23670,1,0,0:0:0:0:
448,0,23670,1,0,0:0:0:0:
192,0,23723,1,0,0:0:0:0:
320,0,23775,1,0,0:0:0:0:
448,0,23775,1,0,0:0:0:0:
64,0,23827,1,0,0:0:0:0:
192,0,23879,1,0,0:0:0:0:
320,0,23879,1,0,0:0:0:0:
448,0,23931,1,0,0:0:0:0:
64,0,23983,1,0,0:0:0:0:
192,0,23983,1,0,0:0:0:0:
448,0,24035,1,0,0:0:0:0:
192,0,24087,1,0,0:0:0:0:
320,0,24087,1,0,0:0:0:0:
64,0,24140,1,0,0:0:0:0:
320,0,24191,1,0,0:0:0:0:
448,0,24191,1,0,0:0:0:0:
192,0,24244,1,0,0:0:0:0:
64,0,24295,1,0,0:0:0:0:
448,0,24295,1,0,0:0:0:0:
320,0,24348,1,0,0:0:0:0:
64,0,24400,1,0,0:0:0:0:
192,0,24400,1,0,0:0:0:0:
320,0,24452,1,0,0:0:0:0:
64,0,24504,1,0,0:0:0:0:
448,0,24504,1,0,0:0:0:0:
192,0,24556,1,0,0:0:0:0:
320,0,24608,1,0,0:0:0:0:
448,0,24608,1,0,0:0:0:0:
64,0,24660,1,0,0:0:0:0:
192,0,24712,1,0,0:0:0:0:
320,0,24712,1,0,0:0:0:0:
448,0,24765,1,0,0:0:0:0:
64,0,24816,1,0,0:0:0:0:
192,0,24816,1,0,0:0:0:0:
448,0,24869,1,0,0:0:0:0:
192,0,24920,1,0,0:0:0:0:
320,0,24920,1,0,0:0:0:0:
64,0,24973,1,0,0:0:0:0:
320,0,25025,1,0,0:0:0:0:
448,0,25025,1,0,0:0:0:0:
64,0,25077,1,0,0:0:0:0:
192,0,25077,1,0,0:0:0:0:
320,0,25129,1,0,0:0:0:0:
448,0,25129,1,0,0:0:0:0:
64,0,25181,1,0,0:0:0:0:
192,0,25181,1,0,0:0:0:0:
320,0,25233,1,0,0:0:0:0:
448,0,25233,1,0,0:0:0:0:
192,0,25285,1,0,0:0:0:0:
64,0,25337,1,0,0:0:0:0:
448,0,25337,1,0,0:0:0:0:
320,0,25390,1,0,0:0:0:0:
64,0,25441,1,0,0:0:0:0:
192,0,25441,1,0,0:0:0:0:
448,0,25494,1,0,0:0:0:0:
192,0,25545,1,0,0:0:0:0:
320,0,25545,1,0,0:0:0:0:
64,0,25598,1,0,0:0:0:0:
320,0,25650,1,0,0:0:0:0:
448,0,25650,1,0,0:0:0:0:
192,0,25702,1,0,0:0:0:0:
64,0,25754,1,0,0:0:0:0:
448,0,25754,1,0,0:0:0:0:
320,0,25806,1,0,0:0:0:0:
64,0,25858,1,0,0:0:0:0:
192,0,25858,1,0,0:0:0:0:
448,0,25910,1,0,0:0:0:0:
192,0,25962,1,0,0:0:0:0:
320,0,25962,1,0,0:0:0:0:
64,0,26015,1,0,0:0:0:0:
320,0,26066,1,0,0:0:0:0:
448,0,26066,1,0,0:0:0:0:
192,0,26170,1,0,0:0:0:0:
64,0,26275,1,0,0:0:0:0:
448,0,26275,1,0,0:0:0:0:
320,0,26379,128,0,26900:0:0:0:0:
192,0,26483,128,0,26900:0:0:0:0:
64,0,26900,1,0,0:0:0:0:
448,0,26900,1,0,0:0:0:0:
64,0,27004,1,0,0:0:0:0:
192,0,27108,1,0,0:0:0:0:
320,0,27212,1,0,0:0:0:0:
192,0,27420,1,0,0:0:0:0:
320,0,27629,1,0,0:0:0:0:
64,0,27837,1,0,0:0:0:0:
64,0,27941,1,0,0:0:0:0:
320,0,28150,1,0,0:0:0:0:
192,0,28358,1,0,0:0:0:0:
320,0,28410,1,0,0:0:0:0:
192,0,28462,1,0,0:0:0:0:
320,0,28515,1,0,0:0:0:0:
448,0,28566,1,0,0:0:0:0:
320,0,28670,1,0,0:0:0:0:
192,0,28775,1,0,0:0:0:0:
64,0,28879,1,0,0:0:0:0:
320,0,29087,1,0,0:0:0:0:
192,0,29295,1,0,0:0:0:0:
448,0,29504,1,0,0:0:0:0:
192,0,29608,1,0,0:0:0:0:
320,0,29712,1,0,0:0:0:0:
192,0,29765,1,0,0:0:0:0:
320,0,29816,1,0,0:0:0:0:
64,0,29920,1,0,0:0:0:0:
320,0,30025,1,0,0:0:0:0:
192,0,30129,1,0,0:0:0:0:
448,0,30233,1,0,0:0:0:0:
320,0,30285,1,0,0:0:0:0:
192,0,30337,1,0,0:0:0:0:
320,0,30390,1,0,0:0:0:0:
448,0,30441,1,0,0:0:0:0:
320,0,30545,1,0,0:0:0:0:
192,0,30598,1,0,0:0:0:0:
64,0,30650,1,0,0:0:0:0:
192,0,30702,1,0,0:0:0:0:
320,0,30754,1,0,0:0:0:0:
192,0,30858,1,0,0:0:0:0:
320,0,30962,1,0,0:0:0:0:
448,0,31015,1,0,0:0:0:0:
320,0,31066,1,0,0:0:0:0:
192,0,31119,1,0,0:0:0:0:
64,0,31170,1,0,0:0:0:0:
320,0,31223,1,0,0:0:0:0:
64,0,31275,1,0,0:0:0:0:
320,0,31379,1,0,0:0:0:0:
192,0,31431,1,0,0:0:0:0:
320,0,31483,1,0,0:0:0:0:
448,0,31535,1,0,0:0:0:0:
320,0,31587,1,0,0:0:0:0:
192,0,31691,1,0,0:0:0:0:
320,0,31744,1,0,0:0:0:0:
192,0,31795,1,0,0:0:0:0:
320,0,31848,1,0,0:0:0:0:
64,0,31900,1,0,0:0:0:0:
320,0,31952,1,0,0:0:0:0:
192,0,32004,1,0,0:0:0:0:
448,0,32056,1,0,0:0:0:0:
320,0,32108,1,0,0:0:0:0:
192,0,32212,1,0,0:0:0:0:
64,0,32316,1,0,0:0:0:0:
320,0,32369,1,0,0:0:0:0:
64,0,32420,1,0,0:0:0:0:
320,0,32525,1,0,0:0:0:0:
320,0,32629,1,0,0:0:0:0:
448,0,32733,1,0,0:0:0:0:
448,0,32837,1,0,0:0:0:0:
320,0,32890,1,0,0:0:0:0:
192,0,32941,1,0,0:0:0:0:
320,0,33045,1,0,0:0:0:0:
192,0,33098,1,0,0:0:0:0:
320,0,33150,1,0,0:0:0:0:
64,0,33254,1,0,0:0:0:0:
192,0,33306,1,0,0:0:0:0:
320,0,33358,1,0,0:0:0:0:
192,0,33410,1,0,0:0:0:0:
448,0,33462,1,0,0:0:0:0:
320,0,33515,1,0,0:0:0:0:
64,0,33566,1,0,0:0:0:0:
192,0,33566,1,0,0:0:0:0:
320,0,33670,1,0,0:0:0:0:
192,0,33775,1,0,0:0:0:0:
64,0,33879,1,0,0:0:0:0:
320,0,33983,1,0,0:0:0:0:
448,0,33983,1,0,0:0:0:0:
320,0,34087,1,0,0:0:0:0:
192,0,34191,1,0,0:0:0:0:
448,0,34295,1,0,0:0:0:0:
320,0,34400,1,0,0:0:0:0:
192,0,34504,1,0,0:0:0:0:
64,0,34608,1,0,0:0:0:0:
320,0,34608,1,0,0:0:0:0:
192,0,34712,1,0,0:0:0:0:
64,0,34816,1,0,0:0:0:0:
448,0,34816,1,0,0:0:0:0:
192,0,34920,1,0,0:0:0:0:
320,0,35025,1,0,0:0:0:0:
192,0,35077,1,0,0:0:0:0:
320,0,35129,1,0,0:0:0:0:
192,0,35181,1,0,0:0:0:0:
64,0,35233,1,0,0:0:0:0:
448,0,35233,1,0,0:0:0:0:
320,0,35337,1,0,0:0:0:0:
192,0,35441,1,0,0:0:0:0:
448,0,35545,1,0,0:0:0:0:
64,0,35650,1,0,0:0:0:0:
192,0,35650,1,0,0:0:0:0:
192,0,35754,1,0,0:0:0:0:
320,0,35858,1,0,0:0:0:0:
64,0,35962,1,0,0:0:0:0:
320,0,36066,1,0,0:0:0:0:
192,0,36170,1,0,0:0:0:0:
64,0,36275,1,0,0:0:0:0:
448,0,36275,1,0,0:0:0:0:
320,0,36379,1,0,0:0:0:0:
64,0,36483,1,0,0:0:0:0:
192,0,36483,1,0,0:0:0:0:
320,0,36587,1,0,0:0:0:0:
64,0,36691,1,0,0:0:0:0:
192,0,36691,1,0,0:0:0:0:
320,0,36795,1,0,0:0:0:0:
64,0,36900,1,0,0:0:0:0:
448,0,36900,1,0,0:0:0:0:
192,0,37004,1,0,0:0:0:0:
320,0,37108,1,0,0:0:0:0:
448,0,37212,1,0,0:0:0:0:
64,0,37316,1,0,0:0:0:0:
192,0,37316,1,0,0:0:0:0:
192,0,37420,1,0,0:0:0:0:
320,0,37525,1,0,0:0:0:0:
64,0,37629,1,0,0:0:0:0:
320,0,37733,1,0,0:0:0:0:
192,0,37837,1,0,0:0:0:0:
64,0,37941,1,0,0:0:0:0:
320,0,37941,1,0,0:0:0:0:
320,0,38045,1,0,0:0:0:0:
64,0,38150,1,0,0:0:0:0:
448,0,38150,1,0,0:0:0:0:
192,0,38254,1,0,0:0:0:0:
320,0,38358,1,0,0:0:0:0:
192,0,38410,1,0,0:0:0:0:
320,0,38462,1,0,0:0:0:0:
192,0,38515,1,0,0:0:0:0:
64,0,38566,1,0,0:0:0:0:
448,0,38566,1,0,0:0:0:0:
320,0,38670,1,0,0:0:0:0:
192,0,38775,1,0,0:0:0:0:
320,0,38879,1,0,0:0:0:0:
64,0,38983,1,0,0:0:0:0:
192,0,38983,1,0,0:0:0:0:
64,0,39087,1,0,0:0:0:0:
320,0,39191,1,0,0:0:0:0:
192,0,39295,1,0,0:0:0:0:
448,0,39295,1,0,0:0:0:0:
64,0,39400,1,0,0:0:0:0:
192,0,39504,1,0,0:0:0:0:
320,0,39608,1,0,0:0:0:0:
448,0,39608,1,0,0:0:0:0:
192,0,39712,1,0,0:0:0:0:
64,0,39816,1,0,0:0:0:0:
448,0,39816,1,0,0:0:0:0:
192,0,40025,128,0,40233:0:0:0:0:
64,0,40233,1,0,0:0:0:0:
320,0,40233,1,0,0:0:0:0:
448,0,40233,1,0,0:0:0:0:
192,0,40337,1,0,0:0:0:0:
320,0,40337,1,0,0:0:0:0:
64,0,40441,1,0,0:0:0:0:
448,0,40441,1,0,0:0:0:0:
192,0,40545,1,0,0:0:0:0:
320,0,40545,1,0,0:0:0:0:
64,0,40650,1,0,0:0:0:0:
320,0,40650,1,0,0:0:0:0:
448,0,40754,1,0,0:0:0:0:
64,0,40858,1,0,0:0:0:0:
320,0,40858,1,0,0:0:0:0:
192,0,40962,1,0,0:0:0:0:
320,0,40962,1,0,0:0:0:0:
64,0,41066,1,0,0:0:0:0:
448,0,41066,1,0,0:0:0:0:
192,0,41170,1,0,0:0:0:0:
320,0,41170,1,0,0:0:0:0:
64,0,41275,1,0,0:0:0:0:
320,0,41275,1,0,0:0:0:0:
192,0,41379,1,0,0:0:0:0:
64,0,41483,1,0,0:0:0:0:
320,0,41483,1,0,0:0:0:0:
448,0,41587,1,0,0:0:0:0:
64,0,41691,1,0,0:0:0:0:
320,0,41691,1,0,0:0:0:0:
192,0,41795,1,0,0:0:0:0:
320,0,41795,1,0,0:0:0:0:
64,0,41900,1,0,0:0:0:0:
448,0,41900,1,0,0:0:0:0:
192,0,42004,1,0,0:0:0:0:
320,0,42004,1,0,0:0:0:0:
64,0,42108,1,0,0:0:0:0:
192,0,42108,1,0,0:0:0:0:
320,0,42212,1,0,0:0:0:0:
64,0,42316,1,0,0:0:0:0:
448,0,42316,1,0,0:0:0:0:
192,0,42420,1,0,0:0:0:0:
320,0,42473,1,0,0:0:0:0:
64,0,42525,1,0,0:0:0:0:
448,0,42525,1,0,0:0:0:0:
192,0,42629,1,0,0:0:0:0:
320,0,42629,1,0,0:0:0:0:
64,0,42733,1,0,0:0:0:0:
320,0,42733,1,0,0:0:0:0:
448,0,42733,1,0,0:0:0:0:
192,0,42837,1,0,0:0:0:0:
64,0,42941,1,0,0:0:0:0:
320,0,42941,1,0,0:0:0:0:
448,0,42941,1,0,0:0:0:0:
320,0,43045,1,0,0:0:0:0:
64,0,43150,1,0,0:0:0:0:
192,0,43150,1,0,0:0:0:0:
448,0,43150,1,0,0:0:0:0:
320,0,43254,1,0,0:0:0:0:
64,0,43358,1,0,0:0:0:0:
192,0,43358,1,0,0:0:0:0:
448,0,43358,1,0,0:0:0:0:
192,0,43462,1,0,0:0:0:0:
64,0,43566,1,0,0:0:0:0:
448,0,43566,1,0,0:0:0:0:
192,0,43670,1,0,0:0:0:0:
320,0,43670,1,0,0:0:0:0:
64,0,43775,1,0,0:0:0:0:
320,0,43775,1,0,0:0:0:0:
192,0,43879,1,0,0:0:0:0:
448,0,43879,1,0,0:0:0:0:
64,0,43983,1,0,0:0:0:0:
320,0,43983,1,0,0:0:0:0:
192,0,44087,1,0,0:0:0:0:
64,0,44191,1,0,0:0:0:0:
448,0,44191,1,0,0:0:0:0:
192,0,44295,1,0,0:0:0:0:
320,0,44295,1,0,0:0:0:0:
64,0,44400,1,0,0:0:0:0:
320,0,44400,1,0,0:0:0:0:
192,0,44504,1,0,0:0:0:0:
448,0,44504,1,0,0:0:0:0:
64,0,44608,1,0,0:0:0:0:
192,0,44608,1,0,0:0:0:0:
320,0,44712,1,0,0:0:0:0:
64,0,44816,1,0,0:0:0:0:
448,0,44816,1,0,0:0:0:0:
192,0,44920,1,0,0:0:0:0:
64,0,45025,1,0,0:0:0:0:
320,0,45025,1,0,0:0:0:0:
192,0,45129,1,0,0:0:0:0:
320,0,45129,1,0,0:0:0:0:
64,0,45233,1,0,0:0:0:0:
448,0,45233,1,0,0:0:0:0:
192,0,45337,1,0,0:0:0:0:
320,0,45337,1,0,0:0:0:0:
64,0,45441,1,0,0:0:0:0:
192,0,45441,1,0,0:0:0:0:
320,0,45545,1,0,0:0:0:0:
64,0,45650,1,0,0:0:0:0:
448,0,45650,1,0,0:0:0:0:
192,0,45754,1,0,0:0:0:0:
320,0,45806,1,0,0:0:0:0:
64,0,45858,1,0,0:0:0:0:
448,0,45858,1,0,0:0:0:0:
192,0,45962,1,0,0:0:0:0:
320,0,45962,1,0,0:0:0:0:
64,0,46066,1,0,0:0:0:0:
192,0,46066,1,0,0:0:0:0:
320,0,46170,128,0,46275:0:0:0:0:
192,0,46275,1,0,0:0:0:0:
448,0,46379,128,0,46483:0:0:0:0:
64,0,46483,1,0,0:0:0:0:
320,0,46587,1,0,0:0:0:0:
64,0,46691,1,0,0:0:0:0:
192,0,46691,1,0,0:0:0:0:
320,0,46795,128,0,46900:0:0:0:0:
64,0,46900,1,0,0:0:0:0:
448,0,46900,1,0,0:0:0:0:
192,0,47004,1,0,0:0:0:0:
320,0,47004,1,0,0:0:0:0:
64,0,47108,1,0,0:0:0:0:
320,0,47108,1,0,0:0:0:0:
192,0,47212,1,0,0:0:0:0:
448,0,47212,1,0,0:0:0:0:
64,0,47316,1,0,0:0:0:0:
320,0,47316,1,0,0:0:0:0:
192,0,47420,1,0,0:0:0:0:
64,0,47525,1,0,0:0:0:0:
448,0,47525,1,0,0:0:0:0:
320,0,47629,1,0,0:0:0:0:
448,0,47629,1,0,0:0:0:0:
64,0,47733,1,0,0:0:0:0:
192,0,47733,1,0,0:0:0:0:
192,0,47837,1,0,0:0:0:0:
320,0,47837,1,0,0:0:0:0:
64,0,47941,1,0,0:0:0:0:
320,0,47941,1,0,0:0:0:0:
192,0,48045,1,0,0:0:0:0:
64,0,48150,1,0,0:0:0:0:
448,0,48150,1,0,0:0:0:0:
320,0,48254,1,0,0:0:0:0:
64,0,48358,1,0,0:0:0:0:
192,0,48358,1,0,0:0:0:0:
192,0,48462,1,0,0:0:0:0:
320,0,48462,1,0,0:0:0:0:
64,0,48566,1,0,0:0:0:0:
448,0,48566,1,0,0:0:0:0:
192,0,48670,1,0,0:0:0:0:
320,0,48670,1,0,0:0:0:0:
64,0,48775,1,0,0:0:0:0:
320,0,48775,1,0,0:0:0:0:
192,0,48879,1,0,0:0:0:0:
64,0,48983,1,0,0:0:0:0:
320,0,48983,1,0,0:0:0:0:
192,0,49087,1,0,0:0:0:0:
320,0,49140,1,0,0:0:0:0:
64,0,49191,1,0,0:0:0:0:
448,0,49191,1,0,0:0:0:0:
192,0,49295,1,0,0:0:0:0:
320,0,49295,1,0,0:0:0:0:
64,0,49400,1,0,0:0:0:0:
320,0,49400,1,0,0:0:0:0:
448,0,49400,1,0,0:0:0:0:
192,0,49504,1,0,0:0:0:0:
64,0,49608,1,0,0:0:0:0:
320,0,49608,1,0,0:0:0:0:
448,0,49608,1,0,0:0:0:0:
320,0,49712,1,0,0:0:0:0:
64,0,49816,1,0,0:0:0:0:
192,0,49816,1,0,0:0:0:0:
448,0,49816,1,0,0:0:0:0:
320,0,49920,1,0,0:0:0:0:
64,0,50025,1,0,0:0:0:0:
192,0,50025,1,0,0:0:0:0:
448,0,50025,1,0,0:0:0:0:
192,0,50129,1,0,0:0:0:0:
64,0,50233,1,0,0:0:0:0:
448,0,50233,1,0,0:0:0:0:
192,0,50337,1,0,0:0:0:0:
320,0,50337,1,0,0:0:0:0:
64,0,50441,1,0,0:0:0:0:
320,0,50441,1,0,0:0:0:0:
192,0,50545,1,0,0:0:0:0:
448,0,50545,1,0,0:0:0:0:
64,0,50650,1,0,0:0:0:0:
320,0,50650,1,0,0:0:0:0:
448,0,50754,1,0,0:0:0:0:
64,0,50858,1,0,0:0:0:0:
320,0,50858,1,0,0:0:0:0:
192,0,50962,1,0,0:0:0:0:
320,0,50962,1,0,0:0:0:0:
64,0,51066,1,0,0:0:0:0:
448,0,51066,1,0,0:0:0:0:
320,0,51170,1,0,0:0:0:0:
64,0,51275,1,0,0:0:0:0:
192,0,51275,1,0,0:0:0:0:
320,0,51379,1,0,0:0:0:0:
64,0,51483,1,0,0:0:0:0:
448,0,51483,1,0,0:0:0:0:
192,0,51587,1,0,0:0:0:0:
64,0,51691,1,0,0:0:0:0:
320,0,51691,1,0,0:0:0:0:
192,0,51795,1,0,0:0:0:0:
320,0,51795,1,0,0:0:0:0:
64,0,51900,1,0,0:0:0:0:
448,0,51900,1,0,0:0:0:0:
192,0,52004,1,0,0:0:0:0:
320,0,52004,1,0,0:0:0:0:
64,0,52108,1,0,0:0:0:0:
320,0,52108,1,0,0:0:0:0:
192,0,52212,1,0,0:0:0:0:
64,0,52316,1,0,0:0:0:0:
320,0,52316,1,0,0:0:0:0:
448,0,52420,1,0,0:0:0:0:
320,0,52473,1,0,0:0:0:0:
64,0,52525,1,0,0:0:0:0:
192,0,52525,1,0,0:0:0:0:
320,0,52629,1,0,0:0:0:0:
448,0,52629,1,0,0:0:0:0:
64,0,52733,1,0,0:0:0:0:
448,0,52733,1,0,0:0:0:0:
320,0,52837,128,0,52941:0:0:0:0:
192,0,52941,1,0,0:0:0:0:
448,0,53045,128,0,53150:0:0:0:0:
64,0,53150,1,0,0:0:0:0:
192,0,53150,1,0,0:0:0:0:
320,0,53254,128,0,53358:0:0:0:0:
192,0,53358,1,0,0:0:0:0:
448,0,53462,128,0,53566:0:0:0:0:
64,0,53566,1,0,0:0:0:0:
192,0,53566,1,0,0:0:0:0:
320,0,53566,1,0,0:0:0:0:
320,0,53670,1,0,0:0:0:0:
192,0,53775,1,0,0:0:0:0:
448,0,53879,1,0,0:0:0:0:
192,0,53983,1,0,0:0:0:0:
64,0,54087,1,0,0:0:0:0:
320,0,54191,1,0,0:0:0:0:
192,0,54295,1,0,0:0:0:0:
320,0,54400,1,0,0:0:0:0:
448,0,54400,1,0,0:0:0:0:
192,0,54504,1,0,0:0:0:0:
320,0,54608,1,0,0:0:0:0:
64,0,54712,1,0,0:0:0:0:
448,0,54712,1,0,0:0:0:0:
320,0,54816,1,0,0:0:0:0:
448,0,54920,1,0,0:0:0:0:
64,0,55025,1,0,0:0:0:0:
192,0,55025,1,0,0:0:0:0:
448,0,55129,1,0,0:0:0:0:
192,0,55233,1,0,0:0:0:0:
320,0,55233,1,0,0:0:0:0:
64,0,55337,1,0,0:0:0:0:
192,0,55441,1,0,0:0:0:0:
320,0,55545,1,0,0:0:0:0:
448,0,55545,1,0,0:0:0:0:
192,0,55650,1,0,0:0:0:0:
320,0,55754,1,0,0:0:0:0:
64,0,55858,1,0,0:0:0:0:
448,0,55858,1,0,0:0:0:0:
320,0,55962,1,0,0:0:0:0:
64,0,56066,1,0,0:0:0:0:
192,0,56066,1,0,0:0:0:0:
448,0,56170,1,0,0:0:0:0:
320,0,56275,1,0,0:0:0:0:
64,0,56379,1,0,0:0:0:0:
192,0,56379,1,0,0:0:0:0:
320,0,56483,1,0,0:0:0:0:
192,0,56587,1,0,0:0:0:0:
320,0,56691,1,0,0:0:0:0:
448,0,56691,1,0,0:0:0:0:
192,0,56795,1,0,0:0:0:0:
320,0,56795,1,0,0:0:0:0:
64,0,56900,1,0,0:0:0:0:
192,0,56900,1,0,0:0:0:0:
320,0,57004,1,0,0:0:0:0:
192,0,57108,1,0,0:0:0:0:
64,0,57212,1,0,0:0:0:0:
448,0,57212,1,0,0:0:0:0:
320,0,57316,1,0,0:0:0:0:
448,0,57420,1,0,0:0:0:0:
64,0,57525,1,0,0:0:0:0:
192,0,57525,1,0,0:0:0:0:
448,0,57629,1,0,0:0:0:0:
192,0,57733,1,0,0:0:0:0:
320,0,57733,1,0,0:0:0:0:
64,0,57837,1,0,0:0:0:0:
192,0,57941,1,0,0:0:0:0:
320,0,58045,1,0,0:0:0:0:
448,0,58045,1,0,0:0:0:0:
192,0,58150,1,0,0:0:0:0:
320,0,58254,1,0,0:0:0:0:
64,0,58358,1,0,0:0:0:0:
448,0,58358,1,0,0:0:0:0:
320,0,58462,1,0,0:0:0:0:
64,0,58566,1,0,0:0:0:0:
192,0,58566,1,0,0:0:0:0:
448,0,58670,1,0,0:0:0:0:
192,0,58775,1,0,0:0:0:0:
64,0,58879,1,0,0:0:0:0:
320,0,58879,1,0,0:0:0:0:
448,0,58983,1,0,0:0:0:0:
320,0,59087,1,0,0:0:0:0:
192,0,59191,1,0,0:0:0:0:
320,0,59295,1,0,0:0:0:0:
64,0,59400,1,0,0:0:0:0:
320,0,59504,1,0,0:0:0:0:
192,0,59608,1,0,0:0:0:0:
448,0,59712,1,0,0:0:0:0:
320,0,59816,1,0,0:0:0:0:
192,0,59920,1,0,0:0:0:0:
64,0,60025,1,0,0:0:0:0:
448,0,60129,1,0,0:0:0:0:
192,0,60233,1,0,0:0:0:0:
320,0,60259,1,0,0:0:0:0:
64,0,60337,1,0,0:0:0:0:
320,0,60441,1,0,0:0:0:0:
192,0,60545,1,0,0:0:0:0:
448,0,60650,1,0,0:0:0:0:
320,0,60754,1,0,0:0:0:0:
192,0,60858,1,0,0:0:0:0:
320,0,60962,1,0,0:0:0:0:
64,0,61066,1,0,0:0:0:0:
192,0,61066,1,0,0:0:0:0:
448,0,61170,1,0,0:0:0:0:
192,0,61275,1,0,0:0:0:0:
64,0,61379,1,0,0:0:0:0:
320,0,61379,1,0,0:0:0:0:
448,0,61483,1,0,0:0:0:0:
192,0,61587,1,0,0:0:0:0:
320,0,61691,1,0,0:0:0:0:
448,0,61691,1,0,0:0:0:0:
192,0,61795,1,0,0:0:0:0:
64,0,61900,1,0,0:0:0:0:
448,0,61900,1,0,0:0:0:0:
320,0,62004,1,0,0:0:0:0:
448,0,62108,1,0,0:0:0:0:
64,0,62212,1,0,0:0:0:0:
192,0,62212,1,0,0:0:0:0:
320,0,62316,1,0,0:0:0:0:
448,0,62420,1,0,0:0:0:0:
192,0,62525,1,0,0:0:0:0:
320,0,62525,1,0,0:0:0:0:
64,0,62629,1,0,0:0:0:0:
320,0,62733,1,0,0:0:0:0:
448,0,62733,1,0,0:0:0:0:
192,0,62837,1,0,0:0:0:0:
320,0,62941,1,0,0:0:0:0:
64,0,63045,1,0,0:0:0:0:
448,0,63045,1,0,0:0:0:0:
192,0,63150,1,0,0:0:0:0:
64,0,63254,1,0,0:0:0:0:
320,0,63358,1,0,0:0:0:0:
448,0,63358,1,0,0:0:0:0:
192,0,63462,1,0,0:0:0:0:
320,0,63462,1,0,0:0:0:0:
64,0,63566,1,0,0:0:0:0:
192,0,63566,1,0,0:0:0:0:
320,0,63670,1,0,0:0:0:0:
192,0,63775,1,0,0:0:0:0:
64,0,63879,1,0,0:0:0:0:
448,0,63879,1,0,0:0:0:0:
320,0,63983,1,0,0:0:0:0:
448,0,64087,1,0,0:0:0:0:
64,0,64191,1,0,0:0:0:0:
192,0,64191,1,0,0:0:0:0:
448,0,64295,1,0,0:0:0:0:
192,0,64400,1,0,0:0:0:0:
320,0,64400,1,0,0:0:0:0:
64,0,64504,1,0,0:0:0:0:
192,0,64608,1,0,0:0:0:0:
320,0,64712,1,0,0:0:0:0:
448,0,64712,1,0,0:0:0:0:
192,0,64816,1,0,0:0:0:0:
320,0,64920,1,0,0:0:0:0:
64,0,65025,1,0,0:0:0:0:
448,0,65025,1,0,0:0:0:0:
320,0,65129,1,0,0:0:0:0:
64,0,65233,1,0,0:0:0:0:
192,0,65268,1,0,0:0:0:0:
320,0,65302,1,0,0:0:0:0:
448,0,65337,1,0,0:0:0:0:
64,0,65372,1,0,0:0:0:0:
192,0,65406,1,0,0:0:0:0:
320,0,65441,1,0,0:0:0:0:
448,0,65476,1,0,0:0:0:0:
64,0,65510,1,0,0:0:0:0:
192,0,65545,1,0,0:0:0:0:
320,0,65580,1,0,0:0:0:0:
448,0,65615,1,0,0:0:0:0:
64,0,65650,1,0,0:0:0:0:
192,0,65685,1,0,0:0:0:0:
320,0,65719,1,0,0:0:0:0:
448,0,65754,1,0,0:0:0:0:
64,0,65789,1,0,0:0:0:0:
192,0,65823,1,0,0:0:0:0:
320,0,65858,1,0,0:0:0:0:
448,0,65893,1,0,0:0:0:0:
64,0,65927,1,0,0:0:0:0:
192,0,65962,1,0,0:0:0:0:
320,0,65997,1,0,0:0:0:0:
448,0,66031,1,0,0:0:0:0:
64,0,66066,1,0,0:0:0:0:
192,0,66119,1,0,0:0:0:0:
320,0,66170,1,0,0:0:0:0:
448,0,66223,1,0,0:0:0:0:
64,0,66275,1,0,0:0:0:0:
192,0,66327,1,0,0:0:0:0:
320,0,66379,1,0,0:0:0:0:
448,0,66431,1,0,0:0:0:0:
64,0,66483,128,0,66900:0:0:0:0:
320,0,66900,1,0,0:0:0:0:
448,0,66900,1,0,0:0:0:0:
192,0,67004,1,0,0:0:0:0:
320,0,67004,1,0,0:0:0:0:
64,0,67108,1,0,0:0:0:0:
320,0,67108,1,0,0:0:0:0:
448,0,67108,1,0,0:0:0:0:
64,0,67212,1,0,0:0:0:0:
192,0,67212,1,0,0:0:0:0:
192,0,67316,1,0,0:0:0:0:
320,0,67316,1,0,0:0:0:0:
448,0,67316,1,0,0:0:0:0:
64,0,67420,1,0,0:0:0:0:
320,0,67420,1,0,0:0:0:0:
64,0,67525,1,0,0:0:0:0:
192,0,67525,1,0,0:0:0:0:
448,0,67525,1,0,0:0:0:0:
192,0,67629,1,0,0:0:0:0:
320,0,67629,1,0,0:0:0:0:
64,0,67733,1,0,0:0:0:0:
320,0,67733,1,0,0:0:0:0:
448,0,67733,1,0,0:0:0:0:
64,0,67837,1,0,0:0:0:0:
192,0,67837,1,0,0:0:0:0:
192,0,67941,1,0,0:0:0:0:
320,0,67941,1,0,0:0:0:0:
448,0,67941,1,0,0:0:0:0:
64,0,68045,1,0,0:0:0:0:
448,0,68045,1,0,0:0:0:0:
64,0,68150,1,0,0:0:0:0:
192,0,68150,1,0,0:0:0:0:
320,0,68150,1,0,0:0:0:0:
192,0,68254,1,0,0:0:0:0:
448,0,68254,1,0,0:0:0:0:
64,0,68358,1,0,0:0:0:0:
192,0,68358,1,0,0:0:0:0:
320,0,68358,1,0,0:0:0:0:
64,0,68462,1,0,0:0:0:0:
320,0,68462,1,0,0:0:0:0:
448,0,68462,1,0,0:0:0:0:
192,0,68566,1,0,0:0:0:0:
320,0,68566,1,0,0:0:0:0:
448,0,68566,1,0,0:0:0:0:
64,0,68670,1,0,0:0:0:0:
320,0,68670,1,0,0:0:0:0:
64,0,68775,1,0,0:0:0:0:
192,0,68775,1,0,0:0:0:0:
448,0,68775,1,0,0:0:0:0:
192,0,68879,1,0,0:0:0:0:
320,0,68879,1,0,0:0:0:0:
64,0,68983,1,0,0:0:0:0:
192,0,68983,1,0,0:0:0:0:
448,0,68983,1,0,0:0:0:0:
320,0,69087,1,0,0:0:0:0:
448,0,69087,1,0,0:0:0:0:
64,0,69140,1,0,0:0:0:0:
192,0,69140,1,0,0:0:0:0:
320,0,69191,1,0,0:0:0:0:
448,0,69191,1,0,0:0:0:0:
192,0,69295,1,0,0:0:0:0:
320,0,69295,1,0,0:0:0:0:
64,0,69400,1,0,0:0:0:0:
192,0,69400,1,0,0:0:0:0:
448,0,69400,1,0,0:0:0:0:
320,0,69504,1,0,0:0:0:0:
64,0,69608,1,0,0:0:0:0:
192,0,69608,1,0,0:0:0:0:
448,0,69608,1,0,0:0:0:0:
192,0,69712,1,0,0:0:0:0:
64,0,69816,1,0,0:0:0:0:
320,0,69816,1,0,0:0:0:0:
448,0,69816,1,0,0:0:0:0:
192,0,69920,1,0,0:0:0:0:
64,0,70025,1,0,0:0:0:0:
320,0,70025,1,0,0:0:0:0:
448,0,70025,1,0,0:0:0:0:
320,0,70129,1,0,0:0:0:0:
64,0,70233,1,0,0:0:0:0:
192,0,70233,1,0,0:0:0:0:
448,0,70233,1,0,0:0:0:0:
192,0,70337,1,0,0:0:0:0:
320,0,70337,1,0,0:0:0:0:
64,0,70441,1,0,0:0:0:0:
320,0,70441,1,0,0:0:0:0:
448,0,70441,1,0,0:0:0:0:
64,0,70545,1,0,0:0:0:0:
192,0,70545,1,0,0:0:0:0:
192,0,70650,1,0,0:0:0:0:
320,0,70650,1,0,0:0:0:0:
448,0,70650,1,0,0:0:0:0:
64,0,70754,1,0,0:0:0:0:
320,0,70754,1,0,0:0:0:0:
64,0,70858,1,0,0:0:0:0:
192,0,70858,1,0,0:0:0:0:
448,0,70858,1,0,0:0:0:0:
192,0,70962,1,0,0:0:0:0:
320,0,70962,1,0,0:0:0:0:
64,0,71066,1,0,0:0:0:0:
192,0,71066,1,0,0:0:0:0:
448,0,71066,1,0,0:0:0:0:
192,0,71170,1,0,0:0:0:0:
320,0,71170,1,0,0:0:0:0:
64,0,71275,1,0,0:0:0:0:
192,0,71275,1,0,0:0:0:0:
448,0,71275,1,0,0:0:0:0:
64,0,71379,1,0,0:0:0:0:
320,0,71379,1,0,0:0:0:0:
192,0,71483,1,0,0:0:0:0:
320,0,71483,1,0,0:0:0:0:
448,0,71483,1,0,0:0:0:0:
64,0,71587,1,0,0:0:0:0:
320,0,71587,1,0,0:0:0:0:
64,0,71691,1,0,0:0:0:0:
192,0,71691,1,0,0:0:0:0:
448,0,71691,1,0,0:0:0:0:
64,0,71795,1,0,0:0:0:0:
192,0,71795,1,0,0:0:0:0:
448,0,71795,1,0,0:0:0:0:
64,0,71900,1,0,0:0:0:0:
320,0,71900,1,0,0:0:0:0:
448,0,71900,1,0,0:0:0:0:
192,0,72004,1,0,0:0:0:0:
320,0,72004,1,0,0:0:0:0:
448,0,72004,1,0,0:0:0:0:
64,0,72108,1,0,0:0:0:0:
192,0,72108,1,0,0:0:0:0:
448,0,72108,1,0,0:0:0:0:
192,0,72212,1,0,0:0:0:0:
320,0,72212,1,0,0:0:0:0:
64,0,72316,1,0,0:0:0:0:
192,0,72316,1,0,0:0:0:0:
448,0,72316,1,0,0:0:0:0:
320,0,72420,1,0,0:0:0:0:
448,0,72420,1,0,0:0:0:0:
64,0,72473,1,0,0:0:0:0:
192,0,72473,1,0,0:0:0:0:
320,0,72525,1,0,0:0:0:0:
448,0,72525,1,0,0:0:0:0:
192,0,72629,1,0,0:0:0:0:
320,0,72629,1,0,0:0:0:0:
64,0,72733,1,0,0:0:0:0:
448,0,72733,1,0,0:0:0:0:
320,0,72837,128,0,72941:0:0:0:0:
192,0,72941,1,0,0:0:0:0:
448,0,73045,128,0,73150:0:0:0:0:
64,0,73150,1,0,0:0:0:0:
320,0,73254,1,0,0:0:0:0:
64,0,73358,1,0,0:0:0:0:
192,0,73358,1,0,0:0:0:0:
448,0,73462,128,0,73566:0:0:0:0:
64,0,73566,1,0,0:0:0:0:
320,0,73566,1,0,0:0:0:0:
192,0,73670,1,0,0:0:0:0:
320,0,73670,1,0,0:0:0:0:
64,0,73775,1,0,0:0:0:0:
320,0,73775,1,0,0:0:0:0:
448,0,73775,1,0,0:0:0:0:
64,0,73879,1,0,0:0:0:0:
192,0,73879,1,0,0:0:0:0:
192,0,73983,1,0,0:0:0:0:
320,0,73983,1,0,0:0:0:0:
448,0,73983,1,0,0:0:0:0:
64,0,74087,1,0,0:0:0:0:
320,0,74087,1,0,0:0:0:0:
64,0,74191,1,0,0:0:0:0:
192,0,74191,1,0,0:0:0:0:
448,0,74191,1,0,0:0:0:0:
192,0,74295,1,0,0:0:0:0:
320,0,74295,1,0,0:0:0:0:
64,0,74400,1,0,0:0:0:0:
320,0,74400,1,0,0:0:0:0:
448,0,74400,1,0,0:0:0:0:
64,0,74504,1,0,0:0:0:0:
192,0,74504,1,0,0:0:0:0:
192,0,74608,1,0,0:0:0:0:
320,0,74608,1,0,0:0:0:0:
448,0,74608,1,0,0:0:0:0:
64,0,74712,1,0,0:0:0:0:
320,0,74712,1,0,0:0:0:0:
192,0,74816,1,0,0:0:0:0:
320,0,74816,1,0,0:0:0:0:
448,0,74816,1,0,0:0:0:0:
64,0,74920,1,0,0:0:0:0:
192,0,74920,1,0,0:0:0:0:
64,0,75025,1,0,0:0:0:0:
320,0,75025,1,0,0:0:0:0:
448,0,75025,1,0,0:0:0:0:
64,0,75129,1,0,0:0:0:0:
320,0,75129,1,0,0:0:0:0:
448,0,75129,1,0,0:0:0:0:
192,0,75233,1,0,0:0:0:0:
320,0,75233,1,0,0:0:0:0:
448,0,75233,1,0,0:0:0:0:
64,0,75337,1,0,0:0:0:0:
192,0,75337,1,0,0:0:0:0:
448,0,75337,1,0,0:0:0:0:
64,0,75441,1,0,0:0:0:0:
320,0,75441,1,0,0:0:0:0:
448,0,75441,1,0,0:0:0:0:
192,0,75545,1,0,0:0:0:0:
320,0,75545,1,0,0:0:0:0:
64,0,75650,1,0,0:0:0:0:
320,0,75650,1,0,0:0:0:0:
448,0,75650,1,0,0:0:0:0:
320,0,75754,1,0,0:0:0:0:
448,0,75754,1,0,0:0:0:0:
64,0,75806,1,0,0:0:0:0:
192,0,75806,1,0,0:0:0:0:
320,0,75858,1,0,0:0:0:0:
448,0,75858,1,0,0:0:0:0:
192,0,75962,1,0,0:0:0:0:
320,0,75962,1,0,0:0:0:0:
64,0,76066,1,0,0:0:0:0:
192,0,76066,1,0,0:0:0:0:
448,0,76066,1,0,0:0:0:0:
320,0,76170,1,0,0:0:0:0:
64,0,76275,1,0,0:0:0:0:
192,0,76275,1,0,0:0:0:0:
448,0,76275,1,0,0:0:0:0:
448,0,76379,1,0,0:0:0:0:
64,0,76483,1,0,0:0:0:0:
192,0,76483,1,0,0:0:0:0:
320,0,76483,1,0,0:0:0:0:
448,0,76587,1,0,0:0:0:0:
64,0,76691,1,0,0:0:0:0:
192,0,76691,1,0,0:0:0:0:
320,0,76691,1,0,0:0:0:0:
320,0,76795,1,0,0:0:0:0:
64,0,76900,1,0,0:0:0:0:
192,0,76900,1,0,0:0:0:0:
448,0,76900,1,0,0:0:0:0:
192,0,77004,1,0,0:0:0:0:
320,0,77004,1,0,0:0:0:0:
64,0,77108,1,0,0:0:0:0:
320,0,77108,1,0,0:0:0:0:
448,0,77108,1,0,0:0:0:0:
64,0,77212,1,0,0:0:0:0:
448,0,77212,1,0,0:0:0:0:
64,0,77316,1,0,0:0:0:0:
192,0,77316,1,0,0:0:0:0:
320,0,77316,1,0,0:0:0:0:
320,0,77420,1,0,0:0:0:0:
448,0,77420,1,0,0:0:0:0:
64,0,77525,1,0,0:0:0:0:
192,0,77525,1,0,0:0:0:0:
448,0,77525,1,0,0:0:0:0:
192,0,77629,1,0,0:0:0:0:
320,0,77629,1,0,0:0:0:0:
64,0,77733,1,0,0:0:0:0:
320,0,77733,1,0,0:0:0:0:
448,0,77733,1,0,0:0:0:0:
64,0,77837,1,0,0:0:0:0:
192,0,77837,1,0,0:0:0:0:
192,0,77941,1,0,0:0:0:0:
320,0,77941,1,0,0:0:0:0:
448,0,77941,1,0,0:0:0:0:
64,0,78045,1,0,0:0:0:0:
192,0,78045,1,0,0:0:0:0:
64,0,78150,1,0,0:0:0:0:
320,0,78150,1,0,0:0:0:0:
448,0,78150,1,0,0:0:0:0:
192,0,78254,1,0,0:0:0:0:
320,0,78254,1,0,0:0:0:0:
64,0,78358,1,0,0:0:0:0:
320,0,78358,1,0,0:0:0:0:
448,0,78358,1,0,0:0:0:0:
64,0,78462,1,0,0:0:0:0:
320,0,78462,1,0,0:0:0:0:
448,0,78462,1,0,0:0:0:0:
64,0,78566,1,0,0:0:0:0:
192,0,78566,1,0,0:0:0:0:
320,0,78566,1,0,0:0:0:0:
192,0,78670,1,0,0:0:0:0:
320,0,78670,1,0,0:0:0:0:
448,0,78670,1,0,0:0:0:0:
64,0,78775,1,0,0:0:0:0:
192,0,78775,1,0,0:0:0:0:
448,0,78775,1,0,0:0:0:0:
192,0,78879,1,0,0:0:0:0:
320,0,78879,1,0,0:0:0:0:
64,0,78983,1,0,0:0:0:0:
192,0,78983,1,0,0:0:0:0:
448,0,78983,1,0,0:0:0:0:
320,0,79087,1,0,0:0:0:0:
448,0,79087,1,0,0:0:0:0:
64,0,79140,1,0,0:0:0:0:
192,0,79140,1,0,0:0:0:0:
320,0,79191,1,0,0:0:0:0:
448,0,79191,1,0,0:0:0:0:
192,0,79295,1,0,0:0:0:0:
320,0,79295,1,0,0:0:0:0:
64,0,79400,1,0,0:0:0:0:
448,0,79400,1,0,0:0:0:0:
320,0,79504,128,0,79608:0:0:0:0:
192,0,79608,1,0,0:0:0:0:
448,0,79712,128,0,79816:0:0:0:0:
64,0,79816,1,0,0:0:0:0:
320,0,79920,1,0,0:0:0:0:
64,0,80025,1,0,0:0:0:0:
192,0,80025,1,0,0:0:0:0:
448,0,80129,1,0,0:0:0:0:
64,0,80233,1,0,0:0:0:0:
192,0,80233,1,0,0:0:0:0:
320,0,80233,1,0,0:0:0:0:
448,0,80233,1,0,0:0:0:0:
192,0,80337,1,0,0:0:0:0:
320,0,80337,1,0,0:0:0:0:
64,0,80441,1,0,0:0:0:0:
320,0,80441,1,0,0:0:0:0:
448,0,80441,1,0,0:0:0:0:
192,0,80545,1,0,0:0:0:0:
448,0,80545,1,0,0:0:0:0:
64,0,80650,1,0,0:0:0:0:
192,0,80650,1,0,0:0:0:0:
320,0,80650,1,0,0:0:0:0:
64,0,80754,1,0,0:0:0:0:
192,0,80754,1,0,0:0:0:0:
192,0,80858,1,0,0:0:0:0:
320,0,80858,1,0,0:0:0:0:
448,0,80858,1,0,0:0:0:0:
64,0,80962,1,0,0:0:0:0:
448,0,80962,1,0,0:0:0:0:
64,0,81066,1,0,0:0:0:0:
192,0,81066,1,0,0:0:0:0:
320,0,81066,1,0,0:0:0:0:
448,0,81066,1,0,0:0:0:0:
192,0,81170,1,0,0:0:0:0:
320,0,81170,1,0,0:0:0:0:
64,0,81275,1,0,0:0:0:0:
320,0,81275,1,0,0:0:0:0:
448,0,81275,1,0,0:0:0:0:
64,0,81379,1,0,0:0:0:0:
192,0,81379,1,0,0:0:0:0:
320,0,81379,1,0,0:0:0:0:
448,0,81379,1,0,0:0:0:0:
64,0,81483,1,0,0:0:0:0:
192,0,81483,1,0,0:0:0:0:
448,0,81483,1,0,0:0:0:0:
192,0,81587,1,0,0:0:0:0:
320,0,81587,1,0,0:0:0:0:
64,0,81691,1,0,0:0:0:0:
192,0,81691,1,0,0:0:0:0:
320,0,81691,1,0,0:0:0:0:
448,0,81691,1,0,0:0:0:0:
320,0,81795,1,0,0:0:0:0:
448,0,81795,1,0,0:0:0:0:
64,0,81900,1,0,0:0:0:0:
192,0,81900,1,0,0:0:0:0:
320,0,81900,1,0,0:0:0:0:
448,0,81900,1,0,0:0:0:0:
64,0,82004,1,0,0:0:0:0:
320,0,82004,1,0,0:0:0:0:
192,0,82108,1,0,0:0:0:0:
320,0,82108,1,0,0:0:0:0:
448,0,82108,1,0,0:0:0:0:
64,0,82212,1,0,0:0:0:0:
192,0,82212,1,0,0:0:0:0:
320,0,82212,1,0,0:0:0:0:
448,0,82212,1,0,0:0:0:0:
64,0,82316,1,0,0:0:0:0:
320,0,82316,1,0,0:0:0:0:
64,0,82420,1,0,0:0:0:0:
192,0,82420,1,0,0:0:0:0:
320,0,82473,1,0,0:0:0:0:
448,0,82473,1,0,0:0:0:0:
64,0,82525,1,0,0:0:0:0:
192,0,82525,1,0,0:0:0:0:
192,0,82629,1,0,0:0:0:0:
320,0,82629,1,0,0:0:0:0:
64,0,82733,1,0,0:0:0:0:
192,0,82733,1,0,0:0:0:0:
320,0,82733,1,0,0:0:0:0:
448,0,82733,1,0,0:0:0:0:
192,0,82837,1,0,0:0:0:0:
320,0,82837,1,0,0:0:0:0:
64,0,82941,1,0,0:0:0:0:
320,0,82941,1,0,0:0:0:0:
448,0,82941,1,0,0:0:0:0:
64,0,83045,1,0,0:0:0:0:
192,0,83045,1,0,0:0:0:0:
320,0,83045,1,0,0:0:0:0:
448,0,83045,1,0,0:0:0:0:
64,0,83150,1,0,0:0:0:0:
192,0,83150,1,0,0:0:0:0:
448,0,83150,1,0,0:0:0:0:
192,0,83254,1,0,0:0:0:0:
320,0,83254,1,0,0:0:0:0:
64,0,83358,1,0,0:0:0:0:
192,0,83358,1,0,0:0:0:0:
320,0,83358,1,0,0:0:0:0:
448,0,83358,1,0,0:0:0:0:
192,0,83462,1,0,0:0:0:0:
320,0,83462,1,0,0:0:0:0:
64,0,83566,1,0,0:0:0:0:
192,0,83566,1,0,0:0:0:0:
320,0,83566,1,0,0:0:0:0:
448,0,83566,1,0,0:0:0:0:
64,0,83670,1,0,0:0:0:0:
320,0,83670,1,0,0:0:0:0:
64,0,83775,1,0,0:0:0:0:
192,0,83775,1,0,0:0:0:0:
448,0,83775,1,0,0:0:0:0:
64,0,83879,1,0,0:0:0:0:
192,0,83879,1,0,0:0:0:0:
320,0,83879,1,0,0:0:0:0:
448,0,83879,1,0,0:0:0:0:
192,0,83983,1,0,0:0:0:0:
320,0,83983,1,0,0:0:0:0:
64,0,84087,1,0,0:0:0:0:
192,0,84087,1,0,0:0:0:0:
64,0,84191,1,0,0:0:0:0:
192,0,84191,1,0,0:0:0:0:
320,0,84191,1,0,0:0:0:0:
448,0,84191,1,0,0:0:0:0:
192,0,84295,1,0,0:0:0:0:
448,0,84295,1,0,0:0:0:0:
64,0,84400,1,0,0:0:0:0:
192,0,84400,1,0,0:0:0:0:
320,0,84400,1,0,0:0:0:0:
448,0,84400,1,0,0:0:0:0:
64,0,84504,1,0,0:0:0:0:
320,0,84504,1,0,0:0:0:0:
64,0,84608,1,0,0:0:0:0:
192,0,84608,1,0,0:0:0:0:
448,0,84608,1,0,0:0:0:0:
64,0,84712,1,0,0:0:0:0:
192,0,84712,1,0,0:0:0:0:
320,0,84712,1,0,0:0:0:0:
448,0,84712,1,0,0:0:0:0:
192,0,84816,1,0,0:0:0:0:
320,0,84816,1,0,0:0:0:0:
64,0,84920,1,0,0:0:0:0:
320,0,84920,1,0,0:0:0:0:
448,0,84920,1,0,0:0:0:0:
64,0,85025,1,0,0:0:0:0:
192,0,85025,1,0,0:0:0:0:
320,0,85025,1,0,0:0:0:0:
448,0,85025,1,0,0:0:0:0:
64,0,85129,1,0,0:0:0:0:
192,0,85129,1,0,0:0:0:0:
64,0,85233,1,0,0:0:0:0:
192,0,85233,1,0,0:0:0:0:
320,0,85233,1,0,0:0:0:0:
448,0,85233,1,0,0:0:0:0:
64,0,85337,1,0,0:0:0:0:
320,0,85337,1,0,0:0:0:0:
448,0,85337,1,0,0:0:0:0:
192,0,85441,1,0,0:0:0:0:
320,0,85441,1,0,0:0:0:0:
448,0,85441,1,0,0:0:0:0:
64,0,85545,1,0,0:0:0:0:
192,0,85545,1,0,0:0:0:0:
192,0,85650,1,0,0:0:0:0:
320,0,85650,1,0,0:0:0:0:
448,0,85650,1,0,0:0:0:0:
64,0,85754,1,0,0:0:0:0:
192,0,85754,1,0,0:0:0:0:
320,0,85806,1,0,0:0:0:0:
448,0,85806,1,0,0:0:0:0:
64,0,85858,1,0,0:0:0:0:
192,0,85858,1,0,0:0:0:0:
192,0,85962,1,0,0:0:0:0:
320,0,85962,1,0,0:0:0:0:
64,0,86066,1,0,0:0:0:0:
448,0,86066,1,0,0:0:0:0:
320,0,86170,128,0,86275:0:0:0:0:
192,0,86275,1,0,0:0:0:0:
192,0,86379,1,0,0:0:0:0:
320,0,86431,1,0,0:0:0:0:
64,0,86483,1,0,0:0:0:0:
448,0,86483,1,0,0:0:0:0:
320,0,86587,1,0,0:0:0:0:
64,0,86691,1,0,0:0:0:0:
192,0,86691,128,0,86795:0:0:0:0:
320,0,86795,1,0,0:0:0:0:
64,0,86900,1,0,0:0:0:0:
192,0,86900,1,0,0:0:0:0:
320,0,86900,1,0,0:0:0:0:
448,0,86900,1,0,0:0:0:0:
64,0,87004,1,0,0:0:0:0:
320,0,87004,1,0,0:0:0:0:
64,0,87108,1,0,0:0:0:0:
192,0,87108,1,0,0:0:0:0:
448,0,87108,1,0,0:0:0:0:
192,0,87212,1,0,0:0:0:0:
320,0,87212,1,0,0:0:0:0:
64,0,87316,1,0,0:0:0:0:
320,0,87316,1,0,0:0:0:0:
448,0,87316,1,0,0:0:0:0:
64,0,87420,1,0,0:0:0:0:
192,0,87420,1,0,0:0:0:0:
192,0,87525,1,0,0:0:0:0:
320,0,87525,1,0,0:0:0:0:
448,0,87525,1,0,0:0:0:0:
64,0,87629,1,0,0:0:0:0:
320,0,87629,1,0,0:0:0:0:
64,0,87733,1,0,0:0:0:0:
192,0,87733,1,0,0:0:0:0:
320,0,87733,1,0,0:0:0:0:
448,0,87733,1,0,0:0:0:0:
192,0,87837,1,0,0:0:0:0:
320,0,87837,1,0,0:0:0:0:
64,0,87941,1,0,0:0:0:0:
320,0,87941,1,0,0:0:0:0:
448,0,87941,1,0,0:0:0:0:
64,0,88045,1,0,0:0:0:0:
192,0,88045,1,0,0:0:0:0:
320,0,88045,1,0,0:0:0:0:
448,0,88045,1,0,0:0:0:0:
64,0,88150,1,0,0:0:0:0:
192,0,88150,1,0,0:0:0:0:
448,0,88150,1,0,0:0:0:0:
320,0,88254,1,0,0:0:0:0:
448,0,88254,1,0,0:0:0:0:
64,0,88358,1,0,0:0:0:0:
192,0,88358,1,0,0:0:0:0:
320,0,88358,1,0,0:0:0:0:
448,0,88358,1,0,0:0:0:0:
192,0,88462,1,0,0:0:0:0:
320,0,88462,1,0,0:0:0:0:
64,0,88566,1,0,0:0:0:0:
192,0,88566,1,0,0:0:0:0:
320,0,88566,1,0,0:0:0:0:
448,0,88566,1,0,0:0:0:0:
64,0,88670,1,0,0:0:0:0:
320,0,88670,1,0,0:0:0:0:
448,0,88670,1,0,0:0:0:0:
64,0,88775,1,0,0:0:0:0:
192,0,88775,1,0,0:0:0:0:
320,0,88775,1,0,0:0:0:0:
64,0,88879,1,0,0:0:0:0:
192,0,88879,1,0,0:0:0:0:
320,0,88879,1,0,0:0:0:0:
448,0,88879,1,0,0:0:0:0:
64,0,88983,1,0,0:0:0:0:
320,0,88983,1,0,0:0:0:0:
448,0,88983,1,0,0:0:0:0:
64,0,89087,1,0,0:0:0:0:
192,0,89087,1,0,0:0:0:0:
320,0,89140,1,0,0:0:0:0:
448,0,89140,1,0,0:0:0:0:
64,0,89191,1,0,0:0:0:0:
192,0,89191,1,0,0:0:0:0:
320,0,89295,1,0,0:0:0:0:
448,0,89295,1,0,0:0:0:0:
64,0,89400,1,0,0:0:0:0:
192,0,89400,1,0,0:0:0:0:
320,0,89400,1,0,0:0:0:0:
448,0,89400,1,0,0:0:0:0:
192,0,89504,1,0,0:0:0:0:
320,0,89504,1,0,0:0:0:0:
64,0,89608,1,0,0:0:0:0:
320,0,89608,1,0,0:0:0:0:
448,0,89608,1,0,0:0:0:0:
64,0,89712,1,0,0:0:0:0:
192,0,89712,1,0,0:0:0:0:
320,0,89712,1,0,0:0:0:0:
448,0,89712,1,0,0:0:0:0:
64,0,89816,1,0,0:0:0:0:
192,0,89816,1,0,0:0:0:0:
448,0,89816,1,0,0:0:0:0:
192,0,89920,1,0,0:0:0:0:
320,0,89920,1,0,0:0:0:0:
64,0,90025,1,0,0:0:0:0:
192,0,90025,1,0,0:0:0:0:
320,0,90025,1,0,0:0:0:0:
448,0,90025,1,0,0:0:0:0:
64,0,90129,1,0,0:0:0:0:
320,0,90129,1,0,0:0:0:0:
64,0,90233,1,0,0:0:0:0:
192,0,90233,1,0,0:0:0:0:
320,0,90233,1,0,0:0:0:0:
448,0,90233,1,0,0:0:0:0:
320,0,90337,1,0,0:0:0:0:
448,0,90337,1,0,0:0:0:0:
64,0,90441,1,0,0:0:0:0:
192,0,90441,1,0,0:0:0:0:
448,0,90441,1,0,0:0:0:0:
64,0,90545,1,0,0:0:0:0:
192,0,90545,1,0,0:0:0:0:
320,0,90545,1,0,0:0:0:0:
448,0,90545,1,0,0:0:0:0:
64,0,90650,1,0,0:0:0:0:
192,0,90650,1,0,0:0:0:0:
320,0,90650,1,0,0:0:0:0:
320,0,90754,1,0,0:0:0:0:
448,0,90754,1,0,0:0:0:0:
64,0,90858,1,0,0:0:0:0:
192,0,90858,1,0,0:0:0:0:
320,0,90858,1,0,0:0:0:0:
448,0,90858,1,0,0:0:0:0:
64,0,90962,1,0,0:0:0:0:
320,0,90962,1,0,0:0:0:0:
64,0,91066,1,0,0:0:0:0:
192,0,91066,1,0,0:0:0:0:
320,0,91066,1,0,0:0:0:0:
448,0,91066,1,0,0:0:0:0:
192,0,91170,1,0,0:0:0:0:
448,0,91170,1,0,0:0:0:0:
64,0,91275,1,0,0:0:0:0:
192,0,91275,1,0,0:0:0:0:
320,0,91275,1,0,0:0:0:0:
64,0,91379,1,0,0:0:0:0:
192,0,91379,1,0,0:0:0:0:
320,0,91379,1,0,0:0:0:0:
448,0,91379,1,0,0:0:0:0:
192,0,91483,1,0,0:0:0:0:
320,0,91483,1,0,0:0:0:0:
64,0,91587,1,0,0:0:0:0:
320,0,91587,1,0,0:0:0:0:
64,0,91691,1,0,0:0:0:0:
192,0,91691,1,0,0:0:0:0:
320,0,91691,1,0,0:0:0:0:
448,0,91691,1,0,0:0:0:0:
320,0,91795,1,0,0:0:0:0:
448,0,91795,1,0,0:0:0:0:
64,0,91900,1,0,0:0:0:0:
192,0,91900,1,0,0:0:0:0:
320,0,91900,1,0,0:0:0:0:
448,0,91900,1,0,0:0:0:0:
64,0,92004,1,0,0:0:0:0:
192,0,92004,1,0,0:0:0:0:
320,0,92004,1,0,0:0:0:0:
64,0,92108,1,0,0:0:0:0:
320,0,92108,1,0,0:0:0:0:
448,0,92108,1,0,0:0:0:0:
192,0,92212,1,0,0:0:0:0:
320,0,92212,1,0,0:0:0:0:
64,0,92316,1,0,0:0:0:0:
192,0,92316,1,0,0:0:0:0:
448,0,92316,1,0,0:0:0:0:
320,0,92420,1,0,0:0:0:0:
448,0,92420,1,0,0:0:0:0:
64,0,92473,1,0,0:0:0:0:
192,0,92473,1,0,0:0:0:0:
320,0,92525,1,0,0:0:0:0:
448,0,92525,1,0,0:0:0:0:
192,0,92629,1,0,0:0:0:0:
320,0,92629,1,0,0:0:0:0:
64,0,92733,1,0,0:0:0:0:
448,0,92733,1,0,0:0:0:0:
320,0,92837,128,0,92941:0:0:0:0:
192,0,92941,1,0,0:0:0:0:
448,0,93045,1,0,0:0:0:0:
64,0,93150,1,0,0:0:0:0:
192,0,93150,1,0,0:0:0:0:
320,0,93254,1,0,0:0:0:0:
192,0,93358,128,0,93462:0:0:0:0:
320,0,93462,1,0,0:0:0:0:
64,0,93566,1,0,0:0:0:0:
320,0,93566,1,0,0:0:0:0:
448,0,93566,1,0,0:0:0:0:
192,0,93670,1,0,0:0:0:0:
64,0,93775,1,0,0:0:0:0:
320,0,93775,1,0,0:0:0:0:
448,0,93775,1,0,0:0:0:0:
320,0,93879,1,0,0:0:0:0:
64,0,93983,1,0,0:0:0:0:
192,0,93983,1,0,0:0:0:0:
448,0,93983,1,0,0:0:0:0:
320,0,94087,1,0,0:0:0:0:
64,0,94191,1,0,0:0:0:0:
192,0,94191,1,0,0:0:0:0:
448,0,94191,1,0,0:0:0:0:
192,0,94295,1,0,0:0:0:0:
64,0,94400,1,0,0:0:0:0:
320,0,94400,1,0,0:0:0:0:
448,0,94400,1,0,0:0:0:0:
192,0,94504,1,0,0:0:0:0:
320,0,94504,1,0,0:0:0:0:
64,0,94608,1,0,0:0:0:0:
192,0,94608,1,0,0:0:0:0:
448,0,94608,1,0,0:0:0:0:
320,0,94712,1,0,0:0:0:0:
64,0,94816,1,0,0:0:0:0:
192,0,94816,1,0,0:0:0:0:
448,0,94816,1,0,0:0:0:0:
192,0,94920,1,0,0:0:0:0:
64,0,95025,1,0,0:0:0:0:
320,0,95025,1,0,0:0:0:0:
448,0,95025,1,0,0:0:0:0:
64,0,95129,1,0,0:0:0:0:
192,0,95129,1,0,0:0:0:0:
320,0,95129,1,0,0:0:0:0:
64,0,95233,1,0,0:0:0:0:
320,0,95233,1,0,0:0:0:0:
448,0,95233,1,0,0:0:0:0:
192,0,95337,1,0,0:0:0:0:
64,0,95441,1,0,0:0:0:0:
320,0,95441,1,0,0:0:0:0:
448,0,95441,1,0,0:0:0:0:
320,0,95545,1,0,0:0:0:0:
64,0,95650,1,0,0:0:0:0:
192,0,95650,1,0,0:0:0:0:
448,0,95650,1,0,0:0:0:0:
320,0,95754,1,0,0:0:0:0:
192,0,95806,1,0,0:0:0:0:
320,0,95858,1,0,0:0:0:0:
448,0,95858,1,0,0:0:0:0:
64,0,95962,1,0,0:0:0:0:
192,0,95962,1,0,0:0:0:0:
320,0,96066,1,0,0:0:0:0:
448,0,96066,1,0,0:0:0:0:
64,0,96119,1,0,0:0:0:0:
192,0,96119,1,0,0:0:0:0:
320,0,96170,1,0,0:0:0:0:
64,0,96223,1,0,0:0:0:0:
192,0,96223,1,0,0:0:0:0:
320,0,96275,1,0,0:0:0:0:
448,0,96275,1,0,0:0:0:0:
192,0,96379,1,0,0:0:0:0:
320,0,96379,1,0,0:0:0:0:
64,0,96483,1,0,0:0:0:0:
320,0,96483,1,0,0:0:0:0:
448,0,96483,1,0,0:0:0:0:
192,0,96587,1,0,0:0:0:0:
64,0,96691,1,0,0:0:0:0:
320,0,96691,1,0,0:0:0:0:
448,0,96691,1,0,0:0:0:0:
448,0,96795,1,0,0:0:0:0:
64,0,96900,1,0,0:0:0:0:
192,0,96900,1,0,0:0:0:0:
320,0,96900,1,0,0:0:0:0:
192,0,97004,1,0,0:0:0:0:
64,0,97108,1,0,0:0:0:0:
320,0,97108,1,0,0:0:0:0:
448,0,97108,1,0,0:0:0:0:
192,0,97212,1,0,0:0:0:0:
64,0,97316,1,0,0:0:0:0:
320,0,97316,1,0,0:0:0:0:
448,0,97316,1,0,0:0:0:0:
448,0,97420,1,0,0:0:0:0:
64,0,97525,1,0,0:0:0:0:
192,0,97525,1,0,0:0:0:0:
320,0,97525,1,0,0:0:0:0:
448,0,97629,1,0,0:0:0:0:
64,0,97733,1,0,0:0:0:0:
192,0,97733,1,0,0:0:0:0:
320,0,97733,1,0,0:0:0:0:
320,0,97837,1,0,0:0:0:0:
192,0,97890,1,0,0:0:0:0:
64,0,97941,1,0,0:0:0:0:
320,0,97941,1,0,0:0:0:0:
448,0,97941,1,0,0:0:0:0:
192,0,97994,1,0,0:0:0:0:
320,0,98045,1,0,0:0:0:0:
448,0,98098,1,0,0:0:0:0:
64,0,98150,1,0,0:0:0:0:
192,0,98150,1,0,0:0:0:0:
320,0,98150,1,0,0:0:0:0:
192,0,98254,1,0,0:0:0:0:
64,0,98358,1,0,0:0:0:0:
320,0,98358,1,0,0:0:0:0:
448,0,98358,1,0,0:0:0:0:
192,0,98462,1,0,0:0:0:0:
320,0,98462,1,0,0:0:0:0:
64,0,98566,1,0,0:0:0:0:
192,0,98566,1,0,0:0:0:0:
448,0,98566,1,0,0:0:0:0:
320,0,98670,1,0,0:0:0:0:
192,0,98775,1,0,0:0:0:0:
448,0,98879,1,0,0:0:0:0:
192,0,98983,1,0,0:0:0:0:
320,0,99087,1,0,0:0:0:0:
64,0,99191,1,0,0:0:0:0:
192,0,99295,1,0,0:0:0:0:
320,0,99295,1,0,0:0:0:0:
448,0,99295,1,0,0:0:0:0:
64,0,99400,1,0,0:0:0:0:
192,0,99504,1,0,0:0:0:0:
320,0,99504,1,0,0:0:0:0:
64,0,99608,1,0,0:0:0:0:
320,0,99608,1,0,0:0:0:0:
192,0,99712,1,0,0:0:0:0:
320,0,99765,1,0,0:0:0:0:
64,0,99816,1,0,0:0:0:0:
192,0,99816,1,0,0:0:0:0:
320,0,99869,1,0,0:0:0:0:
448,0,99869,1,0,0:0:0:0:
192,0,99920,1,0,0:0:0:0:
320,0,99973,1,0,0:0:0:0:
448,0,99973,1,0,0:0:0:0:
64,0,100025,1,0,0:0:0:0:
192,0,100025,1,0,0:0:0:0:
192,0,100129,1,0,0:0:0:0:
320,0,100129,1,0,0:0:0:0:
64,0,100233,1,0,0:0:0:0:
192,0,100233,1,0,0:0:0:0:
448,0,100233,1,0,0:0:0:0:
320,0,100285,1,0,0:0:0:0:
192,0,100337,1,0,0:0:0:0:
64,0,100390,1,0,0:0:0:0:
320,0,100441,1,0,0:0:0:0:
448,0,100441,1,0,0:0:0:0:
192,0,100494,1,0,0:0:0:0:
320,0,100545,1,0,0:0:0:0:
448,0,100598,1,0,0:0:0:0:
64,0,100650,1,0,0:0:0:0:
192,0,100650,1,0,0:0:0:0:
320,0,100702,1,0,0:0:0:0:
64,0,100754,1,0,0:0:0:0:
448,0,100754,1,0,0:0:0:0:
192,0,100806,1,0,0:0:0:0:
320,0,100858,1,0,0:0:0:0:
448,0,100858,1,0,0:0:0:0:
64,0,100910,1,0,0:0:0:0:
192,0,100962,1,0,0:0:0:0:
320,0,100962,1,0,0:0:0:0:
448,0,101015,1,0,0:0:0:0:
64,0,101066,1,0,0:0:0:0:
192,0,101066,1,0,0:0:0:0:
448,0,101119,1,0,0:0:0:0:
320,0,101170,1,0,0:0:0:0:
192,0,101223,1,0,0:0:0:0:
64,0,101275,1,0,0:0:0:0:
448,0,101275,1,0,0:0:0:0:
320,0,101327,1,0,0:0:0:0:
192,0,101379,1,0,0:0:0:0:
448,0,101431,1,0,0:0:0:0:
64,0,101483,1,0,0:0:0:0:
192,0,101483,1,0,0:0:0:0:
448,0,101535,1,0,0:0:0:0:
320,0,101587,1,0,0:0:0:0:
192,0,101640,1,0,0:0:0:0:
64,0,101691,1,0,0:0:0:0:
448,0,101691,1,0,0:0:0:0:
320,0,101744,1,0,0:0:0:0:
64,0,101795,1,0,0:0:0:0:
192,0,101795,1,0,0:0:0:0:
448,0,101848,1,0,0:0:0:0:
192,0,101900,1,0,0:0:0:0:
320,0,101900,1,0,0:0:0:0:
64,0,101952,1,0,0:0:0:0:
320,0,102004,1,0,0:0:0:0:
448,0,102004,1,0,0:0:0:0:
192,0,102056,1,0,0:0:0:0:
64,0,102108,1,0,0:0:0:0:
448,0,102108,1,0,0:0:0:0:
320,0,102160,1,0,0:0:0:0:
192,0,102212,1,0,0:0:0:0:
64,0,102265,1,0,0:0:0:0:
320,0,102316,1,0,0:0:0:0:
448,0,102316,1,0,0:0:0:0:
64,0,102369,1,0,0:0:0:0:
320,0,102420,1,0,0:0:0:0:
448,0,102420,1,0,0:0:0:0:
64,0,102473,1,0,0:0:0:0:
192,0,102473,1,0,0:0:0:0:
320,0,102525,1,0,0:0:0:0:
448,0,102525,1,0,0:0:0:0:
64,0,102577,1,0,0:0:0:0:
192,0,102629,1,0,0:0:0:0:
320,0,102629,1,0,0:0:0:0:
448,0,102681,1,0,0:0:0:0:
64,0,102733,1,0,0:0:0:0:
192,0,102733,1,0,0:0:0:0:
448,0,102785,1,0,0:0:0:0:
320,0,102837,1,0,0:0:0:0:
192,0,102890,1,0,0:0:0:0:
64,0,102941,1,0,0:0:0:0:
448,0,102941,1,0,0:0:0:0:
320,0,102994,1,0,0:0:0:0:
192,0,103045,1,0,0:0:0:0:
448,0,103098,1,0,0:0:0:0:
64,0,103150,1,0,0:0:0:0:
192,0,103150,1,0,0:0:0:0:
320,0,103202,1,0,0:0:0:0:
192,0,103254,1,0,0:0:0:0:
64,0,103306,1,0,0:0:0:0:
320,0,103358,1,0,0:0:0:0:
448,0,103358,1,0,0:0:0:0:
64,0,103410,1,0,0:0:0:0:
192,0,103462,1,0,0:0:0:0:
320,0,103515,1,0,0:0:0:0:
64,0,103566,1,0,0:0:0:0:
448,0,103566,1,0,0:0:0:0:
192,0,103619,1,0,0:0:0:0:
320,0,103670,1,0,0:0:0:0:
448,0,103670,1,0,0:0:0:0:
64,0,103723,1,0,0:0:0:0:
192,0,103723,1,0,0:0:0:0:
320,0,103775,1,0,0:0:0:0:
448,0,103775,1,0,0:0:0:0:
64,0,103827,1,0,0:0:0:0:
320,0,103879,1,0,0:0:0:0:
448,0,103879,1,0,0:0:0:0:
64,0,103931,1,0,0:0:0:0:
192,0,103931,1,0,0:0:0:0:
320,0,103983,1,0,0:0:0:0:
448,0,103983,1,0,0:0:0:0:
192,0,104035,1,0,0:0:0:0:
64,0,104087,1,0,0:0:0:0:
448,0,104087,1,0,0:0:0:0:
320,0,104140,1,0,0:0:0:0:
64,0,104191,1,0,0:0:0:0:
192,0,104191,1,0,0:0:0:0:
448,0,104244,1,0,0:0:0:0:
192,0,104295,1,0,0:0:0:0:
320,0,104295,1,0,0:0:0:0:
64,0,104348,1,0,0:0:0:0:
192,0,104400,1,0,0:0:0:0:
448,0,104400,1,0,0:0:0:0:
320,0,104452,1,0,0:0:0:0:
64,0,104504,1,0,0:0:0:0:
192,0,104504,1,0,0:0:0:0:
320,0,104556,1,0,0:0:0:0:
448,0,104556,1,0,0:0:0:0:
64,0,104608,1,0,0:0:0:0:
192,0,104608,1,0,0:0:0:0:
448,0,104660,1,0,0:0:0:0:
192,0,104712,1,0,0:0:0:0:
320,0,104712,1,0,0:0:0:0:
448,0,104765,1,0,0:0:0:0:
64,0,104816,1,0,0:0:0:0:
320,0,104816,1,0,0:0:0:0:
192,0,104869,1,0,0:0:0:0:
320,0,104920,1,0,0:0:0:0:
448,0,104920,1,0,0:0:0:0:
64,0,104973,1,0,0:0:0:0:
192,0,105025,1,0,0:0:0:0:
320,0,105025,1,0,0:0:0:0:
448,0,105077,1,0,0:0:0:0:
64,0,105129,1,0,0:0:0:0:
192,0,105129,1,0,0:0:0:0:
320,0,105181,1,0,0:0:0:0:
64,0,105233,1,0,0:0:0:0:
448,0,105233,1,0,0:0:0:0:
192,0,105285,1,0,0:0:0:0:
320,0,105337,1,0,0:0:0:0:
448,0,105337,1,0,0:0:0:0:
64,0,105390,1,0,0:0:0:0:
192,0,105441,1,0,0:0:0:0:
320,0,105441,1,0,0:0:0:0:
448,0,105494,1,0,0:0:0:0:
64,0,105545,1,0,0:0:0:0:
192,0,105545,1,0,0:0:0:0:
320,0,105598,1,0,0:0:0:0:
64,0,105650,1,0,0:0:0:0:
448,0,105650,1,0,0:0:0:0:
320,0,105702,1,0,0:0:0:0:
64,0,105754,1,0,0:0:0:0:
192,0,105754,1,0,0:0:0:0:
320,0,105806,1,0,0:0:0:0:
448,0,105806,1,0,0:0:0:0:
64,0,105858,1,0,0:0:0:0:
192,0,105858,1,0,0:0:0:0:
448,0,105910,1,0,0:0:0:0:
192,0,105962,1,0,0:0:0:0:
320,0,105962,1,0,0:0:0:0:
64,0,106015,1,0,0:0:0:0:
320,0,106066,1,0,0:0:0:0:
448,0,106066,1,0,0:0:0:0:
192,0,106119,1,0,0:0:0:0:
64,0,106170,1,0,0:0:0:0:
448,0,106170,1,0,0:0:0:0:
320,0,106223,1,0,0:0:0:0:
64,0,106275,1,0,0:0:0:0:
192,0,106275,1,0,0:0:0:0:
448,0,106327,1,0,0:0:0:0:
192,0,106379,1,0,0:0:0:0:
320,0,106379,1,0,0:0:0:0:
448,0,106431,1,0,0:0:0:0:
64,0,106483,1,0,0:0:0:0:
192,0,106483,1,0,0:0:0:0:
320,0,106535,1,0,0:0:0:0:
448,0,106535,1,0,0:0:0:0:
64,0,106587,1,0,0:0:0:0:
192,0,106587,1,0,0:0:0:0:
320,0,106640,1,0,0:0:0:0:
448,0,106640,1,0,0:0:0:0:
64,0,106691,1,0,0:0:0:0:
192,0,106717,1,0,0:0:0:0:
320,0,106744,1,0,0:0:0:0:
448,0,106770,1,0,0:0:0:0:
64,0,106795,1,0,0:0:0:0:
192,0,106821,1,0,0:0:0:0:
320,0,106848,1,0,0:0:0:0:
448,0,106874,1,0,0:0:0:0:
64,0,106900,1,0,0:0:0:0:
192,0,107004,1,0,0:0:0:0:
64,0,107108,1,0,0:0:0:0:
320,0,107212,1,0,0:0:0:0:
192,0,107316,1,0,0:0:0:0:
320,0,107420,1,0,0:0:0:0:
448,0,107525,1,0,0:0:0:0:
320,0,107629,1,0,0:0:0:0:
192,0,107733,1,0,0:0:0:0:
448,0,107837,1,0,0:0:0:0:
192,0,107941,1,0,0:0:0:0:
64,0,108045,1,0,0:0:0:0:
320,0,108150,1,0,0:0:0:0:
192,0,108254,1,0,0:0:0:0:
448,0,108358,1,0,0:0:0:0:
192,0,108462,1,0,0:0:0:0:
320,0,108566,1,0,0:0:0:0:
192,0,108670,1,0,0:0:0:0:
64,0,108775,1,0,0:0:0:0:
192,0,108879,128,0,110025:0:0:0:0:
320,0,110072,1,0,0:0:0:0:
320,0,110307,1,0,0:0:0:0:
192,0,110463,1,0,0:0:0:0:
448,0,110567,1,0,0:0:0:0:
192,0,110697,1,0,0:0:0:0:
320,0,110797,1,0,0:0:0:0:
64,0,110905,1,0,0:0:0:0:
320,0,111010,1,0,0:0:0:0:
320,0,111218,1,0,0:0:0:0:
320,0,111479,1,0,0:0:0:0:
320,0,111900,128,0,113462:0:0:0:0:
