osu file format v14

[General]
AudioFilename: audio.mp3
AudioLeadIn: 0
PreviewTime: 23218
Countdown: 0
SampleSet: Soft
StackLeniency: 0.7
Mode: 3
LetterboxInBreaks: 0
SpecialStyle: 0
WidescreenStoryboard: 1

[Editor]
Bookmarks: 87277
DistanceSpacing: 1
BeatDivisor: 8
GridSize: 8
TimelineZoom: 3.099999

[Metadata]
Title:Tomorrow Perfume (tpz Despair Remix)
TitleUnicode:Tomorrow Perfume (tpz Despair Remix)
Artist:t+pazolite
ArtistUnicode:t+pazolite
Creator:_Gaster
Version:DESPAIR Lv.27
Source:SOUND VOLTEX BOOTH
Tags:dj TAKA Music REMIX 1ST STYLE SDVX
BeatmapID:1359617
BeatmapSetID:641143

[Difficulty]
HPDrainRate:7
CircleSize:4
OverallDifficulty:10
ApproachRate:5
SliderMultiplier:1.4
SliderTickRate:1

[Events]
//Background and Video events
0,0,"Tomorrow Perfume 2.jpg",0,0
//Break Periods
//Storyboard Layer 0 (Background)
//Storyboard Layer 1 (Fail)
//Storyboard Layer 2 (Pass)
//Storyboard Layer 3 (Foreground)
//Storyboard Layer 4 (Overlay)
//Storyboard Sound Samples

[TimingPoints]
637,352.941176470588,4,2,1,0,1,0
22519,-66.6666666666667,4,2,1,0,0,0
22695,-200,4,2,1,0,0,0
22784,-66.6666666666667,4,2,1,0,0,0
22960,-200,4,2,1,0,0,0
23048,-66.6666666666667,4,2,1,0,0,0
23136,-200,4,2,1,0,0,0
23225,-100,4,2,1,0,0,1
34519,-100,4,2,1,0,0,0
56754,-66.6666666666667,4,2,1,0,0,0
56931,-200,4,2,1,0,0,0
57107,-100,4,2,1,0,0,1
66989,-100,4,2,1,0,0,0
68401,-100,4,2,1,0,0,1
79695,-100,4,2,1,0,0,0
90989,-10000,4,2,1,0,0,0
91034,-33.3333333333333,4,2,1,0,0,0
91122,-100,4,2,1,0,0,0
91166,-10000,4,2,1,0,0,0
91210,-33.3333333333333,4,2,1,0,0,0
91298,-100,4,2,1,0,0,0
91342,-100,4,2,1,0,0,1
100872,-100,4,2,1,0,0,0
102284,-100,4,2,1,0,0,1
113578,-100,4,2,1,0,0,0
113666,-10000,4,2,1,0,0,0
113798,-25,4,2,1,0,0,0
113842,-100,4,2,1,0,0,0
113931,-10000,4,2,1,0,0,0
114063,-25,4,2,1,0,0,0
114107,-100,4,2,1,0,0,0
114195,-10000,4,2,1,0,0,0
114328,-25,4,2,1,0,0,0
114372,-100,4,2,1,0,0,0
114460,-10000,4,2,1,0,0,0
114592,-25,4,2,1,0,0,0
114636,-100,4,2,1,0,0,0
114725,-10000,4,2,1,0,0,0
114769,-50,4,2,1,0,0,0
114813,-100,4,2,1,0,0,0
114901,-10000,4,2,1,0,0,0
114945,-50,4,2,1,0,0,0
114989,-100,4,2,1,0,0,0
115078,-10000,4,2,1,0,0,0
115210,-25,4,2,1,0,0,0
115254,-100,4,2,1,0,0,0
115342,-10000,4,2,1,0,0,0
115475,-25,4,2,1,0,0,0
115519,-100,4,2,1,0,0,0
115607,-10000,4,2,1,0,0,0

[HitObjects]
64,192,637,5,0,0:0:0:0:
192,192,637,1,0,0:0:0:0:
320,192,637,1,0,0:0:0:0:
448,192,637,1,0,0:0:0:0:
320,192,813,1,0,0:0:0:0:
448,192,813,1,0,0:0:0:0:
64,192,989,1,0,0:0:0:0:
192,192,989,1,0,0:0:0:0:
320,192,989,1,0,0:0:0:0:
448,192,1166,1,0,0:0:0:0:
320,192,1166,1,0,0:0:0:0:
192,192,1254,1,0,0:0:0:0:
64,192,1254,1,0,0:0:0:0:
192,192,1431,1,0,0:0:0:0:
64,192,1431,1,0,0:0:0:0:
64,192,1519,1,0,0:0:0:0:
192,192,1519,1,0,0:0:0:0:
320,192,1695,1,0,0:0:0:0:
448,192,1695,1,0,0:0:0:0:
192,192,1695,1,0,0:0:0:0:
192,192,1872,1,0,0:0:0:0:
64,192,1872,1,0,0:0:0:0:
448,192,1960,1,0,0:0:0:0:
320,192,1960,1,0,0:0:0:0:
320,192,2136,1,0,0:0:0:0:
448,192,2136,1,0,0:0:0:0:
448,192,2225,1,0,0:0:0:0:
320,192,2225,1,0,0:0:0:0:
320,192,2401,1,0,0:0:0:0:
192,192,2401,1,0,0:0:0:0:
64,192,2401,1,0,0:0:0:0:
64,192,2578,1,0,0:0:0:0:
448,192,2578,1,0,0:0:0:0:
192,192,2666,1,0,0:0:0:0:
320,192,2666,1,0,0:0:0:0:
320,192,2842,1,0,0:0:0:0:
192,192,2842,1,0,0:0:0:0:
192,192,2931,1,0,0:0:0:0:
320,192,2931,1,0,0:0:0:0:
448,192,3019,1,0,0:0:0:0:
320,192,3107,1,0,0:0:0:0:
64,192,3107,1,0,0:0:0:0:
192,192,3107,1,0,0:0:0:0:
448,192,3195,1,0,0:0:0:0:
320,192,3284,1,0,0:0:0:0:
192,192,3284,1,0,0:0:0:0:
64,192,3372,1,0,0:0:0:0:
192,192,3460,1,0,0:0:0:0:
320,192,3460,1,0,0:0:0:0:
448,192,3460,1,0,0:0:0:0:
320,192,3636,1,0,0:0:0:0:
448,192,3636,1,0,0:0:0:0:
192,192,3813,1,0,0:0:0:0:
64,192,3813,1,0,0:0:0:0:
448,192,3989,1,0,0:0:0:0:
320,192,3989,1,0,0:0:0:0:
192,192,4078,1,0,0:0:0:0:
64,192,4078,1,0,0:0:0:0:
448,192,4166,1,0,0:0:0:0:
64,192,4254,1,0,0:0:0:0:
192,192,4254,1,0,0:0:0:0:
192,192,4342,1,0,0:0:0:0:
64,192,4342,1,0,0:0:0:0:
192,192,4519,1,0,0:0:0:0:
320,192,4519,1,0,0:0:0:0:
448,192,4519,1,0,0:0:0:0:
64,192,4695,1,0,0:0:0:0:
192,192,4695,1,0,0:0:0:0:
320,192,4784,1,0,0:0:0:0:
448,192,4784,1,0,0:0:0:0:
64,192,4872,1,0,0:0:0:0:
320,192,4960,1,0,0:0:0:0:
448,192,4960,1,0,0:0:0:0:
448,192,5048,1,0,0:0:0:0:
320,192,5048,1,0,0:0:0:0:
64,192,5225,1,0,0:0:0:0:
192,192,5225,1,0,0:0:0:0:
320,192,5225,1,0,0:0:0:0:
64,192,5401,1,0,0:0:0:0:
448,192,5401,1,0,0:0:0:0:
192,192,5489,1,0,0:0:0:0:
320,192,5489,1,0,0:0:0:0:
64,192,5578,1,0,0:0:0:0:
192,192,5666,1,0,0:0:0:0:
448,192,5666,1,0,0:0:0:0:
320,192,5754,1,0,0:0:0:0:
64,192,5842,1,0,0:0:0:0:
192,192,5842,1,0,0:0:0:0:
448,192,5931,1,0,0:0:0:0:
320,192,5931,1,0,0:0:0:0:
192,192,6107,1,0,0:0:0:0:
320,192,6107,1,0,0:0:0:0:
448,192,6284,1,0,0:0:0:0:
320,192,6284,1,0,0:0:0:0:
192,192,6284,1,0,0:0:0:0:
64,192,6284,1,0,0:0:0:0:
320,192,6460,1,0,0:0:0:0:
448,192,6460,1,0,0:0:0:0:
448,192,6636,1,0,0:0:0:0:
320,192,6636,1,0,0:0:0:0:
192,192,6636,1,0,0:0:0:0:
64,192,6636,1,0,0:0:0:0:
448,192,6813,1,0,0:0:0:0:
320,192,6813,1,0,0:0:0:0:
192,192,6901,1,0,0:0:0:0:
64,192,6901,1,0,0:0:0:0:
320,192,6989,1,0,0:0:0:0:
448,192,6989,1,0,0:0:0:0:
192,192,7078,1,0,0:0:0:0:
64,192,7078,1,0,0:0:0:0:
192,192,7166,1,0,0:0:0:0:
64,192,7166,1,0,0:0:0:0:
448,192,7254,1,0,0:0:0:0:
320,192,7342,1,0,0:0:0:0:
192,192,7342,1,0,0:0:0:0:
64,192,7342,1,0,0:0:0:0:
448,192,7342,1,0,0:0:0:0:
192,192,7519,1,0,0:0:0:0:
64,192,7519,1,0,0:0:0:0:
320,192,7607,1,0,0:0:0:0:
448,192,7607,1,0,0:0:0:0:
192,192,7695,1,0,0:0:0:0:
64,192,7695,1,0,0:0:0:0:
320,192,7784,1,0,0:0:0:0:
448,192,7784,1,0,0:0:0:0:
448,192,7872,1,0,0:0:0:0:
320,192,7872,1,0,0:0:0:0:
64,192,7960,1,0,0:0:0:0:
64,192,8048,1,0,0:0:0:0:
192,192,8048,1,0,0:0:0:0:
320,192,8048,1,0,0:0:0:0:
448,192,8048,1,0,0:0:0:0:
448,192,8136,1,0,0:0:0:0:
192,192,8225,1,0,0:0:0:0:
64,192,8225,1,0,0:0:0:0:
320,192,8313,1,0,0:0:0:0:
448,192,8313,1,0,0:0:0:0:
192,192,8401,1,0,0:0:0:0:
64,192,8401,1,0,0:0:0:0:
320,192,8489,1,0,0:0:0:0:
448,192,8489,1,0,0:0:0:0:
320,192,8578,1,0,0:0:0:0:
448,192,8578,1,0,0:0:0:0:
64,192,8666,1,0,0:0:0:0:
64,192,8754,1,0,0:0:0:0:
192,192,8754,1,0,0:0:0:0:
320,192,8754,1,0,0:0:0:0:
448,192,8754,1,0,0:0:0:0:
448,192,8842,1,0,0:0:0:0:
320,192,8931,1,0,0:0:0:0:
192,192,8931,1,0,0:0:0:0:
64,192,9019,1,0,0:0:0:0:
64,192,9107,1,0,0:0:0:0:
320,192,9107,1,0,0:0:0:0:
448,192,9107,1,0,0:0:0:0:
192,192,9107,1,0,0:0:0:0:
448,192,9195,1,0,0:0:0:0:
448,192,9284,1,0,0:0:0:0:
192,192,9284,1,0,0:0:0:0:
64,192,9284,1,0,0:0:0:0:
320,192,9284,1,0,0:0:0:0:
64,192,9372,1,0,0:0:0:0:
64,192,9460,1,0,0:0:0:0:
192,192,9460,1,0,0:0:0:0:
320,192,9460,1,0,0:0:0:0:
448,192,9460,1,0,0:0:0:0:
320,192,9548,1,0,0:0:0:0:
448,192,9636,1,0,0:0:0:0:
320,192,9636,1,0,0:0:0:0:
64,192,9636,1,0,0:0:0:0:
192,192,9636,1,0,0:0:0:0:
192,192,9725,1,0,0:0:0:0:
64,192,9725,1,0,0:0:0:0:
64,192,9813,1,0,0:0:0:0:
192,192,9813,1,0,0:0:0:0:
320,192,9813,1,0,0:0:0:0:
448,192,9813,1,0,0:0:0:0:
320,192,9901,1,0,0:0:0:0:
448,192,9901,1,0,0:0:0:0:
448,192,9989,1,0,0:0:0:0:
320,192,9989,1,0,0:0:0:0:
192,192,9989,1,0,0:0:0:0:
64,192,9989,1,0,0:0:0:0:
192,192,10078,1,0,0:0:0:0:
64,192,10166,1,0,0:0:0:0:
192,192,10166,1,0,0:0:0:0:
320,192,10166,1,0,0:0:0:0:
448,192,10166,1,0,0:0:0:0:
448,192,10254,1,0,0:0:0:0:
448,192,10342,1,0,0:0:0:0:
320,192,10342,1,0,0:0:0:0:
192,192,10342,1,0,0:0:0:0:
64,192,10342,1,0,0:0:0:0:
192,192,10431,1,0,0:0:0:0:
64,192,10431,1,0,0:0:0:0:
320,192,10519,1,0,0:0:0:0:
448,192,10519,1,0,0:0:0:0:
192,192,10519,1,0,0:0:0:0:
64,192,10519,1,0,0:0:0:0:
448,192,10607,1,0,0:0:0:0:
320,192,10607,1,0,0:0:0:0:
192,192,10695,1,0,0:0:0:0:
64,192,10695,1,0,0:0:0:0:
448,192,10784,1,0,0:0:0:0:
320,192,10784,1,0,0:0:0:0:
192,192,10784,1,0,0:0:0:0:
64,192,10784,1,0,0:0:0:0:
448,192,10872,1,0,0:0:0:0:
320,192,10872,1,0,0:0:0:0:
64,192,10960,1,0,0:0:0:0:
448,192,11048,1,0,0:0:0:0:
320,192,11048,1,0,0:0:0:0:
192,192,11048,1,0,0:0:0:0:
64,192,11048,1,0,0:0:0:0:
448,192,11136,1,0,0:0:0:0:
320,192,11136,1,0,0:0:0:0:
64,192,11225,1,0,0:0:0:0:
320,192,11313,1,0,0:0:0:0:
448,192,11313,1,0,0:0:0:0:
192,192,11401,1,0,0:0:0:0:
64,192,11401,1,0,0:0:0:0:
448,192,11489,1,0,0:0:0:0:
320,192,11489,1,0,0:0:0:0:
192,192,11578,1,0,0:0:0:0:
64,192,11578,1,0,0:0:0:0:
64,192,11754,1,0,0:0:0:0:
192,192,11754,1,0,0:0:0:0:
64,192,11842,1,0,0:0:0:0:
192,192,11931,1,0,0:0:0:0:
64,192,11931,1,0,0:0:0:0:
448,192,11931,1,0,0:0:0:0:
320,192,11931,128,0,12063:0:0:0:0:
192,192,12107,1,0,0:0:0:0:
320,192,12107,128,0,12284:0:0:0:0:
64,192,12284,128,0,12460:0:0:0:0:
448,192,12460,128,0,12548:0:0:0:0:
192,192,12460,1,0,0:0:0:0:
320,192,12548,128,0,12636:0:0:0:0:
192,192,12813,1,0,0:0:0:0:
320,192,13166,128,0,13342:0:0:0:0:
192,192,13166,1,0,0:0:0:0:
192,192,13342,128,0,13386:0:0:0:0:
192,192,13431,128,0,13475:0:0:0:0:
320,192,13519,1,0,0:0:0:0:
192,192,13519,128,0,13695:0:0:0:0:
448,192,13695,128,0,13872:0:0:0:0:
64,192,13872,128,0,13960:0:0:0:0:
320,192,13872,1,0,0:0:0:0:
192,192,13960,128,0,14048:0:0:0:0:
320,192,14225,1,0,0:0:0:0:
320,192,14578,1,0,0:0:0:0:
192,192,14578,128,0,14754:0:0:0:0:
320,192,14754,128,0,14798:0:0:0:0:
320,192,14842,128,0,14886:0:0:0:0:
320,192,14931,128,0,15107:0:0:0:0:
192,192,14931,1,0,0:0:0:0:
64,192,15107,128,0,15284:0:0:0:0:
448,192,15284,128,0,15372:0:0:0:0:
192,192,15284,1,0,0:0:0:0:
320,192,15372,128,0,15460:0:0:0:0:
192,192,15636,1,0,0:0:0:0:
192,192,15989,1,0,0:0:0:0:
320,192,15989,128,0,16166:0:0:0:0:
192,192,16166,128,0,16210:0:0:0:0:
192,192,16254,128,0,16298:0:0:0:0:
192,192,16342,128,0,16519:0:0:0:0:
320,192,16342,1,0,0:0:0:0:
448,192,16519,128,0,16695:0:0:0:0:
64,192,16695,128,0,16784:0:0:0:0:
320,192,16695,1,0,0:0:0:0:
192,192,16784,128,0,16916:0:0:0:0:
192,192,16960,128,0,17092:0:0:0:0:
320,192,17048,1,0,0:0:0:0:
192,192,17136,128,0,17225:0:0:0:0:
448,192,17225,128,0,17401:0:0:0:0:
192,192,17401,128,0,17578:0:0:0:0:
320,192,17401,1,0,0:0:0:0:
320,192,17578,128,0,17710:0:0:0:0:
320,192,17754,128,0,17931:0:0:0:0:
192,192,17754,1,0,0:0:0:0:
64,192,17931,128,0,18107:0:0:0:0:
448,192,18107,128,0,18195:0:0:0:0:
192,192,18107,1,0,0:0:0:0:
320,192,18195,128,0,18284:0:0:0:0:
192,192,18460,1,0,0:0:0:0:
320,192,18813,128,0,18989:0:0:0:0:
192,192,18813,1,0,0:0:0:0:
192,192,18989,128,0,19034:0:0:0:0:
192,192,19078,128,0,19122:0:0:0:0:
192,192,19166,128,0,19342:0:0:0:0:
320,192,19166,1,0,0:0:0:0:
448,192,19342,128,0,19519:0:0:0:0:
64,192,19519,128,0,19607:0:0:0:0:
320,192,19519,1,0,0:0:0:0:
192,192,19607,128,0,19695:0:0:0:0:
320,192,19872,1,0,0:0:0:0:
192,192,20225,128,0,20401:0:0:0:0:
320,192,20225,1,0,0:0:0:0:
320,192,20401,128,0,20445:0:0:0:0:
320,192,20489,128,0,20534:0:0:0:0:
320,192,20578,128,0,20754:0:0:0:0:
192,192,20578,1,0,0:0:0:0:
64,192,20754,128,0,20931:0:0:0:0:
448,192,20931,128,0,21019:0:0:0:0:
192,192,20931,1,0,0:0:0:0:
320,192,21019,128,0,21107:0:0:0:0:
192,192,21284,1,0,0:0:0:0:
192,192,21636,1,0,0:0:0:0:
320,192,21636,128,0,21725:0:0:0:0:
448,192,21725,128,0,21813:0:0:0:0:
320,192,21813,1,0,0:0:0:0:
192,192,21813,128,0,21901:0:0:0:0:
64,192,21901,128,0,21989:0:0:0:0:
320,192,21989,128,0,22034:0:0:0:0:
192,192,21989,1,0,0:0:0:0:
320,192,22078,128,0,22166:0:0:0:0:
448,192,22166,128,0,22519:0:0:0:0:
192,192,22342,1,0,0:0:0:0:
320,192,22519,1,0,0:0:0:0:
192,192,22519,1,0,0:0:0:0:
64,192,22519,128,0,22784:0:0:0:0:
192,192,22784,1,0,0:0:0:0:
320,192,22784,1,0,0:0:0:0:
448,192,22784,128,0,23048:0:0:0:0:
320,192,23048,1,0,0:0:0:0:
192,192,23048,1,0,0:0:0:0:
64,192,23048,128,0,26048:0:0:0:0:
192,192,23225,1,0,0:0:0:0:
448,192,23225,128,0,23357:0:0:0:0:
320,192,23225,128,0,23357:0:0:0:0:
448,192,23401,128,0,23534:0:0:0:0:
320,192,23401,128,0,23534:0:0:0:0:
448,192,23578,1,0,0:0:0:0:
192,192,23578,128,0,23842:0:0:0:0:
320,192,23578,128,0,23754:0:0:0:0:
448,192,23754,128,0,23975:0:0:0:0:
320,192,23842,128,0,23975:0:0:0:0:
192,192,23931,1,0,0:0:0:0:
320,192,24019,128,0,24063:0:0:0:0:
448,192,24019,128,0,24063:0:0:0:0:
320,192,24107,128,0,24239:0:0:0:0:
448,192,24107,128,0,24239:0:0:0:0:
448,192,24284,1,0,0:0:0:0:
192,192,24284,128,0,24548:0:0:0:0:
320,192,24284,128,0,24460:0:0:0:0:
448,192,24460,128,0,24681:0:0:0:0:
320,192,24548,128,0,24681:0:0:0:0:
192,192,24636,1,0,0:0:0:0:
320,192,24725,128,0,24769:0:0:0:0:
448,192,24725,128,0,24769:0:0:0:0:
320,192,24813,128,0,24945:0:0:0:0:
448,192,24813,128,0,24945:0:0:0:0:
448,192,24989,1,0,0:0:0:0:
320,192,24989,128,0,25166:0:0:0:0:
192,192,24989,128,0,25254:0:0:0:0:
448,192,25166,128,0,25386:0:0:0:0:
320,192,25254,128,0,25386:0:0:0:0:
192,192,25342,1,0,0:0:0:0:
448,192,25431,128,0,25475:0:0:0:0:
320,192,25431,128,0,25475:0:0:0:0:
320,192,25519,128,0,25563:0:0:0:0:
448,192,25519,128,0,25563:0:0:0:0:
320,192,25607,128,0,25651:0:0:0:0:
448,192,25607,128,0,25651:0:0:0:0:
448,192,25695,1,0,0:0:0:0:
192,192,25695,128,0,25960:0:0:0:0:
320,192,25695,128,0,25872:0:0:0:0:
448,192,25872,128,0,26004:0:0:0:0:
320,192,25960,128,0,26004:0:0:0:0:
320,192,26048,128,0,26092:0:0:0:0:
192,192,26048,1,0,0:0:0:0:
448,192,26048,128,0,26092:0:0:0:0:
320,192,26136,128,0,26181:0:0:0:0:
448,192,26136,128,0,26181:0:0:0:0:
320,192,26225,128,0,26357:0:0:0:0:
448,192,26225,128,0,26357:0:0:0:0:
192,192,26225,1,0,0:0:0:0:
448,192,26401,1,0,0:0:0:0:
192,192,26401,128,0,26578:0:0:0:0:
64,192,26401,1,0,0:0:0:0:
320,192,26401,128,0,26666:0:0:0:0:
64,192,26578,128,0,26798:0:0:0:0:
448,192,26578,1,0,0:0:0:0:
192,192,26666,128,0,26798:0:0:0:0:
320,192,26754,1,0,0:0:0:0:
448,192,26754,1,0,0:0:0:0:
192,192,26842,128,0,26886:0:0:0:0:
64,192,26842,128,0,26886:0:0:0:0:
192,192,26931,128,0,27063:0:0:0:0:
64,192,26931,128,0,27063:0:0:0:0:
320,192,26931,1,0,0:0:0:0:
64,192,27107,1,0,0:0:0:0:
448,192,27107,1,0,0:0:0:0:
320,192,27107,128,0,27284:0:0:0:0:
192,192,27107,128,0,27372:0:0:0:0:
448,192,27284,128,0,27416:0:0:0:0:
64,192,27284,1,0,0:0:0:0:
320,192,27372,128,0,27416:0:0:0:0:
320,192,27460,1,0,0:0:0:0:
448,192,27460,1,0,0:0:0:0:
64,192,27460,128,0,27504:0:0:0:0:
192,192,27460,128,0,27504:0:0:0:0:
64,192,27548,128,0,27636:0:0:0:0:
192,192,27548,128,0,27636:0:0:0:0:
320,192,27636,128,0,27681:0:0:0:0:
448,192,27636,128,0,27681:0:0:0:0:
448,192,27725,128,0,27769:0:0:0:0:
320,192,27725,128,0,27769:0:0:0:0:
64,192,27813,1,0,0:0:0:0:
448,192,27813,1,0,0:0:0:0:
320,192,27813,128,0,27989:0:0:0:0:
192,192,27813,128,0,28034:0:0:0:0:
64,192,27989,128,0,28034:0:0:0:0:
448,192,27989,1,0,0:0:0:0:
192,192,28078,128,0,28122:0:0:0:0:
64,192,28078,128,0,28122:0:0:0:0:
192,192,28166,1,0,0:0:0:0:
64,192,28166,1,0,0:0:0:0:
320,192,28166,128,0,28210:0:0:0:0:
448,192,28166,128,0,28210:0:0:0:0:
320,192,28254,128,0,28342:0:0:0:0:
448,192,28254,128,0,28342:0:0:0:0:
192,192,28342,128,0,28431:0:0:0:0:
64,192,28342,128,0,28431:0:0:0:0:
320,192,28431,128,0,28475:0:0:0:0:
448,192,28431,128,0,28475:0:0:0:0:
448,192,28519,1,0,0:0:0:0:
320,192,28519,1,0,0:0:0:0:
192,192,28519,128,0,28563:0:0:0:0:
64,192,28519,128,0,28563:0:0:0:0:
64,192,28607,128,0,28695:0:0:0:0:
192,192,28607,128,0,28695:0:0:0:0:
320,192,28695,128,0,28739:0:0:0:0:
448,192,28695,128,0,28739:0:0:0:0:
320,192,28784,128,0,28828:0:0:0:0:
448,192,28784,128,0,28828:0:0:0:0:
448,192,28872,1,0,0:0:0:0:
64,192,28872,128,0,29004:0:0:0:0:
192,192,28872,1,0,0:0:0:0:
320,192,28872,128,0,29004:0:0:0:0:
64,192,29048,128,0,29181:0:0:0:0:
320,192,29048,128,0,29181:0:0:0:0:
448,192,29048,1,0,0:0:0:0:
448,192,29225,1,0,0:0:0:0:
320,192,29225,1,0,0:0:0:0:
192,192,29225,128,0,29401:0:0:0:0:
64,192,29225,128,0,29489:0:0:0:0:
448,192,29401,1,0,0:0:0:0:
320,192,29401,128,0,29489:0:0:0:0:
448,192,29489,128,0,29622:0:0:0:0:
192,192,29489,128,0,29622:0:0:0:0:
64,192,29578,1,0,0:0:0:0:
320,192,29578,1,0,0:0:0:0:
192,192,29666,128,0,29710:0:0:0:0:
448,192,29666,128,0,29710:0:0:0:0:
192,192,29754,128,0,29886:0:0:0:0:
448,192,29754,128,0,29886:0:0:0:0:
64,192,29754,1,0,0:0:0:0:
64,192,29931,1,0,0:0:0:0:
192,192,29931,1,0,0:0:0:0:
448,192,29931,128,0,30195:0:0:0:0:
320,192,29931,128,0,30107:0:0:0:0:
192,192,30107,128,0,30195:0:0:0:0:
64,192,30107,1,0,0:0:0:0:
320,192,30195,128,0,30328:0:0:0:0:
64,192,30195,128,0,30328:0:0:0:0:
192,192,30284,1,0,0:0:0:0:
448,192,30284,1,0,0:0:0:0:
64,192,30372,128,0,30416:0:0:0:0:
320,192,30372,128,0,30416:0:0:0:0:
448,192,30460,1,0,0:0:0:0:
64,192,30460,128,0,30592:0:0:0:0:
320,192,30460,128,0,30592:0:0:0:0:
192,192,30636,128,0,30813:0:0:0:0:
320,192,30636,1,0,0:0:0:0:
448,192,30636,1,0,0:0:0:0:
64,192,30636,128,0,30901:0:0:0:0:
320,192,30813,128,0,30901:0:0:0:0:
448,192,30813,1,0,0:0:0:0:
448,192,30901,128,0,31034:0:0:0:0:
192,192,30901,128,0,31034:0:0:0:0:
320,192,30989,1,0,0:0:0:0:
64,192,30989,1,0,0:0:0:0:
192,192,31078,128,0,31122:0:0:0:0:
448,192,31078,128,0,31122:0:0:0:0:
192,192,31166,128,0,31210:0:0:0:0:
448,192,31166,128,0,31210:0:0:0:0:
64,192,31166,1,0,0:0:0:0:
448,192,31254,128,0,31298:0:0:0:0:
192,192,31254,128,0,31298:0:0:0:0:
64,192,31342,1,0,0:0:0:0:
192,192,31342,1,0,0:0:0:0:
320,192,31342,128,0,31519:0:0:0:0:
448,192,31342,128,0,31607:0:0:0:0:
192,192,31519,128,0,31651:0:0:0:0:
64,192,31519,1,0,0:0:0:0:
320,192,31607,128,0,31651:0:0:0:0:
64,192,31695,1,0,0:0:0:0:
448,192,31695,1,0,0:0:0:0:
192,192,31695,128,0,31739:0:0:0:0:
320,192,31695,128,0,31739:0:0:0:0:
192,192,31784,128,0,31828:0:0:0:0:
320,192,31784,128,0,31828:0:0:0:0:
192,192,31872,128,0,32004:0:0:0:0:
320,192,31872,128,0,32004:0:0:0:0:
64,192,31872,1,0,0:0:0:0:
448,192,31872,1,0,0:0:0:0:
320,192,32048,1,0,0:0:0:0:
192,192,32048,1,0,0:0:0:0:
64,192,32048,128,0,32181:0:0:0:0:
448,192,32048,128,0,32181:0:0:0:0:
64,192,32225,128,0,32313:0:0:0:0:
448,192,32225,128,0,32313:0:0:0:0:
192,192,32225,1,0,0:0:0:0:
320,192,32225,1,0,0:0:0:0:
192,192,32313,128,0,32445:0:0:0:0:
320,192,32313,128,0,32445:0:0:0:0:
64,192,32401,1,0,0:0:0:0:
448,192,32401,1,0,0:0:0:0:
192,192,32489,128,0,32534:0:0:0:0:
320,192,32489,128,0,32534:0:0:0:0:
192,192,32578,128,0,32710:0:0:0:0:
320,192,32578,128,0,32710:0:0:0:0:
64,192,32578,1,0,0:0:0:0:
448,192,32578,1,0,0:0:0:0:
64,192,32754,128,0,32886:0:0:0:0:
448,192,32754,128,0,32886:0:0:0:0:
192,192,32754,1,0,0:0:0:0:
320,192,32754,1,0,0:0:0:0:
320,192,32842,1,0,0:0:0:0:
192,192,32842,1,0,0:0:0:0:
192,192,32931,1,0,0:0:0:0:
320,192,32931,1,0,0:0:0:0:
64,192,32931,128,0,32975:0:0:0:0:
448,192,32931,128,0,32975:0:0:0:0:
320,192,33019,1,0,0:0:0:0:
192,192,33019,1,0,0:0:0:0:
64,192,33019,128,0,33063:0:0:0:0:
448,192,33019,128,0,33063:0:0:0:0:
64,192,33107,128,0,33195:0:0:0:0:
192,192,33107,128,0,33284:0:0:0:0:
320,192,33107,1,0,0:0:0:0:
448,192,33107,1,0,0:0:0:0:
320,192,33195,128,0,33372:0:0:0:0:
448,192,33284,128,0,33372:0:0:0:0:
64,192,33372,128,0,33460:0:0:0:0:
192,192,33372,128,0,33460:0:0:0:0:
320,192,33460,128,0,33592:0:0:0:0:
448,192,33460,128,0,33592:0:0:0:0:
192,192,33636,1,0,0:0:0:0:
64,192,33636,1,0,0:0:0:0:
448,192,33636,128,0,33725:0:0:0:0:
320,192,33636,128,0,33857:0:0:0:0:
192,192,33725,128,0,33857:0:0:0:0:
192,192,33901,128,0,34034:0:0:0:0:
320,192,33901,128,0,34034:0:0:0:0:
192,192,34078,128,0,34122:0:0:0:0:
320,192,34078,128,0,34122:0:0:0:0:
320,192,34166,128,0,34254:0:0:0:0:
192,192,34166,128,0,34342:0:0:0:0:
64,192,34254,128,0,34475:0:0:0:0:
448,192,34342,128,0,34475:0:0:0:0:
448,192,34519,1,0,0:0:0:0:
320,192,34519,1,0,0:0:0:0:
64,192,34519,1,0,0:0:0:0:
192,192,34519,128,0,34784:0:0:0:0:
64,192,34695,1,0,0:0:0:0:
448,192,34784,128,0,35048:0:0:0:0:
320,192,34784,1,0,0:0:0:0:
64,192,34872,1,0,0:0:0:0:
192,192,34872,1,0,0:0:0:0:
320,192,34872,1,0,0:0:0:0:
320,192,35048,128,0,35313:0:0:0:0:
64,192,35048,1,0,0:0:0:0:
192,192,35136,1,0,0:0:0:0:
192,192,35225,1,0,0:0:0:0:
448,192,35225,1,0,0:0:0:0:
64,192,35225,1,0,0:0:0:0:
64,192,35313,128,0,35578:0:0:0:0:
448,192,35313,1,0,0:0:0:0:
320,192,35401,1,0,0:0:0:0:
192,192,35489,1,0,0:0:0:0:
192,192,35578,128,0,35842:0:0:0:0:
448,192,35578,1,0,0:0:0:0:
320,192,35578,1,0,0:0:0:0:
320,192,35754,1,0,0:0:0:0:
448,192,35842,128,0,36107:0:0:0:0:
64,192,35842,1,0,0:0:0:0:
320,192,35931,1,0,0:0:0:0:
192,192,35931,1,0,0:0:0:0:
64,192,35931,1,0,0:0:0:0:
320,192,36107,128,0,36372:0:0:0:0:
64,192,36107,1,0,0:0:0:0:
192,192,36195,1,0,0:0:0:0:
192,192,36284,1,0,0:0:0:0:
448,192,36284,1,0,0:0:0:0:
64,192,36284,1,0,0:0:0:0:
64,192,36372,128,0,36636:0:0:0:0:
448,192,36372,1,0,0:0:0:0:
320,192,36460,1,0,0:0:0:0:
192,192,36548,1,0,0:0:0:0:
192,192,36636,128,0,36901:0:0:0:0:
448,192,36636,1,0,0:0:0:0:
320,192,36636,1,0,0:0:0:0:
320,192,36725,1,0,0:0:0:0:
64,192,36813,1,0,0:0:0:0:
320,192,36901,128,0,37166:0:0:0:0:
448,192,36901,1,0,0:0:0:0:
64,192,36989,1,0,0:0:0:0:
192,192,36989,1,0,0:0:0:0:
448,192,36989,1,0,0:0:0:0:
192,192,37078,1,0,0:0:0:0:
448,192,37166,128,0,37342:0:0:0:0:
64,192,37166,1,0,0:0:0:0:
192,192,37254,1,0,0:0:0:0:
320,192,37342,128,0,37607:0:0:0:0:
64,192,37342,1,0,0:0:0:0:
192,192,37342,1,0,0:0:0:0:
192,192,37519,1,0,0:0:0:0:
64,192,37607,128,0,37872:0:0:0:0:
448,192,37607,1,0,0:0:0:0:
192,192,37695,1,0,0:0:0:0:
320,192,37695,1,0,0:0:0:0:
448,192,37695,1,0,0:0:0:0:
320,192,37784,1,0,0:0:0:0:
192,192,37872,128,0,38136:0:0:0:0:
448,192,37872,1,0,0:0:0:0:
320,192,37960,1,0,0:0:0:0:
64,192,38048,1,0,0:0:0:0:
448,192,38048,1,0,0:0:0:0:
320,192,38048,1,0,0:0:0:0:
448,192,38136,128,0,38401:0:0:0:0:
64,192,38136,1,0,0:0:0:0:
192,192,38225,1,0,0:0:0:0:
320,192,38313,1,0,0:0:0:0:
320,192,38401,128,0,38666:0:0:0:0:
64,192,38401,1,0,0:0:0:0:
192,192,38401,1,0,0:0:0:0:
192,192,38578,1,0,0:0:0:0:
64,192,38666,128,0,38931:0:0:0:0:
448,192,38666,1,0,0:0:0:0:
192,192,38754,1,0,0:0:0:0:
320,192,38754,1,0,0:0:0:0:
448,192,38754,1,0,0:0:0:0:
320,192,38842,1,0,0:0:0:0:
192,192,38931,128,0,39195:0:0:0:0:
448,192,38931,1,0,0:0:0:0:
320,192,39019,1,0,0:0:0:0:
64,192,39107,1,0,0:0:0:0:
320,192,39107,1,0,0:0:0:0:
448,192,39107,1,0,0:0:0:0:
448,192,39195,128,0,39460:0:0:0:0:
64,192,39195,1,0,0:0:0:0:
320,192,39284,1,0,0:0:0:0:
192,192,39372,1,0,0:0:0:0:
320,192,39460,128,0,39725:0:0:0:0:
64,192,39460,1,0,0:0:0:0:
192,192,39460,1,0,0:0:0:0:
64,192,39548,1,0,0:0:0:0:
448,192,39636,1,0,0:0:0:0:
64,192,39725,128,0,39989:0:0:0:0:
192,192,39725,1,0,0:0:0:0:
448,192,39813,1,0,0:0:0:0:
192,192,39813,1,0,0:0:0:0:
320,192,39813,1,0,0:0:0:0:
320,192,39901,1,0,0:0:0:0:
192,192,39989,128,0,40166:0:0:0:0:
448,192,39989,1,0,0:0:0:0:
320,192,40078,1,0,0:0:0:0:
320,192,40166,128,0,40431:0:0:0:0:
64,192,40166,1,0,0:0:0:0:
448,192,40166,1,0,0:0:0:0:
64,192,40342,1,0,0:0:0:0:
64,192,40431,128,0,40695:0:0:0:0:
192,192,40431,1,0,0:0:0:0:
448,192,40431,1,0,0:0:0:0:
320,192,40519,1,0,0:0:0:0:
192,192,40607,1,0,0:0:0:0:
192,192,40695,128,0,40960:0:0:0:0:
320,192,40695,1,0,0:0:0:0:
448,192,40695,1,0,0:0:0:0:
320,192,40784,1,0,0:0:0:0:
448,192,40872,1,0,0:0:0:0:
448,192,40960,128,0,41225:0:0:0:0:
64,192,40960,1,0,0:0:0:0:
320,192,40960,1,0,0:0:0:0:
192,192,41048,1,0,0:0:0:0:
320,192,41136,1,0,0:0:0:0:
320,192,41225,128,0,41489:0:0:0:0:
192,192,41225,1,0,0:0:0:0:
64,192,41225,1,0,0:0:0:0:
64,192,41401,1,0,0:0:0:0:
64,192,41489,128,0,41754:0:0:0:0:
192,192,41489,1,0,0:0:0:0:
448,192,41489,1,0,0:0:0:0:
320,192,41578,1,0,0:0:0:0:
192,192,41754,128,0,42019:0:0:0:0:
320,192,41754,1,0,0:0:0:0:
448,192,41754,1,0,0:0:0:0:
448,192,41931,1,0,0:0:0:0:
448,192,42019,128,0,42284:0:0:0:0:
320,192,42019,1,0,0:0:0:0:
64,192,42019,1,0,0:0:0:0:
192,192,42107,1,0,0:0:0:0:
320,192,42195,1,0,0:0:0:0:
320,192,42284,128,0,42460:0:0:0:0:
192,192,42284,1,0,0:0:0:0:
64,192,42284,1,0,0:0:0:0:
64,192,42372,1,0,0:0:0:0:
64,192,42460,128,0,42636:0:0:0:0:
192,192,42460,1,0,0:0:0:0:
448,192,42460,1,0,0:0:0:0:
192,192,42548,1,0,0:0:0:0:
192,192,42636,128,0,42813:0:0:0:0:
320,192,42636,1,0,0:0:0:0:
448,192,42636,1,0,0:0:0:0:
320,192,42813,128,0,42989:0:0:0:0:
448,192,42813,1,0,0:0:0:0:
64,192,42813,1,0,0:0:0:0:
448,192,42901,1,0,0:0:0:0:
448,192,42989,128,0,43078:0:0:0:0:
64,192,42989,1,0,0:0:0:0:
192,192,42989,1,0,0:0:0:0:
448,192,43166,128,0,43254:0:0:0:0:
192,192,43166,1,0,0:0:0:0:
64,192,43166,1,0,0:0:0:0:
320,192,43254,1,0,0:0:0:0:
448,192,43342,128,0,43431:0:0:0:0:
64,192,43342,1,0,0:0:0:0:
192,192,43342,1,0,0:0:0:0:
320,192,43431,1,0,0:0:0:0:
448,192,43519,128,0,43607:0:0:0:0:
64,192,43519,1,0,0:0:0:0:
192,192,43519,1,0,0:0:0:0:
320,192,43607,1,0,0:0:0:0:
448,192,43695,128,0,43784:0:0:0:0:
192,192,43695,1,0,0:0:0:0:
64,192,43695,1,0,0:0:0:0:
320,192,43784,1,0,0:0:0:0:
448,192,43872,128,0,43960:0:0:0:0:
192,192,43872,1,0,0:0:0:0:
64,192,43872,1,0,0:0:0:0:
320,192,43960,1,0,0:0:0:0:
448,192,44048,128,0,44136:0:0:0:0:
192,192,44048,1,0,0:0:0:0:
64,192,44048,1,0,0:0:0:0:
448,192,44225,128,0,44313:0:0:0:0:
320,192,44225,1,0,0:0:0:0:
192,192,44225,1,0,0:0:0:0:
64,192,44313,1,0,0:0:0:0:
320,192,44401,1,0,0:0:0:0:
448,192,44401,128,0,44489:0:0:0:0:
64,192,44489,1,0,0:0:0:0:
192,192,44489,1,0,0:0:0:0:
448,192,44578,128,0,44666:0:0:0:0:
320,192,44578,1,0,0:0:0:0:
192,192,44666,1,0,0:0:0:0:
64,192,44666,1,0,0:0:0:0:
320,192,44754,1,0,0:0:0:0:
448,192,44754,128,0,44842:0:0:0:0:
192,192,44842,1,0,0:0:0:0:
64,192,44842,1,0,0:0:0:0:
448,192,44931,128,0,45019:0:0:0:0:
320,192,44931,1,0,0:0:0:0:
192,192,45019,1,0,0:0:0:0:
64,192,45019,1,0,0:0:0:0:
448,192,45107,128,0,45195:0:0:0:0:
320,192,45107,1,0,0:0:0:0:
192,192,45195,1,0,0:0:0:0:
64,192,45195,1,0,0:0:0:0:
448,192,45284,128,0,45372:0:0:0:0:
320,192,45284,1,0,0:0:0:0:
192,192,45372,1,0,0:0:0:0:
64,192,45372,1,0,0:0:0:0:
448,192,45460,128,0,45548:0:0:0:0:
320,192,45460,1,0,0:0:0:0:
192,192,45548,1,0,0:0:0:0:
64,192,45548,1,0,0:0:0:0:
448,192,45636,128,0,45725:0:0:0:0:
320,192,45636,1,0,0:0:0:0:
192,192,45725,1,0,0:0:0:0:
64,192,45725,1,0,0:0:0:0:
448,192,45813,128,0,47225:0:0:0:0:
320,192,45813,128,0,45989:0:0:0:0:
64,192,45989,128,0,46078:0:0:0:0:
320,192,46078,128,0,46254:0:0:0:0:
64,192,46254,128,0,46342:0:0:0:0:
320,192,46342,128,0,46431:0:0:0:0:
64,192,46431,128,0,46519:0:0:0:0:
192,192,46519,128,0,46695:0:0:0:0:
64,192,46695,128,0,46784:0:0:0:0:
192,192,46784,128,0,46960:0:0:0:0:
64,192,46960,128,0,47048:0:0:0:0:
192,192,47048,128,0,47136:0:0:0:0:
64,192,47136,128,0,47225:0:0:0:0:
320,192,47225,128,0,48636:0:0:0:0:
192,192,47225,128,0,47401:0:0:0:0:
448,192,47401,128,0,47489:0:0:0:0:
64,192,47489,128,0,47666:0:0:0:0:
448,192,47666,128,0,47754:0:0:0:0:
64,192,47754,128,0,47842:0:0:0:0:
448,192,47842,128,0,47931:0:0:0:0:
192,192,47931,128,0,48107:0:0:0:0:
448,192,48107,128,0,48195:0:0:0:0:
64,192,48195,128,0,48372:0:0:0:0:
448,192,48372,128,0,48460:0:0:0:0:
64,192,48460,128,0,48548:0:0:0:0:
448,192,48548,128,0,48636:0:0:0:0:
192,192,48636,128,0,50048:0:0:0:0:
64,192,48636,128,0,48725:0:0:0:0:
448,192,48725,128,0,48813:0:0:0:0:
64,192,48813,128,0,48901:0:0:0:0:
448,192,48901,128,0,49078:0:0:0:0:
64,192,49078,128,0,49166:0:0:0:0:
448,192,49166,128,0,49254:0:0:0:0:
64,192,49254,128,0,49342:0:0:0:0:
448,192,49342,128,0,49519:0:0:0:0:
64,192,49519,128,0,49607:0:0:0:0:
320,192,49607,128,0,49784:0:0:0:0:
64,192,49784,128,0,49872:0:0:0:0:
448,192,49872,128,0,49960:0:0:0:0:
320,192,49960,128,0,50048:0:0:0:0:
64,192,50048,128,0,51460:0:0:0:0:
448,192,50048,128,0,50225:0:0:0:0:
192,192,50225,128,0,50313:0:0:0:0:
320,192,50313,128,0,50489:0:0:0:0:
192,192,50489,128,0,50578:0:0:0:0:
320,192,50578,128,0,50666:0:0:0:0:
448,192,50666,128,0,50754:0:0:0:0:
192,192,50754,128,0,50931:0:0:0:0:
448,192,50931,128,0,51019:0:0:0:0:
320,192,51019,128,0,51195:0:0:0:0:
448,192,51195,128,0,51284:0:0:0:0:
320,192,51284,128,0,51372:0:0:0:0:
192,192,51372,128,0,51460:0:0:0:0:
448,192,51460,128,0,51636:0:0:0:0:
320,192,51460,1,0,0:0:0:0:
64,192,51636,128,0,51725:0:0:0:0:
192,192,51636,1,0,0:0:0:0:
448,192,51725,128,0,51901:0:0:0:0:
320,192,51725,1,0,0:0:0:0:
64,192,51901,128,0,51989:0:0:0:0:
320,192,51901,1,0,0:0:0:0:
448,192,51989,128,0,52078:0:0:0:0:
192,192,51989,1,0,0:0:0:0:
64,192,52078,128,0,52166:0:0:0:0:
320,192,52078,1,0,0:0:0:0:
192,192,52166,128,0,52342:0:0:0:0:
448,192,52166,1,0,0:0:0:0:
448,192,52342,128,0,52431:0:0:0:0:
320,192,52342,1,0,0:0:0:0:
192,192,52431,128,0,52607:0:0:0:0:
64,192,52431,1,0,0:0:0:0:
320,192,52519,1,0,0:0:0:0:
448,192,52607,128,0,52695:0:0:0:0:
64,192,52607,1,0,0:0:0:0:
192,192,52695,128,0,52784:0:0:0:0:
320,192,52695,1,0,0:0:0:0:
448,192,52784,128,0,52872:0:0:0:0:
64,192,52784,1,0,0:0:0:0:
320,192,52872,128,0,53048:0:0:0:0:
192,192,52872,1,0,0:0:0:0:
64,192,53048,128,0,53136:0:0:0:0:
448,192,53048,1,0,0:0:0:0:
192,192,53136,128,0,53313:0:0:0:0:
320,192,53136,1,0,0:0:0:0:
448,192,53225,1,0,0:0:0:0:
64,192,53313,128,0,53401:0:0:0:0:
320,192,53313,1,0,0:0:0:0:
192,192,53401,128,0,53489:0:0:0:0:
448,192,53401,1,0,0:0:0:0:
64,192,53489,128,0,53578:0:0:0:0:
320,192,53489,1,0,0:0:0:0:
320,192,53578,128,0,53754:0:0:0:0:
448,192,53578,1,0,0:0:0:0:
64,192,53754,128,0,53842:0:0:0:0:
192,192,53754,1,0,0:0:0:0:
448,192,53842,128,0,54019:0:0:0:0:
320,192,53842,1,0,0:0:0:0:
64,192,54019,128,0,54107:0:0:0:0:
192,192,54019,1,0,0:0:0:0:
448,192,54107,128,0,54195:0:0:0:0:
320,192,54107,1,0,0:0:0:0:
64,192,54195,128,0,54284:0:0:0:0:
192,192,54195,1,0,0:0:0:0:
448,192,54284,128,0,54372:0:0:0:0:
192,192,54372,128,0,54460:0:0:0:0:
448,192,54460,128,0,54548:0:0:0:0:
64,192,54460,1,0,0:0:0:0:
192,192,54548,128,0,54725:0:0:0:0:
320,192,54548,1,0,0:0:0:0:
448,192,54725,128,0,54813:0:0:0:0:
64,192,54725,1,0,0:0:0:0:
192,192,54813,128,0,54901:0:0:0:0:
320,192,54813,1,0,0:0:0:0:
448,192,54901,128,0,54989:0:0:0:0:
64,192,54901,1,0,0:0:0:0:
192,192,54989,128,0,55166:0:0:0:0:
320,192,54989,1,0,0:0:0:0:
448,192,55166,128,0,55254:0:0:0:0:
320,192,55166,1,0,0:0:0:0:
64,192,55254,128,0,55431:0:0:0:0:
192,192,55254,1,0,0:0:0:0:
448,192,55431,128,0,55519:0:0:0:0:
320,192,55431,1,0,0:0:0:0:
192,192,55519,128,0,55607:0:0:0:0:
64,192,55519,1,0,0:0:0:0:
448,192,55607,128,0,55695:0:0:0:0:
320,192,55607,1,0,0:0:0:0:
64,192,55695,1,0,0:0:0:0:
192,192,55695,1,0,0:0:0:0:
320,192,55872,1,0,0:0:0:0:
320,192,56048,128,0,56092:0:0:0:0:
448,192,56048,128,0,56092:0:0:0:0:
320,192,56136,128,0,56181:0:0:0:0:
448,192,56136,128,0,56181:0:0:0:0:
192,192,56225,128,0,56269:0:0:0:0:
192,192,56313,128,0,56357:0:0:0:0:
64,192,56401,128,0,56445:0:0:0:0:
64,192,56489,128,0,56534:0:0:0:0:
320,192,56578,128,0,56636:0:0:0:0:
320,192,56695,128,0,56754:0:0:0:0:
192,192,56754,1,0,0:0:0:0:
64,192,56754,1,0,0:0:0:0:
448,192,56754,1,0,0:0:0:0:
448,192,57107,128,0,57284:0:0:0:0:
320,192,57107,1,0,0:0:0:0:
192,192,57107,1,0,0:0:0:0:
64,192,57107,1,0,0:0:0:0:
64,192,57284,128,0,57372:0:0:0:0:
192,192,57284,1,0,0:0:0:0:
448,192,57372,128,0,57548:0:0:0:0:
320,192,57460,1,0,0:0:0:0:
192,192,57460,1,0,0:0:0:0:
64,192,57460,1,0,0:0:0:0:
64,192,57548,128,0,57636:0:0:0:0:
448,192,57636,128,0,57725:0:0:0:0:
320,192,57636,1,0,0:0:0:0:
64,192,57725,128,0,57813:0:0:0:0:
320,192,57813,128,0,57989:0:0:0:0:
192,192,57813,1,0,0:0:0:0:
448,192,57813,1,0,0:0:0:0:
64,192,57989,128,0,58078:0:0:0:0:
448,192,57989,1,0,0:0:0:0:
192,192,58078,128,0,58254:0:0:0:0:
448,192,58166,1,0,0:0:0:0:
320,192,58166,1,0,0:0:0:0:
64,192,58166,1,0,0:0:0:0:
448,192,58254,128,0,58342:0:0:0:0:
192,192,58342,128,0,58431:0:0:0:0:
320,192,58342,1,0,0:0:0:0:
448,192,58431,128,0,58519:0:0:0:0:
64,192,58519,128,0,58695:0:0:0:0:
320,192,58519,1,0,0:0:0:0:
192,192,58519,1,0,0:0:0:0:
448,192,58695,128,0,58784:0:0:0:0:
320,192,58695,1,0,0:0:0:0:
192,192,58784,128,0,58960:0:0:0:0:
64,192,58872,1,0,0:0:0:0:
320,192,58872,1,0,0:0:0:0:
448,192,58872,1,0,0:0:0:0:
448,192,58960,128,0,59048:0:0:0:0:
192,192,59048,128,0,59136:0:0:0:0:
64,192,59048,1,0,0:0:0:0:
448,192,59136,128,0,59225:0:0:0:0:
320,192,59225,128,0,59401:0:0:0:0:
64,192,59225,1,0,0:0:0:0:
192,192,59225,1,0,0:0:0:0:
64,192,59401,128,0,59489:0:0:0:0:
192,192,59401,1,0,0:0:0:0:
320,192,59489,128,0,59666:0:0:0:0:
192,192,59578,1,0,0:0:0:0:
64,192,59578,1,0,0:0:0:0:
448,192,59578,1,0,0:0:0:0:
64,192,59666,128,0,59754:0:0:0:0:
320,192,59754,128,0,59842:0:0:0:0:
448,192,59754,1,0,0:0:0:0:
64,192,59842,128,0,59931:0:0:0:0:
448,192,59931,128,0,60019:0:0:0:0:
320,192,59931,1,0,0:0:0:0:
192,192,59931,1,0,0:0:0:0:
192,192,60019,128,0,60107:0:0:0:0:
448,192,60107,128,0,60195:0:0:0:0:
64,192,60107,1,0,0:0:0:0:
192,192,60195,128,0,60372:0:0:0:0:
64,192,60284,1,0,0:0:0:0:
448,192,60284,1,0,0:0:0:0:
320,192,60284,1,0,0:0:0:0:
448,192,60372,128,0,60460:0:0:0:0:
192,192,60460,128,0,60548:0:0:0:0:
320,192,60460,1,0,0:0:0:0:
448,192,60548,128,0,60636:0:0:0:0:
192,192,60636,128,0,60813:0:0:0:0:
64,192,60636,1,0,0:0:0:0:
320,192,60636,1,0,0:0:0:0:
448,192,60813,128,0,60901:0:0:0:0:
320,192,60813,1,0,0:0:0:0:
64,192,60901,128,0,61078:0:0:0:0:
192,192,60989,1,0,0:0:0:0:
448,192,60989,1,0,0:0:0:0:
320,192,60989,1,0,0:0:0:0:
448,192,61078,128,0,61166:0:0:0:0:
192,192,61166,128,0,61254:0:0:0:0:
320,192,61166,1,0,0:0:0:0:
448,192,61254,128,0,61342:0:0:0:0:
320,192,61342,128,0,61519:0:0:0:0:
192,192,61342,1,0,0:0:0:0:
64,192,61342,1,0,0:0:0:0:
64,192,61519,128,0,61607:0:0:0:0:
448,192,61519,1,0,0:0:0:0:
192,192,61607,128,0,61784:0:0:0:0:
320,192,61695,1,0,0:0:0:0:
448,192,61695,1,0,0:0:0:0:
64,192,61695,1,0,0:0:0:0:
448,192,61784,128,0,61872:0:0:0:0:
192,192,61872,128,0,61960:0:0:0:0:
320,192,61872,1,0,0:0:0:0:
448,192,61960,128,0,62048:0:0:0:0:
320,192,62048,128,0,62225:0:0:0:0:
192,192,62048,1,0,0:0:0:0:
64,192,62048,1,0,0:0:0:0:
64,192,62225,128,0,62313:0:0:0:0:
192,192,62225,1,0,0:0:0:0:
448,192,62313,128,0,62489:0:0:0:0:
320,192,62313,1,0,0:0:0:0:
192,192,62401,1,0,0:0:0:0:
64,192,62401,1,0,0:0:0:0:
320,192,62401,1,0,0:0:0:0:
64,192,62489,128,0,62578:0:0:0:0:
448,192,62578,128,0,62666:0:0:0:0:
192,192,62578,1,0,0:0:0:0:
64,192,62666,128,0,62754:0:0:0:0:
320,192,62666,1,0,0:0:0:0:
320,192,62754,128,0,62931:0:0:0:0:
192,192,62754,1,0,0:0:0:0:
448,192,62754,1,0,0:0:0:0:
64,192,62931,128,0,63019:0:0:0:0:
448,192,62931,1,0,0:0:0:0:
320,192,63019,128,0,63195:0:0:0:0:
448,192,63107,1,0,0:0:0:0:
192,192,63107,1,0,0:0:0:0:
64,192,63107,1,0,0:0:0:0:
64,192,63195,128,0,63284:0:0:0:0:
320,192,63284,128,0,63372:0:0:0:0:
448,192,63284,1,0,0:0:0:0:
64,192,63372,128,0,63460:0:0:0:0:
192,192,63460,128,0,63636:0:0:0:0:
448,192,63460,1,0,0:0:0:0:
320,192,63460,1,0,0:0:0:0:
448,192,63636,128,0,63725:0:0:0:0:
64,192,63636,1,0,0:0:0:0:
192,192,63725,128,0,63901:0:0:0:0:
64,192,63813,1,0,0:0:0:0:
320,192,63813,1,0,0:0:0:0:
448,192,63813,1,0,0:0:0:0:
448,192,63901,128,0,63989:0:0:0:0:
64,192,63989,128,0,64078:0:0:0:0:
320,192,63989,1,0,0:0:0:0:
448,192,64078,128,0,64166:0:0:0:0:
192,192,64166,128,0,64342:0:0:0:0:
320,192,64166,1,0,0:0:0:0:
64,192,64166,1,0,0:0:0:0:
448,192,64342,128,0,64431:0:0:0:0:
64,192,64342,1,0,0:0:0:0:
320,192,64431,128,0,64607:0:0:0:0:
64,192,64519,1,0,0:0:0:0:
192,192,64519,1,0,0:0:0:0:
448,192,64519,1,0,0:0:0:0:
64,192,64607,128,0,64695:0:0:0:0:
320,192,64695,128,0,64784:0:0:0:0:
192,192,64695,1,0,0:0:0:0:
64,192,64784,128,0,64872:0:0:0:0:
192,192,64872,128,0,65048:0:0:0:0:
320,192,64872,1,0,0:0:0:0:
448,192,64872,1,0,0:0:0:0:
448,192,65048,128,0,65136:0:0:0:0:
320,192,65048,1,0,0:0:0:0:
64,192,65136,128,0,65313:0:0:0:0:
320,192,65225,1,0,0:0:0:0:
192,192,65225,1,0,0:0:0:0:
448,192,65225,1,0,0:0:0:0:
448,192,65313,128,0,65401:0:0:0:0:
64,192,65401,128,0,65489:0:0:0:0:
320,192,65401,1,0,0:0:0:0:
448,192,65489,128,0,65578:0:0:0:0:
64,192,65578,128,0,65666:0:0:0:0:
192,192,65578,1,0,0:0:0:0:
320,192,65578,1,0,0:0:0:0:
320,192,65666,128,0,65754:0:0:0:0:
64,192,65754,128,0,65842:0:0:0:0:
192,192,65754,1,0,0:0:0:0:
320,192,65842,128,0,66019:0:0:0:0:
448,192,65931,1,0,0:0:0:0:
192,192,65931,1,0,0:0:0:0:
64,192,65931,1,0,0:0:0:0:
64,192,66019,128,0,66107:0:0:0:0:
320,192,66107,128,0,66195:0:0:0:0:
448,192,66107,1,0,0:0:0:0:
64,192,66195,128,0,66284:0:0:0:0:
320,192,66284,128,0,66460:0:0:0:0:
192,192,66284,1,0,0:0:0:0:
448,192,66284,1,0,0:0:0:0:
64,192,66460,128,0,66548:0:0:0:0:
192,192,66460,1,0,0:0:0:0:
448,192,66548,128,0,66725:0:0:0:0:
320,192,66636,1,0,0:0:0:0:
192,192,66636,1,0,0:0:0:0:
64,192,66636,1,0,0:0:0:0:
64,192,66725,128,0,66813:0:0:0:0:
320,192,66813,128,0,66901:0:0:0:0:
192,192,66813,1,0,0:0:0:0:
64,192,66901,128,0,66989:0:0:0:0:
448,192,66989,128,0,67166:0:0:0:0:
192,192,66989,1,0,0:0:0:0:
320,192,66989,1,0,0:0:0:0:
320,192,67166,128,0,67342:0:0:0:0:
64,192,67166,1,0,0:0:0:0:
192,192,67342,128,0,67386:0:0:0:0:
64,192,67342,1,0,0:0:0:0:
448,192,67342,1,0,0:0:0:0:
192,192,67431,128,0,67475:0:0:0:0:
64,192,67519,128,0,67563:0:0:0:0:
320,192,67519,1,0,0:0:0:0:
64,192,67607,128,0,67651:0:0:0:0:
448,192,67695,128,0,67739:0:0:0:0:
320,192,67695,128,0,67739:0:0:0:0:
192,192,67695,1,0,0:0:0:0:
64,192,67695,1,0,0:0:0:0:
320,192,67784,128,0,67828:0:0:0:0:
448,192,67784,128,0,67828:0:0:0:0:
320,192,67872,128,0,67916:0:0:0:0:
192,192,67872,128,0,67916:0:0:0:0:
64,192,67872,1,0,0:0:0:0:
192,192,67960,128,0,68004:0:0:0:0:
320,192,67960,128,0,68004:0:0:0:0:
64,192,68048,1,0,0:0:0:0:
192,192,68048,1,0,0:0:0:0:
320,192,68048,1,0,0:0:0:0:
448,192,68048,1,0,0:0:0:0:
64,192,68225,128,0,68269:0:0:0:0:
192,192,68225,128,0,68269:0:0:0:0:
320,192,68225,1,0,0:0:0:0:
192,192,68313,128,0,68357:0:0:0:0:
64,192,68313,128,0,68357:0:0:0:0:
64,192,68401,1,0,0:0:0:0:
192,192,68401,1,0,0:0:0:0:
320,192,68401,1,0,0:0:0:0:
448,192,68401,128,0,68578:0:0:0:0:
64,192,68578,128,0,68666:0:0:0:0:
320,192,68578,1,0,0:0:0:0:
448,192,68666,128,0,68842:0:0:0:0:
192,192,68754,1,0,0:0:0:0:
64,192,68754,1,0,0:0:0:0:
320,192,68754,1,0,0:0:0:0:
64,192,68842,128,0,68931:0:0:0:0:
448,192,68931,128,0,69019:0:0:0:0:
192,192,68931,1,0,0:0:0:0:
64,192,69019,128,0,69107:0:0:0:0:
320,192,69107,128,0,69284:0:0:0:0:
192,192,69107,1,0,0:0:0:0:
448,192,69107,1,0,0:0:0:0:
64,192,69284,128,0,69372:0:0:0:0:
448,192,69284,1,0,0:0:0:0:
192,192,69372,128,0,69548:0:0:0:0:
320,192,69460,1,0,0:0:0:0:
448,192,69460,1,0,0:0:0:0:
64,192,69460,1,0,0:0:0:0:
448,192,69548,128,0,69636:0:0:0:0:
192,192,69636,128,0,69725:0:0:0:0:
64,192,69636,1,0,0:0:0:0:
448,192,69725,128,0,69813:0:0:0:0:
192,192,69813,128,0,69989:0:0:0:0:
64,192,69813,1,0,0:0:0:0:
320,192,69813,1,0,0:0:0:0:
64,192,69989,128,0,70078:0:0:0:0:
448,192,69989,1,0,0:0:0:0:
320,192,70078,128,0,70254:0:0:0:0:
448,192,70166,1,0,0:0:0:0:
192,192,70166,1,0,0:0:0:0:
64,192,70166,1,0,0:0:0:0:
64,192,70254,128,0,70342:0:0:0:0:
320,192,70342,128,0,70431:0:0:0:0:
192,192,70342,1,0,0:0:0:0:
64,192,70431,128,0,70519:0:0:0:0:
192,192,70519,128,0,70695:0:0:0:0:
320,192,70519,1,0,0:0:0:0:
448,192,70519,1,0,0:0:0:0:
448,192,70695,128,0,70784:0:0:0:0:
320,192,70695,1,0,0:0:0:0:
64,192,70784,128,0,70960:0:0:0:0:
448,192,70872,1,0,0:0:0:0:
320,192,70872,1,0,0:0:0:0:
192,192,70872,1,0,0:0:0:0:
448,192,70960,128,0,71048:0:0:0:0:
64,192,71048,128,0,71136:0:0:0:0:
320,192,71048,1,0,0:0:0:0:
448,192,71136,128,0,71225:0:0:0:0:
64,192,71225,128,0,71313:0:0:0:0:
320,192,71225,1,0,0:0:0:0:
192,192,71225,1,0,0:0:0:0:
448,192,71313,128,0,71401:0:0:0:0:
64,192,71401,128,0,71489:0:0:0:0:
192,192,71401,1,0,0:0:0:0:
448,192,71489,128,0,71666:0:0:0:0:
192,192,71578,1,0,0:0:0:0:
320,192,71578,1,0,0:0:0:0:
64,192,71578,1,0,0:0:0:0:
64,192,71666,128,0,71754:0:0:0:0:
448,192,71754,128,0,71842:0:0:0:0:
320,192,71754,1,0,0:0:0:0:
64,192,71842,128,0,71931:0:0:0:0:
448,192,71931,128,0,72107:0:0:0:0:
320,192,71931,1,0,0:0:0:0:
192,192,71931,1,0,0:0:0:0:
64,192,72107,128,0,72195:0:0:0:0:
192,192,72107,1,0,0:0:0:0:
320,192,72195,128,0,72372:0:0:0:0:
192,192,72284,1,0,0:0:0:0:
64,192,72284,1,0,0:0:0:0:
448,192,72284,1,0,0:0:0:0:
64,192,72372,128,0,72460:0:0:0:0:
192,192,72460,128,0,72548:0:0:0:0:
320,192,72460,1,0,0:0:0:0:
448,192,72548,128,0,72636:0:0:0:0:
64,192,72636,128,0,72813:0:0:0:0:
320,192,72636,1,0,0:0:0:0:
192,192,72636,1,0,0:0:0:0:
448,192,72813,128,0,72901:0:0:0:0:
320,192,72813,1,0,0:0:0:0:
192,192,72901,128,0,73078:0:0:0:0:
64,192,72989,1,0,0:0:0:0:
448,192,72989,1,0,0:0:0:0:
320,192,72989,1,0,0:0:0:0:
448,192,73078,128,0,73166:0:0:0:0:
192,192,73166,128,0,73254:0:0:0:0:
64,192,73166,1,0,0:0:0:0:
448,192,73254,128,0,73342:0:0:0:0:
320,192,73342,128,0,73519:0:0:0:0:
192,192,73342,1,0,0:0:0:0:
64,192,73342,1,0,0:0:0:0:
64,192,73519,128,0,73607:0:0:0:0:
448,192,73519,1,0,0:0:0:0:
192,192,73607,128,0,73784:0:0:0:0:
320,192,73607,1,0,0:0:0:0:
320,192,73695,1,0,0:0:0:0:
448,192,73695,1,0,0:0:0:0:
64,192,73695,1,0,0:0:0:0:
448,192,73784,128,0,73872:0:0:0:0:
192,192,73872,128,0,73960:0:0:0:0:
64,192,73872,1,0,0:0:0:0:
448,192,73960,128,0,74048:0:0:0:0:
320,192,73960,1,0,0:0:0:0:
320,192,74048,128,0,74225:0:0:0:0:
192,192,74048,1,0,0:0:0:0:
64,192,74048,1,0,0:0:0:0:
64,192,74225,128,0,74313:0:0:0:0:
192,192,74225,1,0,0:0:0:0:
320,192,74313,128,0,74489:0:0:0:0:
192,192,74401,1,0,0:0:0:0:
64,192,74401,1,0,0:0:0:0:
448,192,74401,1,0,0:0:0:0:
64,192,74489,128,0,74578:0:0:0:0:
320,192,74578,128,0,74666:0:0:0:0:
448,192,74578,1,0,0:0:0:0:
64,192,74666,128,0,74754:0:0:0:0:
448,192,74754,128,0,74931:0:0:0:0:
320,192,74754,1,0,0:0:0:0:
192,192,74754,1,0,0:0:0:0:
64,192,74931,128,0,75019:0:0:0:0:
192,192,74931,1,0,0:0:0:0:
448,192,75019,128,0,75195:0:0:0:0:
320,192,75107,1,0,0:0:0:0:
192,192,75107,1,0,0:0:0:0:
64,192,75107,1,0,0:0:0:0:
64,192,75195,128,0,75284:0:0:0:0:
320,192,75284,128,0,75372:0:0:0:0:
192,192,75284,1,0,0:0:0:0:
64,192,75372,128,0,75460:0:0:0:0:
448,192,75460,128,0,75636:0:0:0:0:
192,192,75460,1,0,0:0:0:0:
320,192,75460,1,0,0:0:0:0:
64,192,75636,128,0,75725:0:0:0:0:
192,192,75636,1,0,0:0:0:0:
320,192,75725,128,0,75901:0:0:0:0:
192,192,75813,1,0,0:0:0:0:
64,192,75813,1,0,0:0:0:0:
448,192,75813,1,0,0:0:0:0:
64,192,75901,128,0,75989:0:0:0:0:
320,192,75989,128,0,76078:0:0:0:0:
448,192,75989,1,0,0:0:0:0:
64,192,76078,128,0,76166:0:0:0:0:
192,192,76166,128,0,76342:0:0:0:0:
448,192,76166,1,0,0:0:0:0:
320,192,76166,1,0,0:0:0:0:
448,192,76342,128,0,76431:0:0:0:0:
320,192,76342,1,0,0:0:0:0:
64,192,76431,128,0,76607:0:0:0:0:
448,192,76519,1,0,0:0:0:0:
192,192,76519,1,0,0:0:0:0:
320,192,76519,1,0,0:0:0:0:
448,192,76607,128,0,76695:0:0:0:0:
64,192,76695,128,0,76784:0:0:0:0:
192,192,76695,1,0,0:0:0:0:
448,192,76784,128,0,76872:0:0:0:0:
64,192,76872,128,0,76960:0:0:0:0:
192,192,76872,1,0,0:0:0:0:
320,192,76872,1,0,0:0:0:0:
320,192,76960,128,0,77048:0:0:0:0:
64,192,77048,128,0,77136:0:0:0:0:
192,192,77048,1,0,0:0:0:0:
320,192,77136,128,0,77313:0:0:0:0:
192,192,77225,1,0,0:0:0:0:
64,192,77225,1,0,0:0:0:0:
448,192,77225,1,0,0:0:0:0:
64,192,77313,128,0,77401:0:0:0:0:
320,192,77401,128,0,77489:0:0:0:0:
448,192,77401,1,0,0:0:0:0:
64,192,77489,128,0,77578:0:0:0:0:
320,192,77578,128,0,77754:0:0:0:0:
448,192,77578,1,0,0:0:0:0:
192,192,77578,1,0,0:0:0:0:
64,192,77754,128,0,77842:0:0:0:0:
192,192,77754,1,0,0:0:0:0:
448,192,77842,128,0,78019:0:0:0:0:
192,192,77931,1,0,0:0:0:0:
320,192,77931,1,0,0:0:0:0:
64,192,77931,1,0,0:0:0:0:
64,192,78019,128,0,78107:0:0:0:0:
320,192,78107,128,0,78195:0:0:0:0:
192,192,78107,1,0,0:0:0:0:
64,192,78195,128,0,78284:0:0:0:0:
192,192,78284,128,0,78460:0:0:0:0:
320,192,78284,1,0,0:0:0:0:
448,192,78284,1,0,0:0:0:0:
448,192,78460,128,0,78548:0:0:0:0:
192,192,78548,128,0,78725:0:0:0:0:
448,192,78636,1,0,0:0:0:0:
320,192,78636,1,0,0:0:0:0:
64,192,78636,1,0,0:0:0:0:
448,192,78725,128,0,78813:0:0:0:0:
192,192,78813,128,0,78901:0:0:0:0:
448,192,78901,128,0,78989:0:0:0:0:
64,192,78989,128,0,79166:0:0:0:0:
192,192,78989,1,0,0:0:0:0:
320,192,78989,1,0,0:0:0:0:
448,192,79166,128,0,79254:0:0:0:0:
64,192,79254,128,0,79431:0:0:0:0:
320,192,79342,1,0,0:0:0:0:
192,192,79342,1,0,0:0:0:0:
448,192,79342,1,0,0:0:0:0:
448,192,79431,128,0,79519:0:0:0:0:
64,192,79519,128,0,79607:0:0:0:0:
448,192,79607,128,0,79695:0:0:0:0:
64,192,79695,128,0,82475:0:0:0:0:
320,192,79695,1,0,0:0:0:0:
192,192,79695,1,0,0:0:0:0:
192,192,79872,1,0,0:0:0:0:
320,192,80048,1,0,0:0:0:0:
448,192,80048,1,0,0:0:0:0:
448,192,80225,1,0,0:0:0:0:
320,192,80313,1,0,0:0:0:0:
320,192,80489,1,0,0:0:0:0:
320,192,80578,1,0,0:0:0:0:
192,192,80754,1,0,0:0:0:0:
448,192,80754,1,0,0:0:0:0:
320,192,80931,1,0,0:0:0:0:
192,192,81019,1,0,0:0:0:0:
192,192,81195,1,0,0:0:0:0:
192,192,81284,1,0,0:0:0:0:
448,192,81460,1,0,0:0:0:0:
320,192,81460,1,0,0:0:0:0:
320,192,81636,1,0,0:0:0:0:
448,192,81725,1,0,0:0:0:0:
192,192,81813,1,0,0:0:0:0:
448,192,81901,1,0,0:0:0:0:
448,192,81989,1,0,0:0:0:0:
192,192,81989,1,0,0:0:0:0:
320,192,82078,1,0,0:0:0:0:
192,192,82166,1,0,0:0:0:0:
448,192,82166,1,0,0:0:0:0:
320,192,82254,1,0,0:0:0:0:
448,192,82342,1,0,0:0:0:0:
192,192,82431,1,0,0:0:0:0:
64,192,82519,128,0,82563:0:0:0:0:
448,192,82519,1,0,0:0:0:0:
320,192,82519,1,0,0:0:0:0:
64,192,82607,128,0,82651:0:0:0:0:
448,192,82695,128,0,82739:0:0:0:0:
320,192,82695,1,0,0:0:0:0:
448,192,82784,128,0,82828:0:0:0:0:
64,192,82872,128,0,82916:0:0:0:0:
192,192,82872,1,0,0:0:0:0:
320,192,82872,1,0,0:0:0:0:
64,192,82960,128,0,83004:0:0:0:0:
448,192,83048,128,0,83092:0:0:0:0:
320,192,83048,1,0,0:0:0:0:
448,192,83136,128,0,83181:0:0:0:0:
192,192,83136,1,0,0:0:0:0:
64,192,83225,128,0,83269:0:0:0:0:
64,192,83313,128,0,83357:0:0:0:0:
192,192,83313,1,0,0:0:0:0:
448,192,83401,128,0,83445:0:0:0:0:
192,192,83401,1,0,0:0:0:0:
448,192,83489,128,0,83534:0:0:0:0:
64,192,83578,128,0,83622:0:0:0:0:
320,192,83578,1,0,0:0:0:0:
192,192,83578,1,0,0:0:0:0:
64,192,83666,128,0,83710:0:0:0:0:
448,192,83754,128,0,83798:0:0:0:0:
192,192,83754,1,0,0:0:0:0:
448,192,83842,128,0,83886:0:0:0:0:
320,192,83842,1,0,0:0:0:0:
64,192,83931,128,0,83975:0:0:0:0:
64,192,84019,128,0,84063:0:0:0:0:
320,192,84019,1,0,0:0:0:0:
448,192,84107,128,0,84151:0:0:0:0:
320,192,84107,1,0,0:0:0:0:
448,192,84195,128,0,84239:0:0:0:0:
64,192,84284,128,0,84328:0:0:0:0:
320,192,84284,1,0,0:0:0:0:
192,192,84284,1,0,0:0:0:0:
64,192,84372,128,0,84416:0:0:0:0:
448,192,84460,128,0,84504:0:0:0:0:
320,192,84460,1,0,0:0:0:0:
448,192,84548,128,0,84592:0:0:0:0:
192,192,84548,1,0,0:0:0:0:
64,192,84636,128,0,84681:0:0:0:0:
64,192,84725,128,0,84769:0:0:0:0:
192,192,84725,1,0,0:0:0:0:
448,192,84813,128,0,84857:0:0:0:0:
320,192,84813,1,0,0:0:0:0:
448,192,84901,128,0,84945:0:0:0:0:
192,192,84901,1,0,0:0:0:0:
64,192,84989,128,0,85034:0:0:0:0:
320,192,84989,1,0,0:0:0:0:
64,192,85078,128,0,85122:0:0:0:0:
192,192,85078,1,0,0:0:0:0:
448,192,85166,128,0,85210:0:0:0:0:
320,192,85166,1,0,0:0:0:0:
448,192,85254,128,0,85298:0:0:0:0:
192,192,85254,1,0,0:0:0:0:
320,192,85342,1,0,0:0:0:0:
64,192,85342,1,0,0:0:0:0:
448,192,85342,1,0,0:0:0:0:
192,192,85431,1,0,0:0:0:0:
64,192,85519,1,0,0:0:0:0:
448,192,85519,1,0,0:0:0:0:
320,192,85607,1,0,0:0:0:0:
192,192,85695,1,0,0:0:0:0:
64,192,85695,1,0,0:0:0:0:
448,192,85695,1,0,0:0:0:0:
320,192,85784,1,0,0:0:0:0:
192,192,85872,1,0,0:0:0:0:
448,192,85872,1,0,0:0:0:0:
64,192,85960,1,0,0:0:0:0:
320,192,85960,1,0,0:0:0:0:
192,192,86048,1,0,0:0:0:0:
448,192,86048,1,0,0:0:0:0:
320,192,86136,1,0,0:0:0:0:
64,192,86136,1,0,0:0:0:0:
448,192,86225,1,0,0:0:0:0:
192,192,86225,1,0,0:0:0:0:
320,192,86313,1,0,0:0:0:0:
64,192,86401,1,0,0:0:0:0:
448,192,86401,1,0,0:0:0:0:
192,192,86401,1,0,0:0:0:0:
320,192,86489,1,0,0:0:0:0:
64,192,86578,1,0,0:0:0:0:
192,192,86578,1,0,0:0:0:0:
320,192,86666,1,0,0:0:0:0:
448,192,86666,1,0,0:0:0:0:
192,192,86754,1,0,0:0:0:0:
64,192,86754,1,0,0:0:0:0:
448,192,86842,1,0,0:0:0:0:
320,192,86842,1,0,0:0:0:0:
64,192,86931,1,0,0:0:0:0:
192,192,86931,1,0,0:0:0:0:
448,192,87019,1,0,0:0:0:0:
320,192,87107,1,0,0:0:0:0:
192,192,87107,1,0,0:0:0:0:
64,192,87107,1,0,0:0:0:0:
448,192,87195,1,0,0:0:0:0:
320,192,87284,1,0,0:0:0:0:
64,192,87284,1,0,0:0:0:0:
192,192,87372,1,0,0:0:0:0:
448,192,87372,1,0,0:0:0:0:
320,192,87460,1,0,0:0:0:0:
64,192,87460,1,0,0:0:0:0:
192,192,87548,1,0,0:0:0:0:
448,192,87548,1,0,0:0:0:0:
64,192,87636,1,0,0:0:0:0:
320,192,87636,1,0,0:0:0:0:
192,192,87725,1,0,0:0:0:0:
64,192,87813,1,0,0:0:0:0:
320,192,87813,1,0,0:0:0:0:
448,192,87813,1,0,0:0:0:0:
192,192,87901,1,0,0:0:0:0:
64,192,87989,1,0,0:0:0:0:
448,192,87989,1,0,0:0:0:0:
320,192,88078,1,0,0:0:0:0:
64,192,88166,1,0,0:0:0:0:
192,192,88166,1,0,0:0:0:0:
448,192,88166,1,0,0:0:0:0:
320,192,88166,1,0,0:0:0:0:
64,192,88254,1,0,0:0:0:0:
192,192,88342,1,0,0:0:0:0:
320,192,88342,1,0,0:0:0:0:
448,192,88342,1,0,0:0:0:0:
64,192,88342,1,0,0:0:0:0:
448,192,88431,1,0,0:0:0:0:
448,192,88519,1,0,0:0:0:0:
320,192,88519,1,0,0:0:0:0:
192,192,88519,1,0,0:0:0:0:
64,192,88519,1,0,0:0:0:0:
192,192,88607,1,0,0:0:0:0:
448,192,88695,1,0,0:0:0:0:
192,192,88695,1,0,0:0:0:0:
64,192,88695,1,0,0:0:0:0:
320,192,88695,1,0,0:0:0:0:
320,192,88784,1,0,0:0:0:0:
448,192,88784,1,0,0:0:0:0:
448,192,88872,1,0,0:0:0:0:
192,192,88872,1,0,0:0:0:0:
64,192,88872,1,0,0:0:0:0:
320,192,88872,1,0,0:0:0:0:
64,192,88960,1,0,0:0:0:0:
192,192,88960,1,0,0:0:0:0:
192,192,89048,1,0,0:0:0:0:
64,192,89048,1,0,0:0:0:0:
448,192,89048,1,0,0:0:0:0:
320,192,89048,1,0,0:0:0:0:
448,192,89136,1,0,0:0:0:0:
320,192,89225,1,0,0:0:0:0:
192,192,89225,1,0,0:0:0:0:
64,192,89225,1,0,0:0:0:0:
64,192,89313,1,0,0:0:0:0:
192,192,89313,1,0,0:0:0:0:
448,192,89313,1,0,0:0:0:0:
448,192,89401,1,0,0:0:0:0:
320,192,89401,1,0,0:0:0:0:
64,192,89401,1,0,0:0:0:0:
320,192,89489,1,0,0:0:0:0:
448,192,89489,1,0,0:0:0:0:
192,192,89489,1,0,0:0:0:0:
448,192,89578,1,0,0:0:0:0:
320,192,89578,1,0,0:0:0:0:
64,192,89578,1,0,0:0:0:0:
192,192,89578,1,0,0:0:0:0:
64,192,89754,1,0,0:0:0:0:
320,192,89931,1,0,0:0:0:0:
448,192,89931,1,0,0:0:0:0:
192,192,90107,1,0,0:0:0:0:
320,192,90284,128,0,90328:0:0:0:0:
448,192,90284,128,0,90328:0:0:0:0:
192,192,90372,128,0,90416:0:0:0:0:
320,192,90372,128,0,90416:0:0:0:0:
64,192,90460,128,0,90504:0:0:0:0:
192,192,90460,128,0,90504:0:0:0:0:
64,192,90548,128,0,90592:0:0:0:0:
448,192,90548,128,0,90592:0:0:0:0:
320,192,90636,128,0,90681:0:0:0:0:
448,192,90636,128,0,90681:0:0:0:0:
192,192,90725,128,0,90769:0:0:0:0:
320,192,90725,128,0,90769:0:0:0:0:
64,192,90813,128,0,93769:0:0:0:0:
192,192,90813,128,0,91122:0:0:0:0:
320,192,90989,128,0,91122:0:0:0:0:
448,192,90989,1,0,0:0:0:0:
320,192,91166,128,0,91298:0:0:0:0:
192,192,91166,128,0,91298:0:0:0:0:
192,192,91342,1,0,0:0:0:0:
320,192,91342,128,0,91519:0:0:0:0:
448,192,91342,128,0,91607:0:0:0:0:
192,192,91519,128,0,91739:0:0:0:0:
320,192,91607,128,0,91739:0:0:0:0:
448,192,91695,1,0,0:0:0:0:
192,192,91784,128,0,91828:0:0:0:0:
320,192,91784,128,0,91828:0:0:0:0:
192,192,91872,128,0,91916:0:0:0:0:
320,192,91872,128,0,91916:0:0:0:0:
320,192,91960,128,0,92004:0:0:0:0:
192,192,91960,128,0,92004:0:0:0:0:
448,192,92048,128,0,92313:0:0:0:0:
192,192,92048,1,0,0:0:0:0:
320,192,92048,128,0,92225:0:0:0:0:
192,192,92225,128,0,92445:0:0:0:0:
320,192,92313,128,0,92445:0:0:0:0:
448,192,92401,1,0,0:0:0:0:
192,192,92489,128,0,92534:0:0:0:0:
320,192,92489,128,0,92534:0:0:0:0:
192,192,92578,128,0,92710:0:0:0:0:
320,192,92578,128,0,92710:0:0:0:0:
192,192,92754,1,0,0:0:0:0:
320,192,92754,128,0,92931:0:0:0:0:
448,192,92754,128,0,93019:0:0:0:0:
192,192,92931,128,0,93151:0:0:0:0:
320,192,93019,128,0,93151:0:0:0:0:
448,192,93107,1,0,0:0:0:0:
192,192,93195,128,0,93239:0:0:0:0:
320,192,93195,128,0,93239:0:0:0:0:
192,192,93284,128,0,93328:0:0:0:0:
320,192,93284,128,0,93328:0:0:0:0:
320,192,93372,128,0,93416:0:0:0:0:
192,192,93372,128,0,93416:0:0:0:0:
192,192,93460,1,0,0:0:0:0:
320,192,93460,128,0,93636:0:0:0:0:
448,192,93460,128,0,93725:0:0:0:0:
192,192,93636,128,0,93769:0:0:0:0:
320,192,93725,128,0,93769:0:0:0:0:
320,192,93813,1,0,0:0:0:0:
448,192,93813,1,0,0:0:0:0:
64,192,93813,128,0,93857:0:0:0:0:
192,192,93813,128,0,93857:0:0:0:0:
64,192,93901,128,0,93945:0:0:0:0:
192,192,93901,128,0,93945:0:0:0:0:
64,192,93989,128,0,94122:0:0:0:0:
192,192,93989,128,0,94122:0:0:0:0:
320,192,93989,1,0,0:0:0:0:
192,192,94166,128,0,94431:0:0:0:0:
320,192,94166,128,0,94342:0:0:0:0:
448,192,94166,1,0,0:0:0:0:
64,192,94166,1,0,0:0:0:0:
448,192,94342,128,0,94563:0:0:0:0:
64,192,94342,1,0,0:0:0:0:
320,192,94431,128,0,94563:0:0:0:0:
64,192,94519,1,0,0:0:0:0:
192,192,94519,1,0,0:0:0:0:
320,192,94607,128,0,94651:0:0:0:0:
448,192,94607,128,0,94651:0:0:0:0:
320,192,94695,128,0,94828:0:0:0:0:
448,192,94695,128,0,94828:0:0:0:0:
192,192,94695,1,0,0:0:0:0:
64,192,94872,1,0,0:0:0:0:
448,192,94872,1,0,0:0:0:0:
192,192,94872,128,0,95048:0:0:0:0:
320,192,94872,128,0,95136:0:0:0:0:
64,192,95048,128,0,95181:0:0:0:0:
448,192,95048,1,0,0:0:0:0:
192,192,95136,128,0,95181:0:0:0:0:
192,192,95225,1,0,0:0:0:0:
64,192,95225,1,0,0:0:0:0:
320,192,95225,128,0,95269:0:0:0:0:
448,192,95225,128,0,95269:0:0:0:0:
320,192,95313,128,0,95401:0:0:0:0:
448,192,95313,128,0,95401:0:0:0:0:
64,192,95401,128,0,95445:0:0:0:0:
192,192,95401,128,0,95445:0:0:0:0:
192,192,95489,128,0,95534:0:0:0:0:
64,192,95489,128,0,95534:0:0:0:0:
64,192,95578,1,0,0:0:0:0:
448,192,95578,1,0,0:0:0:0:
192,192,95578,128,0,95710:0:0:0:0:
320,192,95578,128,0,95710:0:0:0:0:
320,192,95754,128,0,95842:0:0:0:0:
192,192,95754,128,0,95886:0:0:0:0:
64,192,95754,1,0,0:0:0:0:
448,192,95842,128,0,95886:0:0:0:0:
64,192,95931,1,0,0:0:0:0:
192,192,95931,1,0,0:0:0:0:
448,192,95931,128,0,96019:0:0:0:0:
320,192,95931,128,0,96019:0:0:0:0:
192,192,96019,128,0,96151:0:0:0:0:
64,192,96019,128,0,96151:0:0:0:0:
448,192,96107,1,0,0:0:0:0:
64,192,96195,128,0,96239:0:0:0:0:
192,192,96195,128,0,96239:0:0:0:0:
320,192,96284,1,0,0:0:0:0:
448,192,96284,1,0,0:0:0:0:
64,192,96284,128,0,96372:0:0:0:0:
192,192,96284,128,0,96372:0:0:0:0:
320,192,96372,128,0,96460:0:0:0:0:
448,192,96372,128,0,96460:0:0:0:0:
64,192,96460,128,0,96548:0:0:0:0:
192,192,96460,128,0,96548:0:0:0:0:
320,192,96548,128,0,96592:0:0:0:0:
448,192,96548,128,0,96592:0:0:0:0:
192,192,96636,1,0,0:0:0:0:
448,192,96636,1,0,0:0:0:0:
64,192,96636,128,0,96769:0:0:0:0:
320,192,96636,128,0,96769:0:0:0:0:
64,192,96813,128,0,96945:0:0:0:0:
320,192,96813,128,0,96945:0:0:0:0:
448,192,96813,1,0,0:0:0:0:
64,192,96989,128,0,97254:0:0:0:0:
192,192,96989,128,0,97166:0:0:0:0:
448,192,96989,1,0,0:0:0:0:
320,192,96989,1,0,0:0:0:0:
320,192,97166,128,0,97254:0:0:0:0:
448,192,97166,1,0,0:0:0:0:
448,192,97254,128,0,97386:0:0:0:0:
192,192,97254,128,0,97386:0:0:0:0:
64,192,97342,1,0,0:0:0:0:
320,192,97342,1,0,0:0:0:0:
192,192,97431,128,0,97475:0:0:0:0:
448,192,97431,128,0,97475:0:0:0:0:
192,192,97519,128,0,97651:0:0:0:0:
448,192,97519,128,0,97651:0:0:0:0:
64,192,97519,1,0,0:0:0:0:
320,192,97695,128,0,97872:0:0:0:0:
448,192,97695,128,0,97960:0:0:0:0:
192,192,97695,1,0,0:0:0:0:
64,192,97695,1,0,0:0:0:0:
192,192,97872,128,0,97960:0:0:0:0:
64,192,97872,1,0,0:0:0:0:
64,192,97960,128,0,98092:0:0:0:0:
320,192,97960,128,0,98092:0:0:0:0:
192,192,98048,1,0,0:0:0:0:
448,192,98048,1,0,0:0:0:0:
320,192,98136,128,0,98181:0:0:0:0:
64,192,98136,128,0,98181:0:0:0:0:
64,192,98225,128,0,98357:0:0:0:0:
320,192,98225,128,0,98357:0:0:0:0:
448,192,98225,128,0,98269:0:0:0:0:
192,192,98401,128,0,98578:0:0:0:0:
64,192,98401,128,0,98666:0:0:0:0:
448,192,98401,1,0,0:0:0:0:
320,192,98401,1,0,0:0:0:0:
320,192,98578,128,0,98666:0:0:0:0:
448,192,98578,1,0,0:0:0:0:
192,192,98666,128,0,98798:0:0:0:0:
448,192,98666,128,0,98798:0:0:0:0:
64,192,98754,1,0,0:0:0:0:
320,192,98754,1,0,0:0:0:0:
192,192,98842,128,0,98886:0:0:0:0:
448,192,98842,128,0,98886:0:0:0:0:
192,192,98931,128,0,98975:0:0:0:0:
448,192,98931,128,0,98975:0:0:0:0:
64,192,98931,1,0,0:0:0:0:
448,192,99019,128,0,99063:0:0:0:0:
192,192,99019,128,0,99063:0:0:0:0:
320,192,99107,128,0,99284:0:0:0:0:
448,192,99107,128,0,99372:0:0:0:0:
64,192,99107,1,0,0:0:0:0:
192,192,99107,1,0,0:0:0:0:
192,192,99284,128,0,99372:0:0:0:0:
64,192,99284,1,0,0:0:0:0:
64,192,99372,128,0,99416:0:0:0:0:
320,192,99372,128,0,99416:0:0:0:0:
64,192,99460,128,0,99504:0:0:0:0:
448,192,99460,128,0,99504:0:0:0:0:
320,192,99460,1,0,0:0:0:0:
192,192,99460,1,0,0:0:0:0:
64,192,99548,128,0,99592:0:0:0:0:
448,192,99548,128,0,99592:0:0:0:0:
64,192,99636,128,0,99769:0:0:0:0:
448,192,99636,128,0,99769:0:0:0:0:
192,192,99636,1,0,0:0:0:0:
320,192,99636,1,0,0:0:0:0:
192,192,99813,128,0,99945:0:0:0:0:
320,192,99813,128,0,99945:0:0:0:0:
64,192,99813,1,0,0:0:0:0:
448,192,99813,1,0,0:0:0:0:
64,192,99989,128,0,100078:0:0:0:0:
448,192,99989,128,0,100078:0:0:0:0:
320,192,99989,1,0,0:0:0:0:
192,192,99989,1,0,0:0:0:0:
192,192,100078,128,0,100210:0:0:0:0:
320,192,100078,128,0,100210:0:0:0:0:
448,192,100166,1,0,0:0:0:0:
64,192,100166,1,0,0:0:0:0:
192,192,100254,128,0,100298:0:0:0:0:
320,192,100254,128,0,100298:0:0:0:0:
192,192,100342,128,0,100475:0:0:0:0:
320,192,100342,128,0,100475:0:0:0:0:
64,192,100342,1,0,0:0:0:0:
448,192,100342,1,0,0:0:0:0:
64,192,100519,128,0,100651:0:0:0:0:
448,192,100519,128,0,100651:0:0:0:0:
320,192,100519,1,0,0:0:0:0:
192,192,100519,1,0,0:0:0:0:
192,192,100607,1,0,0:0:0:0:
320,192,100607,1,0,0:0:0:0:
64,192,100695,128,0,100739:0:0:0:0:
448,192,100695,128,0,100739:0:0:0:0:
320,192,100695,1,0,0:0:0:0:
192,192,100695,1,0,0:0:0:0:
64,192,100784,128,0,100828:0:0:0:0:
448,192,100784,128,0,100828:0:0:0:0:
192,192,100784,1,0,0:0:0:0:
320,192,100784,1,0,0:0:0:0:
64,192,100872,128,0,100960:0:0:0:0:
192,192,100872,128,0,101048:0:0:0:0:
320,192,100872,1,0,0:0:0:0:
448,192,100872,1,0,0:0:0:0:
320,192,100960,128,0,101092:0:0:0:0:
448,192,101048,128,0,101092:0:0:0:0:
320,192,101136,128,0,101181:0:0:0:0:
448,192,101136,128,0,101181:0:0:0:0:
64,192,101136,1,0,0:0:0:0:
192,192,101136,1,0,0:0:0:0:
448,192,101225,128,0,101357:0:0:0:0:
64,192,101225,128,0,101357:0:0:0:0:
448,192,101401,128,0,101489:0:0:0:0:
64,192,101401,128,0,101622:0:0:0:0:
192,192,101401,1,0,0:0:0:0:
320,192,101401,1,0,0:0:0:0:
192,192,101489,128,0,101622:0:0:0:0:
64,192,101666,128,0,101710:0:0:0:0:
192,192,101666,128,0,101710:0:0:0:0:
192,192,101754,128,0,101798:0:0:0:0:
320,192,101754,128,0,101798:0:0:0:0:
320,192,101842,128,0,101886:0:0:0:0:
192,192,101842,128,0,101886:0:0:0:0:
320,192,101931,128,0,101975:0:0:0:0:
448,192,101931,128,0,101975:0:0:0:0:
64,192,101931,1,0,0:0:0:0:
320,192,102019,128,0,102063:0:0:0:0:
448,192,102019,128,0,102063:0:0:0:0:
448,192,102107,128,0,102151:0:0:0:0:
64,192,102107,128,0,102151:0:0:0:0:
64,192,102195,128,0,102239:0:0:0:0:
192,192,102195,128,0,102239:0:0:0:0:
320,192,102284,128,0,102416:0:0:0:0:
192,192,102284,128,0,102416:0:0:0:0:
64,192,102284,1,0,0:0:0:0:
448,192,102284,1,0,0:0:0:0:
192,192,102460,128,0,102592:0:0:0:0:
320,192,102460,128,0,102592:0:0:0:0:
64,192,102460,1,0,0:0:0:0:
64,192,102636,128,0,102813:0:0:0:0:
448,192,102636,128,0,102813:0:0:0:0:
320,192,102636,1,0,0:0:0:0:
192,192,102636,1,0,0:0:0:0:
192,192,102813,128,0,102901:0:0:0:0:
320,192,102813,128,0,102901:0:0:0:0:
64,192,102901,128,0,103034:0:0:0:0:
448,192,102901,128,0,103034:0:0:0:0:
320,192,102989,1,0,0:0:0:0:
192,192,102989,1,0,0:0:0:0:
64,192,103078,128,0,103122:0:0:0:0:
448,192,103078,128,0,103122:0:0:0:0:
320,192,103166,1,0,0:0:0:0:
64,192,103166,128,0,103298:0:0:0:0:
448,192,103166,128,0,103298:0:0:0:0:
192,192,103342,128,0,103519:0:0:0:0:
320,192,103342,128,0,103519:0:0:0:0:
64,192,103342,1,0,0:0:0:0:
448,192,103342,1,0,0:0:0:0:
64,192,103519,128,0,103607:0:0:0:0:
448,192,103519,128,0,103607:0:0:0:0:
320,192,103607,128,0,103651:0:0:0:0:
192,192,103607,128,0,103651:0:0:0:0:
64,192,103695,128,0,103784:0:0:0:0:
320,192,103695,128,0,103784:0:0:0:0:
448,192,103695,1,0,0:0:0:0:
192,192,103695,1,0,0:0:0:0:
192,192,103784,128,0,103872:0:0:0:0:
448,192,103784,128,0,103872:0:0:0:0:
64,192,103872,128,0,103960:0:0:0:0:
320,192,103872,128,0,103960:0:0:0:0:
192,192,103960,128,0,104004:0:0:0:0:
448,192,103960,128,0,104004:0:0:0:0:
320,192,104048,1,0,0:0:0:0:
192,192,104048,1,0,0:0:0:0:
64,192,104048,128,0,104225:0:0:0:0:
448,192,104048,128,0,104225:0:0:0:0:
192,192,104225,128,0,104313:0:0:0:0:
320,192,104225,128,0,104313:0:0:0:0:
64,192,104313,128,0,104445:0:0:0:0:
448,192,104313,128,0,104445:0:0:0:0:
320,192,104401,1,0,0:0:0:0:
192,192,104401,1,0,0:0:0:0:
64,192,104489,128,0,104534:0:0:0:0:
448,192,104489,128,0,104534:0:0:0:0:
448,192,104578,128,0,104622:0:0:0:0:
64,192,104578,128,0,104622:0:0:0:0:
192,192,104578,1,0,0:0:0:0:
64,192,104666,128,0,104710:0:0:0:0:
448,192,104666,128,0,104710:0:0:0:0:
192,192,104754,128,0,104798:0:0:0:0:
320,192,104754,128,0,104798:0:0:0:0:
320,192,104842,128,0,104886:0:0:0:0:
192,192,104842,128,0,104886:0:0:0:0:
320,192,104931,128,0,104975:0:0:0:0:
64,192,104931,128,0,104975:0:0:0:0:
448,192,104931,1,0,0:0:0:0:
192,192,105019,128,0,105063:0:0:0:0:
448,192,105019,128,0,105063:0:0:0:0:
320,192,105107,128,0,105151:0:0:0:0:
448,192,105107,128,0,105151:0:0:0:0:
192,192,105107,1,0,0:0:0:0:
64,192,105107,1,0,0:0:0:0:
320,192,105195,128,0,105239:0:0:0:0:
448,192,105195,128,0,105239:0:0:0:0:
320,192,105284,128,0,105328:0:0:0:0:
192,192,105284,128,0,105328:0:0:0:0:
64,192,105284,1,0,0:0:0:0:
64,192,105372,128,0,105416:0:0:0:0:
192,192,105372,128,0,105416:0:0:0:0:
64,192,105460,1,0,0:0:0:0:
320,192,105460,1,0,0:0:0:0:
192,192,105460,128,0,105548:0:0:0:0:
448,192,105460,128,0,105548:0:0:0:0:
320,192,105548,128,0,105725:0:0:0:0:
64,192,105548,128,0,105857:0:0:0:0:
448,192,105636,1,0,0:0:0:0:
192,192,105725,128,0,105857:0:0:0:0:
320,192,105813,1,0,0:0:0:0:
448,192,105813,1,0,0:0:0:0:
192,192,105901,128,0,105945:0:0:0:0:
64,192,105901,128,0,105945:0:0:0:0:
320,192,105989,1,0,0:0:0:0:
64,192,105989,128,0,106122:0:0:0:0:
192,192,105989,128,0,106122:0:0:0:0:
320,192,106166,128,0,106342:0:0:0:0:
64,192,106166,128,0,106342:0:0:0:0:
448,192,106166,1,0,0:0:0:0:
192,192,106166,1,0,0:0:0:0:
192,192,106342,128,0,106431:0:0:0:0:
448,192,106342,128,0,106475:0:0:0:0:
320,192,106431,128,0,106475:0:0:0:0:
448,192,106519,1,0,0:0:0:0:
192,192,106519,128,0,106563:0:0:0:0:
320,192,106519,1,0,0:0:0:0:
64,192,106519,128,0,106563:0:0:0:0:
192,192,106607,128,0,106695:0:0:0:0:
64,192,106607,128,0,106695:0:0:0:0:
320,192,106695,128,0,106739:0:0:0:0:
448,192,106695,128,0,106739:0:0:0:0:
320,192,106784,128,0,106828:0:0:0:0:
448,192,106784,128,0,106828:0:0:0:0:
448,192,106872,1,0,0:0:0:0:
64,192,106872,1,0,0:0:0:0:
320,192,106872,128,0,107004:0:0:0:0:
192,192,106872,128,0,107004:0:0:0:0:
320,192,107048,128,0,107181:0:0:0:0:
192,192,107048,128,0,107136:0:0:0:0:
448,192,107048,1,0,0:0:0:0:
64,192,107136,128,0,107181:0:0:0:0:
64,192,107225,1,0,0:0:0:0:
448,192,107225,1,0,0:0:0:0:
192,192,107225,128,0,107313:0:0:0:0:
320,192,107225,128,0,107401:0:0:0:0:
64,192,107313,128,0,107489:0:0:0:0:
192,192,107401,1,0,0:0:0:0:
448,192,107401,128,0,107534:0:0:0:0:
192,192,107489,128,0,107534:0:0:0:0:
320,192,107578,128,0,107754:0:0:0:0:
64,192,107578,1,0,0:0:0:0:
192,192,107578,1,0,0:0:0:0:
448,192,107578,128,0,107666:0:0:0:0:
192,192,107666,128,0,107842:0:0:0:0:
64,192,107754,128,0,107842:0:0:0:0:
448,192,107754,1,0,0:0:0:0:
320,192,107842,128,0,107886:0:0:0:0:
448,192,107842,128,0,107886:0:0:0:0:
192,192,107931,128,0,107975:0:0:0:0:
64,192,107931,128,0,107975:0:0:0:0:
320,192,107931,1,0,0:0:0:0:
448,192,107931,1,0,0:0:0:0:
64,192,108019,128,0,108107:0:0:0:0:
192,192,108019,128,0,108239:0:0:0:0:
320,192,108107,128,0,108239:0:0:0:0:
448,192,108107,128,0,108151:0:0:0:0:
192,192,108284,1,0,0:0:0:0:
64,192,108284,1,0,0:0:0:0:
448,192,108284,128,0,108460:0:0:0:0:
320,192,108284,128,0,108548:0:0:0:0:
192,192,108460,128,0,108592:0:0:0:0:
64,192,108460,1,0,0:0:0:0:
64,192,108548,128,0,108592:0:0:0:0:
64,192,108636,1,0,0:0:0:0:
192,192,108636,1,0,0:0:0:0:
320,192,108636,128,0,108725:0:0:0:0:
448,192,108636,128,0,108725:0:0:0:0:
192,192,108725,128,0,108769:0:0:0:0:
64,192,108725,128,0,108769:0:0:0:0:
192,192,108813,128,0,108945:0:0:0:0:
64,192,108813,128,0,108945:0:0:0:0:
448,192,108813,1,0,0:0:0:0:
320,192,108989,128,0,109034:0:0:0:0:
192,192,108989,128,0,109034:0:0:0:0:
64,192,108989,1,0,0:0:0:0:
448,192,108989,1,0,0:0:0:0:
192,192,109078,128,0,109166:0:0:0:0:
320,192,109078,128,0,109166:0:0:0:0:
64,192,109166,128,0,109254:0:0:0:0:
448,192,109166,128,0,109254:0:0:0:0:
192,192,109254,128,0,109298:0:0:0:0:
320,192,109254,128,0,109298:0:0:0:0:
64,192,109342,128,0,109431:0:0:0:0:
192,192,109342,128,0,109431:0:0:0:0:
448,192,109342,1,0,0:0:0:0:
320,192,109342,1,0,0:0:0:0:
320,192,109431,128,0,109475:0:0:0:0:
448,192,109431,128,0,109475:0:0:0:0:
320,192,109519,128,0,109607:0:0:0:0:
448,192,109519,128,0,109651:0:0:0:0:
64,192,109519,1,0,0:0:0:0:
192,192,109607,128,0,109651:0:0:0:0:
192,192,109695,1,0,0:0:0:0:
448,192,109695,1,0,0:0:0:0:
64,192,109695,128,0,109784:0:0:0:0:
320,192,109695,128,0,109960:0:0:0:0:
448,192,109784,128,0,109872:0:0:0:0:
64,192,109872,1,0,0:0:0:0:
192,192,109872,128,0,110092:0:0:0:0:
64,192,109960,128,0,110092:0:0:0:0:
320,192,110048,1,0,0:0:0:0:
448,192,110048,1,0,0:0:0:0:
192,192,110136,128,0,110225:0:0:0:0:
64,192,110136,128,0,110313:0:0:0:0:
320,192,110225,128,0,110313:0:0:0:0:
448,192,110225,1,0,0:0:0:0:
192,192,110313,128,0,110357:0:0:0:0:
448,192,110313,128,0,110357:0:0:0:0:
320,192,110401,128,0,110489:0:0:0:0:
192,192,110401,1,0,0:0:0:0:
64,192,110401,1,0,0:0:0:0:
448,192,110401,128,0,110489:0:0:0:0:
64,192,110489,128,0,110578:0:0:0:0:
192,192,110489,128,0,110666:0:0:0:0:
448,192,110578,128,0,110666:0:0:0:0:
320,192,110578,1,0,0:0:0:0:
320,192,110666,128,0,110710:0:0:0:0:
64,192,110666,128,0,110710:0:0:0:0:
320,192,110754,1,0,0:0:0:0:
64,192,110754,1,0,0:0:0:0:
192,192,110754,128,0,110842:0:0:0:0:
448,192,110754,128,0,110842:0:0:0:0:
64,192,110842,128,0,110886:0:0:0:0:
320,192,110842,128,0,110886:0:0:0:0:
192,192,110931,1,0,0:0:0:0:
64,192,110931,1,0,0:0:0:0:
320,192,110931,128,0,111019:0:0:0:0:
448,192,110931,128,0,111019:0:0:0:0:
64,192,111019,128,0,111063:0:0:0:0:
192,192,111019,128,0,111063:0:0:0:0:
192,192,111107,1,0,0:0:0:0:
448,192,111107,1,0,0:0:0:0:
64,192,111107,128,0,111195:0:0:0:0:
320,192,111107,128,0,111195:0:0:0:0:
192,192,111195,128,0,111239:0:0:0:0:
448,192,111195,128,0,111239:0:0:0:0:
448,192,111284,1,0,0:0:0:0:
320,192,111284,1,0,0:0:0:0:
64,192,111284,128,0,111372:0:0:0:0:
192,192,111284,128,0,111372:0:0:0:0:
320,192,111372,128,0,111416:0:0:0:0:
448,192,111372,128,0,111416:0:0:0:0:
320,192,111460,1,0,0:0:0:0:
64,192,111460,1,0,0:0:0:0:
192,192,111460,128,0,111548:0:0:0:0:
448,192,111460,128,0,111548:0:0:0:0:
320,192,111548,128,0,111592:0:0:0:0:
64,192,111548,128,0,111592:0:0:0:0:
320,192,111636,1,0,0:0:0:0:
448,192,111636,1,0,0:0:0:0:
64,192,111636,128,0,111725:0:0:0:0:
192,192,111636,128,0,111725:0:0:0:0:
448,192,111725,128,0,111769:0:0:0:0:
320,192,111725,128,0,111769:0:0:0:0:
448,192,111813,1,0,0:0:0:0:
320,192,111813,1,0,0:0:0:0:
64,192,111813,128,0,111857:0:0:0:0:
192,192,111813,128,0,111857:0:0:0:0:
64,192,111901,1,0,0:0:0:0:
448,192,111901,1,0,0:0:0:0:
192,192,111901,128,0,111945:0:0:0:0:
320,192,111901,128,0,111945:0:0:0:0:
64,192,111989,1,0,0:0:0:0:
192,192,111989,1,0,0:0:0:0:
320,192,111989,128,0,112034:0:0:0:0:
448,192,111989,128,0,112034:0:0:0:0:
320,192,112078,1,0,0:0:0:0:
192,192,112078,1,0,0:0:0:0:
448,192,112078,128,0,112122:0:0:0:0:
64,192,112078,128,0,112122:0:0:0:0:
192,192,112166,128,0,112254:0:0:0:0:
64,192,112166,128,0,112342:0:0:0:0:
320,192,112166,1,0,0:0:0:0:
448,192,112166,1,0,0:0:0:0:
320,192,112254,128,0,112342:0:0:0:0:
192,192,112342,128,0,112386:0:0:0:0:
448,192,112342,128,0,112386:0:0:0:0:
64,192,112431,1,0,0:0:0:0:
192,192,112431,1,0,0:0:0:0:
448,192,112431,128,0,112519:0:0:0:0:
320,192,112431,128,0,112519:0:0:0:0:
64,192,112519,128,0,112651:0:0:0:0:
192,192,112519,128,0,112651:0:0:0:0:
64,192,112695,1,0,0:0:0:0:
192,192,112695,1,0,0:0:0:0:
320,192,112695,128,0,112739:0:0:0:0:
448,192,112695,128,0,112739:0:0:0:0:
320,192,112784,128,0,112828:0:0:0:0:
448,192,112784,128,0,112828:0:0:0:0:
448,192,112872,1,0,0:0:0:0:
320,192,112872,1,0,0:0:0:0:
192,192,112872,1,0,0:0:0:0:
64,192,112872,1,0,0:0:0:0:
64,192,112960,1,0,0:0:0:0:
64,192,113048,1,0,0:0:0:0:
64,192,113136,1,0,0:0:0:0:
192,192,113225,1,0,0:0:0:0:
320,192,113225,1,0,0:0:0:0:
320,192,113313,1,0,0:0:0:0:
192,192,113313,1,0,0:0:0:0:
448,192,113401,1,0,0:0:0:0:
64,192,113401,128,0,114636:0:0:0:0:
448,192,113578,128,0,113666:0:0:0:0:
320,192,113578,128,0,113666:0:0:0:0:
192,192,113578,1,0,0:0:0:0:
192,192,113842,128,0,113931:0:0:0:0:
320,192,113842,128,0,113931:0:0:0:0:
448,192,113842,1,0,0:0:0:0:
320,192,114107,128,0,114195:0:0:0:0:
448,192,114107,128,0,114195:0:0:0:0:
192,192,114107,1,0,0:0:0:0:
192,192,114372,128,0,114460:0:0:0:0:
448,192,114372,128,0,114460:0:0:0:0:
320,192,114372,1,0,0:0:0:0:
320,192,114636,128,0,114725:0:0:0:0:
448,192,114636,128,0,114725:0:0:0:0:
192,192,114636,128,0,114725:0:0:0:0:
192,192,114813,128,0,114901:0:0:0:0:
64,192,114813,128,0,114901:0:0:0:0:
448,192,114813,128,0,114901:0:0:0:0:
64,192,114989,128,0,115078:0:0:0:0:
192,192,114989,128,0,115078:0:0:0:0:
320,192,114989,128,0,115078:0:0:0:0:
192,192,115254,128,0,115342:0:0:0:0:
320,192,115254,128,0,115342:0:0:0:0:
448,192,115254,128,0,115342:0:0:0:0:
320,192,115519,128,0,115607:0:0:0:0:
448,192,115519,128,0,115607:0:0:0:0:
192,192,115519,128,0,115607:0:0:0:0:
64,192,115519,128,0,115607:0:0:0:0:
