osu file format v14

[General]
AudioFilename: Tomorrow Perfume.mp3
AudioLeadIn: 0
PreviewTime: -1
Countdown: 0
SampleSet: Normal
StackLeniency: 1
Mode: 2
LetterboxInBreaks: 0
WidescreenStoryboard: 0

[Editor]
DistanceSpacing: 1
BeatDivisor: 4
GridSize: 4
TimelineZoom: 5.099998

[Metadata]
Title:Tomorrow Perfume (tpz Despair Remix)
TitleUnicode:Tomorrow Perfume (tpz Despair Remix)
Artist:t+pazolite
ArtistUnicode:t+pazolite
Creator:Mwallx
Version:Cloying Puff
Source:
Tags:sound voltex booth sdvx dj taka beatmania iidx mwalls ho
BeatmapID:1130040
BeatmapSetID:533400

[Difficulty]
HPDrainRate:3.7
CircleSize:4.7
OverallDifficulty:9.7
ApproachRate:9.7
SliderMultiplier:2
SliderTickRate:4

[Events]
//Background and Video events
0,0,"BG.jpg",0,0
//Break Periods
2,55192,57496
//Storyboard Layer 0 (Background)
//Storyboard Layer 1 (Fail)
//Storyboard Layer 2 (Pass)
//Storyboard Layer 3 (Foreground)
//Storyboard Sound Samples

[TimingPoints]
1522,352.941176470588,4,1,0,30,1,0
2845,-50,4,1,0,30,0,0
3286,-100,4,1,0,30,0,0
3992,-66.6666666666667,4,1,0,30,0,0
4102,-100,4,1,0,30,0,0
9992,-66.6666666666667,4,1,0,30,0,0
24110,-100,4,1,0,30,0,1
30110,-33.3333333333333,4,1,0,30,0,1
31521,-100,4,1,0,30,0,1
31874,176.470588235294,4,1,0,30,1,0
31874,-25,4,1,0,30,0,1
35403,352.941176470588,4,1,0,30,1,0
35404,-100,4,1,0,30,0,0
43874,-66.6666666666667,4,1,0,30,0,0
91874,-100,4,1,0,30,0,1
116404,-100,4,1,0,30,0,0

[Colours]
Combo1 : 255,255,255
Combo2 : 242,121,0
Combo3 : 255,81,168
Combo4 : 96,0,96

[HitObjects]
340,352,1522,5,0,0:0:0:0:
224,300,1698,1,0,0:0:0:0:
400,276,1874,2,0,L|436:216,1,62.5
240,216,2051,2,0,L|240:196|240:196,1,12.5
94,184,2139,1,0,0:0:0:0:
216,116,2316,1,0,0:0:0:0:
0,80,2404,1,0,0:0:0:0:
188,52,2580,2,0,L|116:52,1,62.5
452,80,2757,2,0,L|468:72,1,12.5
328,320,2845,2,0,P|263:274|330:205,1,200
116,244,3110,2,0,P|103:156|192:156,1,200
464,184,3463,1,0,0:0:0:0:
292,156,3551,1,0,0:0:0:0:
364,112,3727,1,0,0:0:0:0:
124,176,3816,2,0,L|124:104,1,62.5
292,276,3992,2,0,L|184:276,1,93.7500035762788
400,212,4169,2,0,P|412:152|412:144,1,62.5
100,308,4345,5,0,0:0:0:0:
404,136,4521,1,0,0:0:0:0:
148,136,4698,2,0,P|100:124|84:112,1,62.5
312,76,4874,2,0,L|296:76,1,12.5
459,343,4963,2,0,L|471:280,1,50
163,218,5139,1,0,0:0:0:0:
313,213,5227,2,0,L|351:163|351:163,1,62.5
67,175,5404,1,0,0:0:0:0:
392,242,5580,1,0,0:0:0:0:
192,140,5669,1,0,0:0:0:0:
485,157,5845,1,0,0:0:0:0:
296,72,5933,1,0,0:0:0:0:
8,76,6110,2,0,L|80:76|80:76,1,62.5
487,245,6286,1,0,0:0:0:0:
312,240,6374,2,0,L|308:176|308:176,1,62.5
224,200,6551,2,0,L|220:128,1,62.5
84,176,6727,2,0,L|64:176,1,12.5
440,136,6816,2,0,L|464:72,1,62.5
172,136,6992,2,0,L|122:136,1,50
340,132,7169,5,0,0:0:0:0:
184,72,7345,1,0,0:0:0:0:
432,88,7521,1,0,0:0:0:0:
122,288,7698,1,0,0:0:0:0:
228,241,7786,1,0,0:0:0:0:
71,200,7874,1,0,0:0:0:0:
276,164,7963,1,0,0:0:0:0:
115,118,8051,1,0,0:0:0:0:
410,201,8227,1,0,0:0:0:0:
135,66,8404,1,0,0:0:0:0:
288,106,8492,1,0,0:0:0:0:
53,173,8580,1,0,0:0:0:0:
263,268,8669,1,0,0:0:0:0:
114,281,8757,1,0,0:0:0:0:
410,201,8933,1,0,0:0:0:0:
76,311,9110,1,0,0:0:0:0:
286,307,9198,1,0,0:0:0:0:
61,180,9286,1,0,0:0:0:0:
209,196,9374,1,0,0:0:0:0:
57,43,9463,1,0,0:0:0:0:
384,183,9639,2,0,L|315:183,1,50
490,284,9816,2,0,L|435:284,1,50
48,264,9992,6,0,L|64:188,1,75.0000028610231
284,208,10169,2,0,L|208:208,1,75.0000028610231
396,172,10345,2,0,L|472:172,1,75.0000028610231
276,160,10521,2,0,L|248:80,1,75.0000028610231
92,132,10698,2,0,L|16:132,1,75.0000028610231
192,124,10874,2,0,L|112:124,1,75.0000028610231
260,256,11051,2,0,L|340:256,1,75.0000028610231
96,240,11227,2,0,L|176:240,1,75.0000028610231
468,212,11404,1,0,0:0:0:0:
304,176,11492,2,0,L|384:176,1,75.0000028610231
216,164,11669,1,0,0:0:0:0:
433,105,11757,2,0,L|509:105,1,75.0000028610231
314,97,11933,1,0,0:0:0:0:
194,314,12021,1,0,0:0:0:0:
38,303,12110,1,0,0:0:0:0:
216,255,12198,1,0,0:0:0:0:
12,239,12286,1,0,0:0:0:0:
188,195,12374,1,0,0:0:0:0:
44,183,12463,1,0,0:0:0:0:
351,200,12639,1,0,0:0:0:0:
351,200,12816,5,0,0:0:0:0:
351,200,12992,1,0,0:0:0:0:
351,200,13169,1,0,0:0:0:0:
65,198,13345,1,0,0:0:0:0:
215,194,13433,1,0,0:0:0:0:
351,200,14051,1,0,0:0:0:0:
112,161,14227,1,0,0:0:0:0:
334,91,14316,1,0,0:0:0:0:
25,69,14404,1,0,0:0:0:0:
25,69,14580,1,0,0:0:0:0:
346,292,14757,1,0,0:0:0:0:
188,237,14845,1,0,0:0:0:0:
188,237,15463,5,0,0:0:0:0:
35,199,15639,1,0,0:0:0:0:
297,166,15727,1,0,0:0:0:0:
106,138,15816,1,0,0:0:0:0:
380,94,15992,1,0,0:0:0:0:
247,64,16169,1,0,0:0:0:0:
454,327,16257,1,0,0:0:0:0:
454,327,16874,5,0,0:0:0:0:
284,296,17051,1,0,0:0:0:0:
424,272,17139,1,0,0:0:0:0:
176,272,17227,1,0,0:0:0:0:
176,272,17404,1,0,0:0:0:0:
119,248,17580,1,0,0:0:0:0:
260,225,17669,1,0,0:0:0:0:
80,178,17845,1,0,0:0:0:0:
314,155,18021,1,0,0:0:0:0:
150,123,18110,1,0,0:0:0:0:
408,328,18286,1,0,0:0:0:0:
408,328,18463,5,0,0:0:0:0:
408,328,18639,1,0,0:0:0:0:
152,240,18816,1,0,0:0:0:0:
332,204,18992,1,0,0:0:0:0:
84,168,19080,1,0,0:0:0:0:
84,168,19698,5,0,0:0:0:0:
379,225,19874,1,0,0:0:0:0:
174,166,19963,1,0,0:0:0:0:
439,155,20051,1,0,0:0:0:0:
276,129,20227,1,0,0:0:0:0:
405,306,20404,1,0,0:0:0:0:
102,248,20492,1,0,0:0:0:0:
107,306,21110,5,0,0:0:0:0:
384,245,21286,1,0,0:0:0:0:
49,193,21374,1,0,0:0:0:0:
254,148,21463,1,0,0:0:0:0:
391,104,21639,1,0,0:0:0:0:
97,84,21816,1,0,0:0:0:0:
300,60,21904,1,0,0:0:0:0:
210,287,22521,5,0,0:0:0:0:
343,241,22610,1,0,0:0:0:0:
131,227,22698,1,0,0:0:0:0:
211,151,22786,1,0,0:0:0:0:
85,134,22874,1,0,0:0:0:0:
246,85,22962,1,0,0:0:0:0:
431,233,23051,1,0,0:0:0:0:
351,143,23139,1,0,0:0:0:0:
477,126,23227,1,0,0:0:0:0:
316,77,23315,1,0,0:0:0:0:
66,292,23404,2,0,L|285:293,1,187.500007152558
512,293,23669,2,0,L|293:294,1,187.500007152558
75,214,23933,1,0,0:0:0:0:
363,228,24110,6,0,L|301:229,1,50
114,147,24286,2,0,L|163:149,1,50
430,122,24463,1,0,0:0:0:0:
201,251,24639,1,0,0:0:0:0:
336,235,24727,1,0,0:0:0:0:
141,193,24816,1,0,0:0:0:0:
390,197,24904,1,0,0:0:0:0:
180,131,24992,1,0,0:0:0:0:
455,242,25169,1,0,0:0:0:0:
159,277,25345,5,0,0:0:0:0:
306,222,25433,1,0,0:0:0:0:
166,178,25521,1,0,0:0:0:0:
95,100,25610,1,0,0:0:0:0:
405,192,25698,1,0,0:0:0:0:
96,174,25874,1,0,0:0:0:0:
418,110,26051,1,0,0:0:0:0:
255,136,26139,1,0,0:0:0:0:
421,229,26227,1,0,0:0:0:0:
103,201,26316,1,0,0:0:0:0:
255,176,26404,1,0,0:0:0:0:
94,127,26492,1,0,0:0:0:0:
392,161,26580,1,0,0:0:0:0:
21,284,26757,5,0,0:0:0:0:
208,255,26845,1,0,0:0:0:0:
119,249,26933,1,0,0:0:0:0:
319,184,27021,1,0,0:0:0:0:
219,176,27110,1,0,0:0:0:0:
449,227,27286,1,0,0:0:0:0:
128,202,27463,1,0,0:0:0:0:
456,212,27551,1,0,0:0:0:0:
290,204,27639,1,0,0:0:0:0:
101,116,27727,1,0,0:0:0:0:
354,122,27816,1,0,0:0:0:0:
20,215,27992,1,0,0:0:0:0:
409,276,28169,5,0,0:0:0:0:
265,198,28257,1,0,0:0:0:0:
481,163,28345,1,0,0:0:0:0:
330,82,28433,1,0,0:0:0:0:
28,149,28521,1,0,0:0:0:0:
319,224,28610,1,0,0:0:0:0:
112,195,28698,1,0,0:0:0:0:
416,220,28874,1,0,0:0:0:0:
253,183,28963,1,0,0:0:0:0:
400,134,29051,1,0,0:0:0:0:
226,116,29139,1,0,0:0:0:0:
47,112,29227,1,0,0:0:0:0:
247,58,29316,1,0,0:0:0:0:
94,209,29404,1,0,0:0:0:0:
426,206,29492,1,0,0:0:0:0:
207,171,29580,1,0,0:0:0:0:
375,130,29669,1,0,0:0:0:0:
83,284,29757,6,0,L|148:283,1,50
364,282,29933,2,0,L|420:282,1,50
0,211,30110,2,0,L|317:208,1,300.000011444092
133,141,30374,2,0,L|442:140,1,300.000011444092
254,68,30639,1,0,0:0:0:0:
512,211,30816,2,0,L|195:208,1,300.000011444092
379,141,31080,2,0,L|70:140,1,300.000011444092
258,68,31345,1,0,0:0:0:0:
4,217,31521,1,0,0:0:0:0:
463,204,31698,1,0,0:0:0:0:
253,197,31786,1,0,0:0:0:0:
55,171,31874,2,0,L|467:286,1,400
440,278,31962,2,0,L|123:12,1,400
134,21,32050,2,0,L|517:176,1,400
504,171,32138,2,0,L|27:116,1,400
84,126,32314,1,0,0:0:0:0:
371,234,32402,5,0,0:0:0:0:
51,150,32491,2,0,L|478:82,1,400
447,88,32579,2,0,L|55:290,1,400
91,271,32668,2,0,L|497:298,1,400
490,297,32756,2,0,L|63:108,1,400
428,256,35404,5,0,0:0:0:0:
64,200,35669,5,0,0:0:0:0:
396,160,35933,5,0,0:0:0:0:
36,112,36198,5,0,0:0:0:0:
396,328,36463,5,0,0:0:0:0:
48,48,36727,5,0,0:0:0:0:
392,224,36992,5,0,0:0:0:0:
32,132,37257,5,0,0:0:0:0:
404,352,37521,5,0,0:0:0:0:
80,24,37786,5,0,0:0:0:0:
476,92,38051,5,0,0:0:0:0:
32,272,38227,5,0,0:0:0:0:
448,272,38492,5,0,0:0:0:0:
68,200,38757,5,0,0:0:0:0:
404,356,39021,5,0,0:0:0:0:
24,64,39286,5,0,0:0:0:0:
392,56,39551,5,0,0:0:0:0:
40,192,39816,5,0,0:0:0:0:
444,48,40080,5,0,0:0:0:0:
68,308,40345,5,0,0:0:0:0:
484,104,40610,5,0,0:0:0:0:
16,128,40874,5,0,0:0:0:0:
376,176,41051,5,0,0:0:0:0:
416,176,41051,5,0,0:0:0:0:
56,184,41316,5,0,0:0:0:0:
96,184,41316,5,0,0:0:0:0:
300,96,41580,5,0,0:0:0:0:
340,96,41580,5,0,0:0:0:0:
0,100,41845,5,0,0:0:0:0:
40,100,41845,5,0,0:0:0:0:
356,264,42110,5,0,0:0:0:0:
396,264,42110,5,0,0:0:0:0:
88,260,42374,5,0,0:0:0:0:
128,260,42374,5,0,0:0:0:0:
416,80,42639,5,0,0:0:0:0:
456,80,42639,5,0,0:0:0:0:
176,164,42904,5,0,0:0:0:0:
216,164,42904,5,0,0:0:0:0:
440,260,43169,5,0,0:0:0:0:
144,236,43345,5,0,0:0:0:0:
380,180,43521,5,0,0:0:0:0:
24,160,43698,5,0,0:0:0:0:
200,120,43874,6,0,L|108:120,1,75.0000028610231
332,148,44051,2,0,L|300:76,1,75.0000028610231
452,288,44227,2,0,L|524:344,1,75.0000028610231
316,340,44404,2,0,L|396:340,1,75.0000028610231
196,352,44580,2,0,L|228:272,1,75.0000028610231
76,268,44757,2,0,L|-4:268,1,75.0000028610231
256,204,44933,2,0,L|160:204|160:204,3,75.0000028610231
396,188,45286,5,0,0:0:0:0:
321,125,45374,1,0,0:0:0:0:
452,96,45463,1,0,0:0:0:0:
370,40,45551,1,0,0:0:0:0:
103,210,45639,1,0,0:0:0:0:
181,132,45727,1,0,0:0:0:0:
42,98,45816,1,0,0:0:0:0:
120,21,45904,1,0,0:0:0:0:
471,213,45992,6,0,L|471:155,1,37.5000014305115
327,213,46080,2,0,L|327:155,1,37.5000014305115
184,213,46169,2,0,L|184:155,1,37.5000014305115
40,213,46257,2,0,L|40:155,1,37.5000014305115
512,240,46345,2,0,L|512:172,1,37.5000014305115
341,240,46433,2,0,L|341:172,1,37.5000014305115
171,240,46522,2,0,L|171:172,1,37.5000014305115
0,236,46610,1,0,0:0:0:0:
0,236,46698,5,0,0:0:0:0:
0,236,46963,1,0,0:0:0:0:
0,236,47227,1,0,0:0:0:0:
0,236,47404,1,0,0:0:0:0:
0,236,47669,1,0,0:0:0:0:
0,236,47933,1,0,0:0:0:0:
0,236,48110,1,0,0:0:0:0:
0,236,48374,1,0,0:0:0:0:
0,236,48639,1,0,0:0:0:0:
0,236,48816,1,0,0:0:0:0:
0,236,49080,1,0,0:0:0:0:
0,236,49345,1,0,0:0:0:0:
0,236,49521,1,0,0:0:0:0:
317,242,49610,5,0,0:0:0:0:
317,242,49786,1,0,0:0:0:0:
317,242,50051,1,0,0:0:0:0:
317,242,50227,1,0,0:0:0:0:
317,242,50492,1,0,0:0:0:0:
317,242,50757,1,0,0:0:0:0:
317,242,50933,1,0,0:0:0:0:
317,242,51198,1,0,0:0:0:0:
317,242,51463,1,0,0:0:0:0:
317,242,51639,1,0,0:0:0:0:
317,242,51904,1,0,0:0:0:0:
317,242,52169,1,0,0:0:0:0:
320,133,52345,5,0,0:0:0:0:
350,133,52345,1,0,0:0:0:0:
290,133,52345,1,0,0:0:0:0:
150,240,52521,1,0,0:0:0:0:
234,188,52610,1,0,0:0:0:0:
118,135,52698,1,0,0:0:0:0:
327,293,52874,1,0,0:0:0:0:
120,248,53051,1,0,0:0:0:0:
384,216,53227,1,0,0:0:0:0:
276,172,53316,1,0,0:0:0:0:
360,120,53404,1,0,0:0:0:0:
136,164,53580,1,0,0:0:0:0:
408,176,53757,1,0,0:0:0:0:
200,196,53933,1,0,0:0:0:0:
344,180,54021,1,0,0:0:0:0:
256,132,54110,1,0,0:0:0:0:
24,136,54286,1,0,0:0:0:0:
330,253,54463,5,0,0:0:0:0:
96,191,54639,1,0,0:0:0:0:
234,157,54727,1,0,0:0:0:0:
124,106,54816,1,0,0:0:0:0:
394,200,54992,1,0,0:0:0:0:
430,215,57991,5,0,0:0:0:0:
380,214,58020,1,0,0:0:0:0:
330,213,58050,1,0,0:0:0:0:
325,155,58257,1,0,0:0:0:0:
275,154,58285,1,0,0:0:0:0:
225,153,58314,1,0,0:0:0:0:
75,282,58521,1,0,0:0:0:0:
125,282,58550,1,0,0:0:0:0:
175,281,58579,1,0,0:0:0:0:
276,335,58697,1,0,0:0:0:0:
343,335,58726,1,0,0:0:0:0:
409,334,58755,1,0,0:0:0:0:
350,154,58963,1,0,0:0:0:0:
400,153,58991,1,0,0:0:0:0:
450,152,59020,1,0,0:0:0:0:
173,77,59227,1,0,0:0:0:0:
223,76,59255,1,0,0:0:0:0:
273,75,59285,1,0,0:0:0:0:
