osu file format v14

[General]
AudioFilename: Tomorrow Perfume (tpz Despair Remix) [EXH].mp3
AudioLeadIn: 0
PreviewTime: 56786
Countdown: 0
SampleSet: Normal
StackLeniency: 0.7
Mode: 1
LetterboxInBreaks: 0
WidescreenStoryboard: 0

[Editor]
Bookmarks: 5963,11610,22904,34198,45492,51139,56786,67727,68080,79374,85021,91021,99139,101963,113257,115198
DistanceSpacing: 0.8
BeatDivisor: 4
GridSize: 8
TimelineZoom: 1.6

[Metadata]
Title:Tomorrow Perfume (tpz Despair Remix)
TitleUnicode:Tomorrow Perfume (tpz Despair Remix)
Artist:t+pazolite
ArtistUnicode:t+pazolite
Creator:Ayyri
Version:Muzukashii
Source:SOUND VOLTEX BOOTH
Tags:Q____X sdvx dj TAKA Nardoxyribonucleic
BeatmapID:961332
BeatmapSetID:447830

[Difficulty]
HPDrainRate:6
CircleSize:2
OverallDifficulty:5
ApproachRate:5
SliderMultiplier:1.4
SliderTickRate:1

[Events]
//Background and Video events
0,0,"Tomorrow Perfume 2.jpg",0,5
//Break Periods
//Storyboard Layer 0 (Background)
//Storyboard Layer 1 (Fail)
//Storyboard Layer 2 (Pass)
//Storyboard Layer 3 (Foreground)
//Storyboard Sound Samples

[TimingPoints]
316,352.941176470588,4,1,0,100,1,0
22904,-100,4,1,0,100,0,1
34198,-100,4,1,0,100,0,0
43904,-102.040816326531,4,1,0,100,0,0
44080,-104.166666666667,4,1,0,100,0,0
44257,-106.382978723404,4,1,0,100,0,0
44433,-108.695652173913,4,1,0,100,0,0
44610,-111.111111111111,4,1,0,100,0,0
44786,-113.636363636364,4,1,0,100,0,0
44963,-116.279069767442,4,1,0,100,0,0
45139,-119.047619047619,4,1,0,100,0,0
45315,-121.951219512195,4,1,0,100,0,0
45492,-125,4,1,0,80,0,0
51139,-111.111111111111,4,1,0,90,0,0
56786,-100,4,1,0,100,0,1
67727,-100,4,1,0,100,0,0
68080,-100,4,1,0,100,0,1
79374,-100,4,1,0,100,0,0
91021,-100,4,1,0,100,0,1
99139,-100,4,1,0,100,0,0
101963,-100,4,1,0,100,0,1
113257,-100,4,1,0,100,0,0

[HitObjects]
256,192,5963,5,0,0:0:0:0:
256,192,6139,1,8,0:0:0:0:
256,192,6315,1,0,0:0:0:0:
256,192,6580,1,8,0:0:0:0:
256,192,6845,1,8,0:0:0:0:
256,192,7021,1,0,0:0:0:0:
256,192,7286,1,8,0:0:0:0:
256,192,7551,1,8,0:0:0:0:
256,192,7727,1,0,0:0:0:0:
256,192,7904,1,8,0:0:0:0:
256,192,8080,1,0,0:0:0:0:
256,192,8257,1,0,0:0:0:0:
256,192,8433,1,8,0:0:0:0:
256,192,8787,1,0,0:0:0:0:
256,192,8963,1,8,0:0:0:0:
256,192,9139,1,0,0:0:0:0:
256,192,9404,1,8,0:0:0:0:
256,192,9668,1,8,0:0:0:0:
256,192,9845,1,0,0:0:0:0:
256,192,10110,1,8,0:0:0:0:
256,192,10374,1,8,0:0:0:0:
256,192,10551,1,0,0:0:0:0:
256,192,10728,1,0,0:0:0:0:
256,192,10816,1,0,0:0:0:0:
256,192,10904,1,0,0:0:0:0:
256,192,11080,1,0,0:0:0:0:
256,192,11257,1,8,0:0:0:0:
256,192,11610,1,8,0:0:0:0:
256,192,11963,1,0,0:0:0:0:
256,192,12227,1,8,0:0:0:0:
256,192,12845,1,0,0:0:0:0:
256,192,13021,1,8,0:0:0:0:
256,192,13198,1,8,0:0:0:0:
256,192,13374,1,0,0:0:0:0:
256,192,13639,1,8,0:0:0:0:
256,192,14257,1,0,0:0:0:0:
256,192,14433,1,8,0:0:0:0:
256,192,14610,1,8,0:0:0:0:
256,192,14786,1,0,0:0:0:0:
256,192,15051,1,8,0:0:0:0:
256,192,15668,1,0,0:0:0:0:
256,192,15845,1,8,0:0:0:0:
256,192,16021,1,8,0:0:0:0:
256,192,16198,1,0,0:0:0:0:
256,192,16463,1,8,0:0:0:0:
256,192,16639,1,8,0:0:0:0:
256,192,16904,1,0,0:0:0:0:
256,192,17257,1,8,0:0:0:0:
256,192,17610,1,0,0:0:0:0:
256,192,17874,1,8,0:0:0:0:
256,192,18492,1,0,0:0:0:0:
256,192,18668,1,8,0:0:0:0:
256,192,18845,1,8,0:0:0:0:
256,192,19021,1,0,0:0:0:0:
256,192,19286,1,8,0:0:0:0:
256,192,19904,1,0,0:0:0:0:
256,192,20080,1,8,0:0:0:0:
256,192,20257,1,8,0:0:0:0:
256,192,20433,1,0,0:0:0:0:
256,192,20698,1,8,0:0:0:0:
256,192,21315,1,0,0:0:0:0:
256,192,21492,1,8,0:0:0:0:
256,192,21580,1,8,0:0:0:0:
256,192,21668,1,8,0:0:0:0:
256,192,21845,1,8,0:0:0:0:
256,192,22198,1,4,0:0:0:0:
256,192,22463,1,4,0:0:0:0:
256,192,22727,1,4,0:0:0:0:
256,192,22904,1,12,0:0:0:0:
256,192,23080,1,0,0:0:0:0:
256,192,23257,1,8,0:0:0:0:
256,192,23433,1,0,0:0:0:0:
256,192,23521,1,0,0:0:0:0:
256,192,23786,1,0,0:0:0:0:
256,192,23963,1,8,0:0:0:0:
256,192,24139,1,0,0:0:0:0:
256,192,24315,1,8,0:0:0:0:
256,192,24492,1,0,0:0:0:0:
256,192,24668,1,8,0:0:0:0:
256,192,24845,1,0,0:0:0:0:
256,192,24933,1,0,0:0:0:0:
256,192,25198,1,0,0:0:0:0:
256,192,25374,1,8,0:0:0:0:
256,192,25727,1,8,0:0:0:0:
256,192,25904,1,0,0:0:0:0:
256,192,26080,1,8,0:0:0:0:
256,192,26257,1,0,0:0:0:0:
256,192,26345,1,0,0:0:0:0:
256,192,26610,1,0,0:0:0:0:
256,192,26786,1,8,0:0:0:0:
256,192,27139,1,8,0:0:0:0:
256,192,27227,1,8,0:0:0:0:
256,192,27315,1,8,0:0:0:0:
256,192,27492,1,8,0:0:0:0:
256,192,27668,1,0,0:0:0:0:
256,192,27845,1,8,0:0:0:0:
256,192,28198,1,0,0:0:0:0:
256,192,28551,1,0,0:0:0:0:
256,192,28727,1,0,0:0:0:0:
256,192,28904,1,8,0:0:0:0:
256,192,29080,1,0,0:0:0:0:
256,192,29168,1,0,0:0:0:0:
256,192,29433,1,0,0:0:0:0:
256,192,29610,1,8,0:0:0:0:
256,192,29786,1,0,0:0:0:0:
256,192,29962,1,8,0:0:0:0:
256,192,30139,1,0,0:0:0:0:
256,192,30315,1,8,0:0:0:0:
256,192,30492,1,0,0:0:0:0:
256,192,30580,1,0,0:0:0:0:
256,192,30845,1,0,0:0:0:0:
256,192,31021,1,8,0:0:0:0:
256,192,31374,1,8,0:0:0:0:
256,192,31551,1,8,0:0:0:0:
256,192,31727,1,0,0:0:0:0:
256,192,31992,1,8,0:0:0:0:
256,192,32257,1,8,0:0:0:0:
256,192,32433,1,0,0:0:0:0:
256,192,32786,1,8,0:0:0:0:
256,192,32963,1,8,0:0:0:0:
256,192,33051,1,8,0:0:0:0:
256,192,33139,1,8,0:0:0:0:
256,192,33315,1,0,0:0:0:0:
256,192,33492,1,8,0:0:0:0:
256,192,33668,1,0,0:0:0:0:
256,192,33845,1,8,0:0:0:0:
256,192,34198,1,4,0:0:0:0:
256,192,34463,1,8,0:0:0:0:
256,192,34727,1,0,0:0:0:0:
256,192,34992,1,0,0:0:0:0:
256,192,35257,1,8,0:0:0:0:
256,192,35521,1,0,0:0:0:0:
256,192,35786,1,8,0:0:0:0:
256,192,36051,1,0,0:0:0:0:
256,192,36315,1,0,0:0:0:0:
256,192,36580,1,12,0:0:0:0:
256,192,36845,1,12,0:0:0:0:
256,192,37021,1,0,0:0:0:0:
256,192,37286,1,8,0:0:0:0:
256,192,37551,1,0,0:0:0:0:
256,192,37815,1,0,0:0:0:0:
256,192,38080,1,8,0:0:0:0:
256,192,38344,1,0,0:0:0:0:
256,192,38609,1,0,0:0:0:0:
256,192,38874,1,8,0:0:0:0:
256,192,39138,1,0,0:0:0:0:
256,192,39403,1,12,0:0:0:0:
256,192,39668,1,12,0:0:0:0:
256,192,39845,1,0,0:0:0:0:
256,192,40110,1,8,0:0:0:0:
256,192,40374,1,0,0:0:0:0:
256,192,40638,1,8,0:0:0:0:
256,192,40903,1,4,0:0:0:0:
256,192,41168,1,12,0:0:0:0:
256,192,41433,1,4,0:0:0:0:
256,192,41698,1,12,0:0:0:0:
256,192,41963,1,0,0:0:0:0:
256,192,42139,1,8,0:0:0:0:
256,192,42315,1,0,0:0:0:0:
256,192,42492,1,8,0:0:0:0:
256,192,42668,1,4,0:0:0:0:
256,192,42845,1,12,0:0:0:0:
256,192,43198,1,4,0:0:0:0:
256,192,43374,1,12,0:0:0:0:
256,192,43727,1,12,0:0:0:0:
256,192,43904,1,4,0:0:0:0:
256,192,44080,1,12,0:0:0:0:
256,192,44433,1,0,0:0:0:0:
256,192,44610,1,0,0:0:0:0:
256,192,44786,1,8,0:0:0:0:
256,192,44963,1,0,0:0:0:0:
256,192,45139,1,0,0:0:0:0:
256,192,45315,1,8,0:0:0:0:
256,192,45492,1,12,0:0:0:0:
256,192,46198,1,0,0:0:0:0:
256,192,46463,1,8,0:0:0:0:
256,192,46727,1,0,0:0:0:0:
256,192,46904,1,8,0:0:0:0:
256,192,47168,1,8,0:0:0:0:
256,192,47433,1,8,0:0:0:0:
256,192,47610,1,0,0:0:0:0:
256,192,47874,1,0,0:0:0:0:
256,192,48315,1,8,0:0:0:0:
256,192,48580,1,0,0:0:0:0:
256,192,48845,1,8,0:0:0:0:
256,192,49021,1,0,0:0:0:0:
256,192,49286,1,0,0:0:0:0:
256,192,49551,1,0,0:0:0:0:
256,192,49727,1,8,0:0:0:0:
256,192,49992,1,0,0:0:0:0:
256,192,50257,1,8,0:0:0:0:
256,192,50433,1,8,0:0:0:0:
256,192,50698,1,0,0:0:0:0:
256,192,51139,1,12,0:0:0:0:
256,192,51492,1,0,0:0:0:0:
256,192,51668,1,8,0:0:0:0:
256,192,51845,1,0,0:0:0:0:
256,192,52198,1,0,0:0:0:0:
256,192,52374,1,0,0:0:0:0:
256,192,52551,1,0,0:0:0:0:
256,192,52815,1,8,0:0:0:0:
256,192,53080,1,0,0:0:0:0:
256,192,53257,1,8,0:0:0:0:
256,192,53433,1,0,0:0:0:0:
256,192,53610,1,8,0:0:0:0:
256,192,53963,1,0,0:0:0:0:
256,192,54139,1,8,0:0:0:0:
256,192,54492,1,8,0:0:0:0:
256,192,54668,1,0,0:0:0:0:
256,192,54845,1,0,0:0:0:0:
256,192,55021,1,8,0:0:0:0:
256,192,55374,1,8,0:0:0:0:
256,192,55727,1,4,0:0:0:0:
256,192,56433,1,12,0:0:0:0:
256,192,56786,1,12,0:0:0:0:
256,192,57051,1,0,0:0:0:0:
256,192,57315,1,0,0:0:0:0:
256,192,57492,1,8,0:0:0:0:
256,192,57668,1,0,0:0:0:0:
256,192,57756,1,0,0:0:0:0:
256,192,58021,1,8,0:0:0:0:
256,192,58198,1,0,0:0:0:0:
256,192,58463,1,8,0:0:0:0:
256,192,58727,1,8,0:0:0:0:
256,192,58904,1,0,0:0:0:0:
256,192,59168,1,8,0:0:0:0:
256,192,59610,1,0,0:0:0:0:
256,192,59698,1,0,0:0:0:0:
256,192,59874,1,0,0:0:0:0:
256,192,60139,1,8,0:0:0:0:
256,192,60315,1,0,0:0:0:0:
256,192,60580,1,8,0:0:0:0:
256,192,60845,1,8,0:0:0:0:
256,192,61021,1,8,0:0:0:0:
256,192,61286,1,0,0:0:0:0:
256,192,61551,1,8,0:0:0:0:
256,192,61727,1,0,0:0:0:0:
256,192,61815,1,0,0:0:0:0:
256,192,61904,1,0,0:0:0:0:
256,192,62080,1,0,0:0:0:0:
256,192,62257,1,0,0:0:0:0:
256,192,62433,1,8,0:0:0:0:
256,192,62698,1,0,0:0:0:0:
256,192,62962,1,0,0:0:0:0:
256,192,63139,1,8,0:0:0:0:
256,192,63315,1,0,0:0:0:0:
256,192,63403,1,0,0:0:0:0:
256,192,63668,1,8,0:0:0:0:
256,192,63845,1,0,0:0:0:0:
256,192,64110,1,8,0:0:0:0:
256,192,64374,1,8,0:0:0:0:
256,192,64551,1,0,0:0:0:0:
256,192,64815,1,8,0:0:0:0:
256,192,65080,1,8,0:0:0:0:
256,192,65257,1,0,0:0:0:0:
256,192,65345,1,0,0:0:0:0:
256,192,65521,1,0,0:0:0:0:
256,192,65786,1,8,0:0:0:0:
256,192,65962,1,0,0:0:0:0:
256,192,66227,1,8,0:0:0:0:
256,192,66492,1,8,0:0:0:0:
256,192,66668,1,8,0:0:0:0:
256,192,66845,1,0,0:0:0:0:
256,192,67021,1,0,0:0:0:0:
256,192,67198,1,8,0:0:0:0:
256,192,67374,1,0,0:0:0:0:
256,192,67462,1,0,0:0:0:0:
256,192,67551,1,0,0:0:0:0:
256,192,67727,1,12,0:0:0:0:
256,192,68080,1,4,0:0:0:0:
256,192,68345,1,0,0:0:0:0:
256,192,68609,1,0,0:0:0:0:
256,192,68786,1,8,0:0:0:0:
256,192,68962,1,0,0:0:0:0:
256,192,69050,1,0,0:0:0:0:
256,192,69315,1,8,0:0:0:0:
256,192,69492,1,0,0:0:0:0:
256,192,69668,1,8,0:0:0:0:
256,192,69845,1,0,0:0:0:0:
256,192,70198,1,8,0:0:0:0:
256,192,70286,1,8,0:0:0:0:
256,192,70375,1,8,0:0:0:0:
256,192,70551,1,8,0:0:0:0:
256,192,70904,1,0,0:0:0:0:
256,192,70992,1,0,0:0:0:0:
256,192,71168,1,0,0:0:0:0:
256,192,71433,1,8,0:0:0:0:
256,192,71610,1,0,0:0:0:0:
256,192,71874,1,8,0:0:0:0:
256,192,72139,1,8,0:0:0:0:
256,192,72315,1,8,0:0:0:0:
256,192,72580,1,0,0:0:0:0:
256,192,72845,1,8,0:0:0:0:
256,192,73021,1,0,0:0:0:0:
256,192,73198,1,0,0:0:0:0:
256,192,73374,1,0,0:0:0:0:
256,192,73551,1,0,0:0:0:0:
256,192,73727,1,8,0:0:0:0:
256,192,73992,1,0,0:0:0:0:
256,192,74256,1,0,0:0:0:0:
256,192,74433,1,8,0:0:0:0:
256,192,74609,1,0,0:0:0:0:
256,192,74697,1,0,0:0:0:0:
256,192,74962,1,8,0:0:0:0:
256,192,75139,1,0,0:0:0:0:
256,192,75404,1,8,0:0:0:0:
256,192,75668,1,0,0:0:0:0:
256,192,75845,1,8,0:0:0:0:
256,192,76021,1,8,0:0:0:0:
256,192,76198,1,8,0:0:0:0:
256,192,76551,1,0,0:0:0:0:
256,192,76639,1,0,0:0:0:0:
256,192,76815,1,0,0:0:0:0:
256,192,77080,1,8,0:0:0:0:
256,192,77256,1,0,0:0:0:0:
256,192,77521,1,8,0:0:0:0:
256,192,77786,1,8,0:0:0:0:
256,192,77962,1,8,0:0:0:0:
256,192,78227,1,0,0:0:0:0:
256,192,78492,1,8,0:0:0:0:
256,192,78668,1,0,0:0:0:0:
256,192,78756,1,0,0:0:0:0:
256,192,79021,1,0,0:0:0:0:
256,192,79198,1,0,0:0:0:0:
256,192,79374,12,0,81492,0:0:0:0:
256,192,82198,5,0,0:0:0:0:
256,192,82374,1,8,0:0:0:0:
256,192,82550,1,0,0:0:0:0:
256,192,82815,1,8,0:0:0:0:
256,192,83080,1,8,0:0:0:0:
256,192,83256,1,0,0:0:0:0:
256,192,83521,1,8,0:0:0:0:
256,192,83786,1,8,0:0:0:0:
256,192,83962,1,0,0:0:0:0:
256,192,84139,1,8,0:0:0:0:
256,192,84315,1,0,0:0:0:0:
256,192,84404,1,0,0:0:0:0:
256,192,84492,1,0,0:0:0:0:
256,192,84668,1,0,0:0:0:0:
256,192,85021,1,4,0:0:0:0:
256,192,85198,1,8,0:0:0:0:
256,192,85374,1,0,0:0:0:0:
256,192,85551,1,8,0:0:0:0:
256,192,85727,1,0,0:0:0:0:
256,192,85904,1,0,0:0:0:0:
256,192,86080,1,8,0:0:0:0:
256,192,86433,1,8,0:0:0:0:
256,192,86610,1,8,0:0:0:0:
256,192,86786,1,0,0:0:0:0:
256,192,86963,1,8,0:0:0:0:
256,192,87139,1,8,0:0:0:0:
256,192,87315,1,0,0:0:0:0:
256,192,87492,1,0,0:0:0:0:
256,192,87845,1,0,0:0:0:0:
256,192,88021,1,0,0:0:0:0:
256,192,88198,1,8,0:0:0:0:
256,192,88374,1,0,0:0:0:0:
256,192,88551,1,8,0:0:0:0:
256,192,88727,1,0,0:0:0:0:
256,192,88904,1,8,0:0:0:0:
256,192,88992,1,8,0:0:0:0:
256,192,89080,1,8,0:0:0:0:
256,192,89257,1,4,0:0:0:0:
256,192,89786,1,0,0:0:0:0:
256,192,89963,1,8,0:0:0:0:
256,192,90227,1,8,0:0:0:0:
256,192,90492,1,8,0:0:0:0:
256,192,91021,1,12,0:0:0:0:
256,192,91198,1,0,0:0:0:0:
256,192,91286,1,0,0:0:0:0:
256,192,91551,1,0,0:0:0:0:
256,192,91727,1,12,0:0:0:0:
256,192,92080,1,0,0:0:0:0:
256,192,92257,1,0,0:0:0:0:
256,192,92433,1,12,0:0:0:0:
256,192,92610,1,0,0:0:0:0:
256,192,92698,1,0,0:0:0:0:
256,192,92963,1,0,0:0:0:0:
256,192,93139,1,8,0:0:0:0:
256,192,93492,1,0,0:0:0:0:
256,192,93668,1,0,0:0:0:0:
256,192,93845,1,12,0:0:0:0:
256,192,94021,1,0,0:0:0:0:
256,192,94110,1,0,0:0:0:0:
256,192,94374,1,0,0:0:0:0:
256,192,94551,1,12,0:0:0:0:
256,192,94727,1,0,0:0:0:0:
256,192,94904,1,8,0:0:0:0:
256,192,95080,1,0,0:0:0:0:
256,192,95257,1,12,0:0:0:0:
256,192,95433,1,0,0:0:0:0:
256,192,95609,1,0,0:0:0:0:
256,192,95698,1,0,0:0:0:0:
256,192,95786,1,0,0:0:0:0:
256,192,95962,1,0,0:0:0:0:
256,192,96315,1,0,0:0:0:0:
256,192,96491,1,0,0:0:0:0:
256,192,96668,1,12,0:0:0:0:
256,192,96845,1,0,0:0:0:0:
256,192,96934,1,0,0:0:0:0:
256,192,97198,1,0,0:0:0:0:
256,192,97374,1,12,0:0:0:0:
256,192,97550,1,0,0:0:0:0:
256,192,97727,1,0,0:0:0:0:
256,192,97903,1,0,0:0:0:0:
256,192,98080,1,12,0:0:0:0:
256,192,98256,1,0,0:0:0:0:
256,192,98345,1,0,0:0:0:0:
256,192,98786,1,0,0:0:0:0:
256,192,99139,1,0,0:0:0:0:
256,192,99315,1,8,0:0:0:0:
256,192,99492,1,0,0:0:0:0:
256,192,99668,1,8,0:0:0:0:
256,192,99845,1,0,0:0:0:0:
256,192,99933,1,0,0:0:0:0:
256,192,100021,1,0,0:0:0:0:
256,192,100198,1,0,0:0:0:0:
256,192,100551,1,8,0:0:0:0:
256,192,100639,1,8,0:0:0:0:
256,192,100727,1,8,0:0:0:0:
256,192,100904,1,0,0:0:0:0:
256,192,101081,1,8,0:0:0:0:
256,192,101257,1,0,0:0:0:0:
256,192,101433,1,0,0:0:0:0:
256,192,101610,1,12,0:0:0:0:
256,192,101963,1,4,0:0:0:0:
256,192,102139,1,8,0:0:0:0:
256,192,102315,1,0,0:0:0:0:
256,192,102492,1,0,0:0:0:0:
256,192,102668,1,8,0:0:0:0:
256,192,102845,1,0,0:0:0:0:
256,192,103021,1,8,0:0:0:0:
256,192,103374,1,0,0:0:0:0:
256,192,103551,1,0,0:0:0:0:
256,192,103727,1,8,0:0:0:0:
256,192,103904,1,0,0:0:0:0:
256,192,103992,1,0,0:0:0:0:
256,192,104080,1,0,0:0:0:0:
256,192,104257,1,0,0:0:0:0:
256,192,104433,1,12,0:0:0:0:
256,192,104786,1,8,0:0:0:0:
256,192,104963,1,0,0:0:0:0:
256,192,105139,1,0,0:0:0:0:
256,192,105316,1,0,0:0:0:0:
256,192,105492,1,8,0:0:0:0:
256,192,105668,1,0,0:0:0:0:
256,192,105846,1,8,0:0:0:0:
256,192,106199,1,8,0:0:0:0:
256,192,106375,1,0,0:0:0:0:
256,192,106551,1,8,0:0:0:0:
256,192,106728,1,0,0:0:0:0:
256,192,106904,1,8,0:0:0:0:
256,192,106992,1,8,0:0:0:0:
256,192,107081,1,8,0:0:0:0:
256,192,107257,1,8,0:0:0:0:
256,192,107610,1,8,0:0:0:0:
256,192,107787,1,0,0:0:0:0:
256,192,107963,1,8,0:0:0:0:
256,192,108315,1,8,0:0:0:0:
256,192,108492,1,0,0:0:0:0:
256,192,108668,1,0,0:0:0:0:
256,192,108846,1,12,0:0:0:0:
256,192,109198,1,8,0:0:0:0:
256,192,109374,1,8,0:0:0:0:
256,192,109551,1,12,0:0:0:0:
256,192,109728,1,0,0:0:0:0:
256,192,110080,1,0,0:0:0:0:
256,192,110168,1,0,0:0:0:0:
256,192,110257,1,0,0:0:0:0:
256,192,110433,1,12,0:0:0:0:
256,192,110786,1,12,0:0:0:0:
256,192,111139,1,12,0:0:0:0:
256,192,111492,1,12,0:0:0:0:
256,192,111845,1,12,0:0:0:0:
256,192,112021,1,0,0:0:0:0:
256,192,112110,1,0,0:0:0:0:
256,192,112198,1,0,0:0:0:0:
256,192,112374,1,0,0:0:0:0:
256,192,112551,1,8,0:0:0:0:
256,192,112815,1,8,0:0:0:0:
256,192,113080,1,8,0:0:0:0:
256,192,113257,1,4,0:0:0:0:
256,192,113521,1,4,0:0:0:0:
256,192,113786,1,12,0:0:0:0:
256,192,114051,1,4,0:0:0:0:
256,192,114315,1,12,0:0:0:0:
256,192,114492,1,4,0:0:0:0:
256,192,114668,1,12,0:0:0:0:
256,192,114933,1,4,0:0:0:0:
256,192,115198,1,12,0:0:0:0:
