osu file format v14

[General]
AudioFilename: Tomorrow Perfume (tpz Despair Remix) [EXH].mp3
AudioLeadIn: 0
PreviewTime: 56786
Countdown: 0
SampleSet: Normal
StackLeniency: 0.7
Mode: 1
LetterboxInBreaks: 0
WidescreenStoryboard: 0

[Editor]
Bookmarks: 5963,11610,22904,34198,45492,51139,56786,67727,68080,79374,91021,99139,101963,113257,115198
DistanceSpacing: 0.8
BeatDivisor: 2
GridSize: 8
TimelineZoom: 0.6999999

[Metadata]
Title:Tomorrow Perfume (tpz Despair Remix)
TitleUnicode:Tomorrow Perfume (tpz Despair Remix)
Artist:t+pazolite
ArtistUnicode:t+pazolite
Creator:Ayyri
Version:Kantan
Source:SOUND VOLTEX BOOTH
Tags:Q____X sdvx dj TAKA Nardoxyribonucleic
BeatmapID:961331
BeatmapSetID:447830

[Difficulty]
HPDrainRate:8
CircleSize:4
OverallDifficulty:3
ApproachRate:5
SliderMultiplier:1.4
SliderTickRate:1

[Events]
//Background and Video events
0,0,"Tomorrow Perfume 2.jpg",0,5
//Break Periods
//Storyboard Layer 0 (Background)
//Storyboard Layer 1 (Fail)
//Storyboard Layer 2 (Pass)
//Storyboard Layer 3 (Foreground)
//Storyboard Sound Samples

[TimingPoints]
316,352.941176470588,4,1,0,100,1,0
22904,-100,4,1,0,100,0,1
34198,-100,4,1,0,100,0,0
56786,-100,4,1,0,100,0,1
67727,-100,4,1,0,100,0,0
68080,-100,4,1,0,100,0,1
79374,-100,4,1,0,100,0,0
91021,-100,4,1,0,100,0,1
99139,-100,4,1,0,100,0,0
101963,-100,4,1,0,100,0,1
113257,-100,4,1,0,100,0,0

[HitObjects]
256,192,5963,5,0,0:0:0:0:
256,192,6668,1,8,0:0:0:0:
256,192,7374,1,0,0:0:0:0:
256,192,8080,1,8,0:0:0:0:
256,192,8786,1,0,0:0:0:0:
256,192,9139,1,0,0:0:0:0:
256,192,9492,1,0,0:0:0:0:
256,192,10198,1,8,0:0:0:0:
256,192,10551,1,8,0:0:0:0:
256,192,10904,1,8,0:0:0:0:
256,192,11610,1,0,0:0:0:0:
256,192,13021,1,0,0:0:0:0:
256,192,14433,1,0,0:0:0:0:
256,192,15845,1,8,0:0:0:0:
256,192,16551,1,8,0:0:0:0:
256,192,17257,1,0,0:0:0:0:
256,192,18668,1,0,0:0:0:0:
256,192,20080,1,0,0:0:0:0:
256,192,21492,1,8,0:0:0:0:
256,192,22198,1,0,0:0:0:0:
256,192,22904,1,12,0:0:0:0:
256,192,23610,1,0,0:0:0:0:
256,192,23963,1,0,0:0:0:0:
256,192,24315,1,0,0:0:0:0:
256,192,25021,1,0,0:0:0:0:
256,192,25727,1,4,0:0:0:0:
256,192,27139,1,8,0:0:0:0:
256,192,27845,1,0,0:0:0:0:
256,192,28198,1,8,0:0:0:0:
256,192,28551,1,0,0:0:0:0:
256,192,29257,1,0,0:0:0:0:
256,192,29963,1,8,0:0:0:0:
256,192,30315,1,8,0:0:0:0:
256,192,30668,1,8,0:0:0:0:
256,192,31374,1,8,0:0:0:0:
256,192,32786,1,8,0:0:0:0:
256,192,33139,1,0,0:0:0:0:
256,192,33492,1,8,0:0:0:0:
256,192,34198,1,4,0:0:0:0:
256,192,35257,1,8,0:0:0:0:
256,192,36315,1,0,0:0:0:0:
256,192,37021,1,12,0:0:0:0:
256,192,38080,1,0,0:0:0:0:
256,192,39139,1,8,0:0:0:0:
256,192,39845,1,4,0:0:0:0:
256,192,40904,1,4,0:0:0:0:
256,192,41963,1,0,0:0:0:0:
256,192,42315,1,0,0:0:0:0:
256,192,42668,1,12,0:0:0:0:
256,192,43374,1,4,0:0:0:0:
256,192,44080,1,12,0:0:0:0:
256,192,44433,1,0,0:0:0:0:
256,192,44786,1,8,0:0:0:0:
256,192,45492,1,12,0:0:0:0:
256,192,46904,1,8,0:0:0:0:
256,192,48315,1,8,0:0:0:0:
256,192,49021,1,8,0:0:0:0:
256,192,49727,1,0,0:0:0:0:
256,192,51139,1,12,0:0:0:0:
256,192,51845,1,0,0:0:0:0:
256,192,52551,1,0,0:0:0:0:
256,192,52904,1,0,0:0:0:0:
256,192,53257,1,8,0:0:0:0:
256,192,53963,1,0,0:0:0:0:
256,192,55374,1,8,0:0:0:0:
256,192,56433,1,8,0:0:0:0:
256,192,56786,1,4,0:0:0:0:
256,192,57492,1,8,0:0:0:0:
256,192,58198,1,0,0:0:0:0:
256,192,58551,1,0,0:0:0:0:
256,192,58904,1,8,0:0:0:0:
256,192,59610,1,0,0:0:0:0:
256,192,61021,1,0,0:0:0:0:
256,192,61727,1,8,0:0:0:0:
256,192,62080,1,8,0:0:0:0:
256,192,62433,1,0,0:0:0:0:
256,192,63139,1,8,0:0:0:0:
256,192,63845,1,0,0:0:0:0:
256,192,64198,1,0,0:0:0:0:
256,192,64551,1,8,0:0:0:0:
256,192,65257,1,0,0:0:0:0:
256,192,66668,1,8,0:0:0:0:
256,192,67021,1,4,0:0:0:0:
256,192,67727,1,12,0:0:0:0:
256,192,68080,1,4,0:0:0:0:
256,192,68786,1,8,0:0:0:0:
256,192,69492,1,0,0:0:0:0:
256,192,70198,1,8,0:0:0:0:
256,192,70551,1,0,0:0:0:0:
256,192,70904,1,8,0:0:0:0:
256,192,72315,1,8,0:0:0:0:
256,192,73021,1,8,0:0:0:0:
256,192,73374,1,8,0:0:0:0:
256,192,73727,1,0,0:0:0:0:
256,192,74433,1,0,0:0:0:0:
256,192,75139,1,0,0:0:0:0:
256,192,75492,1,8,0:0:0:0:
256,192,75845,1,0,0:0:0:0:
256,192,76198,1,8,0:0:0:0:
256,192,76551,1,0,0:0:0:0:
256,192,77963,1,8,0:0:0:0:
256,192,78668,1,0,0:0:0:0:
256,192,79021,1,8,0:0:0:0:
256,192,79374,1,4,0:0:0:0:
256,192,80786,1,0,0:0:0:0:
256,192,81845,1,0,0:0:0:0:
256,192,82198,1,8,0:0:0:0:
256,192,82904,1,8,0:0:0:0:
256,192,83610,1,0,0:0:0:0:
256,192,84315,1,8,0:0:0:0:
256,192,84668,1,8,0:0:0:0:
256,192,85021,1,4,0:0:0:0:
256,192,85727,1,0,0:0:0:0:
256,192,86433,1,8,0:0:0:0:
256,192,87139,1,0,0:0:0:0:
256,192,87492,1,8,0:0:0:0:
256,192,87845,1,0,0:0:0:0:
256,192,89257,1,4,0:0:0:0:
256,192,89963,1,0,0:0:0:0:
256,192,90668,1,8,0:0:0:0:
256,192,91021,1,4,0:0:0:0:
256,192,91727,1,0,0:0:0:0:
256,192,92433,1,8,0:0:0:0:
256,192,92786,1,0,0:0:0:0:
256,192,93139,1,8,0:0:0:0:
256,192,93845,1,12,0:0:0:0:
256,192,94551,1,0,0:0:0:0:
256,192,95257,1,8,0:0:0:0:
256,192,95610,1,0,0:0:0:0:
256,192,95963,1,8,0:0:0:0:
256,192,96315,1,0,0:0:0:0:
256,192,96668,1,12,0:0:0:0:
256,192,97374,1,8,0:0:0:0:
256,192,98080,1,8,0:0:0:0:
256,192,98433,1,0,0:0:0:0:
256,192,98786,1,8,0:0:0:0:
256,192,99139,1,0,0:0:0:0:
256,192,100551,1,0,0:0:0:0:
256,192,101257,1,0,0:0:0:0:
256,192,101610,1,8,0:0:0:0:
256,192,101963,1,8,0:0:0:0:
256,192,102668,1,0,0:0:0:0:
256,192,103374,1,8,0:0:0:0:
256,192,103727,1,0,0:0:0:0:
256,192,104080,1,0,0:0:0:0:
256,192,104786,1,8,0:0:0:0:
256,192,105492,1,0,0:0:0:0:
256,192,106198,1,0,0:0:0:0:
256,192,106551,1,0,0:0:0:0:
256,192,106904,1,8,0:0:0:0:
256,192,107610,1,8,0:0:0:0:
256,192,109021,1,8,0:0:0:0:
256,192,109374,1,8,0:0:0:0:
256,192,109727,1,8,0:0:0:0:
256,192,110433,1,4,0:0:0:0:
256,192,111139,1,12,0:0:0:0:
256,192,111845,1,4,0:0:0:0:
256,192,112551,1,0,0:0:0:0:
256,192,112904,1,8,0:0:0:0:
256,192,113257,1,4,0:0:0:0:
256,192,113786,1,4,0:0:0:0:
256,192,114668,1,12,0:0:0:0:
256,192,115198,1,12,0:0:0:0:
