osu file format v14

[General]
AudioFilename: Tomorrow Perfume (tpz Despair Remix) [EXH].mp3
AudioLeadIn: 0
PreviewTime: 56786
Countdown: 0
SampleSet: Normal
StackLeniency: 0.7
Mode: 1
LetterboxInBreaks: 0
WidescreenStoryboard: 0

[Editor]
Bookmarks: 5963,11610,22904,34198,45492,51139,56786,67727,68080,79374,85021,91021,99139,101963,113257,115198
DistanceSpacing: 0.8
BeatDivisor: 4
GridSize: 8
TimelineZoom: 0.8

[Metadata]
Title:Tomorrow Perfume (tpz Despair Remix)
TitleUnicode:Tomorrow Perfume (tpz Despair Remix)
Artist:t+pazolite
ArtistUnicode:t+pazolite
Creator:Ayyri
Version:Futsuu
Source:SOUND VOLTEX BOOTH
Tags:Q____X sdvx dj TAKA Nardoxyribonucleic
BeatmapID:961330
BeatmapSetID:447830

[Difficulty]
HPDrainRate:7
CircleSize:4
OverallDifficulty:4
ApproachRate:5
SliderMultiplier:1.4
SliderTickRate:1

[Events]
//Background and Video events
0,0,"Tomorrow Perfume 2.jpg",0,5
//Break Periods
//Storyboard Layer 0 (Background)
//Storyboard Layer 1 (Fail)
//Storyboard Layer 2 (Pass)
//Storyboard Layer 3 (Foreground)
//Storyboard Sound Samples

[TimingPoints]
316,352.941176470588,4,1,0,100,1,0
22904,-100,4,1,0,100,0,1
34198,-100,4,1,0,100,0,0
56786,-100,4,1,0,100,0,1
67727,-100,4,1,0,100,0,0
68080,-100,4,1,0,100,0,1
79374,-100,4,1,0,100,0,0
91021,-100,4,1,0,100,0,1
99139,-100,4,1,0,100,0,0
101963,-100,4,1,0,100,0,1
113257,-100,4,1,0,100,0,0

[HitObjects]
256,192,5963,5,0,0:0:0:0:
256,192,6315,1,8,0:0:0:0:
256,192,6668,1,0,0:0:0:0:
256,192,7021,1,8,0:0:0:0:
256,192,7374,1,0,0:0:0:0:
256,192,7727,1,8,0:0:0:0:
256,192,8080,1,0,0:0:0:0:
256,192,8786,1,0,0:0:0:0:
256,192,9139,1,0,0:0:0:0:
256,192,9316,1,0,0:0:0:0:
256,192,9492,1,8,0:0:0:0:
256,192,9845,1,0,0:0:0:0:
256,192,10198,1,8,0:0:0:0:
256,192,10551,1,0,0:0:0:0:
256,192,10727,1,0,0:0:0:0:
256,192,10904,1,8,0:0:0:0:
256,192,11080,1,8,0:0:0:0:
256,192,11257,1,0,0:0:0:0:
256,192,11610,1,8,0:0:0:0:
256,192,11963,1,0,0:0:0:0:
256,192,12227,1,8,0:0:0:0:
256,192,13021,1,8,0:0:0:0:
256,192,13374,1,0,0:0:0:0:
256,192,13638,1,8,0:0:0:0:
256,192,14433,1,8,0:0:0:0:
256,192,14786,1,0,0:0:0:0:
256,192,15050,1,8,0:0:0:0:
256,192,15845,1,8,0:0:0:0:
256,192,16198,1,8,0:0:0:0:
256,192,16462,1,8,0:0:0:0:
256,192,17257,1,8,0:0:0:0:
256,192,17610,1,0,0:0:0:0:
256,192,17874,1,8,0:0:0:0:
256,192,18668,1,8,0:0:0:0:
256,192,19021,1,0,0:0:0:0:
256,192,19285,1,8,0:0:0:0:
256,192,20080,1,8,0:0:0:0:
256,192,20433,1,0,0:0:0:0:
256,192,20697,1,8,0:0:0:0:
256,192,21492,1,8,0:0:0:0:
256,192,22198,1,0,0:0:0:0:
256,192,22904,1,12,0:0:0:0:
256,192,23257,1,0,0:0:0:0:
256,192,23610,1,8,0:0:0:0:
256,192,23786,1,8,0:0:0:0:
256,192,23963,1,0,0:0:0:0:
256,192,24315,1,8,0:0:0:0:
256,192,24668,1,0,0:0:0:0:
256,192,24845,1,0,0:0:0:0:
256,192,25021,1,8,0:0:0:0:
256,192,25727,1,8,0:0:0:0:
256,192,26080,1,0,0:0:0:0:
256,192,26433,1,8,0:0:0:0:
256,192,26610,1,8,0:0:0:0:
256,192,26786,1,0,0:0:0:0:
256,192,27139,1,8,0:0:0:0:
256,192,27492,1,8,0:0:0:0:
256,192,27668,1,8,0:0:0:0:
256,192,27845,1,8,0:0:0:0:
256,192,28551,1,8,0:0:0:0:
256,192,28904,1,0,0:0:0:0:
256,192,29257,1,8,0:0:0:0:
256,192,29433,1,8,0:0:0:0:
256,192,29610,1,0,0:0:0:0:
256,192,29962,1,8,0:0:0:0:
256,192,30315,1,0,0:0:0:0:
256,192,30492,1,0,0:0:0:0:
256,192,30668,1,8,0:0:0:0:
256,192,31374,1,0,0:0:0:0:
256,192,31551,1,0,0:0:0:0:
256,192,31727,1,0,0:0:0:0:
256,192,32080,1,8,0:0:0:0:
256,192,32256,1,8,0:0:0:0:
256,192,32433,1,8,0:0:0:0:
256,192,32786,1,0,0:0:0:0:
256,192,33139,1,0,0:0:0:0:
256,192,33492,1,8,0:0:0:0:
256,192,33845,1,8,0:0:0:0:
256,192,34198,1,4,0:0:0:0:
256,192,34727,1,0,0:0:0:0:
256,192,35257,1,8,0:0:0:0:
256,192,35786,1,0,0:0:0:0:
256,192,36492,1,12,0:0:0:0:
256,192,37021,1,4,0:0:0:0:
256,192,37551,1,0,0:0:0:0:
256,192,38080,1,8,0:0:0:0:
256,192,38610,1,0,0:0:0:0:
256,192,39315,1,12,0:0:0:0:
256,192,39845,1,0,0:0:0:0:
256,192,40110,1,8,0:0:0:0:
256,192,40375,1,0,0:0:0:0:
256,192,40904,1,0,0:0:0:0:
256,192,41169,1,8,0:0:0:0:
256,192,41433,1,0,0:0:0:0:
256,192,41963,1,0,0:0:0:0:
256,192,42315,1,0,0:0:0:0:
256,192,42668,1,12,0:0:0:0:
256,192,43021,1,12,0:0:0:0:
256,192,43374,1,12,0:0:0:0:
256,192,43727,1,4,0:0:0:0:
256,192,44080,1,12,0:0:0:0:
256,192,44433,1,0,0:0:0:0:
256,192,44786,1,8,0:0:0:0:
256,192,45139,1,8,0:0:0:0:
256,192,45492,1,4,0:0:0:0:
256,192,46198,1,0,0:0:0:0:
256,192,46904,1,8,0:0:0:0:
256,192,47610,1,0,0:0:0:0:
256,192,48315,1,8,0:0:0:0:
256,192,49021,1,8,0:0:0:0:
256,192,49374,1,8,0:0:0:0:
256,192,49727,1,8,0:0:0:0:
256,192,50433,1,0,0:0:0:0:
256,192,51139,1,12,0:0:0:0:
256,192,51845,1,0,0:0:0:0:
256,192,52198,1,8,0:0:0:0:
256,192,52551,1,0,0:0:0:0:
256,192,52904,1,0,0:0:0:0:
256,192,53257,1,8,0:0:0:0:
256,192,53963,1,0,0:0:0:0:
256,192,54139,1,0,0:0:0:0:
256,192,54315,1,8,0:0:0:0:
256,192,54668,1,0,0:0:0:0:
256,192,55374,1,8,0:0:0:0:
256,192,55727,1,0,0:0:0:0:
256,192,56080,1,0,0:0:0:0:
256,192,56433,1,8,0:0:0:0:
256,192,56786,1,4,0:0:0:0:
256,192,57492,1,0,0:0:0:0:
256,192,57668,1,0,0:0:0:0:
256,192,57845,1,0,0:0:0:0:
256,192,58198,1,8,0:0:0:0:
256,192,58904,1,0,0:0:0:0:
256,192,59080,1,0,0:0:0:0:
256,192,59257,1,8,0:0:0:0:
256,192,59610,1,8,0:0:0:0:
256,192,60315,1,8,0:0:0:0:
256,192,60492,1,8,0:0:0:0:
256,192,60668,1,0,0:0:0:0:
256,192,61021,1,8,0:0:0:0:
256,192,61727,1,0,0:0:0:0:
256,192,61904,1,0,0:0:0:0:
256,192,62080,1,0,0:0:0:0:
256,192,62257,1,0,0:0:0:0:
256,192,62433,1,8,0:0:0:0:
256,192,63139,1,8,0:0:0:0:
256,192,63315,1,0,0:0:0:0:
256,192,63492,1,8,0:0:0:0:
256,192,63845,1,0,0:0:0:0:
256,192,64551,1,8,0:0:0:0:
256,192,64727,1,0,0:0:0:0:
256,192,64904,1,8,0:0:0:0:
256,192,65257,1,8,0:0:0:0:
256,192,65963,1,8,0:0:0:0:
256,192,66315,1,0,0:0:0:0:
256,192,66492,1,0,0:0:0:0:
256,192,66668,1,8,0:0:0:0:
256,192,67021,1,4,0:0:0:0:
256,192,67374,1,8,0:0:0:0:
256,192,67727,1,4,0:0:0:0:
256,192,68080,1,8,0:0:0:0:
256,192,68257,1,0,0:0:0:0:
256,192,68433,1,8,0:0:0:0:
256,192,68786,1,0,0:0:0:0:
256,192,69492,1,0,0:0:0:0:
256,192,69668,1,0,0:0:0:0:
256,192,69845,1,0,0:0:0:0:
256,192,70198,1,8,0:0:0:0:
256,192,70551,1,8,0:0:0:0:
256,192,70904,1,8,0:0:0:0:
256,192,71610,1,0,0:0:0:0:
256,192,71963,1,8,0:0:0:0:
256,192,72315,1,0,0:0:0:0:
256,192,73021,1,0,0:0:0:0:
256,192,73198,1,0,0:0:0:0:
256,192,73374,1,0,0:0:0:0:
256,192,73551,1,0,0:0:0:0:
256,192,73727,1,8,0:0:0:0:
256,192,74433,1,0,0:0:0:0:
256,192,74610,1,0,0:0:0:0:
256,192,74786,1,8,0:0:0:0:
256,192,75139,1,0,0:0:0:0:
256,192,75492,1,8,0:0:0:0:
256,192,75845,1,0,0:0:0:0:
256,192,76198,1,8,0:0:0:0:
256,192,76374,1,8,0:0:0:0:
256,192,76551,1,0,0:0:0:0:
256,192,77257,1,0,0:0:0:0:
256,192,77610,1,8,0:0:0:0:
256,192,77963,1,8,0:0:0:0:
256,192,78315,1,0,0:0:0:0:
256,192,78668,1,8,0:0:0:0:
256,192,78845,1,0,0:0:0:0:
256,192,79021,1,8,0:0:0:0:
256,192,79374,1,12,0:0:0:0:
256,192,80080,1,0,0:0:0:0:
256,192,80786,1,8,0:0:0:0:
256,192,81492,1,0,0:0:0:0:
256,192,81845,1,8,0:0:0:0:
256,192,82021,1,8,0:0:0:0:
256,192,82198,1,0,0:0:0:0:
256,192,82551,1,8,0:0:0:0:
256,192,82904,1,0,0:0:0:0:
256,192,83257,1,8,0:0:0:0:
256,192,83963,1,0,0:0:0:0:
256,192,84315,1,8,0:0:0:0:
256,192,84492,1,0,0:0:0:0:
256,192,84668,1,8,0:0:0:0:
256,192,85021,1,12,0:0:0:0:
256,192,85727,1,0,0:0:0:0:
256,192,86080,1,8,0:0:0:0:
256,192,86433,1,0,0:0:0:0:
256,192,86610,1,0,0:0:0:0:
256,192,86786,1,8,0:0:0:0:
256,192,87139,1,0,0:0:0:0:
256,192,87492,1,8,0:0:0:0:
256,192,87668,1,0,0:0:0:0:
256,192,87845,1,8,0:0:0:0:
256,192,88198,1,0,0:0:0:0:
256,192,88551,1,0,0:0:0:0:
256,192,88904,1,8,0:0:0:0:
256,192,89257,1,12,0:0:0:0:
256,192,89963,1,0,0:0:0:0:
256,192,90668,1,8,0:0:0:0:
256,192,91021,1,4,0:0:0:0:
256,192,91727,1,4,0:0:0:0:
256,192,92433,1,12,0:0:0:0:
256,192,92786,1,0,0:0:0:0:
256,192,92963,1,0,0:0:0:0:
256,192,93139,1,8,0:0:0:0:
256,192,93492,1,0,0:0:0:0:
256,192,93845,1,12,0:0:0:0:
256,192,94551,1,4,0:0:0:0:
256,192,94904,1,8,0:0:0:0:
256,192,95257,1,4,0:0:0:0:
256,192,95610,1,8,0:0:0:0:
256,192,95786,1,8,0:0:0:0:
256,192,95963,1,8,0:0:0:0:
256,192,96315,1,0,0:0:0:0:
256,192,96668,1,12,0:0:0:0:
256,192,97374,1,12,0:0:0:0:
256,192,97727,1,0,0:0:0:0:
256,192,98080,1,12,0:0:0:0:
256,192,98433,1,0,0:0:0:0:
256,192,98610,1,0,0:0:0:0:
256,192,98786,1,0,0:0:0:0:
256,192,99139,1,8,0:0:0:0:
256,192,99492,1,0,0:0:0:0:
256,192,99845,1,8,0:0:0:0:
256,192,100198,1,0,0:0:0:0:
256,192,100551,1,8,0:0:0:0:
256,192,100727,1,0,0:0:0:0:
256,192,100904,1,8,0:0:0:0:
256,192,101257,1,0,0:0:0:0:
256,192,101610,1,12,0:0:0:0:
256,192,101963,1,4,0:0:0:0:
256,192,102668,1,0,0:0:0:0:
256,192,103021,1,0,0:0:0:0:
256,192,103374,1,8,0:0:0:0:
256,192,103727,1,0,0:0:0:0:
256,192,103904,1,0,0:0:0:0:
256,192,104080,1,0,0:0:0:0:
256,192,104433,1,12,0:0:0:0:
256,192,104786,1,0,0:0:0:0:
256,192,105492,1,0,0:0:0:0:
256,192,105845,1,0,0:0:0:0:
256,192,106198,1,8,0:0:0:0:
256,192,106374,1,0,0:0:0:0:
256,192,106551,1,0,0:0:0:0:
256,192,106904,1,0,0:0:0:0:
256,192,107257,1,8,0:0:0:0:
256,192,107433,1,0,0:0:0:0:
256,192,107610,1,8,0:0:0:0:
256,192,108315,1,0,0:0:0:0:
256,192,108668,1,0,0:0:0:0:
256,192,109021,1,8,0:0:0:0:
256,192,109198,1,0,0:0:0:0:
256,192,109374,1,8,0:0:0:0:
256,192,109727,1,0,0:0:0:0:
256,192,110080,1,8,0:0:0:0:
256,192,110433,1,4,0:0:0:0:
256,192,110786,1,0,0:0:0:0:
256,192,111139,1,12,0:0:0:0:
256,192,111492,1,0,0:0:0:0:
256,192,111845,1,4,0:0:0:0:
256,192,112198,1,8,0:0:0:0:
256,192,112374,1,8,0:0:0:0:
256,192,112551,1,0,0:0:0:0:
256,192,112727,1,0,0:0:0:0:
256,192,112904,1,0,0:0:0:0:
256,192,113257,1,12,0:0:0:0:
256,192,113786,1,12,0:0:0:0:
256,192,114315,1,12,0:0:0:0:
256,192,114668,1,12,0:0:0:0:
256,192,114933,1,4,0:0:0:0:
256,192,115198,1,12,0:0:0:0:
