osu file format v14

[General]
AudioFilename: Tempestissimo.mp3
AudioLeadIn: 0
PreviewTime: 84821
Countdown: 0
SampleSet: Normal
StackLeniency: 0.7
Mode: 1
LetterboxInBreaks: 0
EpilepsyWarning: 1
WidescreenStoryboard: 1

[Editor]
DistanceSpacing: 2.4
BeatDivisor: 4
GridSize: 32
TimelineZoom: 1.089803

[Metadata]
Title:Tempestissimo
TitleUnicode:Tempestissimo
Artist:t+pazolite
ArtistUnicode:t+pazolite
Creator:Kuo Kyoka
Version:Raytoly's Muzukashii
Source:Arcaea
Tags:lowiro Black Fate Chapter IV 対立 Tairitsu Speedcore Video Game Instrumental Anomaly Heartache Debug Critical_Star Ichigaki Dellvangel Amaryllis taiko_maniac1811 Raytoly Rhytoly Akasha
BeatmapID:2563726
BeatmapSetID:1179815

[Difficulty]
HPDrainRate:6.5
CircleSize:4
OverallDifficulty:5
ApproachRate:5
SliderMultiplier:1.4
SliderTickRate:1

[Events]
//Background and Video events
0,0,"connect.jpg",0,240
//Break Periods
//Storyboard Layer 0 (Background)
//Storyboard Layer 1 (Fail)
//Storyboard Layer 2 (Pass)
//Storyboard Layer 3 (Foreground)
Sprite,Foreground,Centre,"SB\vig.png",320,240 M,0,84821,,320,240 S,0,84821,,0.45 F,0,84821,86899,0,0.8
Animation,Foreground,Centre,"sb\static-.jpg",320,240,4,20,LoopForever M,0,134692,,320,240 S,0,134692,,0.675 F,0,134692,137549,0,0.3
//Storyboard Layer 4 (Overlay)
//Storyboard Sound Samples

[TimingPoints]
1705,259.74025974026,4,1,0,20,1,0
18328,-100,4,1,0,100,0,0
26640,-100,4,1,0,100,0,1
51575,-100,4,1,0,100,0,0
80666,-100,4,1,0,100,0,1
84821,-100,4,1,0,100,0,0
85081,-100,4,1,0,20,0,0
86899,-100,4,1,0,100,0,1
88458,-100,4,1,0,100,0,0
88977,-100,4,1,0,100,0,1
101445,-100,4,1,0,100,0,0
105601,-100,4,1,0,100,0,1
126380,-100,4,1,0,100,0,0
130536,-100,4,1,0,100,0,1
133653,-100,4,1,0,100,0,0
136769,-100,4,1,0,100,0,1
137029,-100,4,1,0,100,0,0

[HitObjects]
194,235,1705,5,0,0:0:0:0:
194,235,3782,1,0,0:0:0:0:
221,166,4302,1,8,0:0:0:0:
221,166,4821,1,8,0:0:0:0:
221,166,5341,1,0,0:0:0:0:
221,166,5860,1,0,0:0:0:0:
223,195,7938,1,0,0:0:0:0:
223,195,8977,1,0,0:0:0:0:
223,195,10016,1,0,0:0:0:0:
223,189,12094,1,0,0:0:0:0:
223,189,12614,1,8,0:0:0:0:
223,189,13133,1,8,0:0:0:0:
223,189,13653,1,0,0:0:0:0:
223,189,14172,1,0,0:0:0:0:
215,210,15211,1,0,0:0:0:0:
256,192,16250,12,0,18068,0:0:0:0:
252,222,18328,5,4,0:0:0:0:
252,222,18458,1,4,0:0:0:0:
244,167,19627,1,8,0:0:0:0:
236,165,19756,1,0,0:0:0:0:
244,167,19821,1,0,0:0:0:0:
260,217,19886,1,0,0:0:0:0:
260,217,20016,1,0,0:0:0:0:
260,217,20146,1,8,0:0:0:0:
251,227,20406,1,4,0:0:0:0:
251,227,20536,1,4,0:0:0:0:
211,145,21445,1,4,0:0:0:0:
282,168,21705,1,0,0:0:0:0:
282,168,21834,1,0,0:0:0:0:
282,168,21964,1,8,0:0:0:0:
282,168,22094,1,0,0:0:0:0:
282,168,22159,1,0,0:0:0:0:
256,162,22224,1,0,0:0:0:0:
235,157,22354,1,8,0:0:0:0:
238,158,22484,1,4,0:0:0:0:
211,197,22743,1,8,0:0:0:0:
211,197,23003,1,8,0:0:0:0:
211,197,23263,1,8,0:0:0:0:
211,197,23523,1,8,0:0:0:0:
211,197,23782,1,8,0:0:0:0:
211,197,24042,1,8,0:0:0:0:
211,197,24302,1,8,0:0:0:0:
211,197,24562,1,0,0:0:0:0:
189,212,24692,1,0,0:0:0:0:
189,212,24821,1,8,0:0:0:0:
189,212,24951,1,0,0:0:0:0:
189,212,25081,1,8,0:0:0:0:
189,212,25211,1,8,0:0:0:0:
189,212,25341,1,0,0:0:0:0:
189,212,25471,1,8,0:0:0:0:
317,174,25601,1,0,0:0:0:0:
317,174,25666,1,0,0:0:0:0:
317,174,25730,1,0,0:0:0:0:
317,174,25860,1,8,0:0:0:0:
317,174,25990,1,8,0:0:0:0:
317,174,26120,1,4,0:0:0:0:
252,217,26640,1,4,0:0:0:0:
258,215,26899,1,8,0:0:0:0:
270,186,27159,1,8,0:0:0:0:
258,144,27354,1,8,0:0:0:0:
258,144,27549,1,0,0:0:0:0:
224,154,27808,1,0,0:0:0:0:
126,149,27873,1,0,0:0:0:0:
158,157,27938,1,0,0:0:0:0:
202,158,28068,1,8,0:0:0:0:
203,158,28198,1,0,0:0:0:0:
203,158,28328,1,0,0:0:0:0:
203,158,28458,1,8,0:0:0:0:
239,122,28588,1,8,0:0:0:0:
203,158,28717,1,0,0:0:0:0:
242,148,28977,1,8,0:0:0:0:
242,148,29237,1,0,0:0:0:0:
242,148,29432,1,8,0:0:0:0:
242,148,29627,1,0,0:0:0:0:
168,178,29886,1,0,0:0:0:0:
183,189,29951,1,0,0:0:0:0:
183,189,30016,1,0,0:0:0:0:
183,189,30146,1,8,0:0:0:0:
183,189,30276,1,0,0:0:0:0:
183,189,30666,1,8,0:0:0:0:
183,189,30795,1,0,0:0:0:0:
236,189,31055,1,8,0:0:0:0:
236,189,31315,1,0,0:0:0:0:
236,189,31510,1,0,0:0:0:0:
236,189,31705,1,8,0:0:0:0:
227,158,31964,1,8,0:0:0:0:
227,158,32029,1,8,0:0:0:0:
227,158,32094,1,8,0:0:0:0:
227,158,32224,1,0,0:0:0:0:
227,158,32354,1,8,0:0:0:0:
227,158,32484,1,0,0:0:0:0:
227,158,32614,1,0,0:0:0:0:
227,158,32743,1,8,0:0:0:0:
227,158,32873,1,0,0:0:0:0:
255,139,33133,1,8,0:0:0:0:
261,147,33393,1,0,0:0:0:0:
261,147,33588,1,8,0:0:0:0:
261,147,33782,1,8,0:0:0:0:
235,115,33912,1,0,0:0:0:0:
244,163,34042,1,8,0:0:0:0:
244,163,34107,1,8,0:0:0:0:
244,163,34172,1,8,0:0:0:0:
159,163,34302,1,8,0:0:0:0:
236,151,34432,1,0,0:0:0:0:
216,188,34951,1,4,0:0:0:0:
248,224,35211,1,8,0:0:0:0:
241,220,35471,1,8,0:0:0:0:
241,220,35666,1,8,0:0:0:0:
241,220,35860,1,0,0:0:0:0:
202,181,36120,1,8,0:0:0:0:
202,181,36185,1,8,0:0:0:0:
202,181,36250,1,8,0:0:0:0:
202,181,36380,1,8,0:0:0:0:
202,181,36510,1,0,0:0:0:0:
202,181,36640,1,0,0:0:0:0:
202,181,36769,1,8,0:0:0:0:
236,182,37029,1,4,0:0:0:0:
273,176,37289,1,8,0:0:0:0:
273,176,37549,1,8,0:0:0:0:
273,176,37743,1,8,0:0:0:0:
273,176,37938,1,0,0:0:0:0:
221,182,38198,1,0,0:0:0:0:
221,182,38263,1,0,0:0:0:0:
221,182,38328,1,0,0:0:0:0:
221,182,38458,1,8,0:0:0:0:
221,182,38588,1,0,0:0:0:0:
263,159,38717,1,8,0:0:0:0:
263,159,38782,1,8,0:0:0:0:
263,159,38847,1,8,0:0:0:0:
162,167,39107,1,4,0:0:0:0:
243,167,39367,1,8,0:0:0:0:
268,157,39627,1,8,0:0:0:0:
235,152,39821,1,8,0:0:0:0:
235,152,40016,1,0,0:0:0:0:
285,163,40276,1,0,0:0:0:0:
285,163,40341,1,0,0:0:0:0:
285,163,40406,1,0,0:0:0:0:
285,163,40536,1,8,0:0:0:0:
285,163,40666,1,0,0:0:0:0:
289,154,41185,1,8,0:0:0:0:
166,167,41445,1,0,0:0:0:0:
215,167,41575,1,0,0:0:0:0:
215,167,41705,1,8,0:0:0:0:
275,175,41834,1,0,0:0:0:0:
275,175,41899,1,0,0:0:0:0:
275,175,41964,1,0,0:0:0:0:
275,175,42094,1,8,0:0:0:0:
251,160,42354,1,0,0:0:0:0:
251,160,42419,1,0,0:0:0:0:
246,160,42484,1,0,0:0:0:0:
306,154,42614,1,0,0:0:0:0:
306,154,42743,1,8,0:0:0:0:
306,154,42873,1,0,0:0:0:0:
306,154,43003,1,8,0:0:0:0:
306,154,43068,1,8,0:0:0:0:
306,154,43133,1,8,0:0:0:0:
253,140,43263,1,4,0:0:0:0:
246,198,43393,1,4,0:0:0:0:
193,240,43653,1,0,0:0:0:0:
196,227,43912,1,0,0:0:0:0:
211,212,44172,1,0,0:0:0:0:
307,149,44237,1,0,0:0:0:0:
307,149,44302,1,0,0:0:0:0:
286,192,44432,1,8,0:0:0:0:
271,192,44562,1,0,0:0:0:0:
291,174,44821,1,12,0:0:0:0:
245,171,45081,1,12,0:0:0:0:
284,172,45341,1,4,0:0:0:0:
284,172,45471,1,4,0:0:0:0:
266,200,45730,1,0,0:0:0:0:
258,182,45990,1,0,0:0:0:0:
191,88,46120,1,8,0:0:0:0:
258,182,46250,1,0,0:0:0:0:
258,182,46640,1,0,0:0:0:0:
240,175,46899,1,4,0:0:0:0:
240,175,47159,1,4,0:0:0:0:
235,174,47419,1,4,0:0:0:0:
308,187,47549,1,4,0:0:0:0:
271,179,47808,1,0,0:0:0:0:
271,179,48068,1,0,0:0:0:0:
214,156,48328,1,0,0:0:0:0:
291,148,48393,1,0,0:0:0:0:
232,129,48458,1,0,0:0:0:0:
276,133,48588,1,8,0:0:0:0:
214,156,48717,1,0,0:0:0:0:
241,161,48977,1,12,0:0:0:0:
241,161,49237,1,12,0:0:0:0:
241,161,49497,1,4,0:0:0:0:
241,161,49627,1,4,0:0:0:0:
241,161,49886,1,0,0:0:0:0:
241,161,50146,1,0,0:0:0:0:
241,161,50276,1,8,0:0:0:0:
241,161,50406,1,0,0:0:0:0:
224,202,50795,1,0,0:0:0:0:
194,187,51055,1,4,0:0:0:0:
194,187,51315,1,4,0:0:0:0:
155,147,51575,1,4,0:0:0:0:
223,187,52614,1,0,0:0:0:0:
192,197,53133,1,8,0:0:0:0:
192,197,53393,1,8,0:0:0:0:
192,197,53653,1,0,0:0:0:0:
192,197,54172,1,8,0:0:0:0:
192,197,54692,1,0,0:0:0:0:
192,197,55211,1,8,0:0:0:0:
192,197,55471,1,8,0:0:0:0:
192,197,55730,1,0,0:0:0:0:
206,196,55990,1,8,0:0:0:0:
206,196,56250,1,0,0:0:0:0:
206,196,56510,1,8,0:0:0:0:
206,196,56769,1,0,0:0:0:0:
206,196,57029,1,8,0:0:0:0:
206,196,57289,1,0,0:0:0:0:
206,196,57549,1,8,0:0:0:0:
206,196,57808,1,0,0:0:0:0:
302,174,57938,1,0,0:0:0:0:
341,181,58068,1,8,0:0:0:0:
267,199,58198,1,8,0:0:0:0:
267,199,58328,1,0,0:0:0:0:
267,199,58458,1,0,0:0:0:0:
267,199,58588,1,8,0:0:0:0:
267,199,58717,1,8,0:0:0:0:
306,181,58847,1,0,0:0:0:0:
306,181,58977,1,8,0:0:0:0:
306,181,59042,1,8,0:0:0:0:
306,181,59107,1,8,0:0:0:0:
252,164,59237,1,8,0:0:0:0:
246,218,59367,1,4,0:0:0:0:
209,162,59886,1,4,0:0:0:0:
256,135,60146,1,8,0:0:0:0:
311,137,60211,1,8,0:0:0:0:
311,137,60276,1,8,0:0:0:0:
311,137,60406,1,0,0:0:0:0:
246,170,60666,1,0,0:0:0:0:
246,170,60795,1,8,0:0:0:0:
165,226,61055,1,0,0:0:0:0:
165,226,61120,1,0,0:0:0:0:
165,226,61185,1,0,0:0:0:0:
180,208,61315,1,8,0:0:0:0:
180,208,61445,1,0,0:0:0:0:
180,208,61575,1,0,0:0:0:0:
180,208,61705,1,8,0:0:0:0:
193,152,61964,1,0,0:0:0:0:
251,157,62224,1,8,0:0:0:0:
251,157,62289,1,8,0:0:0:0:
251,157,62354,1,8,0:0:0:0:
251,157,62484,1,0,0:0:0:0:
251,157,62614,1,0,0:0:0:0:
251,157,62743,1,8,0:0:0:0:
251,157,62873,1,0,0:0:0:0:
210,210,63263,1,8,0:0:0:0:
210,210,63523,1,8,0:0:0:0:
210,210,63782,1,8,0:0:0:0:
210,210,64042,1,0,0:0:0:0:
295,189,64302,1,8,0:0:0:0:
228,177,64367,1,8,0:0:0:0:
295,189,64432,1,8,0:0:0:0:
295,189,64562,1,0,0:0:0:0:
295,189,64821,1,0,0:0:0:0:
295,189,64951,1,8,0:0:0:0:
294,200,65211,1,0,0:0:0:0:
294,200,65276,1,0,0:0:0:0:
294,200,65341,1,0,0:0:0:0:
294,200,65471,1,8,0:0:0:0:
294,200,65601,1,0,0:0:0:0:
294,200,65860,1,8,0:0:0:0:
220,187,66120,1,0,0:0:0:0:
247,192,66380,1,8,0:0:0:0:
247,192,66445,1,8,0:0:0:0:
247,192,66510,1,8,0:0:0:0:
247,192,66640,1,0,0:0:0:0:
284,157,66769,1,8,0:0:0:0:
284,157,66899,1,8,0:0:0:0:
252,157,67029,1,0,0:0:0:0:
208,155,67289,1,0,0:0:0:0:
208,155,67354,1,0,0:0:0:0:
208,155,67419,1,0,0:0:0:0:
208,155,67549,1,0,0:0:0:0:
208,155,67679,1,8,0:0:0:0:
281,161,68198,1,4,0:0:0:0:
248,184,68458,1,8,0:0:0:0:
248,184,68717,1,0,0:0:0:0:
201,168,68847,1,0,0:0:0:0:
220,172,68977,1,8,0:0:0:0:
236,170,69237,1,0,0:0:0:0:
233,157,69367,1,8,0:0:0:0:
233,157,69432,1,8,0:0:0:0:
233,157,69497,1,8,0:0:0:0:
233,157,69627,1,8,0:0:0:0:
233,157,69756,1,0,0:0:0:0:
233,157,69886,1,0,0:0:0:0:
201,169,70016,1,8,0:0:0:0:
258,155,70276,1,0,0:0:0:0:
258,155,70406,1,0,0:0:0:0:
258,155,70536,1,8,0:0:0:0:
241,128,70795,1,0,0:0:0:0:
241,128,70925,1,0,0:0:0:0:
241,128,71055,1,8,0:0:0:0:
241,128,71185,1,0,0:0:0:0:
174,168,71575,1,8,0:0:0:0:
271,143,71834,1,8,0:0:0:0:
163,85,72094,1,8,0:0:0:0:
271,143,72354,1,0,0:0:0:0:
240,176,72614,1,8,0:0:0:0:
290,167,72743,1,8,0:0:0:0:
290,167,72873,1,0,0:0:0:0:
251,156,73133,1,8,0:0:0:0:
213,152,73263,1,0,0:0:0:0:
251,156,73523,1,8,0:0:0:0:
251,156,73588,1,8,0:0:0:0:
251,156,73653,1,8,0:0:0:0:
268,163,73782,1,8,0:0:0:0:
268,163,73912,1,0,0:0:0:0:
268,163,74042,1,0,0:0:0:0:
268,163,74172,1,8,0:0:0:0:
248,182,74432,1,0,0:0:0:0:
241,167,74562,1,8,0:0:0:0:
241,167,74692,1,0,0:0:0:0:
241,167,74821,1,8,0:0:0:0:
241,167,74951,1,0,0:0:0:0:
241,167,75081,1,8,0:0:0:0:
241,167,75211,1,0,0:0:0:0:
146,138,75341,1,8,0:0:0:0:
281,167,75601,1,8,0:0:0:0:
281,167,75666,1,8,0:0:0:0:
281,167,75730,1,8,0:0:0:0:
269,164,75860,1,8,0:0:0:0:
201,174,76510,1,0,0:0:0:0:
244,165,76640,1,0,0:0:0:0:
244,165,76769,1,0,0:0:0:0:
244,165,76899,1,0,0:0:0:0:
244,165,77029,1,8,0:0:0:0:
244,165,77159,1,8,0:0:0:0:
244,165,77289,1,8,0:0:0:0:
244,165,77419,1,8,0:0:0:0:
244,165,77549,1,0,0:0:0:0:
279,171,78068,1,8,0:0:0:0:
279,171,78328,1,0,0:0:0:0:
328,175,78588,1,8,0:0:0:0:
328,175,78717,1,8,0:0:0:0:
328,175,78847,1,8,0:0:0:0:
328,175,78977,1,8,0:0:0:0:
328,175,79107,1,0,0:0:0:0:
328,175,79237,1,0,0:0:0:0:
328,175,79367,1,0,0:0:0:0:
328,175,79497,1,0,0:0:0:0:
281,174,79627,1,8,0:0:0:0:
256,185,80146,1,12,0:0:0:0:
244,241,80666,1,4,0:0:0:0:
257,222,80925,1,8,0:0:0:0:
257,222,81185,1,0,0:0:0:0:
301,183,81315,1,0,0:0:0:0:
294,196,81445,1,8,0:0:0:0:
294,196,81575,1,0,0:0:0:0:
294,196,81834,1,8,0:0:0:0:
244,192,81899,1,8,0:0:0:0:
244,192,81964,1,8,0:0:0:0:
244,192,82094,1,8,0:0:0:0:
244,192,82224,1,0,0:0:0:0:
244,192,82354,1,0,0:0:0:0:
244,192,82484,1,8,0:0:0:0:
244,192,82743,1,0,0:0:0:0:
293,180,82873,1,0,0:0:0:0:
293,180,83003,1,8,0:0:0:0:
293,180,83133,1,0,0:0:0:0:
293,180,83263,1,8,0:0:0:0:
293,180,83393,1,8,0:0:0:0:
293,180,83523,1,0,0:0:0:0:
293,180,83653,1,8,0:0:0:0:
293,180,83782,1,0,0:0:0:0:
293,180,83847,1,0,0:0:0:0:
293,180,83912,1,0,0:0:0:0:
293,180,84042,1,8,0:0:0:0:
293,180,84172,1,8,0:0:0:0:
293,180,84302,1,0,0:0:0:0:
293,180,84367,1,0,0:0:0:0:
293,180,84432,1,0,0:0:0:0:
293,180,84562,1,8,0:0:0:0:
293,180,84692,1,8,0:0:0:0:
293,180,84821,1,0,0:0:0:0:
281,172,86899,1,4,0:0:0:0:
280,179,87419,1,12,0:0:0:0:
280,179,87938,1,12,0:0:0:0:
280,179,88458,1,4,0:0:0:0:
234,224,88977,1,4,0:0:0:0:
237,183,89237,1,8,0:0:0:0:
242,185,89367,1,0,0:0:0:0:
242,185,89432,1,0,0:0:0:0:
242,185,89497,1,0,0:0:0:0:
242,185,89627,1,0,0:0:0:0:
242,185,89756,1,8,0:0:0:0:
242,185,89886,1,8,0:0:0:0:
242,185,90016,1,0,0:0:0:0:
206,228,90276,1,8,0:0:0:0:
206,228,90536,1,8,0:0:0:0:
206,228,90795,1,0,0:0:0:0:
206,228,91055,1,0,0:0:0:0:
321,195,91185,1,8,0:0:0:0:
321,195,91250,1,8,0:0:0:0:
321,195,91315,1,8,0:0:0:0:
321,195,91445,1,8,0:0:0:0:
321,195,91575,1,0,0:0:0:0:
321,195,91705,1,8,0:0:0:0:
321,195,91769,1,8,0:0:0:0:
321,195,91834,1,8,0:0:0:0:
321,195,91964,1,8,0:0:0:0:
321,195,92094,1,0,0:0:0:0:
257,192,92354,1,0,0:0:0:0:
257,192,92614,1,8,0:0:0:0:
257,192,92808,1,8,0:0:0:0:
257,192,93003,1,8,0:0:0:0:
257,192,93133,1,0,0:0:0:0:
241,209,93393,1,8,0:0:0:0:
241,209,93782,1,0,0:0:0:0:
241,209,93912,1,8,0:0:0:0:
293,208,94042,1,8,0:0:0:0:
270,204,94172,1,0,0:0:0:0:
208,187,94432,1,8,0:0:0:0:
224,194,94562,1,8,0:0:0:0:
224,194,94692,1,0,0:0:0:0:
224,194,94756,1,0,0:0:0:0:
224,194,94821,1,0,0:0:0:0:
224,194,94951,1,8,0:0:0:0:
224,194,95081,1,8,0:0:0:0:
224,194,95211,1,0,0:0:0:0:
284,162,95471,1,8,0:0:0:0:
269,172,95730,1,0,0:0:0:0:
269,172,95860,1,0,0:0:0:0:
269,172,95990,1,8,0:0:0:0:
288,189,96250,1,0,0:0:0:0:
288,193,96380,1,8,0:0:0:0:
288,193,96445,1,8,0:0:0:0:
288,193,96510,1,8,0:0:0:0:
277,192,96640,1,8,0:0:0:0:
277,192,96769,1,0,0:0:0:0:
312,143,96899,1,0,0:0:0:0:
227,175,97029,1,8,0:0:0:0:
227,175,97289,1,4,0:0:0:0:
230,137,97549,1,0,0:0:0:0:
235,164,97679,1,8,0:0:0:0:
235,164,97808,1,0,0:0:0:0:
235,164,97938,1,0,0:0:0:0:
235,164,98068,1,12,0:0:0:0:
297,164,98328,1,4,0:0:0:0:
298,170,98588,1,8,0:0:0:0:
298,170,98717,1,0,0:0:0:0:
211,171,98847,1,8,0:0:0:0:
193,191,99367,1,0,0:0:0:0:
193,191,99497,1,0,0:0:0:0:
193,191,99627,1,0,0:0:0:0:
193,191,99756,1,0,0:0:0:0:
194,191,99886,1,8,0:0:0:0:
193,191,100016,1,8,0:0:0:0:
193,191,100146,1,8,0:0:0:0:
193,191,100276,1,8,0:0:0:0:
193,191,100406,1,0,0:0:0:0:
231,234,100666,1,0,0:0:0:0:
215,226,100925,1,8,0:0:0:0:
215,226,101120,1,8,0:0:0:0:
215,226,101315,1,8,0:0:0:0:
215,226,101445,1,0,0:0:0:0:
209,220,101964,1,0,0:0:0:0:
209,220,102484,1,0,0:0:0:0:
209,220,103003,1,0,0:0:0:0:
209,220,103523,1,0,0:0:0:0:
256,191,103653,1,0,0:0:0:0:
256,191,103782,1,0,0:0:0:0:
256,191,103912,1,0,0:0:0:0:
256,191,104042,1,8,0:0:0:0:
256,191,104172,1,8,0:0:0:0:
256,191,104302,1,8,0:0:0:0:
256,191,104432,1,8,0:0:0:0:
256,191,104562,1,0,0:0:0:0:
256,191,104692,1,0,0:0:0:0:
256,191,104821,1,0,0:0:0:0:
256,191,104951,1,0,0:0:0:0:
256,191,105081,1,12,0:0:0:0:
219,202,105601,1,4,0:0:0:0:
269,164,105860,1,8,0:0:0:0:
508,103,105990,1,0,0:0:0:0:
300,183,106055,1,0,0:0:0:0:
271,166,106120,1,0,0:0:0:0:
269,164,106250,1,0,0:0:0:0:
266,178,106380,1,8,0:0:0:0:
266,178,106510,1,8,0:0:0:0:
266,178,106640,1,0,0:0:0:0:
242,245,106899,1,8,0:0:0:0:
242,245,107159,1,8,0:0:0:0:
242,245,107419,1,0,0:0:0:0:
242,245,107679,1,8,0:0:0:0:
251,219,107808,1,0,0:0:0:0:
251,219,107873,1,0,0:0:0:0:
251,219,107938,1,0,0:0:0:0:
251,219,108068,1,0,0:0:0:0:
251,219,108198,1,8,0:0:0:0:
251,219,108328,1,0,0:0:0:0:
251,219,108393,1,0,0:0:0:0:
251,219,108458,1,0,0:0:0:0:
251,219,108588,1,0,0:0:0:0:
251,219,108717,1,8,0:0:0:0:
231,198,109237,1,0,0:0:0:0:
232,198,109432,1,0,0:0:0:0:
233,199,109627,1,8,0:0:0:0:
231,198,109756,1,4,0:0:0:0:
227,212,109886,1,4,0:0:0:0:
222,193,110146,1,4,0:0:0:0:
252,178,110406,1,0,0:0:0:0:
252,178,110471,1,0,0:0:0:0:
232,175,110536,1,0,0:0:0:0:
252,178,110666,1,0,0:0:0:0:
252,178,110795,1,8,0:0:0:0:
297,190,110925,1,0,0:0:0:0:
297,190,111055,1,8,0:0:0:0:
297,190,111185,1,8,0:0:0:0:
238,190,111315,1,0,0:0:0:0:
232,175,111575,1,12,0:0:0:0:
251,147,111834,1,4,0:0:0:0:
251,147,111964,1,4,0:0:0:0:
251,147,112224,1,4,0:0:0:0:
229,189,112484,1,0,0:0:0:0:
229,189,112549,1,0,0:0:0:0:
229,189,112614,1,0,0:0:0:0:
229,189,112743,1,0,0:0:0:0:
229,189,112873,1,8,0:0:0:0:
229,189,113003,1,0,0:0:0:0:
229,189,113133,1,0,0:0:0:0:
229,189,113263,1,8,0:0:0:0:
229,189,113393,1,0,0:0:0:0:
231,202,113912,1,8,0:0:0:0:
234,202,114042,1,0,0:0:0:0:
236,202,114172,1,0,0:0:0:0:
236,202,114302,1,0,0:0:0:0:
240,202,114432,1,8,0:0:0:0:
245,202,114562,1,0,0:0:0:0:
245,202,114692,1,0,0:0:0:0:
245,202,114821,1,0,0:0:0:0:
245,202,114951,1,8,0:0:0:0:
245,202,115081,1,0,0:0:0:0:
245,202,115211,1,8,0:0:0:0:
245,202,115341,1,8,0:0:0:0:
240,202,115471,1,0,0:0:0:0:
245,202,115601,1,8,0:0:0:0:
245,202,115730,1,0,0:0:0:0:
245,202,115990,1,8,0:0:0:0:
245,202,116120,1,8,0:0:0:0:
245,202,116250,1,8,0:0:0:0:
245,202,116380,1,8,0:0:0:0:
240,202,116510,1,0,0:0:0:0:
245,202,116640,1,0,0:0:0:0:
245,202,116769,1,0,0:0:0:0:
245,202,116899,1,0,0:0:0:0:
245,202,117029,1,8,0:0:0:0:
248,185,117094,1,8,0:0:0:0:
257,188,117159,1,8,0:0:0:0:
260,188,117289,1,0,0:0:0:0:
260,188,117419,1,0,0:0:0:0:
260,188,117549,1,8,0:0:0:0:
260,188,117614,1,8,0:0:0:0:
260,188,117679,1,8,0:0:0:0:
260,188,117808,1,8,0:0:0:0:
260,188,117938,1,8,0:0:0:0:
245,202,118068,5,4,0:0:0:0:
256,192,118198,12,0,119627,0:0:0:0:
227,209,120146,5,4,0:0:0:0:
227,209,120276,1,4,0:0:0:0:
227,209,120536,1,0,0:0:0:0:
163,155,120795,1,0,0:0:0:0:
249,168,120925,1,8,0:0:0:0:
249,168,121055,1,0,0:0:0:0:
249,168,121445,1,0,0:0:0:0:
238,162,121705,1,4,0:0:0:0:
238,162,121964,1,4,0:0:0:0:
238,162,122224,1,4,0:0:0:0:
152,182,122354,1,4,0:0:0:0:
208,213,122614,1,0,0:0:0:0:
221,214,122873,1,0,0:0:0:0:
221,214,123133,1,0,0:0:0:0:
221,214,123198,1,0,0:0:0:0:
221,214,123263,1,0,0:0:0:0:
221,214,123393,1,8,0:0:0:0:
221,214,123523,1,0,0:0:0:0:
218,177,123782,1,12,0:0:0:0:
244,184,124042,1,12,0:0:0:0:
244,184,124302,1,4,0:0:0:0:
244,184,124432,1,4,0:0:0:0:
245,183,124692,1,0,0:0:0:0:
244,184,124951,1,0,0:0:0:0:
211,135,125081,1,8,0:0:0:0:
244,184,125211,1,0,0:0:0:0:
235,147,125601,1,0,0:0:0:0:
272,165,125860,1,4,0:0:0:0:
272,165,126120,1,4,0:0:0:0:
272,165,126380,1,4,0:0:0:0:
254,216,127419,1,0,0:0:0:0:
254,216,127938,1,8,0:0:0:0:
254,216,128198,1,8,0:0:0:0:
254,216,128458,1,0,0:0:0:0:
254,216,128977,1,8,0:0:0:0:
254,216,129497,1,0,0:0:0:0:
254,216,130016,1,8,0:0:0:0:
254,216,130276,1,8,0:0:0:0:
254,216,130536,1,0,0:0:0:0:
235,202,130666,1,0,0:0:0:0:
250,210,130795,1,8,0:0:0:0:
235,202,130925,1,0,0:0:0:0:
235,202,131055,1,0,0:0:0:0:
235,202,131185,1,0,0:0:0:0:
235,202,131315,1,8,0:0:0:0:
235,202,131445,1,0,0:0:0:0:
235,202,131575,1,8,0:0:0:0:
235,202,131705,1,8,0:0:0:0:
235,202,131834,1,0,0:0:0:0:
289,170,131964,1,0,0:0:0:0:
289,170,132094,1,8,0:0:0:0:
281,150,132159,1,8,0:0:0:0:
323,199,132224,1,8,0:0:0:0:
279,157,132354,1,0,0:0:0:0:
244,180,132614,1,0,0:0:0:0:
244,180,132743,1,0,0:0:0:0:
244,180,132873,1,8,0:0:0:0:
243,180,132938,1,8,0:0:0:0:
243,180,133003,1,8,0:0:0:0:
279,167,133133,1,0,0:0:0:0:
279,167,133263,1,8,0:0:0:0:
279,167,133328,1,8,0:0:0:0:
254,157,133393,1,8,0:0:0:0:
309,203,133523,1,0,0:0:0:0:
309,203,133588,1,0,0:0:0:0:
309,203,133653,1,0,0:0:0:0:
273,249,134692,1,4,0:0:0:0:
256,192,134951,12,0,136510,0:0:0:0:
247,178,136769,5,4,0:0:0:0:
