osu file format v14

[General]
AudioFilename: Tempestissimo.mp3
AudioLeadIn: 0
PreviewTime: 84821
Countdown: 0
SampleSet: Normal
StackLeniency: 0.7
Mode: 1
LetterboxInBreaks: 0
EpilepsyWarning: 1
WidescreenStoryboard: 1

[Editor]
DistanceSpacing: 2.4
BeatDivisor: 2
GridSize: 32
TimelineZoom: 2.089804

[Metadata]
Title:Tempestissimo
TitleUnicode:Tempestissimo
Artist:t+pazolite
ArtistUnicode:t+pazolite
Creator:Kuo Kyoka
Version:Raytoly's Beyond
Source:Arcaea
Tags:lowiro Black Fate Chapter IV 対立 Tairitsu Speedcore Video Game Instrumental Anomaly Heartache Debug Critical_Star Ichigaki Dellvangel Amaryllis taiko_maniac1811 Raytoly Rhytoly Akasha
BeatmapID:2563724
BeatmapSetID:1179815

[Difficulty]
HPDrainRate:5
CircleSize:4
OverallDifficulty:7
ApproachRate:5
SliderMultiplier:1.4
SliderTickRate:1

[Events]
//Background and Video events
0,0,"connect.jpg",0,240
//Break Periods
//Storyboard Layer 0 (Background)
//Storyboard Layer 1 (Fail)
//Storyboard Layer 2 (Pass)
//Storyboard Layer 3 (Foreground)
//Storyboard Layer 4 (Overlay)
Sprite,Overlay,Centre,"sb\lowest.world.png",320,240 S,0,84821,,0.675 F,0,84821,85341,0,1 F,0,86769,86899,1,0
Sprite,Overlay,Centre,"SB\vig.png",320,240 M,0,84821,,320,240 S,0,84821,,0.455 F,0,84821,86899,0,0.8
Animation,Overlay,Centre,"sb\static-.jpg",320,240,4,20,LoopForever M,0,134692,,320,240 S,0,134692,,0.675 F,0,134692,137549,0,0.3
//Storyboard Sound Samples

[TimingPoints]
1705,259.74025974026,4,1,0,20,1,0
2224,-166.666666666667,4,1,0,20,0,0
16315,-133.333333333333,4,1,0,20,0,0
18328,-100,4,1,0,100,0,0
18588,-125,4,1,0,100,0,0
19497,-111.111111111111,4,1,0,100,0,0
20406,-100,4,1,0,100,0,0
20666,-125,4,1,0,100,0,0
21445,-100,4,1,0,100,0,0
22614,-111.111111111111,4,1,0,100,0,0
24562,-100,4,1,0,100,0,0
26120,-66.6666666666667,4,1,0,100,0,0
26380,-133.333333333333,4,1,0,100,0,0
26640,-100,4,1,0,100,0,1
34692,-66.6666666666667,4,1,0,100,0,1
34951,-80,4,1,0,100,0,1
35990,-133.333333333333,4,1,0,100,0,1
37029,-80,4,1,0,100,0,1
38068,-133.333333333333,4,1,0,100,0,1
39107,-100,4,1,0,100,0,1
43263,-80,4,1,0,100,0,1
44821,-66.6666666666667,4,1,0,100,0,1
45341,-100,4,1,0,100,0,1
46899,-66.6666666666667,4,1,0,100,0,1
47419,-100,4,1,0,100,0,1
48977,-66.6666666666667,4,1,0,100,0,1
49497,-100,4,1,0,100,0,1
51055,-66.6666666666667,4,1,0,100,0,1
51575,-80,4,1,0,100,0,0
51834,-125,4,1,0,100,0,0
53653,-111.111111111111,4,1,0,100,0,0
55730,-100,4,1,0,100,0,0
59367,-66.6666666666667,4,1,0,100,0,0
59886,-100,4,1,0,100,0,0
76510,-133.333333333333,4,1,0,100,0,0
80666,-100,4,1,0,100,0,1
84821,-100,4,1,0,100,0,0
85081,-166.666666666667,4,1,0,20,0,0
86899,-200,4,1,0,100,0,1
87419,-100,4,1,0,100,0,1
87938,-66.6666666666667,4,1,0,100,0,1
88458,-50,4,1,0,100,0,0
88977,-100,4,1,0,100,0,1
98068,-66.6666666666667,4,1,0,100,0,1
98328,-100,4,1,0,100,0,1
101445,-100,4,1,0,100,0,0
101964,-142.857142857143,4,1,0,100,0,0
102224,-133.333333333333,4,1,0,100,0,0
102354,-129.032258064516,4,1,0,100,0,0
102484,-125,4,1,0,100,0,0
102743,-117.647058823529,4,1,0,100,0,0
103003,-111.111111111111,4,1,0,100,0,0
103263,-105.263157894737,4,1,0,100,0,0
103523,-100,4,1,0,100,0,0
105081,-66.6666666666667,4,1,0,100,0,0
105601,-100,4,1,0,100,0,1
109756,-80,4,1,0,100,0,1
110406,-100,4,1,0,100,0,1
111575,-66.6666666666667,4,1,0,100,0,1
111834,-80,4,1,0,100,0,1
112484,-100,4,1,0,100,0,1
118068,-80,4,1,0,100,0,1
119627,-66.6666666666667,4,1,0,100,0,1
120146,-100,4,1,0,100,0,1
121705,-66.6666666666667,4,1,0,100,0,1
122224,-100,4,1,0,100,0,1
123782,-66.6666666666667,4,1,0,100,0,1
124302,-100,4,1,0,100,0,1
125860,-66.6666666666667,4,1,0,100,0,1
126380,-80,4,1,0,100,0,0
126640,-125,4,1,0,100,0,0
128458,-111.111111111111,4,1,0,100,0,0
130536,-100,4,1,0,100,0,1
133653,-100,4,1,0,100,0,0
135730,-33.3333333333333,4,1,0,100,0,0
136769,-50,4,1,0,100,0,1
137029,-50,4,1,0,100,0,0

[HitObjects]
251,222,1705,5,4,0:0:0:0:
225,232,2484,1,0,0:0:0:0:
225,232,2614,1,0,0:0:0:0:
225,232,2743,1,0,0:0:0:0:
225,232,3003,1,8,0:0:0:0:
225,232,3263,1,0,0:0:0:0:
225,232,3523,1,0,0:0:0:0:
225,232,3782,1,0,0:0:0:0:
210,223,4302,1,8,0:0:0:0:
210,223,4821,1,8,0:0:0:0:
210,223,5341,1,0,0:0:0:0:
210,223,5860,1,0,0:0:0:0:
210,223,6640,1,0,0:0:0:0:
210,223,6769,1,0,0:0:0:0:
210,223,6899,1,0,0:0:0:0:
210,223,7159,1,8,0:0:0:0:
210,223,7419,1,0,0:0:0:0:
210,223,7679,1,0,0:0:0:0:
210,223,7938,1,0,0:0:0:0:
251,208,8003,1,8,0:0:0:0:
232,239,8068,1,0,0:0:0:0:
232,239,8133,1,8,0:0:0:0:
239,234,8198,1,0,0:0:0:0:
248,230,8263,1,8,0:0:0:0:
249,230,8328,1,0,0:0:0:0:
249,230,8393,1,8,0:0:0:0:
249,230,8458,1,0,0:0:0:0:
249,230,8523,1,8,0:0:0:0:
249,230,8588,1,0,0:0:0:0:
249,230,8653,1,8,0:0:0:0:
249,230,8717,1,0,0:0:0:0:
249,230,8782,1,8,0:0:0:0:
249,230,8847,1,0,0:0:0:0:
249,230,8912,1,8,0:0:0:0:
249,230,8977,1,0,0:0:0:0:
275,220,9756,1,0,0:0:0:0:
275,220,10016,1,0,0:0:0:0:
259,227,10795,1,0,0:0:0:0:
259,223,10925,1,0,0:0:0:0:
259,222,11055,1,8,0:0:0:0:
259,227,11315,1,8,0:0:0:0:
259,227,11575,1,0,0:0:0:0:
259,227,11834,1,0,0:0:0:0:
259,222,12094,1,0,0:0:0:0:
268,221,12614,1,8,0:0:0:0:
268,221,13133,1,8,0:0:0:0:
268,221,13653,1,0,0:0:0:0:
268,221,14172,1,0,0:0:0:0:
293,208,14951,1,0,0:0:0:0:
268,206,15081,1,0,0:0:0:0:
293,209,15211,1,0,0:0:0:0:
268,207,15471,1,0,0:0:0:0:
268,207,15730,1,0,0:0:0:0:
268,206,15990,1,8,0:0:0:0:
268,207,16315,1,8,0:0:0:0:
228,162,18328,1,4,0:0:0:0:
299,194,18458,1,4,0:0:0:0:
242,198,18588,1,8,0:0:0:0:
237,156,18847,1,8,0:0:0:0:
239,156,19042,1,8,0:0:0:0:
239,156,19237,1,8,0:0:0:0:
273,191,19497,1,8,0:0:0:0:
273,191,19562,1,8,0:0:0:0:
273,191,19627,1,0,0:0:0:0:
256,163,19756,1,8,0:0:0:0:
256,163,19821,1,0,0:0:0:0:
256,163,19886,1,8,0:0:0:0:
330,192,20016,1,0,0:0:0:0:
270,178,20081,1,8,0:0:0:0:
330,192,20146,1,0,0:0:0:0:
330,192,20211,1,0,0:0:0:0:
330,192,20276,1,8,0:0:0:0:
330,192,20406,1,4,0:0:0:0:
223,193,20536,1,4,0:0:0:0:
244,173,20666,1,8,0:0:0:0:
257,184,20925,1,8,0:0:0:0:
257,184,21120,1,8,0:0:0:0:
257,184,21315,1,8,0:0:0:0:
287,219,21445,1,4,0:0:0:0:
226,178,21575,1,8,0:0:0:0:
242,182,21640,1,8,0:0:0:0:
242,182,21705,1,0,0:0:0:0:
284,165,21834,1,0,0:0:0:0:
284,165,21964,1,8,0:0:0:0:
284,165,22094,1,8,0:0:0:0:
284,165,22159,1,8,0:0:0:0:
284,165,22224,1,8,0:0:0:0:
275,161,22354,1,8,0:0:0:0:
253,204,22484,1,4,0:0:0:0:
253,204,22743,1,8,0:0:0:0:
265,204,23003,1,8,0:0:0:0:
268,181,23133,1,0,0:0:0:0:
278,154,23198,1,8,0:0:0:0:
268,181,23328,1,0,0:0:0:0:
268,129,23393,1,8,0:0:0:0:
266,187,23523,1,0,0:0:0:0:
276,172,23653,1,8,0:0:0:0:
282,174,23717,1,8,0:0:0:0:
265,204,23782,1,8,0:0:0:0:
283,174,23912,1,8,0:0:0:0:
265,202,24042,1,0,0:0:0:0:
283,174,24172,1,0,0:0:0:0:
265,201,24302,1,8,0:0:0:0:
283,174,24432,1,0,0:0:0:0:
265,201,24562,1,8,0:0:0:0:
265,204,24627,1,8,0:0:0:0:
265,204,24692,1,0,0:0:0:0:
265,204,24756,1,0,0:0:0:0:
265,204,24821,1,8,0:0:0:0:
265,202,24886,1,8,0:0:0:0:
265,202,24951,1,8,0:0:0:0:
265,202,25016,1,0,0:0:0:0:
265,202,25081,1,8,0:0:0:0:
265,201,25146,1,0,0:0:0:0:
265,201,25211,1,0,0:0:0:0:
265,201,25276,1,8,0:0:0:0:
265,201,25341,1,0,0:0:0:0:
263,206,25406,1,0,0:0:0:0:
263,206,25471,1,8,0:0:0:0:
263,206,25536,1,8,0:0:0:0:
263,206,25601,1,0,0:0:0:0:
263,206,25666,1,0,0:0:0:0:
263,206,25730,1,8,0:0:0:0:
263,206,25795,1,0,0:0:0:0:
263,206,25860,1,8,0:0:0:0:
263,206,25925,1,8,0:0:0:0:
263,206,25990,1,0,0:0:0:0:
263,206,26055,1,0,0:0:0:0:
248,184,26120,1,12,0:0:0:0:
234,160,26380,1,8,0:0:0:0:
257,192,26640,1,4,0:0:0:0:
238,175,26769,1,0,0:0:0:0:
249,185,26834,1,0,0:0:0:0:
249,185,26899,1,8,0:0:0:0:
251,186,27029,1,0,0:0:0:0:
260,170,27094,1,8,0:0:0:0:
260,170,27159,1,0,0:0:0:0:
260,170,27224,1,8,0:0:0:0:
260,170,27289,1,8,0:0:0:0:
260,170,27419,1,0,0:0:0:0:
220,162,27549,1,8,0:0:0:0:
210,137,27614,1,0,0:0:0:0:
251,183,27679,1,0,0:0:0:0:
270,188,27808,1,8,0:0:0:0:
232,140,27938,1,0,0:0:0:0:
235,141,28003,1,8,0:0:0:0:
270,188,28068,1,0,0:0:0:0:
270,188,28133,1,8,0:0:0:0:
270,188,28198,1,0,0:0:0:0:
303,198,28328,1,0,0:0:0:0:
238,158,28393,1,0,0:0:0:0:
303,198,28458,1,8,0:0:0:0:
303,198,28523,1,8,0:0:0:0:
303,198,28588,1,8,0:0:0:0:
303,198,28653,1,8,0:0:0:0:
303,198,28717,1,0,0:0:0:0:
287,193,28847,1,8,0:0:0:0:
287,193,28977,1,0,0:0:0:0:
287,193,29042,1,0,0:0:0:0:
287,193,29107,1,8,0:0:0:0:
181,134,29238,1,8,0:0:0:0:
322,202,29303,1,0,0:0:0:0:
322,202,29368,1,0,0:0:0:0:
322,202,29432,1,8,0:0:0:0:
322,202,29498,1,0,0:0:0:0:
322,202,29563,1,8,0:0:0:0:
322,202,29627,1,8,0:0:0:0:
259,174,29756,1,0,0:0:0:0:
249,200,29886,1,8,0:0:0:0:
249,200,29951,1,8,0:0:0:0:
249,200,30016,1,8,0:0:0:0:
289,207,30146,1,0,0:0:0:0:
248,111,30211,1,0,0:0:0:0:
289,207,30276,1,8,0:0:0:0:
289,207,30406,1,0,0:0:0:0:
289,207,30471,1,0,0:0:0:0:
262,191,30536,1,8,0:0:0:0:
289,207,30601,1,0,0:0:0:0:
311,192,30666,1,8,0:0:0:0:
317,160,30709,1,8,0:0:0:0:
312,185,30752,1,8,0:0:0:0:
311,192,30795,1,0,0:0:0:0:
242,191,30925,1,8,0:0:0:0:
261,216,31055,1,0,0:0:0:0:
261,216,31120,1,0,0:0:0:0:
261,216,31185,1,8,0:0:0:0:
299,207,31315,1,8,0:0:0:0:
258,217,31445,1,0,0:0:0:0:
255,212,31510,1,8,0:0:0:0:
254,208,31575,1,0,0:0:0:0:
254,208,31640,1,0,0:0:0:0:
254,208,31705,1,8,0:0:0:0:
254,208,31769,1,8,0:0:0:0:
240,167,31834,1,0,0:0:0:0:
359,191,31964,1,8,0:0:0:0:
359,191,32029,1,0,0:0:0:0:
359,191,32094,1,8,0:0:0:0:
273,180,32224,1,0,0:0:0:0:
281,176,32354,1,8,0:0:0:0:
281,176,32419,1,8,0:0:0:0:
281,176,32484,1,0,0:0:0:0:
281,176,32549,1,8,0:0:0:0:
277,173,32614,1,0,0:0:0:0:
262,167,32743,1,8,0:0:0:0:
261,167,32808,1,8,0:0:0:0:
257,165,32873,1,0,0:0:0:0:
204,171,33003,1,0,0:0:0:0:
218,177,33068,1,0,0:0:0:0:
222,182,33133,1,8,0:0:0:0:
246,135,33263,1,8,0:0:0:0:
308,196,33328,1,8,0:0:0:0:
308,196,33393,1,0,0:0:0:0:
241,196,33523,1,8,0:0:0:0:
241,196,33566,1,8,0:0:0:0:
241,196,33609,1,8,0:0:0:0:
241,196,33653,1,0,0:0:0:0:
241,196,33782,1,0,0:0:0:0:
241,196,33826,1,8,0:0:0:0:
241,196,33869,1,8,0:0:0:0:
241,196,33912,1,0,0:0:0:0:
241,196,34042,1,8,0:0:0:0:
241,196,34107,1,0,0:0:0:0:
275,158,34172,1,8,0:0:0:0:
301,180,34237,1,8,0:0:0:0:
301,180,34302,1,0,0:0:0:0:
301,180,34367,1,8,0:0:0:0:
301,180,34432,1,0,0:0:0:0:
296,224,34562,1,0,0:0:0:0:
296,224,34692,1,12,0:0:0:0:
167,224,34951,1,4,0:0:0:0:
175,210,35211,1,12,0:0:0:0:
183,208,35471,1,12,0:0:0:0:
207,209,35666,1,12,0:0:0:0:
214,207,35860,1,4,0:0:0:0:
296,186,36120,1,8,0:0:0:0:
296,186,36185,1,8,0:0:0:0:
296,186,36250,1,0,0:0:0:0:
296,186,36380,1,0,0:0:0:0:
296,186,36510,1,8,0:0:0:0:
261,162,36640,1,0,0:0:0:0:
261,162,36705,1,8,0:0:0:0:
261,162,36769,1,0,0:0:0:0:
322,226,36899,1,8,0:0:0:0:
232,232,37029,1,4,0:0:0:0:
232,232,37289,1,12,0:0:0:0:
232,232,37549,1,12,0:0:0:0:
232,232,37743,1,12,0:0:0:0:
232,232,37938,1,4,0:0:0:0:
273,191,38198,1,8,0:0:0:0:
273,191,38241,1,8,0:0:0:0:
266,188,38285,1,8,0:0:0:0:
236,168,38328,1,0,0:0:0:0:
346,164,38458,1,0,0:0:0:0:
281,198,38501,1,8,0:0:0:0:
281,198,38544,1,8,0:0:0:0:
281,198,38588,1,0,0:0:0:0:
281,198,38717,1,0,0:0:0:0:
281,198,38761,1,0,0:0:0:0:
281,198,38804,1,0,0:0:0:0:
281,198,38847,1,8,0:0:0:0:
306,199,39107,1,4,0:0:0:0:
296,250,39237,1,8,0:0:0:0:
296,250,39302,1,0,0:0:0:0:
296,250,39367,1,8,0:0:0:0:
296,250,39432,1,8,0:0:0:0:
296,250,39497,1,0,0:0:0:0:
296,250,39627,1,0,0:0:0:0:
296,250,39692,1,0,0:0:0:0:
296,250,39756,1,8,0:0:0:0:
296,250,39821,1,0,0:0:0:0:
296,250,39886,1,0,0:0:0:0:
296,250,40016,1,8,0:0:0:0:
296,250,40146,1,0,0:0:0:0:
340,186,40211,1,0,0:0:0:0:
270,213,40276,1,8,0:0:0:0:
264,212,40341,1,0,0:0:0:0:
172,174,40406,1,8,0:0:0:0:
306,198,40536,1,0,0:0:0:0:
306,198,40666,1,8,0:0:0:0:
306,198,40730,1,8,0:0:0:0:
306,198,40795,1,8,0:0:0:0:
306,198,40860,1,8,0:0:0:0:
306,198,40925,1,0,0:0:0:0:
268,200,41055,1,0,0:0:0:0:
261,196,41120,1,0,0:0:0:0:
213,177,41185,1,0,0:0:0:0:
202,181,41315,1,0,0:0:0:0:
253,202,41380,1,0,0:0:0:0:
254,202,41445,1,8,0:0:0:0:
255,171,41575,1,8,0:0:0:0:
255,171,41640,1,8,0:0:0:0:
255,171,41705,1,0,0:0:0:0:
255,171,41769,1,0,0:0:0:0:
278,188,41834,1,8,0:0:0:0:
278,188,41878,1,8,0:0:0:0:
316,222,41921,1,8,0:0:0:0:
316,222,41964,1,0,0:0:0:0:
288,214,42094,1,0,0:0:0:0:
288,214,42137,1,8,0:0:0:0:
288,214,42181,1,8,0:0:0:0:
288,214,42224,1,0,0:0:0:0:
282,152,42289,1,0,0:0:0:0:
288,214,42354,1,8,0:0:0:0:
288,214,42397,1,8,0:0:0:0:
288,214,42440,1,8,0:0:0:0:
288,214,42484,1,0,0:0:0:0:
242,188,42549,1,0,0:0:0:0:
242,188,42614,1,8,0:0:0:0:
260,194,42743,1,0,0:0:0:0:
260,194,42808,1,8,0:0:0:0:
260,194,42873,1,0,0:0:0:0:
260,194,42938,1,0,0:0:0:0:
260,194,43003,1,8,0:0:0:0:
260,194,43068,1,0,0:0:0:0:
260,194,43133,1,8,0:0:0:0:
260,194,43198,1,8,0:0:0:0:
260,194,43263,1,4,0:0:0:0:
248,217,43393,1,4,0:0:0:0:
248,217,43653,1,4,0:0:0:0:
248,217,43912,1,4,0:0:0:0:
248,217,44172,1,4,0:0:0:0:
248,217,44432,1,4,0:0:0:0:
248,217,44562,1,4,0:0:0:0:
252,232,44821,1,12,0:0:0:0:
254,232,45081,1,12,0:0:0:0:
273,197,45341,1,0,0:0:0:0:
273,197,45471,1,0,0:0:0:0:
264,217,45601,1,8,0:0:0:0:
304,162,45730,5,0,0:0:0:0:
304,162,45795,1,0,0:0:0:0:
304,162,45860,1,8,0:0:0:0:
279,168,45990,1,0,0:0:0:0:
262,161,46055,1,0,0:0:0:0:
247,156,46120,1,8,0:0:0:0:
306,190,46250,1,0,0:0:0:0:
306,190,46315,1,0,0:0:0:0:
306,190,46380,1,0,0:0:0:0:
306,190,46445,1,0,0:0:0:0:
306,190,46510,1,8,0:0:0:0:
233,175,46640,1,8,0:0:0:0:
259,190,46769,1,0,0:0:0:0:
259,190,46899,1,4,0:0:0:0:
259,190,47159,1,4,0:0:0:0:
209,195,47419,1,0,0:0:0:0:
209,195,47549,1,0,0:0:0:0:
209,195,47679,1,8,0:0:0:0:
304,185,47808,1,0,0:0:0:0:
304,185,47873,1,0,0:0:0:0:
304,185,47938,1,8,0:0:0:0:
304,185,48068,1,0,0:0:0:0:
304,185,48133,1,8,0:0:0:0:
304,185,48198,1,8,0:0:0:0:
255,167,48328,1,0,0:0:0:0:
272,180,48393,1,0,0:0:0:0:
273,180,48458,1,0,0:0:0:0:
273,180,48523,1,0,0:0:0:0:
273,180,48588,1,8,0:0:0:0:
273,180,48717,1,8,0:0:0:0:
249,217,48847,1,0,0:0:0:0:
249,217,48977,1,12,0:0:0:0:
199,204,49237,1,12,0:0:0:0:
234,222,49497,1,0,0:0:0:0:
234,222,49627,1,0,0:0:0:0:
234,222,49756,1,8,0:0:0:0:
278,226,49886,1,0,0:0:0:0:
278,226,49951,1,8,0:0:0:0:
308,237,50016,1,8,0:0:0:0:
308,237,50146,1,0,0:0:0:0:
308,237,50211,1,0,0:0:0:0:
308,237,50276,1,8,0:0:0:0:
272,218,50406,1,0,0:0:0:0:
272,218,50471,1,0,0:0:0:0:
272,218,50536,1,0,0:0:0:0:
272,218,50601,1,0,0:0:0:0:
272,218,50666,1,8,0:0:0:0:
272,218,50795,1,8,0:0:0:0:
272,218,50925,1,0,0:0:0:0:
272,218,51055,1,4,0:0:0:0:
238,213,51315,1,4,0:0:0:0:
238,213,51575,1,4,0:0:0:0:
232,196,51834,1,8,0:0:0:0:
232,196,52094,1,8,0:0:0:0:
232,196,52354,1,8,0:0:0:0:
232,196,52614,1,8,0:0:0:0:
232,196,52873,1,8,0:0:0:0:
232,196,53133,1,8,0:0:0:0:
232,196,53393,1,8,0:0:0:0:
232,196,53653,1,0,0:0:0:0:
202,182,53912,1,8,0:0:0:0:
211,197,54172,1,8,0:0:0:0:
214,197,54432,1,8,0:0:0:0:
225,197,54692,1,8,0:0:0:0:
226,197,54951,1,8,0:0:0:0:
226,197,55211,1,8,0:0:0:0:
225,197,55471,1,8,0:0:0:0:
226,197,55730,1,0,0:0:0:0:
236,205,55860,1,0,0:0:0:0:
236,205,55925,1,0,0:0:0:0:
236,205,55990,1,8,0:0:0:0:
236,205,56120,1,8,0:0:0:0:
236,205,56185,1,8,0:0:0:0:
236,205,56250,1,0,0:0:0:0:
236,205,56380,1,0,0:0:0:0:
236,205,56445,1,0,0:0:0:0:
236,205,56510,1,8,0:0:0:0:
236,205,56640,1,8,0:0:0:0:
236,205,56705,1,8,0:0:0:0:
236,205,56769,1,0,0:0:0:0:
236,205,56899,1,0,0:0:0:0:
236,205,56964,1,0,0:0:0:0:
236,205,57029,1,8,0:0:0:0:
262,211,57159,1,8,0:0:0:0:
262,211,57224,1,8,0:0:0:0:
262,211,57289,1,0,0:0:0:0:
262,211,57419,1,0,0:0:0:0:
262,211,57484,1,0,0:0:0:0:
262,211,57549,1,8,0:0:0:0:
262,211,57679,1,8,0:0:0:0:
262,211,57743,1,8,0:0:0:0:
262,211,57808,1,0,0:0:0:0:
254,206,57873,1,8,0:0:0:0:
254,206,57938,1,0,0:0:0:0:
254,206,58003,1,0,0:0:0:0:
254,206,58068,1,8,0:0:0:0:
254,206,58133,1,0,0:0:0:0:
254,206,58198,1,8,0:0:0:0:
254,206,58263,1,8,0:0:0:0:
254,206,58328,1,8,0:0:0:0:
254,206,58393,1,0,0:0:0:0:
254,206,58458,1,8,0:0:0:0:
254,206,58523,1,0,0:0:0:0:
254,206,58588,1,0,0:0:0:0:
254,206,58653,1,8,0:0:0:0:
254,206,58717,1,0,0:0:0:0:
254,206,58782,1,0,0:0:0:0:
254,206,58847,1,8,0:0:0:0:
254,206,58912,1,0,0:0:0:0:
254,206,58977,1,8,0:0:0:0:
253,214,59042,1,8,0:0:0:0:
254,206,59107,1,0,0:0:0:0:
258,222,59172,1,8,0:0:0:0:
279,230,59237,1,8,0:0:0:0:
279,230,59302,1,8,0:0:0:0:
291,235,59367,1,4,0:0:0:0:
265,214,59627,1,12,0:0:0:0:
254,206,59886,1,4,0:0:0:0:
236,199,60016,1,0,0:0:0:0:
247,205,60081,1,0,0:0:0:0:
246,203,60146,1,8,0:0:0:0:
246,203,60211,1,8,0:0:0:0:
246,203,60276,1,8,0:0:0:0:
246,203,60406,1,0,0:0:0:0:
193,177,60536,1,0,0:0:0:0:
306,176,60601,1,0,0:0:0:0:
206,177,60666,1,8,0:0:0:0:
196,222,60731,1,0,0:0:0:0:
196,222,60796,1,8,0:0:0:0:
196,222,60860,1,8,0:0:0:0:
196,222,60925,1,0,0:0:0:0:
247,231,61055,1,8,0:0:0:0:
252,232,61120,1,8,0:0:0:0:
252,232,61185,1,0,0:0:0:0:
258,216,61315,1,8,0:0:0:0:
258,216,61445,1,0,0:0:0:0:
258,216,61510,1,8,0:0:0:0:
258,216,61575,1,0,0:0:0:0:
258,216,61640,1,0,0:0:0:0:
258,216,61705,1,8,0:0:0:0:
258,216,61834,1,0,0:0:0:0:
258,216,61899,1,0,0:0:0:0:
258,216,61964,1,0,0:0:0:0:
225,201,62094,1,0,0:0:0:0:
308,232,62224,1,8,0:0:0:0:
308,232,62289,1,8,0:0:0:0:
308,232,62354,1,0,0:0:0:0:
308,232,62419,1,8,0:0:0:0:
308,232,62484,1,0,0:0:0:0:
293,217,62614,1,0,0:0:0:0:
293,217,62679,1,0,0:0:0:0:
293,217,62743,1,8,0:0:0:0:
293,217,62808,1,0,0:0:0:0:
293,217,62873,1,0,0:0:0:0:
293,217,63003,1,0,0:0:0:0:
238,230,63133,1,0,0:0:0:0:
238,230,63198,1,0,0:0:0:0:
238,230,63263,1,8,0:0:0:0:
215,217,63393,1,8,0:0:0:0:
229,226,63458,1,8,0:0:0:0:
229,226,63523,1,0,0:0:0:0:
231,210,63653,1,0,0:0:0:0:
231,210,63717,1,0,0:0:0:0:
231,210,63782,1,8,0:0:0:0:
231,210,63912,1,8,0:0:0:0:
231,210,63977,1,8,0:0:0:0:
231,210,64042,1,0,0:0:0:0:
261,198,64172,1,8,0:0:0:0:
263,205,64302,1,0,0:0:0:0:
263,205,64367,1,8,0:0:0:0:
263,205,64432,1,8,0:0:0:0:
263,205,64497,1,8,0:0:0:0:
263,205,64562,1,0,0:0:0:0:
263,205,64627,1,8,0:0:0:0:
263,205,64692,1,0,0:0:0:0:
263,205,64821,1,8,0:0:0:0:
301,223,64886,1,0,0:0:0:0:
331,230,64951,1,0,0:0:0:0:
301,223,65016,1,8,0:0:0:0:
301,223,65081,1,0,0:0:0:0:
167,152,65211,1,8,0:0:0:0:
239,163,65341,1,0,0:0:0:0:
246,171,65406,1,0,0:0:0:0:
246,171,65471,1,8,0:0:0:0:
246,171,65601,1,0,0:0:0:0:
255,216,65666,1,8,0:0:0:0:
246,171,65730,1,0,0:0:0:0:
246,171,65795,1,8,0:0:0:0:
246,171,65860,1,8,0:0:0:0:
246,171,65925,1,0,0:0:0:0:
247,171,65990,1,8,0:0:0:0:
247,171,66120,1,0,0:0:0:0:
302,237,66250,1,8,0:0:0:0:
307,221,66380,1,8,0:0:0:0:
307,221,66445,1,8,0:0:0:0:
307,221,66510,1,0,0:0:0:0:
307,221,66575,1,8,0:0:0:0:
307,221,66640,1,8,0:0:0:0:
264,225,66769,1,0,0:0:0:0:
264,225,66834,1,8,0:0:0:0:
264,225,66899,1,0,0:0:0:0:
264,225,66964,1,8,0:0:0:0:
264,225,67029,1,8,0:0:0:0:
264,225,67159,1,0,0:0:0:0:
353,193,67289,1,8,0:0:0:0:
353,193,67354,1,0,0:0:0:0:
353,193,67419,1,8,0:0:0:0:
365,159,67549,1,8,0:0:0:0:
342,147,67679,1,0,0:0:0:0:
264,225,67743,1,0,0:0:0:0:
264,225,67808,1,0,0:0:0:0:
264,225,67873,1,0,0:0:0:0:
264,225,67938,1,8,0:0:0:0:
261,227,68003,1,8,0:0:0:0:
261,239,68068,1,8,0:0:0:0:
250,246,68133,1,8,0:0:0:0:
250,246,68198,1,0,0:0:0:0:
212,152,68328,1,0,0:0:0:0:
212,152,68393,1,0,0:0:0:0:
253,142,68458,1,8,0:0:0:0:
261,157,68588,1,0,0:0:0:0:
249,167,68717,1,0,0:0:0:0:
249,167,68782,1,8,0:0:0:0:
253,169,68847,1,0,0:0:0:0:
253,169,68912,1,0,0:0:0:0:
253,169,68977,1,8,0:0:0:0:
277,174,69107,1,8,0:0:0:0:
277,174,69172,1,8,0:0:0:0:
277,174,69237,1,0,0:0:0:0:
277,174,69302,1,8,0:0:0:0:
277,174,69367,1,0,0:0:0:0:
277,174,69432,1,0,0:0:0:0:
277,174,69497,1,8,0:0:0:0:
306,167,69627,1,0,0:0:0:0:
306,167,69756,1,8,0:0:0:0:
306,167,69821,1,8,0:0:0:0:
306,167,69886,1,0,0:0:0:0:
306,167,69951,1,8,0:0:0:0:
260,157,70016,1,8,0:0:0:0:
277,174,70146,1,8,0:0:0:0:
238,176,70276,1,0,0:0:0:0:
238,176,70341,1,0,0:0:0:0:
238,176,70406,1,8,0:0:0:0:
238,176,70471,1,0,0:0:0:0:
238,176,70536,1,8,0:0:0:0:
296,200,70666,1,0,0:0:0:0:
296,200,70795,1,8,0:0:0:0:
296,200,70860,1,8,0:0:0:0:
296,200,70925,1,8,0:0:0:0:
296,200,70990,1,0,0:0:0:0:
296,200,71055,1,8,0:0:0:0:
296,200,71120,1,8,0:0:0:0:
231,172,71185,1,0,0:0:0:0:
292,149,71315,1,0,0:0:0:0:
298,192,71445,1,8,0:0:0:0:
298,192,71510,1,8,0:0:0:0:
298,192,71575,1,8,0:0:0:0:
259,176,71640,1,0,0:0:0:0:
259,176,71705,1,0,0:0:0:0:
259,176,71769,1,0,0:0:0:0:
259,176,71834,1,8,0:0:0:0:
259,176,71899,1,0,0:0:0:0:
259,176,71964,1,0,0:0:0:0:
259,176,72029,1,0,0:0:0:0:
259,176,72094,1,8,0:0:0:0:
259,176,72159,1,0,0:0:0:0:
257,175,72224,1,0,0:0:0:0:
246,167,72289,1,0,0:0:0:0:
246,167,72354,1,8,0:0:0:0:
281,192,72484,1,0,0:0:0:0:
281,192,72614,1,8,0:0:0:0:
246,182,72679,1,0,0:0:0:0:
281,192,72743,1,0,0:0:0:0:
247,181,72873,1,8,0:0:0:0:
257,175,73003,1,0,0:0:0:0:
257,178,73068,1,0,0:0:0:0:
246,167,73133,1,8,0:0:0:0:
238,161,73198,1,0,0:0:0:0:
210,140,73263,1,0,0:0:0:0:
138,208,73393,1,8,0:0:0:0:
281,152,73458,1,8,0:0:0:0:
279,179,73523,1,0,0:0:0:0:
279,179,73588,1,0,0:0:0:0:
279,179,73653,1,8,0:0:0:0:
327,214,73782,1,0,0:0:0:0:
272,133,73847,1,8,0:0:0:0:
327,214,73912,1,0,0:0:0:0:
327,214,73977,1,0,0:0:0:0:
327,214,74042,1,8,0:0:0:0:
327,214,74107,1,0,0:0:0:0:
267,190,74172,1,8,0:0:0:0:
249,228,74302,1,8,0:0:0:0:
249,228,74432,1,0,0:0:0:0:
249,228,74497,1,0,0:0:0:0:
249,228,74562,1,8,0:0:0:0:
249,228,74692,1,0,0:0:0:0:
249,228,74756,1,0,0:0:0:0:
249,228,74821,1,8,0:0:0:0:
249,228,74951,1,0,0:0:0:0:
249,228,75016,1,0,0:0:0:0:
249,228,75081,1,8,0:0:0:0:
249,228,75146,1,0,0:0:0:0:
234,231,75211,1,0,0:0:0:0:
234,231,75276,1,0,0:0:0:0:
234,231,75341,1,8,0:0:0:0:
220,217,75406,1,8,0:0:0:0:
255,232,75471,1,0,0:0:0:0:
296,209,75601,1,8,0:0:0:0:
296,209,75666,1,8,0:0:0:0:
296,209,75730,1,8,0:0:0:0:
296,209,75860,1,8,0:0:0:0:
209,160,75925,1,8,0:0:0:0:
256,192,75990,12,0,76380,0:0:0:0:
203,193,76510,5,0,0:0:0:0:
264,195,76575,1,8,0:0:0:0:
264,195,76640,1,0,0:0:0:0:
264,195,76705,1,8,0:0:0:0:
264,195,76769,1,0,0:0:0:0:
264,195,76834,1,8,0:0:0:0:
264,195,76899,1,0,0:0:0:0:
264,195,76964,1,0,0:0:0:0:
264,195,77029,1,8,0:0:0:0:
264,195,77094,1,0,0:0:0:0:
264,195,77159,1,8,0:0:0:0:
264,195,77224,1,0,0:0:0:0:
264,195,77289,1,8,0:0:0:0:
264,195,77354,1,0,0:0:0:0:
264,195,77419,1,8,0:0:0:0:
264,195,77484,1,8,0:0:0:0:
264,195,77549,1,0,0:0:0:0:
120,154,77679,1,0,0:0:0:0:
272,176,77808,1,8,0:0:0:0:
272,176,77938,1,8,0:0:0:0:
272,176,78068,1,0,0:0:0:0:
268,211,78328,1,8,0:0:0:0:
253,204,78588,1,8,0:0:0:0:
268,211,78653,1,0,0:0:0:0:
268,211,78717,1,8,0:0:0:0:
268,211,78782,1,0,0:0:0:0:
268,211,78847,1,8,0:0:0:0:
268,211,78912,1,0,0:0:0:0:
268,211,78977,1,8,0:0:0:0:
268,211,79042,1,8,0:0:0:0:
248,200,79107,1,0,0:0:0:0:
251,197,79172,1,8,0:0:0:0:
251,197,79237,1,0,0:0:0:0:
251,197,79302,1,8,0:0:0:0:
251,197,79367,1,0,0:0:0:0:
251,197,79432,1,8,0:0:0:0:
251,197,79497,1,0,0:0:0:0:
251,197,79562,1,0,0:0:0:0:
251,197,79627,1,8,0:0:0:0:
265,153,79756,1,0,0:0:0:0:
265,153,79886,1,8,0:0:0:0:
265,153,79951,1,8,0:0:0:0:
265,153,80016,1,0,0:0:0:0:
301,165,80146,1,12,0:0:0:0:
301,165,80276,1,0,0:0:0:0:
301,165,80406,1,8,0:0:0:0:
220,222,80666,1,4,0:0:0:0:
287,167,80795,1,0,0:0:0:0:
287,167,80860,1,0,0:0:0:0:
287,167,80925,1,8,0:0:0:0:
287,167,80990,1,8,0:0:0:0:
287,167,81055,1,8,0:0:0:0:
287,167,81120,1,0,0:0:0:0:
287,167,81185,1,0,0:0:0:0:
197,135,81315,1,8,0:0:0:0:
269,171,81445,1,0,0:0:0:0:
271,173,81510,1,0,0:0:0:0:
272,178,81575,1,8,0:0:0:0:
272,178,81705,1,0,0:0:0:0:
212,190,81834,1,8,0:0:0:0:
236,197,81899,1,0,0:0:0:0:
244,199,81964,1,0,0:0:0:0:
253,194,82094,1,8,0:0:0:0:
253,194,82159,1,8,0:0:0:0:
253,194,82224,1,0,0:0:0:0:
253,194,82289,1,8,0:0:0:0:
253,194,82354,1,0,0:0:0:0:
253,194,82419,1,0,0:0:0:0:
251,181,82484,1,8,0:0:0:0:
253,194,82614,1,8,0:0:0:0:
282,223,82743,1,0,0:0:0:0:
261,190,82873,1,0,0:0:0:0:
261,190,82938,1,0,0:0:0:0:
261,190,83003,1,8,0:0:0:0:
261,190,83133,1,0,0:0:0:0:
261,190,83198,1,0,0:0:0:0:
261,190,83263,1,8,0:0:0:0:
261,190,83393,1,0,0:0:0:0:
261,190,83458,1,0,0:0:0:0:
261,190,83523,1,8,0:0:0:0:
254,197,83653,1,0,0:0:0:0:
254,197,83717,1,0,0:0:0:0:
254,197,83782,1,8,0:0:0:0:
254,197,83847,1,0,0:0:0:0:
254,197,83912,1,8,0:0:0:0:
254,197,83977,1,8,0:0:0:0:
254,197,84042,1,0,0:0:0:0:
254,197,84107,1,8,0:0:0:0:
254,197,84172,1,0,0:0:0:0:
254,197,84237,1,0,0:0:0:0:
254,197,84302,1,8,0:0:0:0:
249,197,84367,1,0,0:0:0:0:
249,197,84432,1,8,0:0:0:0:
249,197,84497,1,8,0:0:0:0:
249,197,84562,1,0,0:0:0:0:
249,197,84627,1,8,0:0:0:0:
249,197,84692,1,8,0:0:0:0:
249,197,84756,1,8,0:0:0:0:
249,197,84821,1,0,0:0:0:0:
206,193,86899,1,4,0:0:0:0:
358,227,87419,1,12,0:0:0:0:
266,207,87938,1,12,0:0:0:0:
265,215,88458,1,4,0:0:0:0:
259,217,88977,1,4,0:0:0:0:
265,215,89107,1,0,0:0:0:0:
265,215,89172,1,0,0:0:0:0:
265,215,89237,1,8,0:0:0:0:
265,215,89367,1,8,0:0:0:0:
265,215,89497,1,0,0:0:0:0:
268,217,89562,1,8,0:0:0:0:
268,217,89627,1,0,0:0:0:0:
268,217,89692,1,0,0:0:0:0:
268,217,89756,1,8,0:0:0:0:
268,217,89821,1,8,0:0:0:0:
268,217,89886,1,0,0:0:0:0:
268,217,90016,1,8,0:0:0:0:
265,215,90081,1,8,0:0:0:0:
265,215,90146,1,0,0:0:0:0:
265,215,90211,1,0,0:0:0:0:
265,215,90276,1,8,0:0:0:0:
265,215,90406,1,8,0:0:0:0:
268,217,90536,1,0,0:0:0:0:
268,217,90601,1,0,0:0:0:0:
268,217,90666,1,0,0:0:0:0:
268,217,90795,1,8,0:0:0:0:
268,217,90860,1,0,0:0:0:0:
268,217,90925,1,8,0:0:0:0:
224,182,91055,1,0,0:0:0:0:
232,185,91120,1,8,0:0:0:0:
241,197,91185,1,8,0:0:0:0:
251,201,91250,1,0,0:0:0:0:
274,207,91315,1,8,0:0:0:0:
274,207,91380,1,0,0:0:0:0:
267,207,91445,1,8,0:0:0:0:
267,207,91510,1,8,0:0:0:0:
267,207,91575,1,0,0:0:0:0:
267,207,91640,1,8,0:0:0:0:
267,207,91705,1,8,0:0:0:0:
267,207,91769,1,0,0:0:0:0:
267,207,91834,1,8,0:0:0:0:
267,207,91899,1,0,0:0:0:0:
266,208,91964,1,8,0:0:0:0:
266,208,92029,1,8,0:0:0:0:
266,208,92094,1,0,0:0:0:0:
271,177,92224,1,0,0:0:0:0:
282,180,92289,1,0,0:0:0:0:
273,205,92354,1,8,0:0:0:0:
273,205,92397,1,8,0:0:0:0:
271,204,92440,1,8,0:0:0:0:
231,179,92484,1,0,0:0:0:0:
241,152,92549,1,0,0:0:0:0:
250,155,92614,1,8,0:0:0:0:
253,157,92679,1,8,0:0:0:0:
260,168,92743,1,0,0:0:0:0:
260,168,92808,1,8,0:0:0:0:
260,168,92873,1,0,0:0:0:0:
260,168,92938,1,0,0:0:0:0:
260,168,93003,1,8,0:0:0:0:
236,175,93133,1,4,0:0:0:0:
208,142,93263,1,0,0:0:0:0:
232,162,93328,1,0,0:0:0:0:
232,162,93393,1,8,0:0:0:0:
220,155,93523,1,0,0:0:0:0:
235,186,93588,1,8,0:0:0:0:
235,186,93653,1,8,0:0:0:0:
236,186,93717,1,8,0:0:0:0:
236,186,93782,1,0,0:0:0:0:
236,186,93847,1,0,0:0:0:0:
236,186,93912,1,8,0:0:0:0:
236,186,94042,1,8,0:0:0:0:
236,184,94172,1,0,0:0:0:0:
235,186,94237,1,8,0:0:0:0:
235,186,94302,1,0,0:0:0:0:
235,186,94367,1,0,0:0:0:0:
235,186,94432,1,8,0:0:0:0:
236,186,94562,1,0,0:0:0:0:
236,186,94627,1,0,0:0:0:0:
236,186,94692,1,8,0:0:0:0:
236,186,94756,1,0,0:0:0:0:
236,186,94821,1,8,0:0:0:0:
236,184,94886,1,8,0:0:0:0:
236,184,94951,1,0,0:0:0:0:
266,180,95081,1,0,0:0:0:0:
271,184,95211,1,8,0:0:0:0:
271,184,95276,1,8,0:0:0:0:
271,184,95341,1,0,0:0:0:0:
271,184,95406,1,8,0:0:0:0:
271,184,95471,1,8,0:0:0:0:
277,176,95601,1,0,0:0:0:0:
286,192,95730,1,8,0:0:0:0:
286,192,95795,1,8,0:0:0:0:
286,192,95860,1,0,0:0:0:0:
286,192,95925,1,0,0:0:0:0:
286,192,95990,1,8,0:0:0:0:
286,192,96055,1,0,0:0:0:0:
286,192,96120,1,8,0:0:0:0:
286,192,96250,1,0,0:0:0:0:
284,187,96380,1,8,0:0:0:0:
299,189,96445,1,8,0:0:0:0:
299,189,96510,1,8,0:0:0:0:
315,189,96640,1,8,0:0:0:0:
315,189,96769,1,0,0:0:0:0:
315,189,96834,1,0,0:0:0:0:
315,189,96899,1,0,0:0:0:0:
280,167,96964,1,0,0:0:0:0:
275,163,97029,1,8,0:0:0:0:
244,192,97159,1,8,0:0:0:0:
244,192,97289,1,4,0:0:0:0:
275,228,97419,1,8,0:0:0:0:
275,228,97484,1,8,0:0:0:0:
275,228,97549,1,0,0:0:0:0:
275,228,97679,1,8,0:0:0:0:
275,228,97743,1,8,0:0:0:0:
275,228,97808,1,0,0:0:0:0:
275,228,97938,1,0,0:0:0:0:
275,228,98068,1,12,0:0:0:0:
275,228,98328,1,4,0:0:0:0:
279,177,98458,1,8,0:0:0:0:
279,177,98523,1,8,0:0:0:0:
279,177,98588,1,0,0:0:0:0:
279,177,98717,1,0,0:0:0:0:
279,177,98782,1,0,0:0:0:0:
279,177,98847,1,8,0:0:0:0:
279,177,98977,1,8,0:0:0:0:
279,177,99042,1,8,0:0:0:0:
270,174,99107,1,8,0:0:0:0:
246,211,99237,1,8,0:0:0:0:
244,239,99367,1,0,0:0:0:0:
244,239,99432,1,8,0:0:0:0:
244,239,99497,1,0,0:0:0:0:
244,239,99562,1,8,0:0:0:0:
244,239,99627,1,8,0:0:0:0:
253,240,99692,1,0,0:0:0:0:
253,240,99756,1,8,0:0:0:0:
253,240,99821,1,0,0:0:0:0:
253,240,99886,1,8,0:0:0:0:
253,240,99951,1,8,0:0:0:0:
253,240,100016,1,0,0:0:0:0:
253,240,100081,1,8,0:0:0:0:
253,240,100146,1,0,0:0:0:0:
253,240,100211,1,8,0:0:0:0:
253,240,100276,1,8,0:0:0:0:
253,240,100341,1,0,0:0:0:0:
253,240,100406,1,8,0:0:0:0:
241,218,100492,1,8,0:0:0:0:
241,218,100579,1,8,0:0:0:0:
241,218,100666,1,0,0:0:0:0:
241,218,100752,1,0,0:0:0:0:
241,218,100839,1,0,0:0:0:0:
241,218,100925,1,8,0:0:0:0:
233,189,101098,1,8,0:0:0:0:
251,175,101272,1,8,0:0:0:0:
213,207,101445,1,0,0:0:0:0:
216,218,101964,1,0,0:0:0:0:
244,187,102224,1,8,0:0:0:0:
244,187,102354,1,8,0:0:0:0:
216,218,102484,1,0,0:0:0:0:
221,188,102743,1,8,0:0:0:0:
221,188,103003,1,0,0:0:0:0:
221,188,103263,1,8,0:0:0:0:
221,188,103523,1,0,0:0:0:0:
255,191,103588,1,0,0:0:0:0:
255,191,103653,1,0,0:0:0:0:
255,191,103717,1,0,0:0:0:0:
255,191,103782,1,8,0:0:0:0:
255,191,103847,1,8,0:0:0:0:
255,191,103912,1,8,0:0:0:0:
255,191,103977,1,8,0:0:0:0:
255,191,104042,1,0,0:0:0:0:
255,191,104107,1,0,0:0:0:0:
255,191,104172,1,0,0:0:0:0:
255,191,104237,1,0,0:0:0:0:
255,191,104302,1,8,0:0:0:0:
255,191,104367,1,8,0:0:0:0:
255,191,104432,1,8,0:0:0:0:
255,191,104497,1,8,0:0:0:0:
255,191,104562,1,0,0:0:0:0:
255,191,104627,1,0,0:0:0:0:
255,191,104692,1,0,0:0:0:0:
255,191,104756,1,0,0:0:0:0:
255,191,104821,1,8,0:0:0:0:
255,191,104886,1,8,0:0:0:0:
255,191,104951,1,8,0:0:0:0:
255,191,105016,1,8,0:0:0:0:
255,191,105081,1,4,0:0:0:0:
246,190,105341,1,12,0:0:0:0:
246,190,105601,1,4,0:0:0:0:
244,196,105730,1,8,0:0:0:0:
252,205,105795,1,8,0:0:0:0:
252,205,105860,1,0,0:0:0:0:
252,205,105925,1,8,0:0:0:0:
252,205,105990,1,0,0:0:0:0:
252,205,106055,1,8,0:0:0:0:
252,205,106120,1,8,0:0:0:0:
210,176,106250,1,0,0:0:0:0:
230,181,106380,1,8,0:0:0:0:
230,181,106445,1,0,0:0:0:0:
234,182,106510,1,8,0:0:0:0:
234,182,106575,1,8,0:0:0:0:
234,182,106640,1,0,0:0:0:0:
256,178,106769,1,0,0:0:0:0:
259,178,106834,1,0,0:0:0:0:
259,178,106899,1,8,0:0:0:0:
265,152,107029,1,0,0:0:0:0:
265,152,107094,1,0,0:0:0:0:
264,185,107159,1,8,0:0:0:0:
264,185,107224,1,8,0:0:0:0:
264,185,107289,1,0,0:0:0:0:
241,148,107354,1,8,0:0:0:0:
241,148,107419,1,0,0:0:0:0:
241,148,107549,1,0,0:0:0:0:
257,194,107679,1,8,0:0:0:0:
257,194,107743,1,8,0:0:0:0:
257,194,107808,1,0,0:0:0:0:
257,194,107873,1,8,0:0:0:0:
257,194,107938,1,0,0:0:0:0:
257,195,108003,1,8,0:0:0:0:
257,195,108068,1,8,0:0:0:0:
257,195,108133,1,0,0:0:0:0:
257,195,108198,1,8,0:0:0:0:
257,195,108263,1,0,0:0:0:0:
257,195,108328,1,8,0:0:0:0:
257,195,108393,1,8,0:0:0:0:
257,195,108458,1,0,0:0:0:0:
257,195,108523,1,8,0:0:0:0:
257,195,108588,1,0,0:0:0:0:
257,195,108653,1,0,0:0:0:0:
263,206,108717,1,8,0:0:0:0:
236,182,108847,1,0,0:0:0:0:
250,183,108912,1,0,0:0:0:0:
249,182,108977,1,0,0:0:0:0:
236,168,109107,1,0,0:0:0:0:
236,168,109237,1,12,0:0:0:0:
236,168,109432,1,12,0:0:0:0:
269,172,109627,1,8,0:0:0:0:
236,168,109756,1,4,0:0:0:0:
241,172,109886,1,4,0:0:0:0:
217,202,110146,1,4,0:0:0:0:
260,193,110406,1,0,0:0:0:0:
260,193,110471,1,8,0:0:0:0:
260,193,110536,1,0,0:0:0:0:
241,172,110666,1,0,0:0:0:0:
301,219,110730,1,0,0:0:0:0:
244,169,110795,1,8,0:0:0:0:
244,169,110925,1,0,0:0:0:0:
240,139,110990,1,0,0:0:0:0:
249,174,111055,1,8,0:0:0:0:
225,127,111120,1,0,0:0:0:0:
249,174,111185,1,8,0:0:0:0:
225,127,111250,1,8,0:0:0:0:
249,174,111315,1,0,0:0:0:0:
241,181,111445,1,0,0:0:0:0:
256,190,111575,1,12,0:0:0:0:
229,191,111834,1,4,0:0:0:0:
229,191,111964,1,4,0:0:0:0:
229,191,112224,1,4,0:0:0:0:
279,251,112484,1,8,0:0:0:0:
279,251,112549,1,8,0:0:0:0:
279,251,112614,1,0,0:0:0:0:
279,251,112743,1,0,0:0:0:0:
279,251,112808,1,0,0:0:0:0:
279,251,112873,1,8,0:0:0:0:
275,242,113003,1,0,0:0:0:0:
277,179,113068,1,8,0:0:0:0:
277,179,113133,1,8,0:0:0:0:
277,179,113198,1,0,0:0:0:0:
277,179,113263,1,8,0:0:0:0:
277,179,113328,1,8,0:0:0:0:
273,169,113393,1,0,0:0:0:0:
227,195,113653,1,8,0:0:0:0:
227,195,113912,1,4,0:0:0:0:
230,187,114042,1,0,0:0:0:0:
230,187,114172,1,8,0:0:0:0:
230,187,114302,1,0,0:0:0:0:
230,187,114432,1,4,0:0:0:0:
230,187,114562,1,0,0:0:0:0:
230,187,114692,1,8,0:0:0:0:
246,184,114821,1,8,0:0:0:0:
247,184,114951,1,4,0:0:0:0:
253,185,115081,1,8,0:0:0:0:
293,170,115146,1,8,0:0:0:0:
253,185,115211,1,0,0:0:0:0:
253,185,115341,1,8,0:0:0:0:
253,186,115471,1,4,0:0:0:0:
253,185,115601,1,0,0:0:0:0:
206,164,115666,1,0,0:0:0:0:
253,185,115730,1,8,0:0:0:0:
253,185,115860,1,0,0:0:0:0:
253,185,115990,1,8,0:0:0:0:
254,193,116055,1,0,0:0:0:0:
254,193,116120,1,8,0:0:0:0:
254,193,116185,1,0,0:0:0:0:
254,193,116250,1,8,0:0:0:0:
254,193,116315,1,0,0:0:0:0:
254,193,116380,1,8,0:0:0:0:
254,193,116445,1,8,0:0:0:0:
254,193,116510,1,0,0:0:0:0:
254,193,116575,1,8,0:0:0:0:
254,193,116640,1,0,0:0:0:0:
254,193,116705,1,8,0:0:0:0:
254,193,116769,1,0,0:0:0:0:
254,193,116834,1,8,0:0:0:0:
254,193,116899,1,0,0:0:0:0:
254,193,116964,1,0,0:0:0:0:
254,193,117029,1,8,0:0:0:0:
254,193,117094,1,8,0:0:0:0:
254,193,117159,1,0,0:0:0:0:
254,193,117224,1,8,0:0:0:0:
254,193,117289,1,0,0:0:0:0:
254,193,117354,1,8,0:0:0:0:
254,193,117419,1,8,0:0:0:0:
254,193,117484,1,0,0:0:0:0:
254,193,117549,1,8,0:0:0:0:
254,193,117614,1,0,0:0:0:0:
254,193,117679,1,8,0:0:0:0:
254,193,117743,1,8,0:0:0:0:
254,193,117808,1,0,0:0:0:0:
254,193,117873,1,8,0:0:0:0:
254,193,117938,1,8,0:0:0:0:
254,193,118003,1,8,0:0:0:0:
254,193,118068,1,4,0:0:0:0:
266,205,118198,1,4,0:0:0:0:
249,201,118458,1,4,0:0:0:0:
249,201,118717,1,4,0:0:0:0:
249,201,118977,1,4,0:0:0:0:
250,172,119237,1,4,0:0:0:0:
250,172,119367,1,4,0:0:0:0:
250,172,119627,1,12,0:0:0:0:
250,172,119886,1,12,0:0:0:0:
252,177,120146,1,0,0:0:0:0:
252,177,120276,1,0,0:0:0:0:
252,177,120406,1,8,0:0:0:0:
255,151,120471,1,0,0:0:0:0:
253,150,120536,1,0,0:0:0:0:
255,151,120666,1,8,0:0:0:0:
261,163,120730,1,8,0:0:0:0:
261,163,120795,1,0,0:0:0:0:
261,163,120925,1,8,0:0:0:0:
261,163,121055,1,0,0:0:0:0:
261,163,121120,1,0,0:0:0:0:
261,163,121185,1,0,0:0:0:0:
261,163,121250,1,0,0:0:0:0:
261,163,121315,1,8,0:0:0:0:
261,163,121445,1,8,0:0:0:0:
261,163,121575,1,0,0:0:0:0:
261,163,121705,1,4,0:0:0:0:
261,163,121964,1,4,0:0:0:0:
295,169,122224,1,0,0:0:0:0:
262,174,122354,1,0,0:0:0:0:
251,217,122484,1,8,0:0:0:0:
251,217,122549,1,8,0:0:0:0:
251,217,122614,1,0,0:0:0:0:
249,211,122743,1,8,0:0:0:0:
249,211,122808,1,0,0:0:0:0:
249,211,122873,1,0,0:0:0:0:
249,211,123003,1,8,0:0:0:0:
249,211,123133,1,0,0:0:0:0:
249,211,123198,1,0,0:0:0:0:
249,211,123263,1,0,0:0:0:0:
249,211,123328,1,0,0:0:0:0:
249,211,123393,1,8,0:0:0:0:
249,211,123523,1,8,0:0:0:0:
249,211,123653,1,0,0:0:0:0:
249,211,123782,1,12,0:0:0:0:
249,211,124042,1,12,0:0:0:0:
235,210,124302,1,0,0:0:0:0:
235,210,124432,1,0,0:0:0:0:
236,209,124562,1,8,0:0:0:0:
236,209,124627,1,8,0:0:0:0:
236,209,124692,1,0,0:0:0:0:
249,211,124821,1,8,0:0:0:0:
249,211,124886,1,8,0:0:0:0:
249,211,124951,1,0,0:0:0:0:
246,212,125081,1,8,0:0:0:0:
246,212,125211,1,0,0:0:0:0:
246,212,125276,1,0,0:0:0:0:
246,212,125341,1,0,0:0:0:0:
246,212,125406,1,0,0:0:0:0:
246,212,125471,1,8,0:0:0:0:
246,212,125601,1,8,0:0:0:0:
249,211,125730,1,0,0:0:0:0:
249,211,125860,1,4,0:0:0:0:
219,188,126120,1,4,0:0:0:0:
253,189,126380,1,4,0:0:0:0:
215,196,126640,1,8,0:0:0:0:
216,196,126899,1,8,0:0:0:0:
243,199,127159,1,8,0:0:0:0:
246,192,127419,1,8,0:0:0:0:
253,192,127679,1,8,0:0:0:0:
256,192,127938,1,8,0:0:0:0:
256,192,128198,1,8,0:0:0:0:
253,192,128458,1,0,0:0:0:0:
256,192,128717,1,8,0:0:0:0:
256,192,128977,1,8,0:0:0:0:
253,192,129237,1,8,0:0:0:0:
256,192,129497,1,8,0:0:0:0:
256,192,129756,1,8,0:0:0:0:
253,192,130016,1,8,0:0:0:0:
256,192,130276,1,8,0:0:0:0:
256,192,130536,1,4,0:0:0:0:
238,171,130666,1,0,0:0:0:0:
246,176,130730,1,0,0:0:0:0:
246,176,130795,1,8,0:0:0:0:
246,176,130925,1,8,0:0:0:0:
246,176,130990,1,8,0:0:0:0:
246,176,131055,1,0,0:0:0:0:
246,176,131185,1,0,0:0:0:0:
246,176,131250,1,0,0:0:0:0:
246,176,131315,1,8,0:0:0:0:
246,176,131380,1,0,0:0:0:0:
246,176,131445,1,0,0:0:0:0:
246,176,131510,1,0,0:0:0:0:
246,176,131575,1,8,0:0:0:0:
246,176,131705,1,0,0:0:0:0:
246,176,131769,1,0,0:0:0:0:
246,176,131834,1,8,0:0:0:0:
246,176,131964,1,8,0:0:0:0:
246,176,132029,1,8,0:0:0:0:
246,176,132094,1,0,0:0:0:0:
246,176,132159,1,8,0:0:0:0:
246,176,132224,1,0,0:0:0:0:
246,176,132289,1,0,0:0:0:0:
246,176,132354,1,8,0:0:0:0:
246,176,132484,1,8,0:0:0:0:
246,187,132527,1,8,0:0:0:0:
246,187,132570,1,8,0:0:0:0:
246,187,132614,1,0,0:0:0:0:
267,205,132679,1,8,0:0:0:0:
228,197,132743,1,0,0:0:0:0:
220,179,132808,1,0,0:0:0:0:
285,197,132873,1,8,0:0:0:0:
285,197,132917,1,8,0:0:0:0:
278,195,132960,1,8,0:0:0:0:
278,195,133003,1,0,0:0:0:0:
224,177,133068,1,0,0:0:0:0:
224,177,133133,1,8,0:0:0:0:
224,177,133198,1,0,0:0:0:0:
278,195,133263,1,8,0:0:0:0:
278,195,133306,1,8,0:0:0:0:
278,195,133350,1,8,0:0:0:0:
278,195,133393,1,0,0:0:0:0:
224,177,133458,1,0,0:0:0:0:
257,185,133523,1,8,0:0:0:0:
257,185,133566,1,8,0:0:0:0:
257,185,133609,1,8,0:0:0:0:
257,185,133653,1,0,0:0:0:0:
242,189,133782,1,8,0:0:0:0:
242,189,133847,1,0,0:0:0:0:
242,189,133912,1,8,0:0:0:0:
242,189,134042,1,0,0:0:0:0:
242,189,134172,1,8,0:0:0:0:
242,189,134367,1,0,0:0:0:0:
242,189,134562,1,8,0:0:0:0:
242,189,134692,1,4,0:0:0:0:
256,192,134821,12,0,136510,0:0:0:0:
221,169,136769,5,4,0:0:0:0:
