osu file format v14

[General]
AudioFilename: Tempestissimo.mp3
AudioLeadIn: 0
PreviewTime: 84821
Countdown: 0
SampleSet: Normal
StackLeniency: 0.7
Mode: 1
LetterboxInBreaks: 0
EpilepsyWarning: 1
WidescreenStoryboard: 1

[Editor]
DistanceSpacing: 0.1
BeatDivisor: 4
GridSize: 32
TimelineZoom: 2.3

[Metadata]
Title:Tempestissimo
TitleUnicode:Tempestissimo
Artist:t+pazolite
ArtistUnicode:t+pazolite
Creator:Kuo Kyoka
Version:1811's Oni
Source:Arcaea
Tags:lowiro Black Fate Chapter IV 対立 Tairitsu Speedcore Video Game Instrumental Anomaly Heartache Debug Critical_Star Ichigaki Dellvangel Amaryllis taiko_maniac1811 Raytoly Rhytoly Akasha
BeatmapID:2561043
BeatmapSetID:1179815

[Difficulty]
HPDrainRate:6
CircleSize:4
OverallDifficulty:6
ApproachRate:5
SliderMultiplier:1.4
SliderTickRate:1

[Events]
//Background and Video events
0,0,"connect.jpg",0,240
//Break Periods
//Storyboard Layer 0 (Background)
//Storyboard Layer 1 (Fail)
//Storyboard Layer 2 (Pass)
//Storyboard Layer 3 (Foreground)
//Storyboard Layer 4 (Overlay)
Sprite,Overlay,Centre,"sb\lowest.world.png",320,240 S,0,84821,,0.675 F,0,84821,85341,0,1 F,0,86769,86899,1,0
Sprite,Overlay,Centre,"SB\vig.png",320,240 M,0,84821,,320,240 S,0,84821,,0.455 F,0,84821,86899,0,0.8
Animation,Overlay,Centre,"sb\static-.jpg",320,240,4,20,LoopForever M,0,134692,,320,240 S,0,134692,,0.675 F,0,134692,137549,0,0.3
//Storyboard Sound Samples

[TimingPoints]
1705,259.74025974026,4,1,0,95,1,0
26640,-100,4,1,0,95,0,1
51575,-100,4,1,0,95,0,0
76510,-133.333333333333,4,1,0,95,0,0
78588,-113.636363636364,4,1,0,95,0,0
80666,-100,4,1,0,95,0,0
85860,-166.666666666667,4,1,0,95,0,0
86899,-200,4,1,0,95,0,0
87419,-142.857142857143,4,1,0,95,0,0
87938,-111.111111111111,4,1,0,95,0,0
88198,-100,4,1,0,95,0,0
88458,-90.9090909090909,4,1,0,95,0,0
88977,-100,4,1,0,95,0,1
101445,-100,4,1,0,95,0,0
105601,-100,4,1,0,95,0,1
126380,-100,4,1,0,95,0,0

[HitObjects]
256,192,1705,5,8,0:0:0:0:
256,192,2484,1,8,0:0:0:0:
256,192,2614,1,8,0:0:0:0:
256,192,2743,1,8,0:0:0:0:
256,192,3003,1,8,0:0:0:0:
256,192,3263,1,0,0:0:0:0:
256,192,3523,1,8,0:0:0:0:
256,192,3782,1,0,0:0:0:0:
256,192,4302,1,8,0:0:0:0:
256,192,4821,1,8,0:0:0:0:
256,192,5341,1,8,0:0:0:0:
256,192,5860,1,0,0:0:0:0:
256,192,6640,1,8,0:0:0:0:
256,192,6769,1,8,0:0:0:0:
256,192,6899,1,8,0:0:0:0:
256,192,7159,1,8,0:0:0:0:
256,192,7419,1,0,0:0:0:0:
256,192,7679,1,8,0:0:0:0:
256,192,7938,2,0,L|416:192,4,140
256,192,9756,1,0,0:0:0:0:
256,192,10016,1,8,0:0:0:0:
256,192,10795,1,0,0:0:0:0:
256,192,10925,1,8,0:0:0:0:
256,192,11055,1,8,0:0:0:0:
256,192,11315,1,8,0:0:0:0:
256,192,11575,1,0,0:0:0:0:
256,192,11834,1,8,0:0:0:0:
256,192,12094,1,0,0:0:0:0:
256,192,12614,1,8,0:0:0:0:
256,192,13133,1,8,0:0:0:0:
256,192,13653,1,8,0:0:0:0:
256,192,14172,1,0,0:0:0:0:
256,192,14951,1,0,0:0:0:0:
256,192,15081,1,8,0:0:0:0:
256,192,15211,1,8,0:0:0:0:
256,192,15471,1,8,0:0:0:0:
256,192,15730,1,0,0:0:0:0:
256,192,15990,1,8,0:0:0:0:
256,192,18328,1,4,0:0:0:0:
256,192,18458,1,4,0:0:0:0:
256,192,18588,1,8,0:0:0:0:
256,192,18847,1,8,0:0:0:0:
256,192,19042,1,8,0:0:0:0:
256,192,19237,1,8,0:0:0:0:
256,192,19497,1,8,0:0:0:0:
256,192,19562,1,8,0:0:0:0:
256,192,19627,1,0,0:0:0:0:
256,192,19756,1,0,0:0:0:0:
256,192,19886,1,8,0:0:0:0:
256,192,20016,1,0,0:0:0:0:
256,192,20146,1,0,0:0:0:0:
256,192,20276,1,8,0:0:0:0:
256,192,20406,1,4,0:0:0:0:
256,192,20536,1,4,0:0:0:0:
256,192,20666,1,8,0:0:0:0:
256,192,20925,1,8,0:0:0:0:
256,192,21120,1,8,0:0:0:0:
256,192,21315,1,8,0:0:0:0:
256,192,21575,1,8,0:0:0:0:
256,192,21640,1,0,0:0:0:0:
256,192,21705,1,0,0:0:0:0:
256,192,21834,1,0,0:0:0:0:
256,192,21964,1,8,0:0:0:0:
256,192,22094,1,0,0:0:0:0:
256,192,22224,1,8,0:0:0:0:
256,192,22354,1,8,0:0:0:0:
256,192,22484,1,4,0:0:0:0:
256,192,22743,1,8,0:0:0:0:
256,192,23003,1,8,0:0:0:0:
256,192,23198,1,8,0:0:0:0:
256,192,23393,1,8,0:0:0:0:
256,192,23653,1,8,0:0:0:0:
256,192,23717,1,8,0:0:0:0:
256,192,23782,1,0,0:0:0:0:
256,192,23912,1,0,0:0:0:0:
256,192,24042,1,8,0:0:0:0:
256,192,24172,1,0,0:0:0:0:
256,192,24302,1,0,0:0:0:0:
256,192,24432,1,8,0:0:0:0:
256,192,24562,1,0,0:0:0:0:
256,192,24692,1,0,0:0:0:0:
256,192,24756,1,0,0:0:0:0:
256,192,24821,1,8,0:0:0:0:
256,192,24951,1,0,0:0:0:0:
256,192,25081,1,0,0:0:0:0:
256,192,25341,1,8,0:0:0:0:
256,192,25471,1,0,0:0:0:0:
256,192,25730,1,8,0:0:0:0:
256,192,25795,1,8,0:0:0:0:
256,192,25860,1,0,0:0:0:0:
256,192,25925,1,0,0:0:0:0:
256,192,25990,1,8,0:0:0:0:
256,192,26120,1,4,0:0:0:0:
256,192,26640,1,4,0:0:0:0:
256,192,26769,1,4,0:0:0:0:
256,192,26899,1,8,0:0:0:0:
256,192,27029,1,0,0:0:0:0:
256,192,27159,1,8,0:0:0:0:
256,192,27354,1,8,0:0:0:0:
256,192,27549,1,8,0:0:0:0:
256,192,27808,1,8,0:0:0:0:
256,192,27873,1,8,0:0:0:0:
256,192,27938,1,0,0:0:0:0:
256,192,28068,1,0,0:0:0:0:
256,192,28198,1,8,0:0:0:0:
256,192,28328,1,0,0:0:0:0:
256,192,28458,1,0,0:0:0:0:
256,192,28588,1,8,0:0:0:0:
256,192,28717,1,4,0:0:0:0:
256,192,28847,1,4,0:0:0:0:
256,192,28977,1,8,0:0:0:0:
256,192,29107,1,0,0:0:0:0:
256,192,29237,1,8,0:0:0:0:
256,192,29432,1,8,0:0:0:0:
256,192,29627,1,8,0:0:0:0:
256,192,29886,1,8,0:0:0:0:
256,192,29951,1,0,0:0:0:0:
256,192,30016,1,0,0:0:0:0:
256,192,30146,1,0,0:0:0:0:
256,192,30276,1,8,0:0:0:0:
256,192,30406,1,0,0:0:0:0:
256,192,30536,1,8,0:0:0:0:
256,192,30666,1,8,0:0:0:0:
256,192,30795,1,4,0:0:0:0:
256,192,30925,1,4,0:0:0:0:
256,192,31055,1,8,0:0:0:0:
256,192,31185,1,0,0:0:0:0:
256,192,31315,1,8,0:0:0:0:
256,192,31510,1,8,0:0:0:0:
256,192,31705,1,8,0:0:0:0:
256,192,31964,1,8,0:0:0:0:
256,192,32029,1,8,0:0:0:0:
256,192,32094,1,0,0:0:0:0:
256,192,32224,1,0,0:0:0:0:
256,192,32354,1,8,0:0:0:0:
256,192,32484,1,0,0:0:0:0:
256,192,32614,1,0,0:0:0:0:
256,192,32743,1,8,0:0:0:0:
256,192,32873,1,4,0:0:0:0:
256,192,33003,1,4,0:0:0:0:
256,192,33133,1,8,0:0:0:0:
256,192,33263,1,0,0:0:0:0:
256,192,33393,1,8,0:0:0:0:
256,192,33588,1,8,0:0:0:0:
256,192,33782,1,8,0:0:0:0:
256,192,34042,1,0,0:0:0:0:
256,192,34107,1,8,0:0:0:0:
256,192,34172,1,8,0:0:0:0:
256,192,34302,1,8,0:0:0:0:
256,192,34432,1,0,0:0:0:0:
256,192,34692,1,8,0:0:0:0:
256,192,34951,1,4,0:0:0:0:
256,192,35211,1,4,0:0:0:0:
256,192,35471,1,4,0:0:0:0:
256,192,35666,1,4,0:0:0:0:
256,192,35860,1,4,0:0:0:0:
256,192,36120,1,8,0:0:0:0:
256,192,36185,1,8,0:0:0:0:
256,192,36250,1,0,0:0:0:0:
256,192,36380,1,0,0:0:0:0:
256,192,36510,1,8,0:0:0:0:
256,192,36640,1,0,0:0:0:0:
256,192,36705,1,8,0:0:0:0:
256,192,36769,1,8,0:0:0:0:
256,192,36899,1,8,0:0:0:0:
256,192,37029,1,4,0:0:0:0:
256,192,37289,1,4,0:0:0:0:
256,192,37549,1,4,0:0:0:0:
256,192,37743,1,4,0:0:0:0:
256,192,37938,1,4,0:0:0:0:
256,192,38198,1,8,0:0:0:0:
256,192,38263,1,0,0:0:0:0:
256,192,38328,1,0,0:0:0:0:
256,192,38458,1,0,0:0:0:0:
256,192,38588,1,8,0:0:0:0:
256,192,38717,1,0,0:0:0:0:
256,192,38782,1,0,0:0:0:0:
256,192,38847,1,8,0:0:0:0:
256,192,38977,1,8,0:0:0:0:
256,192,39107,1,4,0:0:0:0:
256,192,39367,1,8,0:0:0:0:
256,192,39627,1,8,0:0:0:0:
256,192,39821,1,8,0:0:0:0:
256,192,40016,1,8,0:0:0:0:
256,192,40276,1,8,0:0:0:0:
256,192,40341,1,8,0:0:0:0:
256,192,40406,1,0,0:0:0:0:
256,192,40536,1,0,0:0:0:0:
256,192,40666,1,8,0:0:0:0:
256,192,40795,1,0,0:0:0:0:
256,192,40925,1,0,0:0:0:0:
256,192,41055,1,8,0:0:0:0:
256,192,41185,1,0,0:0:0:0:
256,192,41315,1,0,0:0:0:0:
256,192,41380,1,0,0:0:0:0:
256,192,41445,1,8,0:0:0:0:
256,192,41575,1,0,0:0:0:0:
256,192,41705,1,0,0:0:0:0:
256,192,41964,1,8,0:0:0:0:
256,192,42094,1,0,0:0:0:0:
256,192,42354,1,8,0:0:0:0:
256,192,42419,1,8,0:0:0:0:
256,192,42484,1,0,0:0:0:0:
256,192,42549,1,0,0:0:0:0:
256,192,42614,1,8,0:0:0:0:
256,192,42743,1,0,0:0:0:0:
256,192,42808,1,0,0:0:0:0:
256,192,42873,1,8,0:0:0:0:
256,192,42938,1,8,0:0:0:0:
256,192,43003,1,0,0:0:0:0:
256,192,43133,1,8,0:0:0:0:
256,192,43263,1,4,0:0:0:0:
256,192,43393,1,4,0:0:0:0:
256,192,43653,1,4,0:0:0:0:
256,192,43912,1,4,0:0:0:0:
256,192,44172,1,4,0:0:0:0:
256,192,44432,1,4,0:0:0:0:
256,192,44562,1,4,0:0:0:0:
256,192,44692,1,8,0:0:0:0:
256,192,44821,1,4,0:0:0:0:
256,192,45081,1,4,0:0:0:0:
256,192,45341,1,4,0:0:0:0:
256,192,45471,1,4,0:0:0:0:
256,192,45601,1,8,0:0:0:0:
256,192,45730,1,4,0:0:0:0:
256,192,45990,1,4,0:0:0:0:
256,192,46250,1,4,0:0:0:0:
256,192,46510,1,4,0:0:0:0:
256,192,46640,1,4,0:0:0:0:
256,192,46769,1,8,0:0:0:0:
256,192,46899,1,4,0:0:0:0:
256,192,47159,1,4,0:0:0:0:
256,192,47419,1,4,0:0:0:0:
256,192,47549,1,4,0:0:0:0:
256,192,47808,1,4,0:0:0:0:
256,192,48068,1,4,0:0:0:0:
256,192,48328,1,4,0:0:0:0:
256,192,48588,1,4,0:0:0:0:
256,192,48717,1,4,0:0:0:0:
256,192,48847,1,8,0:0:0:0:
256,192,48977,1,4,0:0:0:0:
256,192,49237,1,4,0:0:0:0:
256,192,49497,1,4,0:0:0:0:
256,192,49627,1,4,0:0:0:0:
256,192,49756,1,8,0:0:0:0:
256,192,49886,1,4,0:0:0:0:
256,192,50146,1,4,0:0:0:0:
256,192,50406,1,4,0:0:0:0:
256,192,50666,1,4,0:0:0:0:
256,192,50795,1,4,0:0:0:0:
256,192,50925,1,8,0:0:0:0:
256,192,51055,1,4,0:0:0:0:
256,192,51315,1,4,0:0:0:0:
256,192,51575,2,4,L|320:192,48,35
256,192,55730,1,0,0:0:0:0:
256,192,55860,1,0,0:0:0:0:
256,192,55990,1,8,0:0:0:0:
256,192,56120,1,0,0:0:0:0:
256,192,56250,1,0,0:0:0:0:
256,192,56380,1,0,0:0:0:0:
256,192,56510,1,8,0:0:0:0:
256,192,56640,1,0,0:0:0:0:
256,192,56769,1,0,0:0:0:0:
256,192,56899,1,0,0:0:0:0:
256,192,57029,1,8,0:0:0:0:
256,192,57159,1,0,0:0:0:0:
256,192,57289,1,0,0:0:0:0:
256,192,57419,1,0,0:0:0:0:
256,192,57549,1,8,0:0:0:0:
256,192,57679,1,0,0:0:0:0:
256,192,57808,1,0,0:0:0:0:
256,192,57873,1,0,0:0:0:0:
256,192,57938,1,0,0:0:0:0:
256,192,58068,1,8,0:0:0:0:
256,192,58198,1,0,0:0:0:0:
256,192,58328,1,0,0:0:0:0:
256,192,58393,1,0,0:0:0:0:
256,192,58458,1,0,0:0:0:0:
256,192,58588,1,8,0:0:0:0:
256,192,58717,1,0,0:0:0:0:
256,192,58847,1,0,0:0:0:0:
256,192,58912,1,0,0:0:0:0:
256,192,58977,1,0,0:0:0:0:
256,192,59042,1,0,0:0:0:0:
256,192,59107,1,0,0:0:0:0:
256,192,59172,1,0,0:0:0:0:
256,192,59237,1,0,0:0:0:0:
256,192,59302,1,0,0:0:0:0:
256,192,59367,1,0,0:0:0:0:
256,192,59627,1,12,0:0:0:0:
256,192,59886,1,0,0:0:0:0:
256,192,60146,1,8,0:0:0:0:
256,192,60406,1,0,0:0:0:0:
256,192,60666,1,8,0:0:0:0:
256,192,60795,1,0,0:0:0:0:
256,192,61055,1,0,0:0:0:0:
256,192,61120,1,0,0:0:0:0:
256,192,61185,1,8,0:0:0:0:
256,192,61315,1,8,0:0:0:0:
256,192,61445,1,0,0:0:0:0:
256,192,61705,1,8,0:0:0:0:
256,192,61964,1,0,0:0:0:0:
256,192,62224,1,8,0:0:0:0:
256,192,62484,1,0,0:0:0:0:
256,192,62614,1,0,0:0:0:0:
256,192,62743,1,8,0:0:0:0:
256,192,62873,1,0,0:0:0:0:
256,192,63133,1,0,0:0:0:0:
256,192,63198,1,0,0:0:0:0:
256,192,63263,1,8,0:0:0:0:
256,192,63393,1,8,0:0:0:0:
256,192,63523,1,4,0:0:0:0:
256,192,63782,1,4,0:0:0:0:
256,192,64042,1,0,0:0:0:0:
256,192,64302,1,8,0:0:0:0:
256,192,64562,1,0,0:0:0:0:
256,192,64692,1,0,0:0:0:0:
256,192,64821,1,8,0:0:0:0:
256,192,64951,1,0,0:0:0:0:
256,192,65211,1,0,0:0:0:0:
256,192,65276,1,0,0:0:0:0:
256,192,65341,1,8,0:0:0:0:
256,192,65471,1,8,0:0:0:0:
256,192,65601,1,0,0:0:0:0:
256,192,65860,1,8,0:0:0:0:
256,192,66120,1,0,0:0:0:0:
256,192,66380,1,8,0:0:0:0:
256,192,66640,1,0,0:0:0:0:
256,192,66769,1,0,0:0:0:0:
256,192,66899,1,8,0:0:0:0:
256,192,67029,1,0,0:0:0:0:
256,192,67289,1,0,0:0:0:0:
256,192,67354,1,0,0:0:0:0:
256,192,67419,1,8,0:0:0:0:
256,192,67549,1,0,0:0:0:0:
256,192,67679,12,0,68198,0:0:0:0:
256,192,68458,5,12,0:0:0:0:
256,192,68588,1,0,0:0:0:0:
256,192,68717,1,0,0:0:0:0:
256,192,68847,1,0,0:0:0:0:
256,192,68977,1,12,0:0:0:0:
256,192,69107,1,0,0:0:0:0:
256,192,69367,1,0,0:0:0:0:
256,192,69432,1,0,0:0:0:0:
256,192,69497,1,8,0:0:0:0:
256,192,69627,1,8,0:0:0:0:
256,192,69756,1,0,0:0:0:0:
256,192,70016,1,12,0:0:0:0:
256,192,70276,1,0,0:0:0:0:
256,192,70536,1,12,0:0:0:0:
256,192,70666,1,0,0:0:0:0:
256,192,70795,1,0,0:0:0:0:
256,192,70925,1,0,0:0:0:0:
256,192,71055,1,12,0:0:0:0:
256,192,71185,1,0,0:0:0:0:
256,192,71445,1,0,0:0:0:0:
256,192,71510,1,8,0:0:0:0:
256,192,71575,1,8,0:0:0:0:
256,192,71705,1,8,0:0:0:0:
256,192,71834,1,4,0:0:0:0:
256,192,72094,1,4,0:0:0:0:
256,192,72354,1,0,0:0:0:0:
256,192,72614,1,12,0:0:0:0:
256,192,72743,1,0,0:0:0:0:
256,192,72873,1,0,0:0:0:0:
256,192,73003,1,0,0:0:0:0:
256,192,73133,1,12,0:0:0:0:
256,192,73263,1,0,0:0:0:0:
256,192,73523,1,0,0:0:0:0:
256,192,73588,1,0,0:0:0:0:
256,192,73653,1,8,0:0:0:0:
256,192,73782,1,8,0:0:0:0:
256,192,73912,1,0,0:0:0:0:
256,192,74172,1,12,0:0:0:0:
256,192,74432,1,0,0:0:0:0:
256,192,74562,1,8,0:0:0:0:
256,192,74627,1,8,0:0:0:0:
256,192,74692,1,0,0:0:0:0:
256,192,74821,1,8,0:0:0:0:
256,192,74951,1,0,0:0:0:0:
256,192,75081,1,8,0:0:0:0:
256,192,75211,1,0,0:0:0:0:
256,192,75341,1,8,0:0:0:0:
256,192,75601,1,8,0:0:0:0:
256,192,75666,1,8,0:0:0:0:
256,192,75730,1,8,0:0:0:0:
256,192,75860,1,8,0:0:0:0:
256,192,75990,12,0,76250,0:0:0:0:
256,192,76510,5,0,0:0:0:0:
256,192,76575,1,8,0:0:0:0:
256,192,76640,1,0,0:0:0:0:
256,192,76705,1,8,0:0:0:0:
256,192,76769,1,0,0:0:0:0:
256,192,76899,1,0,0:0:0:0:
256,192,77029,1,8,0:0:0:0:
256,192,77094,1,0,0:0:0:0:
256,192,77159,1,8,0:0:0:0:
256,192,77224,1,0,0:0:0:0:
256,192,77289,1,8,0:0:0:0:
256,192,77419,1,8,0:0:0:0:
256,192,77549,1,0,0:0:0:0:
256,192,77679,1,8,0:0:0:0:
256,192,77808,1,0,0:0:0:0:
256,192,77938,1,8,0:0:0:0:
256,192,78068,1,0,0:0:0:0:
256,192,78328,1,8,0:0:0:0:
256,192,78588,1,0,0:0:0:0:
256,192,78653,1,8,0:0:0:0:
256,192,78717,1,0,0:0:0:0:
256,192,78782,1,8,0:0:0:0:
256,192,78847,1,0,0:0:0:0:
256,192,78977,1,0,0:0:0:0:
256,192,79107,1,8,0:0:0:0:
256,192,79172,1,0,0:0:0:0:
256,192,79237,1,8,0:0:0:0:
256,192,79302,1,0,0:0:0:0:
256,192,79367,1,8,0:0:0:0:
256,192,79497,1,8,0:0:0:0:
256,192,79627,1,0,0:0:0:0:
256,192,79756,1,8,0:0:0:0:
256,192,79886,1,8,0:0:0:0:
256,192,80016,1,0,0:0:0:0:
256,192,80146,1,8,0:0:0:0:
256,192,80276,1,8,0:0:0:0:
256,192,80406,1,4,0:0:0:0:
256,192,80666,1,0,0:0:0:0:
256,192,80925,1,8,0:0:0:0:
256,192,81185,1,0,0:0:0:0:
256,192,81315,1,0,0:0:0:0:
256,192,81445,1,8,0:0:0:0:
256,192,81575,1,0,0:0:0:0:
256,192,81834,1,0,0:0:0:0:
256,192,81899,1,0,0:0:0:0:
256,192,81964,1,8,0:0:0:0:
256,192,82094,1,8,0:0:0:0:
256,192,82224,1,0,0:0:0:0:
256,192,82354,1,0,0:0:0:0:
256,192,82484,1,8,0:0:0:0:
256,192,82614,1,8,0:0:0:0:
256,192,82743,1,0,0:0:0:0:
256,192,82873,1,0,0:0:0:0:
256,192,83003,1,8,0:0:0:0:
256,192,83133,1,0,0:0:0:0:
256,192,83263,1,0,0:0:0:0:
256,192,83393,1,0,0:0:0:0:
256,192,83523,1,8,0:0:0:0:
256,192,83653,1,0,0:0:0:0:
256,192,83782,1,0,0:0:0:0:
256,192,83847,1,0,0:0:0:0:
256,192,83912,1,0,0:0:0:0:
256,192,83977,1,0,0:0:0:0:
256,192,84042,1,0,0:0:0:0:
256,192,84172,1,0,0:0:0:0:
256,192,84302,1,8,0:0:0:0:
256,192,84367,1,8,0:0:0:0:
256,192,84432,1,8,0:0:0:0:
256,192,84497,1,8,0:0:0:0:
256,192,84562,1,8,0:0:0:0:
256,192,84692,1,8,0:0:0:0:
256,192,84821,1,8,0:0:0:0:
256,192,86899,1,4,0:0:0:0:
256,192,87419,1,12,0:0:0:0:
256,192,87938,1,4,0:0:0:0:
256,192,88198,1,0,0:0:0:0:
256,192,88458,1,12,0:0:0:0:
256,192,88977,1,0,0:0:0:0:
256,192,89107,1,8,0:0:0:0:
256,192,89237,1,0,0:0:0:0:
256,192,89367,1,8,0:0:0:0:
256,192,89497,1,0,0:0:0:0:
256,192,89627,1,8,0:0:0:0:
256,192,89756,1,0,0:0:0:0:
256,192,89886,1,8,0:0:0:0:
256,192,90016,1,8,0:0:0:0:
256,192,90146,1,0,0:0:0:0:
256,192,90276,1,8,0:0:0:0:
256,192,90406,1,0,0:0:0:0:
256,192,90536,1,8,0:0:0:0:
256,192,90666,1,0,0:0:0:0:
256,192,90795,1,8,0:0:0:0:
256,192,90925,1,0,0:0:0:0:
256,192,91055,1,0,0:0:0:0:
256,192,91120,1,0,0:0:0:0:
256,192,91185,1,0,0:0:0:0:
256,192,91250,1,0,0:0:0:0:
256,192,91315,1,0,0:0:0:0:
256,192,91380,1,0,0:0:0:0:
256,192,91445,1,0,0:0:0:0:
256,192,91510,1,0,0:0:0:0:
256,192,91575,1,0,0:0:0:0:
256,192,91705,1,0,0:0:0:0:
256,192,91834,1,8,0:0:0:0:
256,192,91964,1,8,0:0:0:0:
256,192,92094,1,0,0:0:0:0:
256,192,92354,1,8,0:0:0:0:
256,192,92419,1,8,0:0:0:0:
256,192,92484,1,8,0:0:0:0:
256,192,92549,1,8,0:0:0:0:
256,192,92614,1,0,0:0:0:0:
256,192,92808,1,0,0:0:0:0:
256,192,93003,1,0,0:0:0:0:
256,192,93133,1,0,0:0:0:0:
256,192,93263,1,0,0:0:0:0:
256,192,93393,1,12,0:0:0:0:
256,192,93523,1,0,0:0:0:0:
256,192,93653,1,8,0:0:0:0:
256,192,93717,1,8,0:0:0:0:
256,192,93782,1,0,0:0:0:0:
256,192,93912,1,12,0:0:0:0:
256,192,94042,1,0,0:0:0:0:
256,192,94172,1,0,0:0:0:0:
256,192,94302,1,0,0:0:0:0:
256,192,94432,1,12,0:0:0:0:
256,192,94562,1,0,0:0:0:0:
256,192,94692,1,8,0:0:0:0:
256,192,94756,1,8,0:0:0:0:
256,192,94821,1,0,0:0:0:0:
256,192,94951,1,12,0:0:0:0:
256,192,95211,1,0,0:0:0:0:
256,192,95341,1,0,0:0:0:0:
256,192,95471,1,12,0:0:0:0:
256,192,95601,1,0,0:0:0:0:
256,192,95730,1,8,0:0:0:0:
256,192,95795,1,8,0:0:0:0:
256,192,95860,1,0,0:0:0:0:
256,192,95990,1,12,0:0:0:0:
256,192,96120,1,0,0:0:0:0:
256,192,96250,1,0,0:0:0:0:
256,192,96380,1,8,0:0:0:0:
256,192,96445,1,8,0:0:0:0:
256,192,96510,1,8,0:0:0:0:
256,192,96640,1,8,0:0:0:0:
256,192,96769,1,0,0:0:0:0:
256,192,97029,1,4,0:0:0:0:
256,192,97289,1,0,0:0:0:0:
256,192,97419,1,8,0:0:0:0:
256,192,97484,1,8,0:0:0:0:
256,192,97549,1,0,0:0:0:0:
256,192,97679,1,8,0:0:0:0:
256,192,97808,1,0,0:0:0:0:
256,192,97938,1,8,0:0:0:0:
256,192,98068,1,0,0:0:0:0:
256,192,98328,1,8,0:0:0:0:
256,192,98458,1,0,0:0:0:0:
256,192,98523,1,0,0:0:0:0:
256,192,98588,1,8,0:0:0:0:
256,192,98717,1,0,0:0:0:0:
256,192,98847,1,8,0:0:0:0:
256,192,99107,1,4,0:0:0:0:
256,192,99367,1,0,0:0:0:0:
256,192,99497,1,8,0:0:0:0:
256,192,99627,1,8,0:0:0:0:
256,192,99756,1,8,0:0:0:0:
256,192,99886,1,0,0:0:0:0:
256,192,100016,1,8,0:0:0:0:
256,192,100146,1,8,0:0:0:0:
256,192,100276,1,8,0:0:0:0:
256,192,100406,1,0,0:0:0:0:
256,192,100492,1,0,0:0:0:0:
256,192,100579,1,0,0:0:0:0:
256,192,100666,1,0,0:0:0:0:
256,192,100752,1,0,0:0:0:0:
256,192,100839,1,0,0:0:0:0:
256,192,100925,1,0,0:0:0:0:
256,192,101098,1,0,0:0:0:0:
256,192,101272,1,0,0:0:0:0:
256,192,101445,1,0,0:0:0:0:
256,192,102484,1,0,0:0:0:0:
256,192,103523,2,0,L|416:192,6,140
256,192,105341,1,12,0:0:0:0:
256,192,105601,1,0,0:0:0:0:
256,192,105730,1,8,0:0:0:0:
256,192,105860,1,0,0:0:0:0:
256,192,105990,1,8,0:0:0:0:
256,192,106120,1,0,0:0:0:0:
256,192,106250,1,8,0:0:0:0:
256,192,106380,1,0,0:0:0:0:
256,192,106510,1,8,0:0:0:0:
256,192,106640,1,8,0:0:0:0:
256,192,106769,1,0,0:0:0:0:
256,192,106899,1,8,0:0:0:0:
256,192,107029,1,0,0:0:0:0:
256,192,107159,1,8,0:0:0:0:
256,192,107289,1,0,0:0:0:0:
256,192,107419,1,8,0:0:0:0:
256,192,107549,1,0,0:0:0:0:
256,192,107679,1,8,0:0:0:0:
256,192,107743,1,8,0:0:0:0:
256,192,107808,1,8,0:0:0:0:
256,192,107873,1,8,0:0:0:0:
256,192,107938,1,8,0:0:0:0:
256,192,108003,1,8,0:0:0:0:
256,192,108068,1,8,0:0:0:0:
256,192,108133,1,8,0:0:0:0:
256,192,108198,1,8,0:0:0:0:
256,192,108328,1,0,0:0:0:0:
256,192,108458,1,8,0:0:0:0:
256,192,108588,1,8,0:0:0:0:
256,192,108717,1,0,0:0:0:0:
256,192,108847,1,0,0:0:0:0:
256,192,108912,1,0,0:0:0:0:
256,192,108977,1,0,0:0:0:0:
256,192,109107,1,0,0:0:0:0:
256,192,109237,1,0,0:0:0:0:
256,192,109432,1,0,0:0:0:0:
256,192,109627,1,8,0:0:0:0:
256,192,109692,1,8,0:0:0:0:
256,192,109756,1,0,0:0:0:0:
256,192,109886,1,0,0:0:0:0:
256,192,110146,1,0,0:0:0:0:
256,192,110406,1,0,0:0:0:0:
256,192,110471,1,0,0:0:0:0:
256,192,110536,1,0,0:0:0:0:
256,192,110666,1,0,0:0:0:0:
256,192,110795,1,8,0:0:0:0:
256,192,110925,1,0,0:0:0:0:
256,192,111055,1,0,0:0:0:0:
256,192,111185,1,0,0:0:0:0:
256,192,111315,1,8,0:0:0:0:
256,192,111575,1,0,0:0:0:0:
256,192,111834,1,0,0:0:0:0:
256,192,111964,1,0,0:0:0:0:
256,192,112224,1,0,0:0:0:0:
256,192,112484,1,0,0:0:0:0:
256,192,112549,1,0,0:0:0:0:
256,192,112614,1,0,0:0:0:0:
256,192,112743,1,0,0:0:0:0:
256,192,112873,1,8,0:0:0:0:
256,192,113003,1,8,0:0:0:0:
256,192,113133,1,0,0:0:0:0:
256,192,113263,1,0,0:0:0:0:
256,192,113393,1,8,0:0:0:0:
256,192,113653,1,4,0:0:0:0:
256,192,113912,1,0,0:0:0:0:
256,192,114042,1,0,0:0:0:0:
256,192,114172,1,8,0:0:0:0:
256,192,114302,1,0,0:0:0:0:
256,192,114367,1,0,0:0:0:0:
256,192,114432,1,0,0:0:0:0:
256,192,114562,1,0,0:0:0:0:
256,192,114692,1,8,0:0:0:0:
256,192,114821,1,0,0:0:0:0:
256,192,114951,1,8,0:0:0:0:
256,192,115081,1,0,0:0:0:0:
256,192,115211,1,8,0:0:0:0:
256,192,115276,1,8,0:0:0:0:
256,192,115341,1,0,0:0:0:0:
256,192,115471,1,8,0:0:0:0:
256,192,115601,1,0,0:0:0:0:
256,192,115730,1,8,0:0:0:0:
256,192,115860,1,0,0:0:0:0:
256,192,115990,1,8,0:0:0:0:
256,192,116055,1,8,0:0:0:0:
256,192,116120,1,8,0:0:0:0:
256,192,116185,1,8,0:0:0:0:
256,192,116250,1,8,0:0:0:0:
256,192,116380,1,8,0:0:0:0:
256,192,116510,1,0,0:0:0:0:
256,192,116575,1,0,0:0:0:0:
256,192,116640,1,0,0:0:0:0:
256,192,116705,1,0,0:0:0:0:
256,192,116769,1,0,0:0:0:0:
256,192,116899,1,0,0:0:0:0:
256,192,117029,12,0,117808,0:0:0:0:
256,192,118068,5,4,0:0:0:0:
256,192,118198,1,4,0:0:0:0:
256,192,118458,1,4,0:0:0:0:
256,192,118717,1,4,0:0:0:0:
256,192,118977,1,4,0:0:0:0:
256,192,119237,1,4,0:0:0:0:
256,192,119367,1,4,0:0:0:0:
256,192,119497,1,8,0:0:0:0:
256,192,119627,1,4,0:0:0:0:
256,192,119886,1,4,0:0:0:0:
256,192,120146,1,4,0:0:0:0:
256,192,120276,1,4,0:0:0:0:
256,192,120406,1,8,0:0:0:0:
256,192,120536,1,4,0:0:0:0:
256,192,120795,1,4,0:0:0:0:
256,192,121055,1,4,0:0:0:0:
256,192,121315,1,4,0:0:0:0:
256,192,121445,1,4,0:0:0:0:
256,192,121575,1,8,0:0:0:0:
256,192,121705,1,4,0:0:0:0:
256,192,121964,1,4,0:0:0:0:
256,192,122224,1,4,0:0:0:0:
256,192,122354,1,4,0:0:0:0:
256,192,122614,1,4,0:0:0:0:
256,192,122873,1,4,0:0:0:0:
256,192,123133,1,4,0:0:0:0:
256,192,123393,1,4,0:0:0:0:
256,192,123523,1,4,0:0:0:0:
256,192,123653,1,8,0:0:0:0:
256,192,123782,1,4,0:0:0:0:
256,192,124042,1,4,0:0:0:0:
256,192,124302,1,4,0:0:0:0:
256,192,124432,1,4,0:0:0:0:
256,192,124562,1,8,0:0:0:0:
256,192,124692,1,4,0:0:0:0:
256,192,124951,1,4,0:0:0:0:
256,192,125211,1,4,0:0:0:0:
256,192,125471,1,4,0:0:0:0:
256,192,125601,1,4,0:0:0:0:
256,192,125730,1,8,0:0:0:0:
256,192,125860,1,4,0:0:0:0:
256,192,126120,1,4,0:0:0:0:
256,192,126380,2,4,L|320:192,48,35
256,192,130536,1,0,0:0:0:0:
256,192,130666,1,0,0:0:0:0:
256,192,130795,1,8,0:0:0:0:
256,192,130925,1,0,0:0:0:0:
256,192,131055,1,0,0:0:0:0:
256,192,131185,1,0,0:0:0:0:
256,192,131315,1,8,0:0:0:0:
256,192,131445,1,0,0:0:0:0:
256,192,131575,1,0,0:0:0:0:
256,192,131705,1,0,0:0:0:0:
256,192,131834,1,8,0:0:0:0:
256,192,131964,1,0,0:0:0:0:
256,192,132094,1,8,0:0:0:0:
256,192,132224,1,0,0:0:0:0:
256,192,132354,1,8,0:0:0:0:
256,192,132484,1,0,0:0:0:0:
256,192,132549,1,0,0:0:0:0:
256,192,132614,1,0,0:0:0:0:
256,192,132743,1,0,0:0:0:0:
256,192,132873,1,8,0:0:0:0:
256,192,132938,1,8,0:0:0:0:
256,192,133003,1,8,0:0:0:0:
256,192,133133,1,0,0:0:0:0:
256,192,133263,1,8,0:0:0:0:
256,192,133328,1,8,0:0:0:0:
256,192,133393,1,0,0:0:0:0:
256,192,133458,1,0,0:0:0:0:
256,192,133523,1,8,0:0:0:0:
256,192,133782,1,0,0:0:0:0:
256,192,133847,1,0,0:0:0:0:
256,192,133912,1,8,0:0:0:0:
256,192,134042,1,8,0:0:0:0:
256,192,134172,1,0,0:0:0:0:
256,192,134367,1,8,0:0:0:0:
256,192,134562,1,8,0:0:0:0:
256,192,134692,12,0,136250,0:0:0:0:
256,192,136769,5,4,0:0:0:0:
