osu file format v14

[General]
AudioFilename: Audio.ogg
AudioLeadIn: 0
PreviewTime: 134371
Countdown: 0
SampleSet: Soft
StackLeniency: 0.7
Mode: 3
LetterboxInBreaks: 0
SpecialStyle: 0
WidescreenStoryboard: 1

[Editor]
Bookmarks: 10771,20371,30271,49171,58771,67171,70771,77971,82771,87571,97171,106771,116371,121171,125971,130771,135571,154771
DistanceSpacing: 0.8
BeatDivisor: 4
GridSize: 32
TimelineZoom: 2.2

[Metadata]
Title:T+ VS SHARK
TitleUnicode:T+ VS SHARK
Artist:t+pazolite
ArtistUnicode:t+pazolite
Creator:keksikosu
Version:DenYi's ADVANCED
Source:
Tags:tpz t+pz electronic instrumental jcore j-core hardcore jumpstream js long notes ln hybrid novelty DenYi Critical_Star Ballistic
BeatmapID:3769282
BeatmapSetID:1835865

[Difficulty]
HPDrainRate:7
CircleSize:4
OverallDifficulty:7
ApproachRate:5
SliderMultiplier:1.4
SliderTickRate:1

[Events]
//Background and Video events
0,0,"BG.jpg",0,0
Video,-70,"Video.mp4"
//Break Periods
//Storyboard Layer 0 (Background)
//Storyboard Layer 1 (Fail)
//Storyboard Layer 2 (Pass)
//Storyboard Layer 3 (Foreground)
//Storyboard Layer 4 (Overlay)
//Storyboard Sound Samples

[TimingPoints]
1171,300,4,2,1,25,1,0
30271,-100,4,2,1,25,0,1
38371,-100,4,2,1,25,0,0
39571,-100,4,2,1,25,0,1
47971,-100,4,2,1,25,0,0
58771,-100,4,2,1,25,0,1
67171,-100,4,2,1,25,0,0
70771,-100,4,2,1,25,0,1
77971,-100,4,2,1,25,0,0
116371,-100,4,2,1,25,0,1
124771,-100,4,2,1,25,0,0
125971,-100,4,2,1,25,0,1
133171,-100,4,2,1,25,0,0
135571,-100,4,2,1,25,0,1
143971,-100,4,2,1,25,0,0
145171,-100,4,2,1,25,0,1
154771,-100,4,2,1,25,0,0

[HitObjects]
448,192,10771,5,0,0:0:0:0:
64,192,10771,128,0,11971:0:0:0:0:
320,192,11971,128,0,12421:0:0:0:0:
448,192,13171,128,0,14371:0:0:0:0:
192,192,14371,128,0,14821:0:0:0:0:
320,192,15571,128,0,16771:0:0:0:0:
64,192,16771,128,0,17221:0:0:0:0:
192,192,17971,128,0,18871:0:0:0:0:
448,192,18871,128,0,19171:0:0:0:0:
64,192,19171,1,0,0:0:0:0:
192,192,19321,1,0,0:0:0:0:
448,192,19471,1,0,0:0:0:0:
320,192,19621,1,0,0:0:0:0:
192,192,19771,1,0,0:0:0:0:
64,192,19921,1,0,0:0:0:0:
448,192,19921,1,0,0:0:0:0:
448,192,20071,1,0,0:0:0:0:
64,192,20071,1,0,0:0:0:0:
320,192,20221,1,0,0:0:0:0:
64,192,20371,1,0,0:0:0:0:
192,192,20371,1,0,0:0:0:0:
448,192,20671,1,0,0:0:0:0:
64,192,20671,1,0,0:0:0:0:
320,192,20971,1,0,0:0:0:0:
448,192,20971,1,0,0:0:0:0:
192,192,21271,1,0,0:0:0:0:
64,192,21271,1,0,0:0:0:0:
192,192,21421,1,0,0:0:0:0:
320,192,21571,1,0,0:0:0:0:
448,192,21571,1,0,0:0:0:0:
64,192,21871,1,0,0:0:0:0:
448,192,21871,1,0,0:0:0:0:
64,192,22171,1,0,0:0:0:0:
192,192,22171,1,0,0:0:0:0:
320,192,22471,1,0,0:0:0:0:
448,192,22471,1,0,0:0:0:0:
320,192,22621,1,0,0:0:0:0:
64,192,22771,1,0,0:0:0:0:
192,192,22771,1,0,0:0:0:0:
192,192,23071,1,0,0:0:0:0:
320,192,23071,1,0,0:0:0:0:
320,192,23371,1,0,0:0:0:0:
448,192,23371,1,0,0:0:0:0:
64,192,23671,1,0,0:0:0:0:
192,192,23671,1,0,0:0:0:0:
192,192,23821,1,0,0:0:0:0:
320,192,23971,1,0,0:0:0:0:
448,192,23971,1,0,0:0:0:0:
320,192,24271,1,0,0:0:0:0:
192,192,24271,1,0,0:0:0:0:
192,192,24571,1,0,0:0:0:0:
64,192,24571,1,0,0:0:0:0:
320,192,24871,1,0,0:0:0:0:
448,192,24871,1,0,0:0:0:0:
320,192,25021,1,0,0:0:0:0:
64,192,25171,1,0,0:0:0:0:
64,192,25321,1,0,0:0:0:0:
448,192,25471,1,0,0:0:0:0:
448,192,25621,1,0,0:0:0:0:
192,192,25771,1,0,0:0:0:0:
192,192,25921,1,0,0:0:0:0:
320,192,26071,1,0,0:0:0:0:
320,192,26221,1,0,0:0:0:0:
64,192,26371,1,0,0:0:0:0:
64,192,26521,1,0,0:0:0:0:
448,192,26671,1,0,0:0:0:0:
448,192,26821,1,0,0:0:0:0:
192,192,26971,1,0,0:0:0:0:
192,192,27121,1,0,0:0:0:0:
320,192,27271,1,0,0:0:0:0:
320,192,27421,1,0,0:0:0:0:
64,192,27571,1,0,0:0:0:0:
448,192,27571,1,0,0:0:0:0:
192,192,27721,1,0,0:0:0:0:
320,192,27871,1,0,0:0:0:0:
448,192,27871,1,0,0:0:0:0:
64,192,28021,1,0,0:0:0:0:
192,192,28171,1,0,0:0:0:0:
320,192,28171,1,0,0:0:0:0:
448,192,28321,1,0,0:0:0:0:
64,192,28471,1,0,0:0:0:0:
192,192,28471,1,0,0:0:0:0:
320,192,28621,1,0,0:0:0:0:
64,192,28771,1,0,0:0:0:0:
448,192,28771,1,0,0:0:0:0:
192,192,28921,1,0,0:0:0:0:
192,192,29071,128,0,29296:0:0:0:0:
320,192,29296,1,0,0:0:0:0:
64,192,29521,1,0,0:0:0:0:
448,192,29521,1,0,0:0:0:0:
192,192,29671,1,0,0:0:0:0:
320,192,29821,1,0,0:0:0:0:
192,192,29971,128,0,30271:0:0:0:0:
64,192,30271,1,0,0:0:0:0:
448,192,30271,128,0,30421:0:0:0:0:
192,192,30421,1,0,0:0:0:0:
64,192,30571,128,0,30721:0:0:0:0:
448,192,30721,1,0,0:0:0:0:
320,192,30871,128,0,31021:0:0:0:0:
64,192,31021,1,0,0:0:0:0:
192,192,31171,128,0,31321:0:0:0:0:
320,192,31321,1,0,0:0:0:0:
448,192,31471,128,0,31621:0:0:0:0:
192,192,31621,1,0,0:0:0:0:
64,192,31771,128,0,31921:0:0:0:0:
448,192,31921,1,0,0:0:0:0:
320,192,32071,128,0,32221:0:0:0:0:
64,192,32221,1,0,0:0:0:0:
192,192,32371,1,0,0:0:0:0:
192,192,32521,128,0,32671:0:0:0:0:
448,192,32671,1,0,0:0:0:0:
448,192,32821,128,0,32971:0:0:0:0:
320,192,32971,1,0,0:0:0:0:
320,192,33121,128,0,33271:0:0:0:0:
64,192,33271,1,0,0:0:0:0:
64,192,33421,128,0,33571:0:0:0:0:
192,192,33571,1,0,0:0:0:0:
192,192,33721,128,0,33871:0:0:0:0:
448,192,33871,1,0,0:0:0:0:
448,192,34021,128,0,34171:0:0:0:0:
320,192,34171,1,0,0:0:0:0:
320,192,34321,128,0,34471:0:0:0:0:
64,192,34471,128,0,34771:0:0:0:0:
192,192,34471,1,0,0:0:0:0:
448,192,34771,128,0,34921:0:0:0:0:
320,192,34771,1,0,0:0:0:0:
192,192,34921,1,0,0:0:0:0:
192,192,35071,128,0,35221:0:0:0:0:
320,192,35221,1,0,0:0:0:0:
320,192,35371,128,0,35521:0:0:0:0:
64,192,35521,1,0,0:0:0:0:
64,192,35671,128,0,35821:0:0:0:0:
448,192,35821,1,0,0:0:0:0:
448,192,35971,128,0,36121:0:0:0:0:
192,192,36121,1,0,0:0:0:0:
192,192,36271,128,0,36421:0:0:0:0:
320,192,36421,1,0,0:0:0:0:
320,192,36571,128,0,36721:0:0:0:0:
64,192,36721,1,0,0:0:0:0:
64,192,36871,128,0,37021:0:0:0:0:
192,192,37021,1,0,0:0:0:0:
192,192,37171,128,0,37321:0:0:0:0:
320,192,37321,1,0,0:0:0:0:
320,192,37471,128,0,37621:0:0:0:0:
448,192,37621,1,0,0:0:0:0:
448,192,37771,128,0,37921:0:0:0:0:
64,192,37921,1,0,0:0:0:0:
64,192,38071,128,0,38221:0:0:0:0:
448,192,38221,1,0,0:0:0:0:
192,192,38371,128,0,38671:0:0:0:0:
64,192,38671,1,0,0:0:0:0:
320,192,38671,1,0,0:0:0:0:
448,192,38971,128,0,39271:0:0:0:0:
192,192,39271,128,0,39571:0:0:0:0:
320,192,39571,128,0,39721:0:0:0:0:
448,192,39571,1,0,0:0:0:0:
192,192,39721,1,0,0:0:0:0:
64,192,39871,128,0,40021:0:0:0:0:
320,192,40021,1,0,0:0:0:0:
448,192,40171,128,0,40321:0:0:0:0:
64,192,40321,1,0,0:0:0:0:
192,192,40471,128,0,40621:0:0:0:0:
448,192,40621,1,0,0:0:0:0:
320,192,40771,128,0,40921:0:0:0:0:
192,192,40921,1,0,0:0:0:0:
64,192,41071,128,0,41221:0:0:0:0:
320,192,41221,1,0,0:0:0:0:
448,192,41371,128,0,41521:0:0:0:0:
64,192,41521,1,0,0:0:0:0:
192,192,41671,128,0,41821:0:0:0:0:
448,192,41821,1,0,0:0:0:0:
320,192,41971,1,0,0:0:0:0:
320,192,42121,128,0,42271:0:0:0:0:
64,192,42271,1,0,0:0:0:0:
64,192,42421,128,0,42571:0:0:0:0:
192,192,42571,1,0,0:0:0:0:
192,192,42721,128,0,42871:0:0:0:0:
448,192,42871,1,0,0:0:0:0:
448,192,43021,128,0,43171:0:0:0:0:
320,192,43171,1,0,0:0:0:0:
320,192,43321,128,0,43471:0:0:0:0:
64,192,43471,1,0,0:0:0:0:
64,192,43621,128,0,43771:0:0:0:0:
192,192,43771,1,0,0:0:0:0:
192,192,43921,128,0,44071:0:0:0:0:
448,192,44071,128,0,44371:0:0:0:0:
320,192,44071,1,0,0:0:0:0:
192,192,44371,1,0,0:0:0:0:
64,192,44371,128,0,44521:0:0:0:0:
320,192,44521,1,0,0:0:0:0:
320,192,44671,128,0,44821:0:0:0:0:
192,192,44821,1,0,0:0:0:0:
192,192,44971,128,0,45121:0:0:0:0:
448,192,45121,1,0,0:0:0:0:
448,192,45271,128,0,45421:0:0:0:0:
64,192,45421,1,0,0:0:0:0:
64,192,45571,128,0,45721:0:0:0:0:
320,192,45721,1,0,0:0:0:0:
320,192,45871,128,0,46021:0:0:0:0:
192,192,46021,1,0,0:0:0:0:
192,192,46171,128,0,46321:0:0:0:0:
448,192,46321,1,0,0:0:0:0:
448,192,46471,128,0,46621:0:0:0:0:
320,192,46621,1,0,0:0:0:0:
320,192,46771,128,0,46921:0:0:0:0:
64,192,46921,1,0,0:0:0:0:
448,192,46921,128,0,47071:0:0:0:0:
192,192,47071,128,0,47221:0:0:0:0:
320,192,47221,128,0,47371:0:0:0:0:
448,192,47221,1,0,0:0:0:0:
64,192,47371,128,0,47521:0:0:0:0:
192,192,47521,128,0,47671:0:0:0:0:
320,192,47521,1,0,0:0:0:0:
448,192,47671,128,0,47821:0:0:0:0:
320,192,47821,128,0,47971:0:0:0:0:
64,192,47821,1,0,0:0:0:0:
192,192,47971,1,0,0:0:0:0:
448,192,48121,1,0,0:0:0:0:
64,192,48271,1,0,0:0:0:0:
320,192,48421,1,0,0:0:0:0:
192,192,48571,128,0,48721:0:0:0:0:
448,192,48721,1,0,0:0:0:0:
64,192,48871,1,0,0:0:0:0:
64,192,49021,1,0,0:0:0:0:
448,192,49021,1,0,0:0:0:0:
192,192,49171,1,0,0:0:0:0:
320,192,49171,128,0,49471:0:0:0:0:
64,192,49471,1,0,0:0:0:0:
448,192,49771,1,0,0:0:0:0:
192,192,49921,1,0,0:0:0:0:
320,192,50071,1,0,0:0:0:0:
320,192,50371,1,0,0:0:0:0:
320,192,50671,1,0,0:0:0:0:
320,192,50971,1,0,0:0:0:0:
320,192,51271,1,0,0:0:0:0:
448,192,51571,1,0,0:0:0:0:
64,192,51571,128,0,51871:0:0:0:0:
192,192,51871,1,0,0:0:0:0:
448,192,52171,1,0,0:0:0:0:
64,192,52321,1,0,0:0:0:0:
320,192,52471,1,0,0:0:0:0:
320,192,52771,1,0,0:0:0:0:
320,192,53071,1,0,0:0:0:0:
320,192,53371,1,0,0:0:0:0:
320,192,53671,1,0,0:0:0:0:
64,192,53971,1,0,0:0:0:0:
64,192,54121,1,0,0:0:0:0:
448,192,54271,1,0,0:0:0:0:
448,192,54421,1,0,0:0:0:0:
192,192,54571,1,0,0:0:0:0:
192,192,54721,1,0,0:0:0:0:
320,192,54871,1,0,0:0:0:0:
320,192,55021,1,0,0:0:0:0:
64,192,55171,1,0,0:0:0:0:
64,192,55321,1,0,0:0:0:0:
448,192,55471,1,0,0:0:0:0:
448,192,55621,1,0,0:0:0:0:
192,192,55771,1,0,0:0:0:0:
192,192,55921,1,0,0:0:0:0:
320,192,56071,1,0,0:0:0:0:
320,192,56221,1,0,0:0:0:0:
64,192,56371,1,0,0:0:0:0:
448,192,56371,1,0,0:0:0:0:
192,192,56521,1,0,0:0:0:0:
320,192,56671,1,0,0:0:0:0:
448,192,56671,1,0,0:0:0:0:
192,192,56821,1,0,0:0:0:0:
64,192,56971,1,0,0:0:0:0:
448,192,56971,1,0,0:0:0:0:
320,192,57121,1,0,0:0:0:0:
64,192,57271,1,0,0:0:0:0:
192,192,57271,1,0,0:0:0:0:
320,192,57421,1,0,0:0:0:0:
64,192,57571,1,0,0:0:0:0:
448,192,57571,1,0,0:0:0:0:
192,192,57721,1,0,0:0:0:0:
192,192,57871,128,0,58171:0:0:0:0:
448,192,58171,1,0,0:0:0:0:
64,192,58321,5,0,0:0:0:0:
320,192,58471,128,0,58771:0:0:0:0:
64,192,58771,128,0,59071:0:0:0:0:
192,192,58771,1,0,0:0:0:0:
448,192,58921,128,0,59071:0:0:0:0:
320,192,59071,1,0,0:0:0:0:
192,192,59221,1,0,0:0:0:0:
64,192,59371,5,0,0:0:0:0:
448,192,59371,1,0,0:0:0:0:
192,192,59521,128,0,59671:0:0:0:0:
320,192,59671,128,0,59821:0:0:0:0:
192,192,59821,128,0,59971:0:0:0:0:
64,192,59971,1,0,0:0:0:0:
448,192,59971,1,0,0:0:0:0:
320,192,60121,128,0,60271:0:0:0:0:
192,192,60271,128,0,60421:0:0:0:0:
320,192,60421,128,0,60571:0:0:0:0:
64,192,60571,128,0,60871:0:0:0:0:
448,192,60571,1,0,0:0:0:0:
192,192,60871,1,0,0:0:0:0:
320,192,60871,1,0,0:0:0:0:
448,192,61171,1,0,0:0:0:0:
64,192,61171,1,0,0:0:0:0:
320,192,61321,128,0,61471:0:0:0:0:
192,192,61471,128,0,61621:0:0:0:0:
320,192,61621,128,0,61771:0:0:0:0:
64,192,61771,1,0,0:0:0:0:
448,192,61771,1,0,0:0:0:0:
192,192,61921,128,0,62071:0:0:0:0:
320,192,62071,128,0,62221:0:0:0:0:
192,192,62221,128,0,62371:0:0:0:0:
64,192,62371,1,0,0:0:0:0:
448,192,62371,128,0,62671:0:0:0:0:
192,192,62671,1,0,0:0:0:0:
320,192,62671,1,0,0:0:0:0:
64,192,62971,1,0,0:0:0:0:
448,192,62971,1,0,0:0:0:0:
64,192,63121,1,0,0:0:0:0:
320,192,63271,1,0,0:0:0:0:
192,192,63421,1,0,0:0:0:0:
64,192,63571,1,0,0:0:0:0:
448,192,63571,128,0,64171:0:0:0:0:
64,192,64171,1,0,0:0:0:0:
320,192,64171,1,0,0:0:0:0:
192,192,64321,128,0,64471:0:0:0:0:
448,192,64471,128,0,64621:0:0:0:0:
192,192,64621,128,0,64771:0:0:0:0:
320,192,64771,1,0,0:0:0:0:
64,192,64771,1,0,0:0:0:0:
448,192,64921,128,0,65071:0:0:0:0:
192,192,65071,128,0,65221:0:0:0:0:
448,192,65221,128,0,65371:0:0:0:0:
64,192,65371,128,0,65671:0:0:0:0:
192,192,65371,1,0,0:0:0:0:
448,192,65671,1,0,0:0:0:0:
320,192,65671,1,0,0:0:0:0:
192,192,65971,1,0,0:0:0:0:
448,192,65971,1,0,0:0:0:0:
320,192,66121,128,0,66271:0:0:0:0:
64,192,66271,128,0,66421:0:0:0:0:
320,192,66421,128,0,66571:0:0:0:0:
192,192,66571,1,0,0:0:0:0:
448,192,66571,1,0,0:0:0:0:
64,192,66721,128,0,66871:0:0:0:0:
320,192,66871,128,0,67171:0:0:0:0:
64,192,67021,128,0,67171:0:0:0:0:
192,192,67171,1,0,0:0:0:0:
448,192,67171,128,0,67771:0:0:0:0:
320,192,67471,1,0,0:0:0:0:
192,192,67621,1,0,0:0:0:0:
64,192,67771,128,0,68071:0:0:0:0:
320,192,68071,128,0,68371:0:0:0:0:
64,192,68371,1,0,0:0:0:0:
448,192,68371,1,0,0:0:0:0:
192,192,68671,1,0,0:0:0:0:
192,192,68821,1,0,0:0:0:0:
320,192,68971,1,0,0:0:0:0:
320,192,69121,1,0,0:0:0:0:
64,192,69271,1,0,0:0:0:0:
64,192,69421,1,0,0:0:0:0:
448,192,69571,1,0,0:0:0:0:
320,192,69646,1,0,0:0:0:0:
192,192,69721,1,0,0:0:0:0:
64,192,69871,1,0,0:0:0:0:
192,192,69946,1,0,0:0:0:0:
320,192,70021,1,0,0:0:0:0:
448,192,70171,128,0,70621:0:0:0:0:
64,192,70471,128,0,70621:0:0:0:0:
192,192,70771,1,0,0:0:0:0:
320,192,70771,1,0,0:0:0:0:
64,192,70921,128,0,71071:0:0:0:0:
448,192,71071,128,0,71221:0:0:0:0:
64,192,71221,128,0,71371:0:0:0:0:
192,192,71371,1,0,0:0:0:0:
320,192,71371,1,0,0:0:0:0:
448,192,71521,128,0,71671:0:0:0:0:
64,192,71671,128,0,71821:0:0:0:0:
448,192,71821,128,0,71971:0:0:0:0:
192,192,71971,1,0,0:0:0:0:
320,192,71971,1,0,0:0:0:0:
192,192,72121,128,0,72271:0:0:0:0:
64,192,72271,1,0,0:0:0:0:
448,192,72271,1,0,0:0:0:0:
320,192,72571,1,0,0:0:0:0:
192,192,72571,1,0,0:0:0:0:
320,192,72721,1,0,0:0:0:0:
64,192,72871,1,0,0:0:0:0:
192,192,72871,1,0,0:0:0:0:
320,192,73021,1,0,0:0:0:0:
448,192,73171,1,0,0:0:0:0:
64,192,73171,1,0,0:0:0:0:
192,192,73321,128,0,73471:0:0:0:0:
320,192,73471,128,0,73621:0:0:0:0:
192,192,73621,128,0,73771:0:0:0:0:
64,192,73771,1,0,0:0:0:0:
448,192,73771,1,0,0:0:0:0:
320,192,73921,128,0,74071:0:0:0:0:
192,192,74071,128,0,74221:0:0:0:0:
320,192,74221,128,0,74371:0:0:0:0:
448,192,74371,1,0,0:0:0:0:
64,192,74371,1,0,0:0:0:0:
192,192,74521,128,0,74671:0:0:0:0:
320,192,74671,128,0,74821:0:0:0:0:
192,192,74821,128,0,74971:0:0:0:0:
64,192,74971,1,0,0:0:0:0:
448,192,74971,128,0,75271:0:0:0:0:
64,192,75271,1,0,0:0:0:0:
192,192,75271,1,0,0:0:0:0:
320,192,75571,1,0,0:0:0:0:
448,192,75571,1,0,0:0:0:0:
64,192,75721,128,0,75871:0:0:0:0:
320,192,75871,128,0,76021:0:0:0:0:
64,192,76021,128,0,76171:0:0:0:0:
192,192,76171,1,0,0:0:0:0:
320,192,76171,1,0,0:0:0:0:
448,192,76321,128,0,76471:0:0:0:0:
192,192,76471,128,0,76621:0:0:0:0:
448,192,76621,128,0,76771:0:0:0:0:
64,192,76771,1,0,0:0:0:0:
192,192,76771,1,0,0:0:0:0:
320,192,76921,1,0,0:0:0:0:
320,192,77071,1,0,0:0:0:0:
320,192,77221,1,0,0:0:0:0:
64,192,77371,1,0,0:0:0:0:
448,192,77371,1,0,0:0:0:0:
64,192,77521,1,0,0:0:0:0:
448,192,77671,1,0,0:0:0:0:
448,192,77821,1,0,0:0:0:0:
64,192,77971,1,0,0:0:0:0:
192,192,77971,1,0,0:0:0:0:
320,192,78121,1,0,0:0:0:0:
64,192,78271,1,0,0:0:0:0:
448,192,78421,1,0,0:0:0:0:
192,192,78571,1,0,0:0:0:0:
320,192,78721,1,0,0:0:0:0:
448,192,78871,1,0,0:0:0:0:
64,192,79021,1,0,0:0:0:0:
192,192,79171,1,0,0:0:0:0:
320,192,79171,1,0,0:0:0:0:
448,192,79321,1,0,0:0:0:0:
64,192,79471,1,0,0:0:0:0:
320,192,79621,1,0,0:0:0:0:
192,192,79771,1,0,0:0:0:0:
448,192,79921,1,0,0:0:0:0:
320,192,80071,1,0,0:0:0:0:
192,192,80221,1,0,0:0:0:0:
64,192,80371,1,0,0:0:0:0:
448,192,80371,1,0,0:0:0:0:
320,192,80521,1,0,0:0:0:0:
192,192,80671,1,0,0:0:0:0:
448,192,80821,1,0,0:0:0:0:
64,192,80971,1,0,0:0:0:0:
192,192,81121,1,0,0:0:0:0:
448,192,81271,1,0,0:0:0:0:
320,192,81421,1,0,0:0:0:0:
192,192,81571,1,0,0:0:0:0:
64,192,81571,1,0,0:0:0:0:
448,192,81721,1,0,0:0:0:0:
64,192,81871,1,0,0:0:0:0:
320,192,82021,1,0,0:0:0:0:
192,192,82171,1,0,0:0:0:0:
448,192,82321,1,0,0:0:0:0:
64,192,82471,1,0,0:0:0:0:
192,192,82621,1,0,0:0:0:0:
320,192,82771,1,0,0:0:0:0:
448,192,82771,1,0,0:0:0:0:
320,192,82921,1,0,0:0:0:0:
64,192,83071,1,0,0:0:0:0:
64,192,83221,1,0,0:0:0:0:
192,192,83371,1,0,0:0:0:0:
320,192,83371,1,0,0:0:0:0:
192,192,83521,1,0,0:0:0:0:
448,192,83671,1,0,0:0:0:0:
448,192,83821,1,0,0:0:0:0:
64,192,83971,1,0,0:0:0:0:
192,192,83971,1,0,0:0:0:0:
64,192,84121,1,0,0:0:0:0:
320,192,84271,1,0,0:0:0:0:
320,192,84421,1,0,0:0:0:0:
64,192,84571,1,0,0:0:0:0:
448,192,84571,1,0,0:0:0:0:
448,192,84721,1,0,0:0:0:0:
192,192,84871,1,0,0:0:0:0:
192,192,85021,1,0,0:0:0:0:
448,192,85171,1,0,0:0:0:0:
320,192,85246,1,0,0:0:0:0:
192,192,85321,1,0,0:0:0:0:
64,192,85471,1,0,0:0:0:0:
192,192,85546,1,0,0:0:0:0:
320,192,85621,1,0,0:0:0:0:
448,192,85771,1,0,0:0:0:0:
64,192,85846,1,0,0:0:0:0:
192,192,85921,1,0,0:0:0:0:
320,192,86071,1,0,0:0:0:0:
64,192,86146,1,0,0:0:0:0:
448,192,86221,1,0,0:0:0:0:
64,192,86371,1,0,0:0:0:0:
192,192,86371,1,0,0:0:0:0:
320,192,86671,128,0,86971:0:0:0:0:
192,192,86971,128,0,87571:0:0:0:0:
64,192,87571,1,0,0:0:0:0:
448,192,87571,1,0,0:0:0:0:
320,192,87721,1,0,0:0:0:0:
192,192,87871,1,0,0:0:0:0:
192,192,88021,1,0,0:0:0:0:
448,192,88171,1,0,0:0:0:0:
64,192,88396,1,0,0:0:0:0:
448,192,88621,1,0,0:0:0:0:
192,192,88921,1,0,0:0:0:0:
320,192,89071,1,0,0:0:0:0:
320,192,89221,1,0,0:0:0:0:
64,192,89371,1,0,0:0:0:0:
448,192,89596,1,0,0:0:0:0:
64,192,89821,1,0,0:0:0:0:
320,192,89971,1,0,0:0:0:0:
448,192,90121,1,0,0:0:0:0:
192,192,90271,1,0,0:0:0:0:
192,192,90421,1,0,0:0:0:0:
448,192,90571,1,0,0:0:0:0:
64,192,90796,1,0,0:0:0:0:
448,192,91021,1,0,0:0:0:0:
64,192,91321,1,0,0:0:0:0:
320,192,91471,1,0,0:0:0:0:
320,192,91621,1,0,0:0:0:0:
192,192,91771,128,0,92071:0:0:0:0:
64,192,92071,128,0,92371:0:0:0:0:
448,192,92371,1,0,0:0:0:0:
320,192,92521,1,0,0:0:0:0:
192,192,92671,1,0,0:0:0:0:
192,192,92821,1,0,0:0:0:0:
448,192,92971,1,0,0:0:0:0:
64,192,93196,1,0,0:0:0:0:
448,192,93421,1,0,0:0:0:0:
192,192,93721,1,0,0:0:0:0:
320,192,93871,1,0,0:0:0:0:
320,192,94021,1,0,0:0:0:0:
64,192,94171,1,0,0:0:0:0:
448,192,94396,1,0,0:0:0:0:
64,192,94621,1,0,0:0:0:0:
320,192,94771,1,0,0:0:0:0:
448,192,94921,1,0,0:0:0:0:
192,192,95071,1,0,0:0:0:0:
192,192,95221,1,0,0:0:0:0:
448,192,95371,1,0,0:0:0:0:
64,192,95596,1,0,0:0:0:0:
448,192,95821,1,0,0:0:0:0:
64,192,96121,1,0,0:0:0:0:
320,192,96271,1,0,0:0:0:0:
320,192,96421,1,0,0:0:0:0:
192,192,96571,128,0,96871:0:0:0:0:
448,192,96871,128,0,97171:0:0:0:0:
64,192,97171,1,0,0:0:0:0:
64,192,97321,1,0,0:0:0:0:
320,192,97471,1,0,0:0:0:0:
192,192,97621,1,0,0:0:0:0:
448,192,97771,1,0,0:0:0:0:
64,192,97996,1,0,0:0:0:0:
448,192,98221,1,0,0:0:0:0:
320,192,98521,1,0,0:0:0:0:
192,192,98671,1,0,0:0:0:0:
320,192,98821,1,0,0:0:0:0:
64,192,98971,1,0,0:0:0:0:
448,192,99196,1,0,0:0:0:0:
64,192,99421,1,0,0:0:0:0:
320,192,99571,1,0,0:0:0:0:
320,192,99721,1,0,0:0:0:0:
64,192,99871,1,0,0:0:0:0:
448,192,100021,1,0,0:0:0:0:
192,192,100171,1,0,0:0:0:0:
320,192,100396,1,0,0:0:0:0:
192,192,100621,1,0,0:0:0:0:
448,192,100921,1,0,0:0:0:0:
64,192,101071,1,0,0:0:0:0:
448,192,101221,1,0,0:0:0:0:
320,192,101371,128,0,101671:0:0:0:0:
192,192,101671,128,0,101971:0:0:0:0:
448,192,101971,1,0,0:0:0:0:
448,192,102121,1,0,0:0:0:0:
192,192,102271,1,0,0:0:0:0:
320,192,102421,1,0,0:0:0:0:
64,192,102571,1,0,0:0:0:0:
448,192,102796,1,0,0:0:0:0:
64,192,103021,1,0,0:0:0:0:
192,192,103321,1,0,0:0:0:0:
320,192,103471,1,0,0:0:0:0:
192,192,103621,1,0,0:0:0:0:
448,192,103771,1,0,0:0:0:0:
64,192,103996,1,0,0:0:0:0:
448,192,104221,1,0,0:0:0:0:
192,192,104371,1,0,0:0:0:0:
192,192,104521,1,0,0:0:0:0:
448,192,104671,1,0,0:0:0:0:
64,192,104821,1,0,0:0:0:0:
320,192,104971,1,0,0:0:0:0:
192,192,105196,1,0,0:0:0:0:
320,192,105421,1,0,0:0:0:0:
64,192,105721,1,0,0:0:0:0:
448,192,105871,1,0,0:0:0:0:
64,192,106021,1,0,0:0:0:0:
320,192,106171,1,0,0:0:0:0:
448,192,106171,1,0,0:0:0:0:
192,192,106471,1,0,0:0:0:0:
64,192,106471,1,0,0:0:0:0:
64,192,106771,1,0,0:0:0:0:
448,192,106771,1,0,0:0:0:0:
320,192,107071,1,0,0:0:0:0:
448,192,107071,1,0,0:0:0:0:
320,192,107371,1,0,0:0:0:0:
448,192,107371,1,0,0:0:0:0:
64,192,107671,1,0,0:0:0:0:
192,192,107671,1,0,0:0:0:0:
320,192,107821,1,0,0:0:0:0:
64,192,107971,1,0,0:0:0:0:
448,192,107971,1,0,0:0:0:0:
64,192,108271,1,0,0:0:0:0:
192,192,108271,1,0,0:0:0:0:
64,192,108571,1,0,0:0:0:0:
192,192,108571,1,0,0:0:0:0:
320,192,108871,1,0,0:0:0:0:
448,192,108871,1,0,0:0:0:0:
192,192,109021,1,0,0:0:0:0:
64,192,109171,1,0,0:0:0:0:
448,192,109171,1,0,0:0:0:0:
448,192,109471,1,0,0:0:0:0:
320,192,109471,1,0,0:0:0:0:
320,192,109771,1,0,0:0:0:0:
448,192,109771,1,0,0:0:0:0:
192,192,110071,1,0,0:0:0:0:
64,192,110071,1,0,0:0:0:0:
320,192,110221,1,0,0:0:0:0:
64,192,110371,1,0,0:0:0:0:
448,192,110371,1,0,0:0:0:0:
64,192,110671,1,0,0:0:0:0:
192,192,110671,1,0,0:0:0:0:
64,192,110971,1,0,0:0:0:0:
192,192,110971,1,0,0:0:0:0:
448,192,111271,1,0,0:0:0:0:
320,192,111271,1,0,0:0:0:0:
192,192,111421,1,0,0:0:0:0:
64,192,111571,1,0,0:0:0:0:
448,192,111571,1,0,0:0:0:0:
64,192,111721,1,0,0:0:0:0:
320,192,111871,1,0,0:0:0:0:
320,192,112021,1,0,0:0:0:0:
64,192,112171,1,0,0:0:0:0:
448,192,112171,1,0,0:0:0:0:
448,192,112321,1,0,0:0:0:0:
192,192,112471,1,0,0:0:0:0:
192,192,112621,1,0,0:0:0:0:
320,192,112771,1,0,0:0:0:0:
448,192,112771,1,0,0:0:0:0:
320,192,112921,1,0,0:0:0:0:
64,192,113071,1,0,0:0:0:0:
64,192,113221,1,0,0:0:0:0:
192,192,113371,1,0,0:0:0:0:
320,192,113371,1,0,0:0:0:0:
192,192,113521,1,0,0:0:0:0:
448,192,113671,1,0,0:0:0:0:
448,192,113821,1,0,0:0:0:0:
64,192,113971,1,0,0:0:0:0:
192,192,113971,1,0,0:0:0:0:
320,192,114121,1,0,0:0:0:0:
64,192,114271,1,0,0:0:0:0:
448,192,114271,1,0,0:0:0:0:
192,192,114421,1,0,0:0:0:0:
320,192,114571,1,0,0:0:0:0:
448,192,114571,1,0,0:0:0:0:
64,192,114721,1,0,0:0:0:0:
192,192,114871,1,0,0:0:0:0:
320,192,114871,1,0,0:0:0:0:
448,192,115021,1,0,0:0:0:0:
64,192,115171,1,0,0:0:0:0:
192,192,115171,128,0,115321:0:0:0:0:
448,192,115471,128,0,115621:0:0:0:0:
320,192,115471,1,0,0:0:0:0:
64,192,115621,128,0,115771:0:0:0:0:
192,192,115771,1,0,0:0:0:0:
448,192,115771,128,0,116071:0:0:0:0:
64,192,116071,1,0,0:0:0:0:
320,192,116071,1,0,0:0:0:0:
448,192,116371,128,0,116521:0:0:0:0:
64,192,116371,128,0,116671:0:0:0:0:
448,192,116671,128,0,116821:0:0:0:0:
320,192,116821,1,0,0:0:0:0:
448,192,116971,128,0,117121:0:0:0:0:
64,192,117121,1,0,0:0:0:0:
192,192,117271,128,0,117421:0:0:0:0:
320,192,117421,128,0,117571:0:0:0:0:
64,192,117571,128,0,117721:0:0:0:0:
448,192,117571,1,0,0:0:0:0:
192,192,117721,1,0,0:0:0:0:
64,192,117871,128,0,118021:0:0:0:0:
320,192,118021,1,0,0:0:0:0:
64,192,118171,128,0,118321:0:0:0:0:
192,192,118321,1,0,0:0:0:0:
448,192,118471,128,0,118771:0:0:0:0:
320,192,118771,128,0,118921:0:0:0:0:
192,192,118771,128,0,119071:0:0:0:0:
320,192,119071,128,0,119221:0:0:0:0:
64,192,119221,1,0,0:0:0:0:
320,192,119371,128,0,119521:0:0:0:0:
448,192,119521,1,0,0:0:0:0:
64,192,119671,128,0,119821:0:0:0:0:
448,192,119821,128,0,119971:0:0:0:0:
192,192,119971,1,0,0:0:0:0:
64,192,119971,1,0,0:0:0:0:
320,192,120196,1,0,0:0:0:0:
448,192,120196,1,0,0:0:0:0:
64,192,120421,1,0,0:0:0:0:
448,192,120571,1,0,0:0:0:0:
64,192,120571,1,0,0:0:0:0:
320,192,120871,128,0,121171:0:0:0:0:
192,192,121171,1,0,0:0:0:0:
64,192,121171,1,0,0:0:0:0:
192,192,121321,1,0,0:0:0:0:
448,192,121471,1,0,0:0:0:0:
320,192,121471,1,0,0:0:0:0:
448,192,121621,1,0,0:0:0:0:
64,192,121771,1,0,0:0:0:0:
192,192,121771,1,0,0:0:0:0:
64,192,121921,1,0,0:0:0:0:
448,192,122071,1,0,0:0:0:0:
320,192,122071,1,0,0:0:0:0:
320,192,122221,5,0,0:0:0:0:
64,192,122371,1,0,0:0:0:0:
192,192,122371,1,0,0:0:0:0:
192,192,122521,1,0,0:0:0:0:
448,192,122671,128,0,122821:0:0:0:0:
64,192,122821,1,0,0:0:0:0:
64,192,122971,1,0,0:0:0:0:
192,192,123121,128,0,123271:0:0:0:0:
320,192,123271,1,0,0:0:0:0:
320,192,123421,1,0,0:0:0:0:
64,192,123571,128,0,123721:0:0:0:0:
448,192,123721,1,0,0:0:0:0:
448,192,123871,1,0,0:0:0:0:
192,192,124021,128,0,124171:0:0:0:0:
320,192,124171,128,0,124321:0:0:0:0:
192,192,124321,1,0,0:0:0:0:
192,192,124471,1,0,0:0:0:0:
448,192,124621,128,0,124771:0:0:0:0:
64,192,124771,128,0,124921:0:0:0:0:
320,192,124771,1,0,0:0:0:0:
64,192,125071,128,0,125371:0:0:0:0:
192,192,125371,1,0,0:0:0:0:
320,192,125521,1,0,0:0:0:0:
64,192,125671,1,0,0:0:0:0:
448,192,125671,1,0,0:0:0:0:
320,192,125971,128,0,126121:0:0:0:0:
64,192,125971,1,0,0:0:0:0:
192,192,126121,128,0,126271:0:0:0:0:
448,192,126271,128,0,126421:0:0:0:0:
64,192,126421,1,0,0:0:0:0:
448,192,126571,128,0,126721:0:0:0:0:
192,192,126721,1,0,0:0:0:0:
64,192,126871,128,0,127021:0:0:0:0:
320,192,127021,128,0,127171:0:0:0:0:
192,192,127171,128,0,127321:0:0:0:0:
448,192,127321,1,0,0:0:0:0:
192,192,127471,128,0,127621:0:0:0:0:
64,192,127621,1,0,0:0:0:0:
192,192,127771,128,0,127921:0:0:0:0:
320,192,127921,1,0,0:0:0:0:
448,192,128071,128,0,128221:0:0:0:0:
64,192,128221,128,0,128371:0:0:0:0:
320,192,128371,128,0,128521:0:0:0:0:
192,192,128521,1,0,0:0:0:0:
320,192,128671,128,0,128821:0:0:0:0:
64,192,128821,1,0,0:0:0:0:
320,192,128971,128,0,129121:0:0:0:0:
448,192,129121,1,0,0:0:0:0:
192,192,129271,128,0,129421:0:0:0:0:
448,192,129421,128,0,129571:0:0:0:0:
64,192,129571,1,0,0:0:0:0:
192,192,129571,1,0,0:0:0:0:
320,192,129796,1,0,0:0:0:0:
448,192,129796,1,0,0:0:0:0:
64,192,130021,1,0,0:0:0:0:
64,192,130171,1,0,0:0:0:0:
448,192,130171,1,0,0:0:0:0:
192,192,130471,1,0,0:0:0:0:
320,192,130621,1,0,0:0:0:0:
64,192,130771,1,0,0:0:0:0:
192,192,130846,1,0,0:0:0:0:
320,192,130921,1,0,0:0:0:0:
64,192,131071,1,0,0:0:0:0:
448,192,131071,1,0,0:0:0:0:
64,192,131221,1,0,0:0:0:0:
192,192,131371,1,0,0:0:0:0:
448,192,131521,1,0,0:0:0:0:
320,192,131596,1,0,0:0:0:0:
192,192,131671,1,0,0:0:0:0:
448,192,131821,128,0,131971:0:0:0:0:
64,192,131971,1,0,0:0:0:0:
192,192,132046,1,0,0:0:0:0:
320,192,132121,1,0,0:0:0:0:
448,192,132271,1,0,0:0:0:0:
64,192,132346,1,0,0:0:0:0:
192,192,132421,1,0,0:0:0:0:
448,192,132571,1,0,0:0:0:0:
320,192,132646,1,0,0:0:0:0:
192,192,132721,1,0,0:0:0:0:
64,192,132871,1,0,0:0:0:0:
448,192,132946,1,0,0:0:0:0:
320,192,133021,1,0,0:0:0:0:
64,192,133171,1,0,0:0:0:0:
192,192,133171,1,0,0:0:0:0:
320,192,133471,128,0,133921:0:0:0:0:
192,192,133921,1,0,0:0:0:0:
64,192,134071,1,0,0:0:0:0:
448,192,134071,1,0,0:0:0:0:
192,192,134371,1,0,0:0:0:0:
320,192,134521,1,0,0:0:0:0:
64,192,134671,1,0,0:0:0:0:
64,192,134821,1,0,0:0:0:0:
448,192,135046,128,0,135271:0:0:0:0:
192,192,135271,1,0,0:0:0:0:
320,192,135271,1,0,0:0:0:0:
64,192,135571,1,0,0:0:0:0:
448,192,135571,1,0,0:0:0:0:
64,192,135721,1,0,0:0:0:0:
320,192,135871,1,0,0:0:0:0:
448,192,135871,1,0,0:0:0:0:
192,192,136021,1,0,0:0:0:0:
64,192,136171,1,0,0:0:0:0:
448,192,136171,1,0,0:0:0:0:
448,192,136396,1,0,0:0:0:0:
448,192,136621,1,0,0:0:0:0:
192,192,136771,1,0,0:0:0:0:
64,192,136771,1,0,0:0:0:0:
192,192,136921,1,0,0:0:0:0:
448,192,137071,1,0,0:0:0:0:
320,192,137071,1,0,0:0:0:0:
192,192,137221,1,0,0:0:0:0:
64,192,137371,1,0,0:0:0:0:
448,192,137371,1,0,0:0:0:0:
64,192,137596,1,0,0:0:0:0:
64,192,137821,1,0,0:0:0:0:
320,192,137971,1,0,0:0:0:0:
448,192,137971,1,0,0:0:0:0:
448,192,138121,1,0,0:0:0:0:
64,192,138271,1,0,0:0:0:0:
192,192,138271,1,0,0:0:0:0:
320,192,138421,1,0,0:0:0:0:
448,192,138571,1,0,0:0:0:0:
192,192,138571,1,0,0:0:0:0:
192,192,138796,1,0,0:0:0:0:
192,192,139021,1,0,0:0:0:0:
64,192,139171,1,0,0:0:0:0:
448,192,139171,1,0,0:0:0:0:
448,192,139321,1,0,0:0:0:0:
64,192,139471,1,0,0:0:0:0:
192,192,139471,1,0,0:0:0:0:
320,192,139621,1,0,0:0:0:0:
448,192,139771,1,0,0:0:0:0:
64,192,139771,128,0,140071:0:0:0:0:
320,192,140071,128,0,140371:0:0:0:0:
192,192,140371,1,0,0:0:0:0:
448,192,140371,1,0,0:0:0:0:
448,192,140521,1,0,0:0:0:0:
64,192,140671,1,0,0:0:0:0:
192,192,140671,1,0,0:0:0:0:
320,192,140821,1,0,0:0:0:0:
64,192,140971,1,0,0:0:0:0:
448,192,140971,1,0,0:0:0:0:
64,192,141196,1,0,0:0:0:0:
64,192,141421,1,0,0:0:0:0:
320,192,141571,1,0,0:0:0:0:
448,192,141571,1,0,0:0:0:0:
320,192,141721,1,0,0:0:0:0:
192,192,141871,1,0,0:0:0:0:
64,192,141871,1,0,0:0:0:0:
320,192,142021,1,0,0:0:0:0:
448,192,142171,1,0,0:0:0:0:
64,192,142171,1,0,0:0:0:0:
448,192,142396,1,0,0:0:0:0:
448,192,142621,1,0,0:0:0:0:
64,192,142771,1,0,0:0:0:0:
192,192,142771,1,0,0:0:0:0:
192,192,142921,1,0,0:0:0:0:
448,192,143071,1,0,0:0:0:0:
320,192,143071,1,0,0:0:0:0:
192,192,143221,1,0,0:0:0:0:
64,192,143371,1,0,0:0:0:0:
320,192,143371,1,0,0:0:0:0:
320,192,143596,1,0,0:0:0:0:
320,192,143821,1,0,0:0:0:0:
448,192,143971,1,0,0:0:0:0:
64,192,143971,128,0,144158:0:0:0:0:
320,192,144271,128,0,144458:0:0:0:0:
64,192,144571,1,0,0:0:0:0:
64,192,144721,1,0,0:0:0:0:
448,192,144871,1,0,0:0:0:0:
448,192,145021,1,0,0:0:0:0:
64,192,145171,1,0,0:0:0:0:
192,192,145171,1,0,0:0:0:0:
192,192,145321,1,0,0:0:0:0:
320,192,145471,1,0,0:0:0:0:
448,192,145471,1,0,0:0:0:0:
192,192,145621,1,0,0:0:0:0:
64,192,145771,1,0,0:0:0:0:
448,192,145771,1,0,0:0:0:0:
448,192,145996,1,0,0:0:0:0:
448,192,146221,1,0,0:0:0:0:
192,192,146371,1,0,0:0:0:0:
64,192,146371,1,0,0:0:0:0:
192,192,146521,1,0,0:0:0:0:
448,192,146671,1,0,0:0:0:0:
320,192,146671,1,0,0:0:0:0:
192,192,146821,1,0,0:0:0:0:
64,192,146971,1,0,0:0:0:0:
448,192,146971,1,0,0:0:0:0:
64,192,147196,1,0,0:0:0:0:
64,192,147421,1,0,0:0:0:0:
320,192,147571,1,0,0:0:0:0:
448,192,147571,1,0,0:0:0:0:
448,192,147721,1,0,0:0:0:0:
64,192,147871,1,0,0:0:0:0:
192,192,147871,1,0,0:0:0:0:
320,192,148021,1,0,0:0:0:0:
448,192,148171,1,0,0:0:0:0:
192,192,148171,1,0,0:0:0:0:
192,192,148396,1,0,0:0:0:0:
192,192,148621,1,0,0:0:0:0:
64,192,148771,1,0,0:0:0:0:
448,192,148771,1,0,0:0:0:0:
448,192,148921,1,0,0:0:0:0:
64,192,149071,1,0,0:0:0:0:
192,192,149071,1,0,0:0:0:0:
320,192,149221,1,0,0:0:0:0:
448,192,149371,1,0,0:0:0:0:
64,192,149371,128,0,149671:0:0:0:0:
320,192,149671,128,0,149971:0:0:0:0:
192,192,149971,1,0,0:0:0:0:
448,192,149971,1,0,0:0:0:0:
448,192,150121,1,0,0:0:0:0:
64,192,150271,1,0,0:0:0:0:
192,192,150271,1,0,0:0:0:0:
320,192,150421,1,0,0:0:0:0:
64,192,150571,1,0,0:0:0:0:
448,192,150571,1,0,0:0:0:0:
64,192,150796,1,0,0:0:0:0:
64,192,151021,1,0,0:0:0:0:
448,192,151171,1,0,0:0:0:0:
320,192,151171,1,0,0:0:0:0:
192,192,151321,1,0,0:0:0:0:
64,192,151471,1,0,0:0:0:0:
448,192,151471,1,0,0:0:0:0:
320,192,151621,1,0,0:0:0:0:
64,192,151771,1,0,0:0:0:0:
192,192,151771,1,0,0:0:0:0:
448,192,151921,1,0,0:0:0:0:
320,192,152071,1,0,0:0:0:0:
192,192,152071,1,0,0:0:0:0:
64,192,152221,1,0,0:0:0:0:
320,192,152371,1,0,0:0:0:0:
448,192,152371,1,0,0:0:0:0:
320,192,152521,1,0,0:0:0:0:
64,192,152671,1,0,0:0:0:0:
64,192,152821,1,0,0:0:0:0:
192,192,152971,1,0,0:0:0:0:
320,192,152971,1,0,0:0:0:0:
192,192,153121,1,0,0:0:0:0:
448,192,153271,1,0,0:0:0:0:
448,192,153421,1,0,0:0:0:0:
64,192,153571,1,0,0:0:0:0:
192,192,153646,1,0,0:0:0:0:
320,192,153721,1,0,0:0:0:0:
448,192,153871,1,0,0:0:0:0:
320,192,153946,1,0,0:0:0:0:
192,192,154021,1,0,0:0:0:0:
64,192,154171,1,0,0:0:0:0:
192,192,154246,1,0,0:0:0:0:
320,192,154321,1,0,0:0:0:0:
448,192,154471,1,0,0:0:0:0:
320,192,154546,1,0,0:0:0:0:
192,192,154621,1,0,0:0:0:0:
64,192,154771,1,0,0:0:0:0:
448,192,154771,1,0,0:0:0:0:
320,192,155071,1,0,0:0:0:0:
192,192,155221,1,0,0:0:0:0:
448,192,155371,1,0,0:0:0:0:
64,192,155671,1,0,0:0:0:0:
192,192,155671,1,0,0:0:0:0:
192,192,156121,1,0,0:0:0:0:
320,192,156121,1,0,0:0:0:0:
320,192,156571,1,0,0:0:0:0:
448,192,156571,1,0,0:0:0:0:
64,192,156721,1,0,0:0:0:0:
192,192,156871,1,0,0:0:0:0:
320,192,157021,1,0,0:0:0:0:
64,192,157171,1,0,0:0:0:0:
448,192,157171,1,0,0:0:0:0:
192,192,157471,1,0,0:0:0:0:
320,192,157621,1,0,0:0:0:0:
64,192,157771,1,0,0:0:0:0:
320,192,158071,1,0,0:0:0:0:
448,192,158071,1,0,0:0:0:0:
192,192,158521,1,0,0:0:0:0:
320,192,158521,1,0,0:0:0:0:
448,192,158821,1,0,0:0:0:0:
64,192,158971,1,0,0:0:0:0:
192,192,158971,1,0,0:0:0:0:
320,192,159121,1,0,0:0:0:0:
64,192,159271,1,0,0:0:0:0:
448,192,159421,1,0,0:0:0:0:
320,192,159571,1,0,0:0:0:0:
192,192,159571,1,0,0:0:0:0:
64,192,160021,1,0,0:0:0:0:
192,192,160021,1,0,0:0:0:0:
320,192,160471,1,0,0:0:0:0:
448,192,160471,1,0,0:0:0:0:
64,192,160921,1,0,0:0:0:0:
448,192,160921,1,0,0:0:0:0:
192,192,161221,1,0,0:0:0:0:
320,192,161371,1,0,0:0:0:0:
64,192,161521,1,0,0:0:0:0:
448,192,161671,1,0,0:0:0:0:
192,192,161821,1,0,0:0:0:0:
320,192,161971,1,0,0:0:0:0:
448,192,161971,1,0,0:0:0:0:
192,192,162421,1,0,0:0:0:0:
320,192,162421,1,0,0:0:0:0:
64,192,162871,1,0,0:0:0:0:
192,192,162871,1,0,0:0:0:0:
320,192,163021,1,0,0:0:0:0:
192,192,163171,1,0,0:0:0:0:
64,192,163321,5,0,0:0:0:0:
448,192,163321,1,0,0:0:0:0:
320,192,163471,1,0,0:0:0:0:
192,192,163621,1,0,0:0:0:0:
320,192,163771,1,0,0:0:0:0:
448,192,163771,1,0,0:0:0:0:
64,192,164071,1,0,0:0:0:0:
192,192,164071,1,0,0:0:0:0:
64,192,164371,128,0,165571:0:0:0:0:
448,192,164371,128,0,165571:0:0:0:0:
